osu file format v14

[General]
AudioFilename: audio.mp3
AudioLeadIn: 1000
PreviewTime: 44249
Countdown: 1
SampleSet: Soft
StackLeniency: 0.7
Mode: 0
LetterboxInBreaks: 0
WidescreenStoryboard: 1

[Editor]
Bookmarks: 11335,22306,44249,55221,66192,77164,88138
DistanceSpacing: 1.3
BeatDivisor: 4
GridSize: 4
TimelineZoom: 2.150003

[Metadata]
Title:Time Leaper
TitleUnicode:Time Leaper
Artist:Hinkik
ArtistUnicode:Hinkik
Creator:SkyDevil
Version:Hard
Source:
Tags:drumstep kingdom5500
BeatmapID:1179471
BeatmapSetID:520179

[Difficulty]
HPDrainRate:4
CircleSize:3.8
OverallDifficulty:6.5
ApproachRate:8
SliderMultiplier:1.6
SliderTickRate:2

[Events]
//Background and Video events
0,0,"bg.jpg",0,0
//Break Periods
//Storyboard Layer 0 (Background)
//Storyboard Layer 1 (Fail)
//Storyboard Layer 2 (Pass)
//Storyboard Layer 3 (Foreground)
//Storyboard Sound Samples

[TimingPoints]
367,342.857142857143,4,2,1,60,1,0
22309,-133.333333333333,4,2,1,60,0,0
43567,-100,4,2,1,80,0,0
66195,-133.333333333333,4,2,4,50,0,0
82652,-133.333333333333,4,2,1,60,0,0
88138,-100,4,2,1,95,0,1
107338,-100,4,2,1,95,0,0
110081,-100,4,2,1,95,0,1
129281,-100,4,2,0,95,0,0
131167,-100,4,2,1,95,0,0
131424,-100,4,2,0,95,0,0

[Colours]
Combo1 : 112,112,112
Combo2 : 255,128,192
Combo3 : 255,191,255
Combo4 : 239,239,239

[HitObjects]
56,52,367,6,0,L|40:148,1,80,2|0,0:0|0:0,0:0:0:0:
116,192,709,2,0,L|132:100,1,80
200,48,1052,2,0,P|219:84|214:130,1,80,10|0,0:0|0:0,0:0:0:0:
248,212,1395,2,0,L|352:204,1,80
424,200,1738,6,0,P|420:276|336:300,1,160,2|0,0:0|0:0,0:0:0:0:
327,208,2252,1,2,0:0:0:0:
364,120,2424,2,0,B|444:112|444:112|488:120|512:156,1,160,10|0,0:0|0:0,0:0:0:0:
356,40,3109,6,0,P|316:52|284:96,1,80,2|0,0:0|0:0,0:0:0:0:
212,136,3452,2,0,L|116:124,1,80
160,220,3795,2,0,L|248:228,1,80,10|0,0:0|0:0,0:0:0:0:
292,148,4138,2,0,L|368:120,1,80
364,216,4481,6,0,B|332:256|344:296|344:296|296:368,1,160,2|0,0:0|0:0,0:0:0:0:
256,256,4995,1,2,0:0:0:0:
209,357,5167,2,0,B|168:296|168:296|180:256|148:216,1,160,10|2,0:0|0:0,0:0:0:0:
264,64,5852,6,0,L|276:148,1,80,2|0,0:0|0:0,0:0:0:0:
348,192,6195,2,0,L|360:276,1,80
276,300,6538,2,0,L|196:304,1,80,10|0,0:0|0:0,0:0:0:0:
112,272,6881,2,0,P|84:260|52:216,1,80
36,136,7224,6,0,P|80:76|160:68,1,160,2|0,0:0|0:0,0:0:0:0:
256,124,7738,1,2,0:0:0:0:
352,180,7909,2,0,P|428:188|476:124,1,160,10|0,0:0|0:0,0:0:0:0:
288,256,8595,6,0,P|224:260|176:280,1,80,2|0,0:0|0:0,0:0:0:0:
136,200,8938,2,0,L|240:176,1,80
280,112,9281,2,0,P|245:95|205:88,1,80,10|0,0:0|0:0,0:0:0:0:
120,44,9624,2,0,L|40:72,1,80
28,148,9967,5,2,0:0:0:0:
76,212,10138,1,0,0:0:0:0:
152,232,10309,1,0,0:0:0:0:
228,212,10481,1,0,0:0:0:0:
280,148,10652,6,0,P|316:120|364:112,1,80
424,132,10995,2,0,P|456:160|472:200,1,80
436,284,11338,6,0,L|324:304,1,80,6|0,0:0|0:0,0:0:0:0:
268,244,11681,1,0,0:0:0:0:
312,152,11852,1,0,0:0:0:0:
224,96,12024,6,0,P|168:100|120:120,1,80,10|0,0:0|0:0,0:0:0:0:
72,192,12367,2,0,P|116:208|156:212,1,80
228,288,12709,6,0,L|320:272,1,80,2|0,0:0|0:0,0:0:0:0:
388,220,13052,1,0,0:0:0:0:
308,168,13224,1,2,0:0:0:0:
380,104,13395,6,0,P|332:72|288:76,1,80,10|0,0:0|0:0,0:0:0:0:
204,104,13738,2,0,L|125:88,1,80
56,160,14081,6,0,L|148:176,1,80,2|0,0:0|0:0,0:0:0:0:
136,256,14424,1,0,0:0:0:0:
208,300,14595,1,0,0:0:0:0:
288,256,14767,2,0,L|300:172,1,80,10|0,0:0|0:0,0:0:0:0:
224,104,15109,2,0,B|252:76|252:76|312:60,1,80
392,96,15452,6,0,L|380:192,1,80,2|0,0:0|0:0,0:0:0:0:
384,280,15795,2,0,L|316:340,1,80,0|2,0:0|0:0,0:0:0:0:
220,344,16138,6,0,P|176:360|132:344,1,80,10|0,0:0|0:0,0:0:0:0:
60,288,16481,1,2,0:0:0:0:
152,252,16652,1,0,0:0:0:0:
88,168,16824,6,0,P|76:124|96:80,1,80,2|0,0:0|0:0,0:0:0:0:
176,128,17167,2,0,P|232:136|260:156,1,80
224,240,17509,6,0,L|288:308,1,80,10|0,0:0|0:0,0:0:0:0:
388,312,17852,1,0,0:0:0:0:
352,208,18024,1,0,0:0:0:0:
424,124,18195,6,0,L|364:56,1,80,2|0,0:0|0:0,0:0:0:0:
268,64,18538,2,0,L|220:136,1,80,0|2,0:0|0:0,0:0:0:0:
224,236,18881,6,0,P|228:288|208:320,1,80,10|0,0:0|0:0,0:0:0:0:
108,272,19224,1,0,0:0:0:0:
140,164,19395,1,0,0:0:0:0:
252,160,19567,6,0,P|284:184|312:244,1,80,2|0,0:0|0:0,0:0:0:0:
224,296,19909,1,0,0:0:0:0:
140,224,20081,1,0,0:0:0:0:
180,120,20252,6,0,P|208:88|256:88,1,80,10|0,0:0|0:0,0:0:0:0:
320,168,20595,1,0,0:0:0:0:
316,280,20767,1,0,0:0:0:0:
220,336,20938,6,0,L|120:344,1,80,2|0,0:0|0:0,0:0:0:0:
60,276,21281,1,0,0:0:0:0:
120,188,21452,1,2,0:0:0:0:
76,96,21624,6,10,L|155:89,1,80,10|0,0:0|0:0,0:0:0:0:
268,80,21967,2,0,L|352:88,1,80,2|0,0:0|0:0,0:0:0:0:
424,128,22309,6,0,P|504:252|344:304,1,360.000013732911,4|0,0:0|0:0,0:0:0:0:
176,212,23681,6,0,P|128:192|48:216,1,120.000004577637
80,288,24195,1,0,0:0:0:0:
160,308,24367,2,0,L|224:304,1,60.0000022888184
256,204,24709,2,0,L|192:208,1,60.0000022888184
160,104,25052,6,0,P|204:68|328:84,1,180.000006866455
380,168,25738,2,0,B|408:220|376:276|376:276|260:356,1,240.000009155274
120,292,26767,6,0,L|56:304,1,60.0000022888184
20,212,27109,2,0,L|80:216,1,60.0000022888184
176,196,27452,2,0,P|165:168|144:146,1,60.0000022888184
44,100,27795,6,0,P|96:60|256:112,1,240.000009155274
308,192,29167,6,0,L|308:324,1,120.000004577637
224,312,29681,1,0,0:0:0:0:
184,236,29852,2,0,L|172:168,1,60.0000022888184
248,96,30195,2,0,L|316:88,1,60.0000022888184
400,144,30538,6,0,B|424:200|408:264|408:264|336:256|312:320,1,240.000009155274
128,256,31566,1,0,0:0:0:0:
92,188,31738,1,0,0:0:0:0:
112,112,31909,6,0,P|164:88|232:104,1,120.000004577637
384,232,32595,2,0,P|332:240|284:184,1,120.000004577637
364,128,33109,1,0,0:0:0:0:
472,136,33281,6,0,B|496:184|472:220|472:220|444:268|480:308,1,180.000006866455,4|0,0:0|0:0,0:0:0:0:
392,336,33967,2,0,B|368:352|368:352|344:328|344:328|320:352|320:352|296:328|296:328|272:352|272:352|248:328|248:328|224:352|224:352|200:336,1,240.000009155274
60,196,34995,6,0,L|24:144,1,60.0000022888184
132,136,35338,2,0,L|120:68,1,60.0000022888184
228,144,35681,2,0,L|249:87,1,60.0000022888184
284,212,36024,6,0,P|336:240|448:212,1,180.000006866455
448,120,36709,2,0,B|424:104|424:104|400:128|400:128|376:104|376:104|352:128|352:128|328:104|328:104|304:128|304:128|280:104|280:104|256:120,1,240.000009155274
68,176,37738,6,0,L|20:216,1,60.0000022888184
72,312,38081,2,0,L|116:264,1,60.0000022888184
208,220,38424,1,0,0:0:0:0:
420,256,38767,6,0,P|468:188|408:128,1,180.000006866455
344,192,39452,2,0,B|320:208|320:208|296:184|296:184|272:208|272:208|248:184|248:184|224:208|224:208|200:184|200:184|176:208|176:208|152:192,1,240.000009155274
24,56,40481,6,0,L|84:36,1,60.0000022888184
136,92,40824,1,0,0:0:0:0:
76,144,40995,1,0,0:0:0:0:
100,220,41167,1,0,0:0:0:0:
32,256,41338,1,0,0:0:0:0:
84,316,41509,6,0,L|152:324,1,60.0000022888184
312,264,42024,2,0,L|244:256,1,60.0000022888184
164,104,42538,2,0,L|232:112,1,60.0000022888184
308,72,42881,6,0,P|324:132|276:180,1,120.000004577637
256,344,43567,1,10,0:0:0:0:
88,192,44252,6,0,P|96:96|224:96,1,240,6|0,0:0|0:0,0:0:0:0:
328,176,44938,2,0,B|380:216|428:168|428:168|440:276|440:276|388:256|332:304,1,320,10|2,0:0|0:0,0:0:0:0:
100,348,45967,5,0,0:0:0:0:
44,232,46138,1,2,0:0:0:0:
152,288,46309,1,10,0:0:0:0:
156,168,46481,1,0,0:0:0:0:
72,84,46652,2,0,P|108:52|160:52,1,80
240,80,46995,6,0,B|400:64|400:64|444:60|480:84,1,240,2|0,0:0|0:0,0:0:0:0:
392,168,47681,2,0,B|312:176|312:176|320:244|320:244|376:236|404:264|408:324|328:336,1,320,10|2,0:0|0:0,0:0:0:0:
132,324,48709,5,0,0:0:0:0:
108,180,48881,1,2,0:0:0:0:
48,272,49052,1,10,0:0:0:0:
168,248,49224,1,0,0:0:0:0:
196,132,49395,2,0,L|296:120,1,80,2|0,0:0|0:0,0:0:0:0:
396,112,49738,6,0,B|460:128|476:192|476:192|460:256|392:276,1,240,2|0,0:0|0:0,0:0:0:0:
256,276,50424,2,0,B|200:292|168:256|168:212|220:192|220:192|168:168|168:128|208:88|260:112,1,320,10|2,0:0|0:0,0:0:0:0:
324,320,51452,5,0,0:0:0:0:
216,352,51624,1,2,0:0:0:0:
132,280,51795,1,10,0:0:0:0:
40,340,51967,1,0,0:0:0:0:
16,232,52138,1,0,0:0:0:0:
52,128,52309,1,0,0:0:0:0:
152,80,52481,6,0,L|244:96,1,80,2|0,0:0|0:0,0:0:0:0:
384,260,52995,2,0,L|288:240,1,80,0|10,0:0|0:0,0:0:0:0:
84,200,53510,1,0,0:0:0:0:
48,336,53681,1,0,0:0:0:0:
132,264,53852,6,0,B|208:288|208:288|220:332|272:348,1,160,2|0,0:0|0:0,0:0:0:0:
324,224,54367,1,2,0:0:0:0:
288,96,54538,2,0,P|216:68|140:96,1,160,10|2,0:0|0:0,0:0:0:0:
40,44,55052,1,0,0:0:0:0:
76,152,55224,6,0,B|140:208|212:152|212:152|284:212,1,240,2|0,0:0|0:0,0:0:0:0:
384,304,55909,2,0,B|436:216|364:152|364:152|236:48,1,320,10|2,0:0|0:0,0:0:0:0:
80,252,56938,6,0,P|84:308|108:344,1,80,0|2,0:0|0:0,0:0:0:0:
228,324,57281,1,10,0:0:0:0:
292,200,57452,1,0,0:0:0:0:
172,148,57624,1,0,0:0:0:0:
216,248,57795,1,0,0:0:0:0:
340,264,57967,6,0,B|392:228|368:164|368:164|312:108|360:64|392:48,1,240,2|0,0:0|0:0,0:0:0:0:
448,176,58652,2,0,B|468:232|432:348|328:376|236:308,1,320,10|2,0:0|0:0,0:0:0:0:
36,144,59681,6,0,P|48:104|80:84,1,80,0|2,0:0|0:0,0:0:0:0:
204,128,60024,1,10,0:0:0:0:
116,156,60195,1,0,0:0:0:0:
180,56,60367,1,2,0:0:0:0:
404,92,60709,6,0,P|456:192|404:304,1,240,2|0,0:0|0:0,0:0:0:0:
320,252,61395,2,0,P|280:136|232:252,1,320,10|2,0:0|0:0,0:0:0:0:
60,96,62424,6,0,L|28:184,1,80,0|2,0:0|0:0,0:0:0:0:
44,324,62767,1,10,0:0:0:0:
152,240,62938,1,0,0:0:0:0:
64,248,63109,1,0,0:0:0:0:
160,324,63281,1,0,0:0:0:0:
264,280,63452,6,0,L|352:292,1,80,2|0,0:0|0:0,0:0:0:0:
236,132,63967,2,0,L|148:120,1,80,0|10,0:0|0:0,0:0:0:0:
368,200,64481,2,0,L|456:212,1,80
368,108,64824,6,0,P|284:140|276:212,1,160,2|0,0:0|0:0,0:0:0:0:
128,332,65509,1,0,0:0:0:0:
52,280,65681,1,2,0:0:0:0:
20,192,65852,1,10,0:0:0:0:
52,104,66024,1,0,0:0:0:0:
128,52,66196,1,4,0:0:0:0:
256,192,66281,12,0,68938,0:0:0:0:
136,76,69281,6,0,L|116:156,1,60.0000022888184,2|0,0:0|0:0,0:0:0:0:
180,196,69624,2,0,L|188:268,1,60.0000022888184
276,164,69967,2,0,L|268:252,1,60.0000022888184,2|0,0:0|0:0,0:0:0:0:
328,288,70309,1,0,0:0:0:0:
328,76,70652,6,0,L|320:136,1,60.0000022888184,2|0,0:0|0:0,0:0:0:0:
212,168,70995,2,0,L|220:240,1,60.0000022888184
148,288,71338,1,2,0:0:0:0:
84,224,71509,1,0,0:0:0:0:
100,136,71681,6,0,L|88:68,3,60.0000022888184,0|0|2|0,0:0|0:0|0:0|0:0,0:0:0:0:
180,96,72367,2,0,L|192:164,3,60.0000022888184,0|0|2|0,0:0|0:0|0:0|0:0,0:0:0:0:
272,108,73052,6,0,P|320:104|352:112,1,60.0000022888184
336,184,73395,2,0,P|365:186|395:181,1,60.0000022888184,2|0,0:0|0:0,0:0:0:0:
464,132,73738,1,0,0:0:0:0:
492,216,73909,1,0,0:0:0:0:
452,296,74081,1,2,0:0:0:0:
364,320,74252,1,0,0:0:0:0:
276,308,74424,5,0,0:0:0:0:
256,56,74767,2,0,L|248:144,1,60.0000022888184,2|0,0:0|0:0,0:0:0:0:
176,176,75109,2,0,L|184:256,1,60.0000022888184
280,216,75452,2,0,L|276:284,1,60.0000022888184,2|0,0:0|0:0,0:0:0:0:
360,304,75795,1,0,0:0:0:0:
408,72,76138,6,0,L|404:140,1,60.0000022888184,2|0,0:0|0:0,0:0:0:0:
288,100,76481,1,0,0:0:0:0:
304,180,76652,1,0,0:0:0:0:
192,152,76824,2,0,L|184:224,1,60.0000022888184,2|0,0:0|0:0,0:0:0:0:
132,288,77167,5,4,0:0:0:0:
52,144,77509,1,2,0:0:0:0:
216,180,77852,1,0,0:0:0:0:
280,116,78024,2,0,L|256:64,2,30.0000011444092,0|0|2,0:0|0:0|0:0,0:0:0:0:
368,124,78367,1,0,0:0:0:0:
420,196,78538,1,0,0:0:0:0:
272,296,78881,5,2,0:0:0:0:
188,328,79052,1,0,0:0:0:0:
104,296,79224,1,0,0:0:0:0:
68,216,79395,2,0,L|24:216,2,30.0000011444092,0|0|2,0:0|0:0|0:0,0:0:0:0:
100,132,79738,1,0,0:0:0:0:
168,76,79909,1,0,0:0:0:0:
348,64,80252,6,0,L|356:128,1,60.0000022888184,2|0,0:0|0:0,0:0:0:0:
416,208,80595,1,0,0:0:0:0:
368,292,80767,2,0,L|384:344,2,30.0000011444092,0|0|2,0:0|0:0|0:0,0:0:0:0:
276,264,81109,1,0,0:0:0:0:
268,168,81281,1,0,0:0:0:0:
64,96,81624,6,0,L|48:176,1,60.0000022888184,2|0,0:0|0:0,0:0:0:0:
144,160,81967,1,0,0:0:0:0:
128,248,82138,2,0,L|108:288,2,30.0000011444092,0|0|2,0:0|0:0|0:0,0:0:0:0:
216,264,82481,1,0,0:0:0:0:
252,344,82652,5,2,0:0:0:0:
292,108,82995,1,2,0:0:0:0:
116,264,83338,1,2,0:0:0:0:
36,228,83509,2,0,L|12:256,2,30.0000011444092,0|0|2,0:0|0:0|0:0,0:0:0:0:
52,144,83852,1,0,0:0:0:0:
136,164,84024,5,2,0:0:0:0:
184,236,84195,1,2,0:0:0:0:
256,272,84367,1,2,0:0:0:0:
332,236,84538,1,2,0:0:0:0:
360,164,84709,1,2,0:0:0:0:
328,92,84881,1,2,0:0:0:0:
256,60,85052,1,2,0:0:0:0:
184,92,85224,1,2,0:0:0:0:
136,164,85395,2,2,L|104:164,15,30.0000011444092
256,164,87452,5,10,0:0:0:0:
52,244,88138,6,0,B|72:288|112:316|208:272|208:272|204:352,1,240,6|0,0:0|0:0,0:0:0:0:
306,330,88824,6,0,B|304:272|304:272|400:316|440:288|460:244,1,240,10|0,0:0|0:0,0:0:0:0:
460,140,89509,6,0,B|440:96|400:68|304:112|304:112|306:53,1,240,2|0,0:0|0:0,0:0:0:0:
205,53,90195,6,0,B|208:112|208:112|112:68|72:96|52:140,1,240,10|0,0:0|0:0,0:0:0:0:
84,264,90881,6,0,P|148:316|228:312,1,160,2|0,0:0|0:0,0:0:0:0:
180,216,91395,1,0,0:0:0:0:
272,168,91567,1,10,0:0:0:0:
304,268,91738,1,0,0:0:0:0:
356,180,91909,2,0,P|352:140|328:108,1,80
236,64,92252,6,0,P|160:52|108:112,1,160,2|0,0:0|0:0,0:0:0:0:
216,168,92767,1,2,0:0:0:0:
104,216,92938,1,10,0:0:0:0:
188,296,93109,1,0,0:0:0:0:
300,252,93281,1,0,0:0:0:0:
312,56,93624,6,0,B|324:88|368:76|368:76|420:44|420:44|408:100|408:100|420:136|464:136,1,240,6|0,0:0|0:0,0:0:0:0:
448,248,94309,6,0,B|421:247|409:283|409:283|421:339|421:339|369:307|369:307|325:295|313:327,1,240,10|0,0:0|0:0,0:0:0:0:
200,324,94995,6,0,B|189:294|145:306|145:306|93:338|93:338|105:282|105:282|93:246|65:247,1,240,2|0,0:0|0:0,0:0:0:0:
68,136,95681,6,0,B|96:138|108:102|108:102|96:46|96:46|148:78|148:78|192:90|203:59,1,240,10|0,0:0|0:0,0:0:0:0:
292,128,96367,6,0,L|320:296,1,160,2|0,0:0|0:0,0:0:0:0:
412,320,96881,1,0,0:0:0:0:
396,228,97052,1,10,0:0:0:0:
480,164,97224,1,0,0:0:0:0:
380,128,97395,2,0,P|368:76|344:56,1,80
212,72,97738,6,0,B|166:101|179:145|179:145|194:185|147:218,1,160,2|0,0:0|0:0,0:0:0:0:
60,240,98252,1,2,0:0:0:0:
64,144,98424,1,10,0:0:0:0:
272,268,98767,1,2,0:0:0:0:
440,132,99109,6,0,B|364:156|364:156|300:108|300:108|316:24,1,240,6|0,0:0|0:0,0:0:0:0:
196,29,99795,6,0,B|212:108|212:108|148:156|148:156|72:132,1,240,10|0,0:0|0:0,0:0:0:0:
72,252,100481,6,0,B|148:228|148:228|212:276|212:276|196:354,1,240,2|0,0:0|0:0,0:0:0:0:
315,354,101167,6,0,B|300:276|300:276|364:228|364:228|440:252,1,240,8|0,0:0|0:0,0:0:0:0:
512,168,101852,6,0,B|348:108,1,160,2|0,0:0|0:0,0:0:0:0:
276,68,102367,1,0,0:0:0:0:
268,164,102538,1,10,0:0:0:0:
176,116,102709,1,0,0:0:0:0:
188,228,102881,2,0,P|168:260|132:284,1,80
52,196,103224,6,0,P|28:132|100:68,1,160,2|0,0:0|0:0,0:0:0:0:
136,176,103738,1,2,0:0:0:0:
196,92,103909,1,10,0:0:0:0:
208,224,104081,1,0,0:0:0:0:
268,136,104252,1,0,0:0:0:0:
320,296,104595,6,4,B|308:252|332:232|364:236|400:276|400:276|436:308|476:288|492:260|464:224,1,240,6|0,0:0|0:0,0:0:0:0:
476,136,105281,6,4,B|491:125|475:97|435:77|399:109|399:109|363:149|331:153|307:133|319:89,1,240,10|0,0:0|0:0,0:0:0:0:
193,93,105967,6,4,B|204:132|180:152|148:148|112:108|112:108|76:76|36:96|20:124|35:134,1,240,2|0,0:0|0:0,0:0:0:0:
35,249,106652,6,4,B|20:260|36:288|76:308|112:276|112:276|148:236|180:232|204:252|192:296,1,240,10|0,0:0|0:0,0:0:0:0:
300,180,107338,6,0,P|256:64|216:180,1,320,4|0,0:0|0:0,0:0:0:0:
396,300,108367,1,0,0:0:0:0:
256,356,108709,1,0,0:0:0:0:
116,300,109052,2,0,L|32:300,2,80,0|2|10,0:0|0:0|0:0,0:0:0:0:
256,240,109738,1,0,0:0:0:0:
368,124,110081,6,0,P|260:96|126:131,1,240,6|0,0:0|0:0,0:0:0:0:
137,259,110767,6,0,P|252:288|368:260,1,240,10|0,0:0|0:0,0:0:0:0:
336,156,111452,6,0,L|160:156,1,160,2|0,0:0|0:0,0:0:0:0:
72,156,111967,1,2,0:0:0:0:
24,248,112138,1,10,0:0:0:0:
96,324,112309,1,0,0:0:0:0:
200,328,112481,2,0,P|240:320|276:300,1,80
324,208,112824,6,0,B|377:196|410:122|410:122|369:62|309:47,1,240,2|0,0:0|0:0,0:0:0:0:
192,64,113509,6,0,P|116:124|200:204,1,240,10|0,0:0|0:0,0:0:0:0:
276,188,114195,6,0,P|268:256|172:284,1,160,2|0,0:0|0:0,0:0:0:0:
88,304,114709,1,2,0:0:0:0:
8,236,114881,1,10,0:0:0:0:
48,140,115052,1,0,0:0:0:0:
120,216,115224,2,0,P|168:220|204:208,1,80
148,112,115567,6,0,B|184:72|256:120|256:120|336:68|368:116,1,240,6|0,0:0|0:0,0:0:0:0:
376,232,116252,6,0,L|136:232,1,240,10|0,0:0|0:0,0:0:0:0:
44,280,116938,6,2,B|80:324|140:324|140:324|192:324,1,160,2|0,0:0|0:0,0:0:0:0:
304,340,117452,1,2,0:0:0:0:
416,320,117624,1,10,0:0:0:0:
460,216,117795,1,0,0:0:0:0:
416,108,117967,2,0,P|380:76|328:68,1,80
240,92,118309,6,0,L|144:100,1,80,2|0,0:0|0:0,0:0:0:0:
272,292,118824,2,0,L|368:284,1,80,0|10,0:0|0:0,0:0:0:0:
264,84,119338,1,0,0:0:0:0:
232,192,119509,1,0,0:0:0:0:
332,144,119681,6,0,P|384:196|332:240,1,160,2|0,0:0|0:0,0:0:0:0:
232,192,120195,1,2,0:0:0:0:
144,124,120367,2,0,P|108:192|144:260,1,160,10|2,0:0|0:0,0:0:0:0:
264,312,120881,1,0,0:0:0:0:
392,292,121052,6,0,B|436:272|420:224|420:224|400:192|400:192|420:160|420:160|436:108|392:84,1,240,6|0,0:0|0:0,0:0:0:0:
268,132,121738,6,0,B|220:168|168:192|168:192|220:208|268:260,1,240,10|0,0:0|0:0,0:0:0:0:
136,256,122424,6,0,P|96:196|144:124,1,160,2|0,0:0|0:0,0:0:0:0:
232,56,122938,1,2,0:0:0:0:
224,184,123109,1,10,0:0:0:0:
328,108,123281,1,0,0:0:0:0:
368,232,123452,2,0,P|392:276|376:324,1,80
280,296,123795,6,0,B|184:308|184:308|140:280|116:236|128:176,1,240,2|0,0:0|0:0,0:0:0:0:
232,88,124481,6,0,B|328:76|328:76|372:104|396:148|384:208,1,240,10|0,0:0|0:0,0:0:0:0:
324,312,125167,6,0,P|232:336|160:296,1,160,2|0,0:0|0:0,0:0:0:0:
256,232,125681,1,2,0:0:0:0:
144,236,125852,1,10,0:0:0:0:
200,140,126024,1,0,0:0:0:0:
312,140,126195,1,2,0:0:0:0:
140,60,126538,6,0,B|256:24|256:24|368:64,1,240,6|0,0:0|0:0,0:0:0:0:
368,184,127224,6,0,B|316:228|256:192|256:192|180:152|140:188,1,240,10|0,0:0|0:0,0:0:0:0:
176,308,127909,6,0,L|360:308,1,160,2|0,0:0|0:0,0:0:0:0:
464,256,128424,1,2,0:0:0:0:
384,152,128595,1,10,0:0:0:0:
356,232,128767,1,0,0:0:0:0:
460,176,128938,2,0,P|460:128|436:92,1,80
324,44,129281,6,0,L|256:88,1,80,0|2,0:0|0:0,0:0:0:0:
188,340,129795,2,0,L|256:296,1,80,0|2,0:0|0:0,0:0:0:0:
200,140,130309,5,0,0:0:0:0:
288,220,130481,1,2,0:0:0:0:
168,208,130652,2,0,P|120:160|152:80,1,160,2|0,0:0|0:0,0:0:0:0:
256,92,131167,5,2,0:0:0:0:
330,145,131338,1,10,0:0:0:0:
330,238,131509,1,0,0:0:0:0:
256,291,131681,1,2,0:0:0:0:
181,238,131852,1,0,0:0:0:0:
256,92,132023,5,4,0:0:0:0:
