osu file format v14

[General]
AudioFilename: audio.mp3
AudioLeadIn: 1000
PreviewTime: 44249
Countdown: 1
SampleSet: Soft
StackLeniency: 0.7
Mode: 0
LetterboxInBreaks: 0
WidescreenStoryboard: 1

[Editor]
Bookmarks: 11335,22306,44249,55221,66192,77164,88135
DistanceSpacing: 1
BeatDivisor: 4
GridSize: 4
TimelineZoom: 0.8

[Metadata]
Title:Time Leaper
TitleUnicode:Time Leaper
Artist:Hinkik
ArtistUnicode:Hinkik
Creator:SkyDevil
Version:Easy
Source:
Tags:drumstep kingdom5500
BeatmapID:1108810
BeatmapSetID:520179

[Difficulty]
HPDrainRate:1
CircleSize:3
OverallDifficulty:1
ApproachRate:3
SliderMultiplier:0.899999999999999
SliderTickRate:2

[Events]
//Background and Video events
0,0,"bg.jpg",0,0
//Break Periods
//Storyboard Layer 0 (Background)
//Storyboard Layer 1 (Fail)
//Storyboard Layer 2 (Pass)
//Storyboard Layer 3 (Foreground)
//Storyboard Sound Samples

[TimingPoints]
367,342.857142857143,4,2,1,60,1,0
367,-100,4,2,1,60,0,0
13224,-100,4,2,3,60,0,0
13309,-100,4,2,1,60,0,0
15967,-100,4,2,3,60,0,0
16052,-100,4,2,1,60,0,0
18709,-100,4,2,3,60,0,0
18795,-100,4,2,1,60,0,0
21452,-100,4,2,3,60,0,0
21538,-100,4,2,1,60,0,0
22309,-100,4,2,1,50,0,0
44252,-100,4,2,1,80,0,0
44938,-100,4,2,2,80,0,0
45024,-100,4,2,1,80,0,0
47681,-100,4,2,2,80,0,0
47767,-100,4,2,1,80,0,0
50424,-100,4,2,2,80,0,0
50509,-100,4,2,1,80,0,0
55909,-100,4,2,2,80,0,0
55995,-100,4,2,1,80,0,0
58652,-100,4,2,2,80,0,0
58738,-100,4,2,1,80,0,0
61395,-100,4,2,2,80,0,0
61481,-100,4,2,1,80,0,0
65681,-100,4,2,3,80,0,0
65852,-100,4,2,2,80,0,0
65938,-100,4,2,1,80,0,0
66195,-100,4,2,4,55,0,0
82652,-100,4,2,1,55,0,0
84195,-100,4,2,3,55,0,0
84281,-100,4,2,1,55,0,0
84881,-100,4,2,3,55,0,0
84967,-100,4,2,1,55,0,0
85481,-100,4,2,3,55,0,0
86767,-100,4,2,1,55,0,0
88138,-100,4,2,1,95,0,1
107338,-100,4,2,1,95,0,0
110081,-100,4,2,1,95,0,1
129281,-100,4,2,0,95,0,0
131338,-100,4,2,1,95,0,0
131509,-100,4,2,0,95,0,0
132024,-100,4,2,1,100,0,0

[Colours]
Combo1 : 112,112,112
Combo2 : 255,128,192
Combo3 : 255,191,255
Combo4 : 239,239,239

[HitObjects]
176,80,367,6,0,P|256:40|336:80,1,180,2|10,0:0|0:0,0:0:0:0:
256,240,1738,1,2,0:0:0:0:
424,176,2424,1,10,0:0:0:0:
344,336,3109,6,0,L|152:336,1,180,2|10,0:0|0:0,0:0:0:0:
52,192,4481,1,2,0:0:0:0:
172,56,5167,1,10,0:0:0:0:
216,232,5852,6,0,B|260:208|308:232|308:232|352:248|392:232,1,180,2|10,0:0|0:0,0:0:0:0:
504,92,7224,1,2,0:0:0:0:
328,124,7909,1,10,0:0:0:0:
160,56,8595,6,0,P|84:76|72:176,1,180,2|10,0:0|0:0,0:0:0:0:
200,284,9967,2,0,B|190:345|227:372|286:362|320:323|320:323|369:347|432:336|446:301|416:245,1,360,2|4,0:0|0:0,0:0:0:0:
356,80,12024,5,10,0:0:0:0:
188,132,12709,2,0,L|88:124,2,89.9999999999999,2|0|10,0:0|0:0|0:0,0:0:0:0:
220,308,14081,6,0,P|296:332|392:304,1,180,2|10,0:0|0:0,0:0:0:0:
320,136,15452,2,0,L|384:56,2,89.9999999999999,2|0|10,0:0|0:0|0:0,0:0:0:0:
136,148,16824,6,0,P|76:200|136:252,1,180,2|10,0:0|0:0,0:0:0:0:
304,192,18195,2,0,L|396:192,2,89.9999999999999,2|0|10,0:0|0:0|0:0,0:0:0:0:
212,348,19567,6,0,L|28:360,1,180,2|10,0:0|0:0,0:0:0:0:
84,188,20938,2,0,L|192:180,2,89.9999999999999,2|0|10,0:0|0:0|0:0,0:0:0:0:
256,192,22309,12,0,25052,0:0:0:0:
256,80,26424,5,0,0:0:0:0:
100,168,27109,2,0,L|120:268,1,89.9999999999999
188,312,27795,6,0,B|244:348|324:336|352:296|372:252|372:252|408:112,1,360
248,48,29852,1,0,0:0:0:0:
164,80,30195,1,0,0:0:0:0:
92,132,30538,6,0,B|52:164|52:220|88:240|88:240|88:300,1,180
256,340,31909,2,0,P|304:348|364:336,1,89.9999999999999
432,320,32595,1,0,0:0:0:0:
448,144,33281,6,0,B|404:116|332:116|276:152|276:152|248:172|248:172|220:160|220:160|200:172|200:172|184:160|184:160|164:172|164:172|145:159|145:159|124:172,1,360,4|0,0:0|0:0,0:0:0:0:
236,316,35338,1,0,0:0:0:0:
68,256,36024,6,0,B|28:208|32:132|64:80|64:80|80:72|80:72|96:80|96:80|112:72|112:72|128:80|128:80|144:72|144:72|160:80|160:80|176:72|176:72|192:80|192:80|208:72|208:72|224:80,1,360
396,60,38081,1,0,0:0:0:0:
492,212,38767,6,0,B|320:272|320:272|296:272|296:272|280:284|280:284|260:284|260:284|248:296|248:296|228:292|228:292|216:304|216:304|196:300|196:300|184:312|184:312|160:312,1,360
44,176,40824,1,0,0:0:0:0:
84,96,41167,1,0,0:0:0:0:
164,56,41509,6,0,L|364:48,2,180
256,212,43567,1,10,0:0:0:0:
108,300,44252,6,0,P|264:356|428:272,1,360,4|2,0:0|0:0,0:0:0:0:
392,96,46309,1,8,0:0:0:0:
220,40,46995,6,0,B|180:76|180:124|216:152|216:152|256:184|256:236|216:268|216:268|184:292|184:324|212:364,1,360,2|2,0:0|0:0,0:0:0:0:
384,328,49052,1,10,0:0:0:0:
476,184,49738,6,0,B|304:140|304:140|124:184,1,360,2|2,0:0|0:0,0:0:0:0:
68,352,51795,2,0,L|168:348,1,89.9999999999999,10|0,0:0|0:0,0:0:0:0:
248,344,52481,6,0,L|432:336,1,180,2|10,0:0|0:0,0:0:0:0:
448,152,53852,1,2,0:0:0:0:
396,80,54195,1,0,0:0:0:0:
316,40,54538,1,10,0:0:0:0:
140,32,55224,6,0,B|92:72|136:116|136:116|100:188|100:188|132:260|132:260|96:324|168:352,1,360,2|2,0:0|0:0,0:0:0:0:
256,196,57281,1,10,0:0:0:0:
358,345,57967,6,0,B|416:324|380:260|380:260|412:188|412:188|376:116|376:116|420:72|372:32,1,360,2|2,0:0|0:0,0:0:0:0:
204,88,60024,1,10,0:0:0:0:
136,240,60709,6,2,B|168:240|208:268|256:364|256:364|288:272|336:244|380:240,1,360
340,64,62767,1,10,0:0:0:0:
256,32,63109,1,0,0:0:0:0:
172,64,63452,6,0,L|164:260,1,180,2|10,0:0|0:0,0:0:0:0:
220,316,64481,1,0,0:0:0:0:
288,256,64824,6,0,P|324:128|396:260,1,360,2|4,0:0|0:0,0:0:0:0:
256,192,66538,12,0,68938,0:0:0:0:
256,84,70309,6,0,L|256:188,1,89.9999999999999,0|2,0:0|0:0,0:0:0:0:
156,324,71338,1,2,0:0:0:0:
48,180,72024,1,2,0:0:0:0:
156,36,72709,1,2,0:0:0:0:
336,36,73395,1,2,0:0:0:0:
444,180,74081,1,2,0:0:0:0:
412,264,74424,6,0,P|352:300|256:264,1,180
332,208,75452,1,2,0:0:0:0:
356,120,75795,2,0,B|288:108|252:144|240:184|240:184|100:188,1,270,0|2,0:0|0:0,0:0:0:0:
104,276,77167,6,0,L|300:268,1,180,4|0,0:0|0:0,0:0:0:0:
344,96,78538,2,0,L|148:104,1,180
40,232,79909,6,0,P|60:308|152:336,1,180
128,252,80938,1,2,0:0:0:0:
196,192,81281,2,0,B|256:144|320:192|320:192|380:236|444:184,1,270,0|2,0:0|0:0,0:0:0:0:
468,100,82652,5,2,0:0:0:0:
396,40,82995,1,2,0:0:0:0:
304,32,83338,1,2,0:0:0:0:
216,52,83681,1,2,0:0:0:0:
152,112,84024,6,2,L|132:204,1,89.9999999999999
208,252,84709,2,2,L|228:152,1,89.9999999999999
312,148,85395,6,0,P|444:192|312:228,1,360,2|2,0:0|0:0,0:0:0:0:
140,192,87452,5,10,0:0:0:0:
72,44,88138,6,0,P|114:31|164:36,1,89.9999999999999,6|0,0:0|0:0,0:0:0:0:
236,84,88824,2,0,L|232:276,1,180,10|2,0:0|0:0,0:0:0:0:
292,332,89852,1,0,0:0:0:0:
380,308,90195,2,0,B|403:269|383:229|383:229|363:189|400:128,1,180,10|2,0:0|0:0,0:0:0:0:
376,48,91224,6,0,P|332:48|292:68,1,89.9999999999999,0|10,0:0|0:0,0:0:0:0:
232,136,91909,1,0,0:0:0:0:
180,64,92252,1,2,0:0:0:0:
104,108,92595,2,0,L|52:92,2,45,0|2|10,0:0|0:0|0:0,0:0:0:0:
128,188,93281,1,0,0:0:0:0:
84,264,93624,6,0,P|112:324|148:336,1,89.9999999999999,6|0,0:0|0:0,0:0:0:0:
216,300,94309,2,0,P|256:236|296:300,1,180,10|2,0:0|0:0,0:0:0:0:
380,332,95338,1,0,0:0:0:0:
436,260,95681,2,0,P|388:188|432:116,1,180,10|2,0:0|0:0,0:0:0:0:
436,24,96709,6,0,P|392:36|352:64,1,89.9999999999999,0|10,0:0|0:0,0:0:0:0:
292,128,97395,1,0,0:0:0:0:
228,56,97738,1,2,0:0:0:0:
144,96,98081,2,0,L|96:56,2,45,0|2|10,0:0|0:0|0:0,0:0:0:0:
116,184,98767,1,0,0:0:0:0:
188,236,99109,6,0,L|288:236,1,89.9999999999999,6|0,0:0|0:0,0:0:0:0:
324,316,99795,2,0,L|144:316,1,180,10|2,0:0|0:0,0:0:0:0:
96,240,100824,1,0,0:0:0:0:
120,152,101167,2,0,L|300:152,1,180,10|2,0:0|0:0,0:0:0:0:
376,96,102195,6,0,P|424:116|444:152,1,89.9999999999999,0|10,0:0|0:0,0:0:0:0:
448,236,102881,1,0,0:0:0:0:
364,268,103224,1,2,0:0:0:0:
276,244,103567,2,0,L|220:248,2,45,0|2|10,0:0|0:0|0:0,0:0:0:0:
256,336,104252,1,0,0:0:0:0:
168,320,104595,6,0,P|136:284|132:232,1,89.9999999999999,6|0,0:0|0:0,0:0:0:0:
160,160,105281,2,0,B|220:88|220:88|324:88,1,180,10|2,0:0|0:0,0:0:0:0:
388,132,106309,1,0,0:0:0:0:
376,224,106652,2,0,L|376:316,1,89.9999999999999,10|0,0:0|0:0,0:0:0:0:
292,348,107338,5,2,0:0:0:0:
156,256,108024,1,2,0:0:0:0:
164,92,108709,1,2,0:0:0:0:
320,48,109395,1,8,0:0:0:0:
464,128,110081,6,0,P|412:192|468:260,2,180,6|8|2,0:0|0:0|0:0,0:0:0:0:
416,52,111795,2,0,L|388:8,2,45,0|2|10,0:0|0:0|0:0,0:0:0:0:
328,80,112481,1,0,0:0:0:0:
260,140,112824,6,0,P|208:168|96:140,2,180,2|10|2,0:0|0:0|0:0,0:0:0:0:
332,192,114538,2,0,L|372:140,2,45,0|2|8,0:0|0:0|0:0,0:0:0:0:
284,272,115224,1,0,0:0:0:0:
328,348,115567,6,0,L|508:348,2,180,6|10|2,0:0|0:0|0:0,0:0:0:0:
256,300,117281,2,0,L|256:240,2,45,0|2|10,0:0|0:0|0:0,0:0:0:0:
176,340,117967,1,0,0:0:0:0:
104,288,118309,6,0,L|84:192,1,89.9999999999999,2|0,0:0|0:0,0:0:0:0:
104,112,118995,2,0,P|152:104|192:124,1,89.9999999999999,10|0,0:0|0:0,0:0:0:0:
256,180,119681,1,2,0:0:0:0:
324,124,120024,1,0,0:0:0:0:
352,40,120367,2,0,L|448:36,1,89.9999999999999,10|0,0:0|0:0,0:0:0:0:
484,112,121052,6,0,L|504:308,2,180,6|10|2,0:0|0:0|0:0,0:0:0:0:
404,156,122767,2,0,L|408:216,2,45,0|2|10,0:0|0:0|0:0,0:0:0:0:
316,132,123452,1,0,0:0:0:0:
240,184,123795,6,0,B|228:240|268:264|268:264|304:288|284:344,2,180,2|10|2,0:0|0:0|0:0,0:0:0:0:
248,96,125509,2,0,L|280:52,2,45,0|2|10,0:0|0:0|0:0,0:0:0:0:
156,88,126195,1,0,0:0:0:0:
76,128,126538,6,0,P|24:184|72:264,2,180,6|10|2,0:0|0:0|0:0,0:0:0:0:
140,192,128252,2,0,L|192:192,2,45,0|2|10,0:0|0:0|0:0,0:0:0:0:
160,280,128938,1,0,0:0:0:0:
236,332,129281,6,0,P|320:360|404:332,1,180,0|2,0:0|0:0,0:0:0:0:
460,260,130309,1,0,0:0:0:0:
480,172,130652,2,0,P|492:132|476:88,1,89.9999999999999
404,36,131338,2,0,L|364:228,1,180,10|4,0:0|0:0,0:0:0:0:
