osu file format v14

[General]
AudioFilename: audio.mp3
AudioLeadIn: 0
PreviewTime: 45172
Countdown: 1
SampleSet: Normal
StackLeniency: 0.7
Mode: 0
LetterboxInBreaks: 0
WidescreenStoryboard: 1

[Editor]
Bookmarks: 28297,28531,37672,41422,43297,67671,68609,75171,77046,78921,80796,82671,84546,86421,88296,90171,105171,112671,113608,114546,116421,118296,127671,142670,150170,156733,202669
DistanceSpacing: 1.5
BeatDivisor: 2
GridSize: 4
TimelineZoom: 2.4

[Metadata]
Title:Outbreaker
TitleUnicode:Outbreaker
Artist:Hinkik
ArtistUnicode:Hinkik
Creator:Bot
Version:Extra Far
Source:
Tags:
BeatmapID:958148
BeatmapSetID:438405

[Difficulty]
HPDrainRate:6
CircleSize:4
OverallDifficulty:9
ApproachRate:9
SliderMultiplier:2.56
SliderTickRate:1

[Events]
//Background and Video events
0,0,"kN6DHaF.jpg",0,0
//Break Periods
//Storyboard Layer 0 (Background)
//Storyboard Layer 1 (Fail)
//Storyboard Layer 2 (Pass)
//Storyboard Layer 3 (Foreground)
//Storyboard Sound Samples

[TimingPoints]
173,468.742675895689,4,1,0,100,1,0
45172,-100,4,1,0,100,0,1
67671,-100,4,1,0,100,0,0
68609,-100,4,1,0,100,0,1
75171,-100,4,1,0,100,0,0
90171,-100,4,1,0,100,0,1
105171,-100,4,1,0,100,0,0
157670,-100,4,1,0,100,0,1
180170,-100,4,1,0,100,0,0
181107,-100,4,1,0,100,0,1
202669,-100,4,1,0,100,0,0

[HitObjects]
192,216,173,5,0,0:0:0:0:
420,96,642,5,0,0:0:0:0:
296,72,876,1,0,0:0:0:0:
376,172,1110,2,0,P|356:256|328:296,1,128
248,192,1579,1,0,0:0:0:0:
248,192,1813,1,0,0:0:0:0:
244,64,2047,1,0,0:0:0:0:
72,252,2516,6,0,P|140:288|200:296,1,128
308,244,2985,1,0,0:0:0:0:
196,180,3219,1,0,0:0:0:0:
316,140,3454,1,0,0:0:0:0:
196,96,3688,1,0,0:0:0:0:
316,56,3922,1,0,0:0:0:0:
456,272,4391,6,0,P|376:296|312:296,1,128
224,232,4860,1,0,0:0:0:0:
324,152,5094,1,0,0:0:0:0:
196,140,5329,1,0,0:0:0:0:
288,52,5563,1,0,0:0:0:0:
160,44,5797,1,0,0:0:0:0:
64,280,6266,5,0,0:0:0:0:
64,280,6501,1,0,0:0:0:0:
224,176,6735,5,0,0:0:0:0:
224,176,6969,1,0,0:0:0:0:
116,108,7204,5,0,0:0:0:0:
116,108,7438,1,0,0:0:0:0:
232,52,7672,5,0,0:0:0:0:
344,116,8142,5,0,0:0:0:0:
228,172,8376,1,0,0:0:0:0:
352,200,8610,2,0,P|300:288|260:300,1,128
212,188,9079,2,0,P|260:108|292:96,1,128
172,24,9547,1,0,0:0:0:0:
100,272,10016,5,0,0:0:0:0:
212,208,10250,1,0,0:0:0:0:
116,124,10485,1,0,0:0:0:0:
116,124,10719,1,0,0:0:0:0:
244,108,10954,1,0,0:0:0:0:
244,108,11188,1,0,0:0:0:0:
360,160,11422,1,0,0:0:0:0:
140,288,11891,6,0,P|216:320|264:304,1,128
360,232,12360,2,0,P|296:184|236:140,1,128
156,76,12829,1,0,0:0:0:0:
156,76,13063,1,0,0:0:0:0:
280,52,13297,1,0,0:0:0:0:
392,116,13766,5,0,0:0:0:0:
392,116,14000,1,0,0:0:0:0:
268,152,14235,1,0,0:0:0:0:
268,152,14469,1,0,0:0:0:0:
360,240,14704,1,0,0:0:0:0:
360,240,14938,1,0,0:0:0:0:
240,288,15172,5,0,0:0:0:0:
240,288,15407,6,0,L|160:248,2,64
216,168,15875,1,0,0:0:0:0:
388,80,16110,1,0,0:0:0:0:
428,268,16344,1,0,0:0:0:0:
276,152,16578,1,0,0:0:0:0:
300,344,16813,1,0,0:0:0:0:
136,248,17047,2,0,P|64:168|84:120,1,128
224,52,17516,5,0,0:0:0:0:
396,136,17750,1,0,0:0:0:0:
204,120,17985,1,0,0:0:0:0:
380,204,18219,1,0,0:0:0:0:
188,188,18453,1,0,0:0:0:0:
360,272,18688,1,0,0:0:0:0:
168,256,18922,2,0,P|108:212|64:164,1,128
224,56,19391,5,0,0:0:0:0:
324,220,19625,1,0,0:0:0:0:
156,124,19860,1,0,0:0:0:0:
348,124,20094,1,0,0:0:0:0:
184,224,20328,1,0,0:0:0:0:
220,36,20563,1,0,0:0:0:0:
324,196,20797,2,0,P|380:276|384:272,1,128
492,156,21266,5,0,0:0:0:0:
400,324,21500,1,0,0:0:0:0:
428,132,21735,1,0,0:0:0:0:
260,224,21969,1,0,0:0:0:0:
436,300,22203,1,0,0:0:0:0:
256,368,22438,1,0,0:0:0:0:
152,204,22672,2,0,P|100:144|56:168,1,128
44,348,23141,5,0,0:0:0:0:
228,288,23375,1,0,0:0:0:0:
384,172,23610,1,0,0:0:0:0:
468,0,23844,1,0,0:0:0:0:
384,172,24078,1,0,0:0:0:0:
228,288,24313,1,0,0:0:0:0:
48,348,24547,2,0,L|48:208,1,128
164,276,25016,5,0,0:0:0:0:
284,232,25250,1,0,0:0:0:0:
184,152,25485,1,0,0:0:0:0:
164,276,25719,1,0,0:0:0:0:
284,232,25953,1,0,0:0:0:0:
184,152,26188,1,0,0:0:0:0:
284,232,26422,1,0,0:0:0:0:
164,276,26656,1,0,0:0:0:0:
184,152,26891,5,0,0:0:0:0:
172,176,27125,1,0,0:0:0:0:
192,192,27360,1,0,0:0:0:0:
176,212,27594,1,0,0:0:0:0:
192,232,27828,1,0,0:0:0:0:
176,252,28063,1,0,0:0:0:0:
192,272,28297,6,0,L|252:304,2,64
92,120,28766,1,0,0:0:0:0:
348,124,29000,1,0,0:0:0:0:
140,276,29235,1,0,0:0:0:0:
396,256,29469,1,0,0:0:0:0:
212,80,29703,1,0,0:0:0:0:
468,84,29938,1,0,0:0:0:0:
272,252,30172,5,0,0:0:0:0:
400,244,30406,2,0,P|432:172|408:132,1,128
300,196,30875,2,0,L|200:300,1,128
108,212,31344,2,0,L|100:68,1,128
228,96,31813,2,0,L|368:192,1,128
280,284,32281,2,0,L|120:340,1,128
148,200,32750,2,0,B|228:192|228:192|256:152,1,128
292,32,33219,2,0,B|204:24|204:24|144:104,1,128
256,160,33688,2,0,L|364:248,1,128
268,332,34156,2,0,L|156:240,1,128
108,136,34625,2,0,L|260:72,1,128
248,212,35094,2,0,L|128:260,1,128
32,344,35563,2,0,L|32:200,1,128
116,120,36031,5,0,0:0:0:0:
156,116,36266,1,0,0:0:0:0:
196,112,36500,1,0,0:0:0:0:
232,108,36734,1,0,0:0:0:0:
268,100,36969,1,0,0:0:0:0:
304,92,37203,1,0,0:0:0:0:
340,80,37438,1,0,0:0:0:0:
460,124,37672,5,0,0:0:0:0:
228,344,37906,1,0,0:0:0:0:
44,80,38141,1,0,0:0:0:0:
300,268,38375,1,0,0:0:0:0:
92,28,38609,1,0,0:0:0:0:
232,316,38844,1,0,0:0:0:0:
156,4,39078,1,0,0:0:0:0:
148,324,39313,1,0,0:0:0:0:
348,76,39547,5,0,0:0:0:0:
476,368,39781,1,0,0:0:0:0:
184,232,40016,1,0,0:0:0:0:
456,64,40250,1,0,0:0:0:0:
328,356,40484,1,0,0:0:0:0:
228,52,40719,1,0,0:0:0:0:
44,312,40953,1,0,0:0:0:0:
352,232,41187,1,0,0:0:0:0:
468,284,41422,5,0,0:0:0:0:
460,300,41539,1,0,0:0:0:0:
448,316,41656,1,0,0:0:0:0:
436,328,41773,1,0,0:0:0:0:
416,328,41891,1,0,0:0:0:0:
400,320,42008,1,0,0:0:0:0:
384,308,42125,1,0,0:0:0:0:
372,292,42242,1,0,0:0:0:0:
364,276,42359,1,0,0:0:0:0:
352,260,42477,1,0,0:0:0:0:
340,244,42594,1,0,0:0:0:0:
328,228,42711,1,0,0:0:0:0:
324,208,42828,1,0,0:0:0:0:
332,192,42945,1,0,0:0:0:0:
344,180,43062,1,0,0:0:0:0:
360,172,43180,1,0,0:0:0:0:
256,192,43297,12,0,44117,0:0:0:0:
160,76,44234,5,0,0:0:0:0:
264,152,44469,1,0,0:0:0:0:
264,152,44586,1,0,0:0:0:0:
264,152,44703,1,0,0:0:0:0:
232,48,45172,5,0,0:0:0:0:
152,248,45406,1,0,0:0:0:0:
328,328,45641,1,0,0:0:0:0:
240,156,45875,1,0,0:0:0:0:
240,348,46109,1,0,0:0:0:0:
316,172,46344,1,0,0:0:0:0:
100,276,46578,1,0,0:0:0:0:
292,264,46812,1,0,0:0:0:0:
120,348,47047,5,0,0:0:0:0:
244,200,47281,1,0,0:0:0:0:
364,352,47516,1,0,0:0:0:0:
468,192,47750,1,0,0:0:0:0:
336,52,47984,1,0,0:0:0:0:
196,184,48219,1,0,0:0:0:0:
340,308,48453,1,0,0:0:0:0:
416,132,48687,1,0,0:0:0:0:
232,72,48922,5,0,0:0:0:0:
340,228,49156,1,0,0:0:0:0:
232,72,49390,1,0,0:0:0:0:
340,228,49625,1,0,0:0:0:0:
176,124,49859,1,0,0:0:0:0:
368,136,50094,1,0,0:0:0:0:
204,236,50328,1,0,0:0:0:0:
368,136,50562,1,0,0:0:0:0:
176,140,50797,5,0,0:0:0:0:
104,316,51031,1,0,0:0:0:0:
284,252,51265,1,0,0:0:0:0:
116,156,51500,1,0,0:0:0:0:
304,120,51734,1,0,0:0:0:0:
176,264,51969,1,0,0:0:0:0:
364,236,52203,1,0,0:0:0:0:
200,136,52437,1,0,0:0:0:0:
392,164,52672,5,0,0:0:0:0:
316,340,52906,1,0,0:0:0:0:
152,256,53140,1,0,0:0:0:0:
240,84,53375,1,0,0:0:0:0:
52,40,53609,1,0,0:0:0:0:
4,228,53844,1,0,0:0:0:0:
192,268,54078,1,0,0:0:0:0:
232,80,54312,1,0,0:0:0:0:
204,248,54547,5,0,0:0:0:0:
380,176,54781,1,0,0:0:0:0:
192,132,55015,1,0,0:0:0:0:
380,176,55250,1,0,0:0:0:0:
204,252,55484,1,0,0:0:0:0:
336,112,55719,1,0,0:0:0:0:
260,288,55953,1,0,0:0:0:0:
268,96,56187,1,0,0:0:0:0:
40,124,56422,5,0,0:0:0:0:
228,92,56656,1,0,0:0:0:0:
376,216,56890,1,0,0:0:0:0:
208,308,57125,1,0,0:0:0:0:
48,204,57359,1,0,0:0:0:0:
228,136,57593,1,0,0:0:0:0:
416,180,57828,1,0,0:0:0:0:
464,364,58062,1,0,0:0:0:0:
144,368,58297,5,0,0:0:0:0:
60,60,58531,1,0,0:0:0:0:
208,344,58765,1,0,0:0:0:0:
4,96,59000,1,0,0:0:0:0:
252,296,59234,1,0,0:0:0:0:
52,48,59468,1,0,0:0:0:0:
196,336,59703,1,0,0:0:0:0:
116,28,59937,1,0,0:0:0:0:
228,228,60172,5,0,0:0:0:0:
404,156,60406,1,0,0:0:0:0:
220,104,60640,1,0,0:0:0:0:
356,240,60875,1,0,0:0:0:0:
464,80,61109,1,0,0:0:0:0:
288,156,61343,1,0,0:0:0:0:
100,196,61578,1,0,0:0:0:0:
280,264,61812,1,0,0:0:0:0:
420,132,62047,5,0,0:0:0:0:
232,100,62281,1,0,0:0:0:0:
324,268,62515,1,0,0:0:0:0:
444,116,62750,1,0,0:0:0:0:
264,180,62984,1,0,0:0:0:0:
384,28,63218,1,0,0:0:0:0:
440,212,63453,1,0,0:0:0:0:
248,192,63687,1,0,0:0:0:0:
412,92,63922,5,0,0:0:0:0:
224,128,64156,1,0,0:0:0:0:
332,288,64390,1,0,0:0:0:0:
424,120,64625,1,0,0:0:0:0:
236,148,64859,1,0,0:0:0:0:
376,280,65093,1,0,0:0:0:0:
444,100,65328,1,0,0:0:0:0:
260,152,65562,1,0,0:0:0:0:
368,308,65796,5,0,0:0:0:0:
468,144,66031,1,0,0:0:0:0:
276,156,66265,1,0,0:0:0:0:
204,336,66500,1,0,0:0:0:0:
56,212,66734,1,0,0:0:0:0:
224,304,66968,1,0,0:0:0:0:
196,104,67203,1,0,0:0:0:0:
296,268,67437,1,0,0:0:0:0:
384,96,67671,1,0,0:0:0:0:
