osu file format v14

[General]
AudioFilename: audio.mp3
AudioLeadIn: 0
PreviewTime: -1
Countdown: 0
SampleSet: Normal
StackLeniency: 0.7
Mode: 0
LetterboxInBreaks: 0
WidescreenStoryboard: 0

[Editor]
Bookmarks: 83476,83749,83858,83967,107203,109385,112658,113749,115931,118112,131585,132131,139931,148618,157031,157385,174839,201566,209748,218475,227203,244658
DistanceSpacing: 1
BeatDivisor: 8
GridSize: 16
TimelineZoom: 1.7

[Metadata]
Title:Explorers
TitleUnicode:Explorers
Artist:Hinkik
ArtistUnicode:Hinkik
Creator:weiwei326
Version:Explorer
Source:
Tags:
BeatmapID:1596182
BeatmapSetID:758913

[Difficulty]
HPDrainRate:2
CircleSize:4
OverallDifficulty:9
ApproachRate:9.8
SliderMultiplier:1.50000000596047
SliderTickRate:1

[Events]
//Background and Video events
0,0,"K1S.jpg",0,0
//Break Periods
2,52586,59816
//Storyboard Layer 0 (Background)
//Storyboard Layer 1 (Fail)
//Storyboard Layer 2 (Pass)
//Storyboard Layer 3 (Foreground)
//Storyboard Sound Samples

[TimingPoints]
312.554054054054,271.493212669683,4,1,1,60,1,0
4656,-100,4,1,1,60,0,0
9000,-100,4,1,1,60,0,0
10086,-100,4,1,1,65,0,0
11172,-100,4,1,1,70,0,0
12258,-100,4,1,1,65,0,0
13344,-200,4,1,1,70,0,0
14430,-200,4,1,1,65,0,0
15516,-200,4,1,1,70,0,0
16602,-200,4,1,1,80,0,0
17750,272.727272727273,4,1,1,60,1,0
17759,-100,4,1,1,60,0,0
19395,-100,4,1,1,75,0,0
19940,-100,4,1,1,75,0,0
21031,-100,4,1,1,70,0,0
21577,-100,4,1,1,65,0,0
22122,-100,4,1,1,60,0,0
23759,-100,4,1,1,55,0,0
24304,-100,4,1,1,60,0,0
25940,-100,4,1,1,65,0,0
26486,-100,4,1,1,60,0,0
28122,-100,4,1,1,65,0,0
28668,-100,4,1,1,70,0,0
30849,-133.333333333333,4,1,1,75,0,0
33031,-133.333333333333,4,1,1,85,0,0
34259,-66.6666666666667,4,1,1,85,0,0
35199,-166.666666666667,4,1,1,100,0,0
35205,218.181818181818,4,1,1,100,1,0
35750,-111.111111111111,4,1,1,100,0,0
36295,-66.6666666666667,4,1,1,100,0,0
37114,-66.6666666666667,4,1,1,100,0,0
37632,-66.6666666666667,4,1,1,100,0,0
39241,-100,4,1,1,100,0,0
39568,-133.333333333333,4,1,1,100,0,0
40659,-100,4,1,1,100,0,0
43577,-100,4,1,1,100,0,0
43932,-100,4,1,1,100,0,0
45023,-100,4,1,1,100,0,0
48295,-100,4,1,1,100,0,0
48841,-80,4,1,1,100,0,0
49386,-166.666666666667,4,1,1,100,0,0
50477,-166.666666666667,4,1,1,100,0,0
51023,-166.666666666667,4,1,1,95,0,0
52114,-166.666666666667,4,1,1,80,0,0
60295,272.727272727273,4,1,1,50,1,0
60295,-100,4,1,1,40,0,0
60840,-100,4,1,1,45,0,0
61385,-100,4,1,1,50,0,0
61931,-100,4,1,1,55,0,0
62472,-100,4,1,1,60,0,0
63022,-100,4,1,1,65,0,0
64658,-100,4,1,1,70,0,0
65204,-100,4,1,1,75,0,0
65749,-100,4,1,1,80,0,0
66295,-100,4,1,1,80,0,0
66840,-100,4,1,1,85,0,0
69158,-200,4,1,1,70,0,0
70113,218.181818181818,4,1,1,70,1,0
70113,-133.333333333333,4,1,1,70,0,0
70113,-133.333333333333,4,1,1,70,0,0
70603,-133.333333333333,4,1,1,70,0,0
70849,-200,4,1,1,70,0,0
72840,-100,4,1,1,70,0,0
75022,-200,4,1,1,70,0,0
76059,-200,4,1,1,70,0,0
76658,-133.333333333333,4,1,1,70,0,0
77203,-100,4,1,1,70,0,0
78513,-133.333333333333,4,1,1,50,0,0
78834,-200,4,1,1,70,0,0
79385,-200,4,1,1,70,0,0
79603,-66.6666666666667,4,1,1,70,0,0
80694,-125,4,1,1,70,0,0
81022,-200,4,1,1,70,0,0
81540,-133.333333333333,4,1,1,70,0,0
81840,-100,4,1,1,70,0,0
83203,-166.666666666667,4,1,1,70,0,0
83476,-80,4,1,1,70,0,0
83749,-66.6666666666667,4,1,1,70,0,0
84240,-80,4,1,1,70,0,0
87567,-80,4,1,1,70,0,0
89531,-200,4,1,1,70,0,0
89749,-100,4,1,1,70,0,0
90294,-66.6666666666667,4,1,1,70,0,0
91931,-66.6666666666667,4,3,1,70,0,0
94058,-133.333333333333,4,1,1,70,0,0
94549,-80,4,1,1,70,0,0
96294,-200,4,1,1,70,0,0
96840,-200,4,1,1,70,0,0
97058,-80,4,1,1,70,0,0
97767,-66.6666666666667,4,1,1,70,0,0
98176,-100,4,1,1,70,0,0
98476,-200,4,1,1,70,0,0
99567,-200,4,1,1,75,0,0
101476,-100,4,1,1,70,0,0
105022,-66.6666666666667,4,1,1,80,0,1
105022,-66.6666666666667,4,1,1,80,0,1
107203,-66.6666666666667,4,1,1,80,0,1
107203,-66.6666666666667,4,1,1,85,0,1
109385,-66.6666666666667,4,1,1,85,0,1
111567,-66.6666666666667,4,1,1,90,0,1
112658,-66.6666666666667,4,1,1,90,0,1
113749,-66.6666666666667,4,1,1,80,0,1
115931,-66.6666666666667,4,1,1,90,0,1
118112,-66.6666666666667,4,1,1,95,0,1
119749,-66.6666666666667,4,1,1,85,0,1
120294,-66.6666666666667,4,1,1,80,0,1
120840,-66.6666666666667,4,1,1,75,0,1
121385,-66.6666666666667,4,1,1,70,0,1
121931,-66.6666666666667,4,1,1,65,0,1
122476,-200,4,1,1,70,0,1
123022,-133.333333333333,4,1,1,70,0,1
123567,-80,4,1,1,75,0,1
124658,-66.6666666666667,4,1,1,75,0,1
126840,-200,4,1,1,70,0,1
127931,-100,4,1,1,70,0,1
130931,-66.6666666666667,4,1,1,70,0,1
131203,-100,4,1,1,70,0,1
132294,-100,4,1,1,70,0,1
133112,-66.6666666666667,4,1,1,70,0,1
135240,-100,4,1,1,70,0,1
136658,-133.333333333333,4,1,1,70,0,1
137203,-66.6666666666667,4,1,1,70,0,1
139931,271.493212669683,4,1,1,55,1,0
139931,-100,4,1,1,55,0,0
141016,-100,4,1,1,60,0,0
142102,-100,4,1,1,55,0,0
143188,-100,4,1,1,50,0,0
144274,-100,4,1,1,55,0,0
145360,-100,4,1,1,50,0,0
146446,-100,4,1,1,60,0,0
148618,-100,4,1,1,70,0,0
150790,-100,4,1,1,75,0,0
151876,-100,4,1,1,70,0,0
152962,-100,4,1,1,75,0,0
154048,-100,4,1,1,80,0,0
155134,-100,4,1,1,85,0,0
156220,-100,4,1,1,90,0,0
157385,218.181818181818,4,1,1,90,1,0
157385,-66.6666666666667,4,1,1,60,0,0
174839,-200,4,1,1,70,0,0
176339,-100,4,1,1,70,0,0
177566,-66.6666666666667,4,1,1,70,0,0
179421,-133.333333333333,4,1,1,70,0,0
186294,-80,4,1,1,70,0,0
194475,-133.333333333333,4,1,1,70,0,0
195021,-80,4,1,1,70,0,0
201021,-200,4,1,1,70,0,0
201566,-200,4,1,1,40,0,0
201812,-80,4,1,1,70,0,0
202494,-100,4,1,1,70,0,0
203748,-90.9090909090909,4,1,1,70,0,0
209203,-133.333333333333,4,1,1,70,0,0
209748,-100,4,1,1,70,0,1
227203,-133.333333333333,4,1,1,70,0,1
228294,-100,4,1,1,70,0,1
232658,-66.6666666666667,4,1,1,70,0,1
233748,-100,4,1,1,70,0,1
235930,-133.333333333333,4,1,1,70,0,1
237021,-100,4,1,1,70,0,1
238112,-80,4,1,1,70,0,1
238575,-57.1428571428571,4,1,1,70,0,1
239966,-100,4,1,1,70,0,1
241384,-80,4,1,1,70,0,1
244657,-100,4,1,1,70,0,0

[HitObjects]
93,143,312,5,0,0:0:0:0:
251,129,584,1,0,0:0:0:0:
162,31,855,1,0,0:0:0:0:
147,181,1127,1,0,0:0:0:0:
81,51,1398,1,0,0:0:0:0:
251,129,1670,1,0,0:0:0:0:
145,25,1941,1,0,0:0:0:0:
57,143,2213,1,0,0:0:0:0:
238,165,2484,5,0,0:0:0:0:
113,255,2755,1,0,0:0:0:0:
264,295,3027,1,0,0:0:0:0:
98,324,3298,1,0,0:0:0:0:
158,171,3570,1,0,0:0:0:0:
201,332,3841,1,0,0:0:0:0:
77,231,4113,1,0,0:0:0:0:
266,196,4384,1,0,0:0:0:0:
343,297,4656,5,0,0:0:0:0:
410,148,4927,1,0,0:0:0:0:
253,222,5199,1,0,0:0:0:0:
454,244,5470,1,0,0:0:0:0:
304,138,5742,1,0,0:0:0:0:
290,299,6013,1,0,0:0:0:0:
387,139,6285,1,0,0:0:0:0:
385,314,6556,1,0,0:0:0:0:
262,202,6828,5,0,0:0:0:0:
281,50,7099,1,0,0:0:0:0:
183,114,7371,1,0,0:0:0:0:
367,133,7642,1,0,0:0:0:0:
204,38,7914,1,0,0:0:0:0:
315,188,8185,1,0,0:0:0:0:
368,32,8457,1,0,0:0:0:0:
202,97,8728,1,0,0:0:0:0:
64,192,9000,5,0,0:0:0:0:
176,304,9271,1,0,0:0:0:0:
288,192,9543,1,0,0:0:0:0:
176,80,9814,1,0,0:0:0:0:
256,160,10086,5,0,0:0:0:0:
144,272,10357,1,0,0:0:0:0:
256,384,10629,1,0,0:0:0:0:
368,272,10900,1,0,0:0:0:0:
224,192,11172,5,0,0:0:0:0:
336,304,11443,1,0,0:0:0:0:
448,192,11715,1,0,0:0:0:0:
336,80,11986,1,0,0:0:0:0:
256,224,12258,5,0,0:0:0:0:
368,112,12529,1,0,0:0:0:0:
256,0,12801,1,0,0:0:0:0:
144,112,13072,1,0,0:0:0:0:
238,260,13344,5,0,0:0:0:0:
396,155,13615,1,0,0:0:0:0:
254,66,13887,1,0,0:0:0:0:
335,248,14158,1,0,0:0:0:0:
166,206,14430,5,0,0:0:0:0:
339,129,14701,1,0,0:0:0:0:
157,55,14973,1,0,0:0:0:0:
63,195,15244,1,0,0:0:0:0:
250,301,15516,5,0,0:0:0:0:
164,155,15787,1,0,0:0:0:0:
386,177,16059,1,0,0:0:0:0:
296,42,16330,1,0,0:0:0:0:
284,210,16602,5,0,0:0:0:0:
473,159,16873,1,0,0:0:0:0:
427,328,17145,1,0,0:0:0:0:
241,314,17416,1,0,0:0:0:0:
176,136,17750,5,0,0:0:0:0:
213,282,17886,1,0,0:0:0:0:
306,180,18022,1,0,0:0:0:0:
158,195,18159,1,0,0:0:0:0:
189,332,18295,5,0,0:0:0:0:
102,210,18431,1,0,0:0:0:0:
81,337,18568,1,0,0:0:0:0:
232,271,18704,1,0,0:0:0:0:
146,119,18840,5,0,0:0:0:0:
180,238,18977,1,0,0:0:0:0:
262,102,19113,1,0,0:0:0:0:
91,193,19250,1,0,0:0:0:0:
226,238,19386,5,0,0:0:0:0:
208,90,19522,1,0,0:0:0:0:
300,178,19659,1,0,0:0:0:0:
114,155,19795,1,0,0:0:0:0:
180,280,19931,5,0,0:0:0:0:
323,306,20068,1,0,0:0:0:0:
239,182,20204,1,0,0:0:0:0:
281,352,20340,1,0,0:0:0:0:
355,221,20477,5,0,0:0:0:0:
204,125,20613,1,0,0:0:0:0:
340,97,20750,1,0,0:0:0:0:
210,228,20886,1,0,0:0:0:0:
88,97,21022,5,0,0:0:0:0:
95,226,21159,1,0,0:0:0:0:
211,112,21295,1,0,0:0:0:0:
92,26,21431,1,0,0:0:0:0:
142,177,21568,5,0,0:0:0:0:
278,255,21704,1,0,0:0:0:0:
143,287,21840,1,0,0:0:0:0:
250,153,21977,1,0,0:0:0:0:
228,301,22113,5,0,0:0:0:0:
386,268,22250,1,0,0:0:0:0:
293,153,22386,1,0,0:0:0:0:
315,300,22522,1,0,0:0:0:0:
415,181,22659,5,0,0:0:0:0:
285,95,22795,1,0,0:0:0:0:
304,223,22931,1,0,0:0:0:0:
447,128,23068,1,0,0:0:0:0:
424,267,23204,5,0,0:0:0:0:
352,149,23340,1,0,0:0:0:0:
245,268,23477,1,0,0:0:0:0:
382,217,23613,1,0,0:0:0:0:
285,325,23750,5,0,0:0:0:0:
340,170,23886,1,0,0:0:0:0:
392,327,24022,1,0,0:0:0:0:
261,215,24159,1,0,0:0:0:0:
427,261,24295,5,0,0:0:0:0:
308,344,24431,1,0,0:0:0:0:
395,200,24568,1,0,0:0:0:0:
451,337,24704,1,0,0:0:0:0:
268,305,24840,5,0,0:0:0:0:
446,244,24977,1,0,0:0:0:0:
303,244,25113,1,0,0:0:0:0:
387,117,25250,1,0,0:0:0:0:
236,118,25386,5,0,0:0:0:0:
361,18,25522,1,0,0:0:0:0:
205,29,25659,1,0,0:0:0:0:
321,176,25795,1,0,0:0:0:0:
121,163,25931,5,0,0:0:0:0:
301,105,26068,1,0,0:0:0:0:
123,70,26204,1,0,0:0:0:0:
231,208,26340,1,0,0:0:0:0:
402,195,26477,5,0,0:0:0:0:
252,126,26613,1,0,0:0:0:0:
335,305,26750,1,0,0:0:0:0:
333,136,26886,1,0,0:0:0:0:
228,297,27022,5,0,0:0:0:0:
388,241,27159,1,0,0:0:0:0:
195,185,27295,1,0,0:0:0:0:
305,79,27431,1,0,0:0:0:0:
141,117,27568,5,0,0:0:0:0:
153,283,27704,1,0,0:0:0:0:
250,236,27840,1,0,0:0:0:0:
41,205,27977,1,0,0:0:0:0:
210,300,28113,5,0,0:0:0:0:
97,161,28250,1,0,0:0:0:0:
83,338,28386,1,0,0:0:0:0:
250,265,28522,1,0,0:0:0:0:
81,249,28659,5,0,0:0:0:0:
183,93,28795,1,0,0:0:0:0:
202,280,28931,1,0,0:0:0:0:
85,131,29068,1,0,0:0:0:0:
253,151,29204,5,0,0:0:0:0:
103,229,29340,1,0,0:0:0:0:
278,289,29477,1,0,0:0:0:0:
207,114,29613,1,0,0:0:0:0:
208,270,29750,5,0,0:0:0:0:
367,143,29886,1,0,0:0:0:0:
230,84,30022,1,0,0:0:0:0:
289,246,30159,1,0,0:0:0:0:
107,222,30295,5,0,0:0:0:0:
165,45,30431,1,0,0:0:0:0:
278,175,30568,1,0,0:0:0:0:
76,138,30704,1,0,0:0:0:0:
191,255,30840,5,0,0:0:0:0:
204,99,30977,1,0,0:0:0:0:
342,236,31113,1,0,0:0:0:0:
137,166,31250,1,0,0:0:0:0:
273,147,31386,5,0,0:0:0:0:
166,294,31522,1,0,0:0:0:0:
338,317,31659,1,0,0:0:0:0:
236,175,31795,1,0,0:0:0:0:
216,215,31931,5,0,0:0:0:0:
365,102,32068,1,0,0:0:0:0:
379,242,32204,1,0,0:0:0:0:
263,93,32340,1,0,0:0:0:0:
145,73,32477,5,0,0:0:0:0:
302,16,32613,1,0,0:0:0:0:
196,170,32750,1,0,0:0:0:0:
369,77,32886,1,0,0:0:0:0:
183,264,33022,5,0,0:0:0:0:
315,261,33159,1,0,0:0:0:0:
307,121,33295,1,0,0:0:0:0:
166,117,33431,1,0,0:0:0:0:
266,225,33568,5,0,0:0:0:0:
347,120,33704,1,0,0:0:0:0:
236,34,33840,1,0,0:0:0:0:
125,142,33977,1,0,0:0:0:0:
139,278,34113,6,0,B|162:321|162:321|235:305,1,105.000004452468
287,102,35205,6,0,B|305:141|305:141|249:154|249:154|286:191,1,150.000000596047
137,288,35750,2,0,B|169:311|169:311|197:289|197:289|211:331|211:331|240:334|240:334|236:246,1,236.249993796052
208,182,36295,2,0,B|232:112|232:112|269:110|269:110|306:136,1,131.250005565584
362,296,36568,5,0,0:0:0:0:
445,151,36705,1,0,0:0:0:0:
221,231,36841,1,0,0:0:0:0:
370,58,36977,1,0,0:0:0:0:
160,128,37114,2,0,B|128:160|128:160|160:160|160:160|128:192|128:192|160:192|160:192,1,131.250005565584
317,239,37386,6,0,P|321:282|271:310,1,105.000004452468
168,285,37632,2,0,P|161:241|210:208,1,105.000004452468
254,124,37850,2,0,B|273:79|273:79|371:163,1,157.500006678701
300,171,38177,1,0,0:0:0:0:
442,235,38314,1,0,0:0:0:0:
160,148,38450,1,0,0:0:0:0:
380,129,38586,1,0,0:0:0:0:
145,272,38723,1,0,0:0:0:0:
237,104,38859,1,0,0:0:0:0:
328,339,38995,1,0,0:0:0:0:
345,69,39132,1,0,0:0:0:0:
176,209,39268,2,0,P|144:155|163:110,1,105.000000447035
331,107,39568,6,0,B|265:142|265:142|294:155|294:155|274:168|274:168|303:178|303:178|284:221,1,196.875007510186
183,186,40114,2,0,B|156:168|156:168|147:191|147:191|112:178|112:178|132:206|132:206|112:215|112:215|147:229|147:229|153:246,1,196.875008348377
125,283,40659,2,0,B|145:314|145:314|99:330,1,70
242,300,40904,5,0,0:0:0:0:
248,110,41041,1,0,0:0:0:0:
56,242,41177,1,0,0:0:0:0:
284,186,41314,1,0,0:0:0:0:
84,140,41450,1,0,0:0:0:0:
223,328,41750,5,0,0:0:0:0:
431,273,41995,1,0,0:0:0:0:
385,137,42295,1,0,0:0:0:0:
330,331,42568,1,0,0:0:0:0:
192,128,42841,1,0,0:0:0:0:
320,263,42977,1,0,0:0:0:0:
463,120,43114,1,0,0:0:0:0:
215,242,43250,1,0,0:0:0:0:
435,302,43386,1,0,0:0:0:0:
192,277,43659,2,0,B|191:297|191:297|219:283|219:283|225:296|225:296|236:289,1,70
307,98,43932,6,0,L|250:114,5,46.6666666666667
156,227,44477,2,0,L|207:229,4,46.6666666666667
297,301,45023,2,0,P|313:278|298:228,1,70
80,111,45268,5,0,0:0:0:0:
363,158,45405,1,0,0:0:0:0:
113,291,45541,1,0,0:0:0:0:
312,62,45677,1,0,0:0:0:0:
109,167,45814,1,0,0:0:0:0:
358,308,46113,5,0,0:0:0:0:
133,271,46386,1,0,0:0:0:0:
202,88,46659,1,0,0:0:0:0:
272,266,46905,1,0,0:0:0:0:
386,145,47041,1,0,0:0:0:0:
161,190,47177,1,0,0:0:0:0:
245,59,47314,1,0,0:0:0:0:
228,244,47450,1,0,0:0:0:0:
372,276,47587,1,0,0:0:0:0:
267,110,47723,1,0,0:0:0:0:
372,188,47859,1,0,0:0:0:0:
132,175,47995,1,0,0:0:0:0:
122,248,48295,5,0,0:0:0:0:
149,285,48368,1,0,0:0:0:0:
192,302,48441,1,0,0:0:0:0:
238,304,48514,1,0,0:0:0:0:
283,296,48586,1,0,0:0:0:0:
316,262,48659,1,0,0:0:0:0:
316,59,48841,5,0,0:0:0:0:
258,70,48914,1,0,0:0:0:0:
214,109,48987,1,0,0:0:0:0:
199,165,49060,1,0,0:0:0:0:
222,217,49132,1,0,0:0:0:0:
266,254,49205,1,0,0:0:0:0:
79,159,49386,2,0,P|90:192|112:213,1,55.9999982910157
257,219,49659,1,0,0:0:0:0:
265,79,49795,1,0,0:0:0:0:
148,220,49932,1,0,0:0:0:0:
366,225,50205,1,0,0:0:0:0:
223,328,50477,5,0,0:0:0:0:
335,160,50614,1,0,0:0:0:0:
138,140,50750,1,0,0:0:0:0:
341,296,50886,1,0,0:0:0:0:
248,58,51022,5,0,0:0:0:0:
110,290,51159,1,0,0:0:0:0:
443,258,51295,1,0,0:0:0:0:
141,89,51432,1,0,0:0:0:0:
307,352,51568,5,0,0:0:0:0:
89,152,51704,1,0,0:0:0:0:
443,123,51841,1,0,0:0:0:0:
158,304,51977,1,0,0:0:0:0:
335,33,52114,5,0,0:0:0:0:
51,242,52250,1,0,0:0:0:0:
458,242,52386,1,0,0:0:0:0:
157,89,60295,5,0,0:0:0:0:
182,230,60431,1,0,0:0:0:0:
315,171,60567,1,0,0:0:0:0:
228,64,60704,1,0,0:0:0:0:
159,165,60840,5,0,0:0:0:0:
267,233,60976,1,0,0:0:0:0:
301,99,61112,1,0,0:0:0:0:
179,124,61249,1,0,0:0:0:0:
217,265,61385,5,0,0:0:0:0:
252,111,61521,1,0,0:0:0:0:
334,221,61657,1,0,0:0:0:0:
189,189,61794,1,0,0:0:0:0:
326,153,61931,5,0,0:0:0:0:
281,286,62067,1,0,0:0:0:0:
212,190,62203,1,0,0:0:0:0:
363,208,62340,1,0,0:0:0:0:
199,257,62476,5,0,0:0:0:0:
325,176,62612,1,0,0:0:0:0:
364,276,62748,1,0,0:0:0:0:
227,205,62885,1,0,0:0:0:0:
269,323,63022,5,0,0:0:0:0:
271,147,63158,1,0,0:0:0:0:
411,260,63294,1,0,0:0:0:0:
231,284,63431,1,0,0:0:0:0:
353,134,63567,5,0,0:0:0:0:
261,288,63703,1,0,0:0:0:0:
431,242,63839,1,0,0:0:0:0:
244,207,63976,1,0,0:0:0:0:
425,149,64113,5,0,0:0:0:0:
327,296,64249,1,0,0:0:0:0:
244,115,64385,1,0,0:0:0:0:
404,233,64522,1,0,0:0:0:0:
319,71,64658,5,0,0:0:0:0:
213,250,64794,1,0,0:0:0:0:
441,182,64930,1,0,0:0:0:0:
204,116,65067,1,0,0:0:0:0:
391,257,65204,5,0,0:0:0:0:
301,64,65340,1,0,0:0:0:0:
171,212,65476,1,0,0:0:0:0:
387,132,65613,1,0,0:0:0:0:
197,69,65749,5,0,0:0:0:0:
356,291,65885,1,0,0:0:0:0:
303,116,66022,1,0,0:0:0:0:
174,297,66158,1,0,0:0:0:0:
381,177,66295,5,0,0:0:0:0:
116,222,66431,1,0,0:0:0:0:
268,53,66567,1,0,0:0:0:0:
385,252,66704,1,0,0:0:0:0:
148,137,66840,5,0,0:0:0:0:
301,325,66976,1,0,0:0:0:0:
391,86,67112,1,0,0:0:0:0:
132,280,67249,1,0,0:0:0:0:
325,54,67385,5,0,0:0:0:0:
137,124,67521,1,0,0:0:0:0:
349,289,67657,1,0,0:0:0:0:
254,61,67794,1,0,0:0:0:0:
246,307,67931,5,0,0:0:0:0:
161,100,68204,1,0,0:0:0:0:
404,298,68476,1,0,0:0:0:0:
175,166,68749,1,0,0:0:0:0:
314,327,68885,1,0,0:0:0:0:
278,118,69022,1,0,0:0:0:0:
178,289,69158,2,0,B|211:293|211:293|193:266|193:266|212:270|212:270|214:251,1,105.000000447035
216,267,70113,6,0,B|244:289|244:289|221:320|221:320|276:263|276:263|283:309|310:248|310:248,1,210.937508884818
114,67,70658,2,0,B|129:98|157:84|157:84|149:122|149:122|226:137,1,168.750007107855
199,299,71203,1,0,0:0:0:0:
277,127,71340,1,0,0:0:0:0:
368,241,71476,1,0,0:0:0:0:
143,109,71613,2,0,B|148:152|148:152|172:116|211:143|211:143|190:173,1,148.7500006333
271,313,72294,6,0,B|299:338|316:285|316:285|360:281|306:227|306:227,1,140.625000558794
143,161,72840,2,0,P|151:176|98:207,1,93.7500003725294
206,161,73113,2,0,B|172:118|217:77,1,93.7500003725294
202,274,73385,5,0,0:0:0:0:
394,240,73522,1,0,0:0:0:0:
361,132,73658,1,0,0:0:0:0:
145,192,73794,1,0,0:0:0:0:
292,58,73931,1,0,0:0:0:0:
263,290,74067,1,0,0:0:0:0:
195,117,74203,1,0,0:0:0:0:
128,293,74476,5,0,0:0:0:0:
305,136,74749,1,0,0:0:0:0:
298,280,75022,2,0,B|286:253|286:253|319:252|319:252|306:234|306:234|331:231|331:231|314:207|314:207|340:194,1,168.750000670553
240,164,75649,5,0,0:0:0:0:
237,198,75785,1,0,0:0:0:0:
260,195,75922,1,0,0:0:0:0:
257,215,76058,5,0,0:0:0:0:
267,231,76222,1,0,0:0:0:0:
287,225,76385,1,0,0:0:0:0:
123,115,76658,6,0,P|79:191|171:242,1,210.000008010865
236,114,77203,2,0,L|276:202,1,93.7500003725294
183,171,77476,2,0,L|276:202,1,93.7500003725294
294,353,77749,1,0,0:0:0:0:
127,199,77885,1,0,0:0:0:0:
361,170,78022,1,0,0:0:0:0:
190,339,78158,1,0,0:0:0:0:
256,160,78294,2,0,L|207:207,1,56.2500002235176
183,231,78513,2,0,L|255:160,1,98.4375041462486
384,96,78840,6,0,B|352:128|384:160|384:160|352:160|352:160|318:176,1,140.625000558794
168,230,79385,1,0,0:0:0:0:
340,272,79603,2,0,P|273:236|270:157,1,140.625005923212
183,56,79876,1,0,0:0:0:0:
290,216,80012,1,0,0:0:0:0:
121,165,80149,1,0,0:0:0:0:
125,279,80285,2,0,B|211:324|249:293|249:293|235:233|302:160,1,281.250011846425
337,105,80694,2,0,L|391:199,1,105.000000417233
176,112,81022,6,0,B|176:128|176:128|192:112|192:112|176:144|192:144|192:144|208:128|208:128|208:160|208:160,1,131.250000521541
240,219,81540,6,0,L|326:220,1,84.3750035539274
304,96,81840,2,0,L|377:163,1,93.7500003725294
128,240,82112,1,0,0:0:0:0:
319,194,82249,1,0,0:0:0:0:
162,155,82385,1,0,0:0:0:0:
257,315,82522,1,0,0:0:0:0:
247,199,82658,1,0,0:0:0:0:
394,212,82794,1,0,0:0:0:0:
278,90,82931,1,0,0:0:0:0:
88,205,83203,6,0,B|63:245|85:258|85:258|90:285|90:285|105:278|129:298|129:293|136:280|136:280|132:247,1,168.749995520712
233,124,83749,2,0,B|182:147|242:208|242:208|268:242|199:263|147:220|198:191|198:191|116:143|203:103,1,365.625015400352
147,283,84240,5,0,0:0:0:0:
353,288,84377,1,0,0:0:0:0:
286,105,84513,1,0,0:0:0:0:
244,252,84649,1,0,0:0:0:0:
156,85,84786,1,0,0:0:0:0:
350,213,85058,1,0,0:0:0:0:
398,43,85385,5,0,0:0:0:0:
198,204,85522,1,0,0:0:0:0:
387,148,85658,1,0,0:0:0:0:
228,64,85794,1,0,0:0:0:0:
98,129,85931,5,0,0:0:0:0:
278,263,86068,1,0,0:0:0:0:
245,104,86204,1,0,0:0:0:0:
56,242,86340,1,0,0:0:0:0:
161,152,86476,5,0,0:0:0:0:
212,324,86613,1,0,0:0:0:0:
407,236,86749,1,0,0:0:0:0:
173,219,86885,1,0,0:0:0:0:
343,324,87022,5,0,0:0:0:0:
381,62,87159,1,0,0:0:0:0:
479,266,87295,1,0,0:0:0:0:
305,153,87431,1,0,0:0:0:0:
118,94,87567,6,0,B|82:131|82:131|115:161|89:258,1,175.000000745059
217,316,88112,2,0,B|303:261|303:261|259:196,1,175.000000745059
356,329,88657,1,0,0:0:0:0:
238,198,88794,1,0,0:0:0:0:
361,132,88930,1,0,0:0:0:0:
120,110,89067,2,0,B|83:178|161:190|161:190|166:266|166:266|246:218,1,281.250001117588
261,134,89531,2,0,L|274:161,1,28.1250001117588
158,300,89748,6,0,B|198:325|225:326|225:326|226:293|279:304|279:304,1,140.000000596047
379,209,90294,2,0,P|362:172|291:209,1,140.625005923212
204,130,90567,2,0,B|172:176|172:176|219:251,1,140.625005923212
350,312,90839,5,0,0:0:0:0:
227,217,90976,1,0,0:0:0:0:
395,193,91112,1,0,0:0:0:0:
200,334,91248,1,0,0:0:0:0:
122,147,91385,1,0,0:0:0:0:
320,263,91521,1,0,0:0:0:0:
87,235,91657,1,0,0:0:0:0:
205,154,91931,5,0,0:0:0:0:
140,251,92176,1,0,0:0:0:0:
241,267,92422,1,0,0:0:0:0:
292,169,92694,1,0,0:0:0:0:
364,243,93022,5,0,0:0:0:0:
174,191,93267,1,0,0:0:0:0:
281,317,93513,1,0,0:0:0:0:
289,237,93785,1,0,0:0:0:0:
127,113,94058,6,0,B|86:177|113:168|113:168|128:199|128:199|176:227|206:207,1,182.812507700176
149,334,94549,2,0,L|310:287,1,164.062500651926
252,133,94876,2,0,L|307:291,1,164.062500651926
198,164,95203,1,0,0:0:0:0:
293,57,95339,1,0,0:0:0:0:
71,60,95476,1,0,0:0:0:0:
269,123,95612,1,0,0:0:0:0:
117,158,95748,2,0,L|87:241,1,70.312500279397
239,21,95967,2,0,P|308:14|369:93,1,164.062500651926
384,96,96294,6,0,B|352:128|384:160|384:160|352:160|352:160|318:177,1,140.625000558794
168,230,96839,1,0,0:0:0:0:
369,333,97058,2,0,L|321:253,1,87.5000003725294
183,56,97358,1,0,0:0:0:0:
149,240,97494,1,0,0:0:0:0:
266,43,97603,1,0,0:0:0:0:
382,164,97740,2,0,B|444:207|405:277|405:277|330:263|381:166,1,257.812501024456
287,304,98176,2,0,P|235:293|270:259,1,112.500000447035
299,69,98476,6,0,B|273:88|273:88|298:92|298:92|277:110|277:110|298:108|298:108|283:125|283:125|290:131,1,131.250000521541
123,217,98994,5,0,0:0:0:0:
244,58,99294,1,0,0:0:0:0:
267,287,99566,1,0,0:0:0:0:
120,120,99703,1,0,0:0:0:0:
392,219,99839,1,0,0:0:0:0:
111,242,99976,1,0,0:0:0:0:
303,94,100112,1,0,0:0:0:0:
269,300,100248,1,0,0:0:0:0:
454,168,100385,1,0,0:0:0:0:
189,56,100631,6,0,B|151:94|162:102|162:102|185:126|185:126|166:139|166:139|180:157|180:157|172:177|172:177|144:160|144:160,1,183.750000782312
350,321,101476,2,0,L|322:268,1,56.2500002235176
202,274,101694,5,0,0:0:0:0:
414,335,101831,1,0,0:0:0:0:
361,132,101967,1,0,0:0:0:0:
145,192,102103,1,0,0:0:0:0:
302,73,102240,2,0,B|212:70|198:126|198:126,1,112.500000447035
342,160,102540,1,0,0:0:0:0:
90,247,102839,5,0,0:0:0:0:
231,255,102976,1,0,0:0:0:0:
131,336,103112,1,0,0:0:0:0:
176,183,103249,1,0,0:0:0:0:
235,325,103385,5,0,0:0:0:0:
189,184,103522,1,0,0:0:0:0:
340,245,103658,1,0,0:0:0:0:
162,288,103795,1,0,0:0:0:0:
293,146,103931,5,0,0:0:0:0:
194,63,104068,1,0,0:0:0:0:
376,105,104204,1,0,0:0:0:0:
182,154,104341,1,0,0:0:0:0:
329,26,104476,2,0,B|313:86|382:76|382:76|207:137,1,280.000001192094
112,128,105022,5,0,0:0:0:0:
207,244,105159,1,0,0:0:0:0:
314,173,105295,1,0,0:0:0:0:
180,154,105432,1,0,0:0:0:0:
188,68,105567,5,0,0:0:0:0:
73,123,105704,1,0,0:0:0:0:
263,107,105840,1,0,0:0:0:0:
123,14,105977,1,0,0:0:0:0:
138,196,106112,5,0,0:0:0:0:
305,248,106249,1,0,0:0:0:0:
196,138,106385,1,0,0:0:0:0:
136,289,106522,1,0,0:0:0:0:
320,326,106657,5,0,0:0:0:0:
167,362,106794,1,0,0:0:0:0:
281,215,106930,1,0,0:0:0:0:
387,358,107067,1,0,0:0:0:0:
497,185,107203,5,0,0:0:0:0:
309,308,107340,1,0,0:0:0:0:
318,104,107476,1,0,0:0:0:0:
455,281,107613,1,0,0:0:0:0:
262,173,107748,5,0,0:0:0:0:
494,85,107885,1,0,0:0:0:0:
236,9,108021,1,0,0:0:0:0:
432,173,108158,1,0,0:0:0:0:
182,121,108293,5,0,0:0:0:0:
382,280,108430,1,0,0:0:0:0:
306,44,108566,1,0,0:0:0:0:
148,266,108703,1,0,0:0:0:0:
388,342,108838,5,0,0:0:0:0:
92,370,108975,1,0,0:0:0:0:
290,98,109111,1,0,0:0:0:0:
10,237,109249,1,0,0:0:0:0:
191,124,109385,5,0,0:0:0:0:
82,280,109522,1,0,0:0:0:0:
270,259,109658,1,0,0:0:0:0:
100,120,109795,1,0,0:0:0:0:
265,159,109930,5,0,0:0:0:0:
51,225,110067,1,0,0:0:0:0:
224,364,110203,1,0,0:0:0:0:
161,134,110340,1,0,0:0:0:0:
254,310,110475,5,0,0:0:0:0:
90,138,110612,1,0,0:0:0:0:
44,365,110748,1,0,0:0:0:0:
299,166,110885,1,0,0:0:0:0:
129,74,111020,5,0,0:0:0:0:
121,323,111157,1,0,0:0:0:0:
307,119,111293,1,0,0:0:0:0:
27,206,111430,1,0,0:0:0:0:
257,119,111567,5,0,0:0:0:0:
85,285,111704,1,0,0:0:0:0:
161,48,111840,1,0,0:0:0:0:
262,237,111977,1,0,0:0:0:0:
80,106,112112,5,0,0:0:0:0:
274,315,112249,1,0,0:0:0:0:
292,80,112385,1,0,0:0:0:0:
42,234,112522,1,0,0:0:0:0:
196,47,112657,5,0,0:0:0:0:
224,290,112794,1,0,0:0:0:0:
37,157,112930,1,0,0:0:0:0:
316,230,113067,1,0,0:0:0:0:
46,284,113202,5,0,0:0:0:0:
358,152,113339,1,0,0:0:0:0:
70,78,113475,1,0,0:0:0:0:
246,341,113612,1,0,0:0:0:0:
239,136,113749,5,0,0:0:0:0:
127,237,113886,1,0,0:0:0:0:
288,225,114022,1,0,0:0:0:0:
166,129,114159,1,0,0:0:0:0:
230,278,114294,5,0,0:0:0:0:
369,247,114431,1,0,0:0:0:0:
270,150,114567,1,0,0:0:0:0:
316,308,114704,1,0,0:0:0:0:
168,246,114839,5,0,0:0:0:0:
245,353,114976,1,0,0:0:0:0:
149,317,115112,1,0,0:0:0:0:
318,274,115249,1,0,0:0:0:0:
241,175,115384,5,0,0:0:0:0:
391,203,115521,1,0,0:0:0:0:
212,128,115657,1,0,0:0:0:0:
337,226,115794,1,0,0:0:0:0:
149,219,115931,5,0,0:0:0:0:
322,66,116068,1,0,0:0:0:0:
125,119,116204,1,0,0:0:0:0:
302,276,116341,1,0,0:0:0:0:
232,90,116476,5,0,0:0:0:0:
164,305,116613,1,0,0:0:0:0:
389,193,116749,1,0,0:0:0:0:
96,259,116886,1,0,0:0:0:0:
153,35,117021,5,0,0:0:0:0:
350,204,117158,1,0,0:0:0:0:
101,224,117294,1,0,0:0:0:0:
364,57,117431,1,0,0:0:0:0:
159,198,117566,5,0,0:0:0:0:
363,326,117703,1,0,0:0:0:0:
424,121,117839,1,0,0:0:0:0:
227,271,117976,1,0,0:0:0:0:
256,64,118112,5,0,0:0:0:0:
256,320,118249,1,0,0:0:0:0:
320,80,118385,1,0,0:0:0:0:
192,304,118522,1,0,0:0:0:0:
368,128,118657,5,0,0:0:0:0:
144,256,118794,1,0,0:0:0:0:
384,192,118930,1,0,0:0:0:0:
128,192,119067,1,0,0:0:0:0:
368,256,119202,5,0,0:0:0:0:
144,128,119339,1,0,0:0:0:0:
320,304,119475,1,0,0:0:0:0:
192,80,119612,1,0,0:0:0:0:
256,336,119747,5,0,0:0:0:0:
256,48,119884,1,0,0:0:0:0:
160,320,120020,1,0,0:0:0:0:
352,64,120157,1,0,0:0:0:0:
96,256,120294,5,0,0:0:0:0:
416,128,120431,1,0,0:0:0:0:
80,176,120567,1,0,0:0:0:0:
432,208,120704,1,0,0:0:0:0:
112,96,120839,5,0,0:0:0:0:
400,288,120976,1,0,0:0:0:0:
176,32,121112,1,0,0:0:0:0:
320,336,121249,1,0,0:0:0:0:
256,16,121384,5,0,0:0:0:0:
240,352,121521,1,0,0:0:0:0:
336,48,121657,1,0,0:0:0:0:
144,336,121794,1,0,0:0:0:0:
400,112,121929,5,0,0:0:0:0:
80,272,122066,1,0,0:0:0:0:
432,192,122202,1,0,0:0:0:0:
48,192,122339,1,0,0:0:0:0:
127,84,122476,6,0,B|145:82|145:82|149:99|149:99|170:96|170:96|166:108|166:108|151:114|151:114|161:116|161:116|166:127|166:127|180:129|180:129|179:141|179:141|188:142|188:142,1,140.000000596047
70,306,123022,2,0,B|97:298|97:298|114:315|114:315|127:298|127:298|110:264|110:264|156:305|156:305|179:283|179:283|170:265,1,210.000008904935
142,162,123567,2,0,B|186:132|186:132|201:177|201:177|224:156,1,116.666667163373
326,251,123839,5,0,0:0:0:0:
346,66,123976,1,0,0:0:0:0:
182,222,124112,1,0,0:0:0:0:
397,179,124248,1,0,0:0:0:0:
165,63,124385,2,0,P|120:84|140:154,1,117.187500465662
216,322,124658,6,0,B|273:311|273:311|282:250,1,112.50000473857
143,221,124903,2,0,B|226:243|226:243,1,84.3750035539274
302,307,125122,2,0,B|341:292|341:292|361:273|361:273|370:250|370:250|374:231|374:231|372:206|372:206|364:185|364:185|348:165|348:165,1,168.750007107855
209,60,125449,1,0,0:0:0:0:
270,285,125585,1,0,0:0:0:0:
318,61,125722,1,0,0:0:0:0:
97,162,125858,1,0,0:0:0:0:
389,218,125994,1,0,0:0:0:0:
154,96,126131,1,0,0:0:0:0:
183,311,126267,1,0,0:0:0:0:
344,133,126404,1,0,0:0:0:0:
81,295,126540,2,0,B|126:276|126:276|98:247|98:247|135:228|135:228|145:203|145:203|135:181,1,157.500006678701
271,68,126840,6,0,B|276:97|276:97|259:96|259:96|256:120|256:120|282:122|282:122|276:143|276:143|291:147|291:147|298:158,1,140.000000596047
235,298,127385,2,0,B|260:295|260:295|262:274|262:274|248:274|248:274|231:268|231:268|236:256|236:256|252:252|252:252|265:247|265:247|271:256|271:256|279:253,1,140.000000596047
120,188,127931,2,0,B|141:177|141:177|153:157|153:157|174:179|174:179|201:172|201:172|208:172,1,105.000000447035
186,340,128175,5,0,0:0:0:0:
283,154,128312,1,0,0:0:0:0:
128,275,128448,1,0,0:0:0:0:
369,247,128585,1,0,0:0:0:0:
173,122,128721,1,0,0:0:0:0:
203,294,129021,5,0,0:0:0:0:
422,185,129294,1,0,0:0:0:0:
273,83,129566,1,0,0:0:0:0:
404,283,129839,1,0,0:0:0:0:
143,109,130112,1,0,0:0:0:0:
245,297,130248,1,0,0:0:0:0:
408,106,130385,1,0,0:0:0:0:
93,204,130521,1,0,0:0:0:0:
407,203,130657,1,0,0:0:0:0:
129,301,130931,2,0,B|230:346|294:277,1,157.500006678701
224,91,131203,5,0,0:0:0:0:
260,120,131276,1,0,0:0:0:0:
297,148,131349,1,0,0:0:0:0:
329,181,131422,1,0,0:0:0:0:
282,182,131494,1,0,0:0:0:0:
235,180,131567,1,0,0:0:0:0:
188,177,131640,1,0,0:0:0:0:
272,271,131749,5,0,0:0:0:0:
318,273,131822,1,0,0:0:0:0:
336,230,131894,1,0,0:0:0:0:
306,193,131967,1,0,0:0:0:0:
259,196,132040,1,0,0:0:0:0:
244,239,132112,1,0,0:0:0:0:
272,271,132185,1,0,0:0:0:0:
115,65,132294,6,0,B|83:102|83:102|99:110|109:118|109:118|87:138|87:138|98:148,1,116.666667163373
185,261,132566,1,0,0:0:0:0:
183,68,132703,1,0,0:0:0:0:
368,233,132839,1,0,0:0:0:0:
96,264,132975,1,0,0:0:0:0:
312,137,133112,2,0,B|266:123|266:123|273:91|273:91|221:73|189:117,1,157.500006678701
376,348,133385,6,0,B|333:332|333:332|375:270,1,105.000004452468
202,262,133603,2,0,B|278:228|278:228|248:162|248:162|188:124,1,210.000008904935
289,29,133876,2,0,B|395:65|395:65|386:134,1,157.500006678701
203,205,134176,1,0,0:0:0:0:
256,75,134312,1,0,0:0:0:0:
369,229,134449,1,0,0:0:0:0:
222,305,134585,1,0,0:0:0:0:
292,189,134722,1,0,0:0:0:0:
126,253,134858,1,0,0:0:0:0:
238,110,134994,1,0,0:0:0:0:
332,252,135131,1,0,0:0:0:0:
132,177,135267,2,0,P|166:115|219:143,1,140.000000596047
236,326,135567,6,0,L|295:316,5,52.5000002235176
334,160,136113,2,0,L|386:168,5,46.6666666666667
168,304,136658,2,0,P|137:293|129:265,1,52.5000022262338
328,243,136877,1,0,0:0:0:0:
120,222,137040,1,0,0:0:0:0:
256,126,137203,2,0,B|363:139|333:238,1,157.500006678701
84,311,137476,2,0,B|161:342|161:342|182:261,1,157.500006678701
308,268,137749,5,0,0:0:0:0:
253,74,137886,1,0,0:0:0:0:
169,279,138022,1,0,0:0:0:0:
288,314,138158,1,0,0:0:0:0:
385,137,138294,1,0,0:0:0:0:
121,233,138431,1,0,0:0:0:0:
402,239,138567,1,0,0:0:0:0:
85,102,138704,1,0,0:0:0:0:
241,330,138840,1,0,0:0:0:0:
360,106,138976,1,0,0:0:0:0:
151,262,139113,1,0,0:0:0:0:
375,210,139249,1,0,0:0:0:0:
176,41,139386,1,0,0:0:0:0:
373,342,139522,1,0,0:0:0:0:
141,185,139631,2,0,B|140:205|140:205|168:191|168:191|174:204|174:204|185:197,1,70
298,298,139931,5,0,0:0:0:0:
355,168,140202,1,0,0:0:0:0:
200,201,140473,1,0,0:0:0:0:
333,235,140745,1,0,0:0:0:0:
139,163,141016,5,0,0:0:0:0:
321,145,141288,1,0,0:0:0:0:
211,72,141559,1,0,0:0:0:0:
174,232,141831,1,0,0:0:0:0:
354,265,142102,5,0,0:0:0:0:
174,312,142374,1,0,0:0:0:0:
272,157,142645,1,0,0:0:0:0:
307,354,142917,1,0,0:0:0:0:
421,209,143188,5,0,0:0:0:0:
231,243,143460,1,0,0:0:0:0:
302,81,143731,1,0,0:0:0:0:
383,290,144003,1,0,0:0:0:0:
200,164,144274,5,0,0:0:0:0:
434,151,144546,1,0,0:0:0:0:
204,66,144817,1,0,0:0:0:0:
307,264,145089,1,0,0:0:0:0:
318,36,145360,5,0,0:0:0:0:
200,254,145632,1,0,0:0:0:0:
415,140,145903,1,0,0:0:0:0:
297,360,146175,1,0,0:0:0:0:
214,117,146446,5,0,0:0:0:0:
423,308,146718,1,0,0:0:0:0:
153,235,146990,1,0,0:0:0:0:
443,99,147261,1,0,0:0:0:0:
109,127,147532,5,0,0:0:0:0:
330,304,147804,1,0,0:0:0:0:
330,5,148075,1,0,0:0:0:0:
162,273,148347,1,0,0:0:0:0:
177,117,148618,5,0,0:0:0:0:
291,339,148890,1,0,0:0:0:0:
442,177,149161,1,0,0:0:0:0:
109,219,149433,1,0,0:0:0:0:
302,50,149704,5,0,0:0:0:0:
119,265,149976,1,0,0:0:0:0:
408,324,150247,1,0,0:0:0:0:
85,119,150519,1,0,0:0:0:0:
416,113,150790,5,0,0:0:0:0:
113,322,151062,1,0,0:0:0:0:
281,31,151333,1,0,0:0:0:0:
343,339,151605,1,0,0:0:0:0:
51,182,151876,5,0,0:0:0:0:
458,123,152148,1,0,0:0:0:0:
127,32,152419,1,0,0:0:0:0:
224,353,152691,1,0,0:0:0:0:
360,27,152962,5,0,0:0:0:0:
72,260,153234,1,0,0:0:0:0:
458,321,153505,1,0,0:0:0:0:
60,44,153777,1,0,0:0:0:0:
469,206,154048,5,0,0:0:0:0:
25,103,154320,1,0,0:0:0:0:
397,356,154591,1,0,0:0:0:0:
166,19,154863,1,0,0:0:0:0:
484,280,155134,5,0,0:0:0:0:
61,341,155406,1,0,0:0:0:0:
449,87,155677,1,0,0:0:0:0:
12,175,155949,1,0,0:0:0:0:
391,38,156220,5,0,0:0:0:0:
265,356,156492,1,0,0:0:0:0:
129,6,156763,1,0,0:0:0:0:
382,371,157035,1,0,0:0:0:0:
367,85,157385,6,0,P|260:74|187:254,1,315.000013357403
367,293,157930,2,0,P|308:134|205:187,1,315.000013357403
160,299,158475,2,0,P|240:318|245:271,1,131.250005565584
377,212,158748,5,0,0:0:0:0:
208,149,158885,1,0,0:0:0:0:
280,269,159021,1,0,0:0:0:0:
176,84,159157,1,0,0:0:0:0:
160,316,159294,2,0,P|233:316|239:242,1,157.500006678701
414,53,159566,6,0,L|412:237,1,183.750007791818
397,288,159866,2,0,L|278:198,1,131.250005565584
277,181,160112,2,0,L|375:58,1,157.500006678701
354,206,160385,5,0,0:0:0:0:
212,302,160521,1,0,0:0:0:0:
187,154,160657,1,0,0:0:0:0:
280,319,160794,1,0,0:0:0:0:
352,269,160930,1,0,0:0:0:0:
259,122,161066,1,0,0:0:0:0:
119,316,161203,1,0,0:0:0:0:
120,176,161339,1,0,0:0:0:0:
351,218,161475,2,0,P|319:164|235:183,1,157.500006678701
99,39,161748,6,0,B|141:188|279:245|417:171|430:97,1,420.00001780987
370,68,162294,2,0,P|244:86|208:342,1,420.00001780987
265,262,162839,2,0,P|215:218|173:224,1,105.000004452468
362,236,163084,5,0,0:0:0:0:
323,112,163221,1,0,0:0:0:0:
149,188,163357,1,0,0:0:0:0:
280,312,163494,1,0,0:0:0:0:
289,152,163630,1,0,0:0:0:0:
212,336,163930,6,0,P|163:288|226:224,1,157.500006678701
138,195,164203,2,0,P|176:184|221:271,1,157.500006678701
172,244,164475,2,0,P|178:193|274:177,1,157.500006678701
231,231,164748,2,0,P|156:208|185:116,1,183.750007791818
207,326,165048,1,0,0:0:0:0:
304,158,165185,1,0,0:0:0:0:
391,336,165321,1,0,0:0:0:0:
210,176,165457,1,0,0:0:0:0:
401,249,165594,2,0,P|334:204|246:227,1,157.500006678701
83,244,165866,1,0,0:0:0:0:
83,244,166003,1,0,0:0:0:0:
81,76,166148,6,0,P|160:38|350:226,1,375.000015795233
424,228,166657,2,0,P|336:161|130:338,1,420.00001780987
77,310,167203,2,0,P|121:340|208:276,1,157.500006678701
349,247,167475,5,0,0:0:0:0:
151,261,167612,1,0,0:0:0:0:
311,148,167748,1,0,0:0:0:0:
138,116,167884,1,0,0:0:0:0:
253,200,168021,2,0,P|169:211|134:285,1,157.500006678701
212,267,168294,6,0,P|229:218|143:181,1,157.500006678701
163,234,168566,2,0,P|174:180|277:174,1,157.500006678701
233,212,168839,2,0,P|220:145|135:125,1,157.500006678701
329,270,169112,1,0,0:0:0:0:
269,177,169248,1,0,0:0:0:0:
108,233,169384,1,0,0:0:0:0:
169,104,169521,1,0,0:0:0:0:
238,261,169657,1,0,0:0:0:0:
348,190,169794,1,0,0:0:0:0:
168,172,169930,1,0,0:0:0:0:
292,255,170066,1,0,0:0:0:0:
168,248,170203,2,0,P|91:243|70:317,1,157.500006678701
101,258,170475,6,0,P|202:328|451:192,1,420.00001780987
444,211,171021,2,0,P|317:328|96:248,1,420.00001780987
138,238,171566,2,0,P|181:243|239:197,1,105.000004452468
240,116,171812,1,0,0:0:0:0:
94,161,171975,1,0,0:0:0:0:
208,194,172112,1,0,0:0:0:0:
341,268,172385,1,0,0:0:0:0:
223,328,172657,5,0,0:0:0:0:
282,232,172794,1,0,0:0:0:0:
136,158,172930,1,0,0:0:0:0:
183,273,173066,1,0,0:0:0:0:
286,128,173202,1,0,0:0:0:0:
129,209,173339,1,0,0:0:0:0:
304,267,173475,1,0,0:0:0:0:
211,140,173612,1,0,0:0:0:0:
277,314,173748,1,0,0:0:0:0:
393,248,173885,2,0,P|305:264|342:275,1,332.500001415612
123,183,174839,6,0,B|127:191|127:191|143:180|143:180|142:198|142:198|152:188|155:184|153:197|153:197|166:185|166:185|158:197|158:197|150:202|150:202,1,105.000000447035
223,84,175330,2,0,B|231:99|231:99|239:90|239:90|231:114|219:103|219:103|236:105|236:105|232:116|232:116|243:117|243:117|236:127|236:127,1,105.000000447035
176,224,175930,1,0,0:0:0:0:
424,258,176067,1,0,0:0:0:0:
316,70,176203,1,0,0:0:0:0:
103,195,176339,2,0,B|146:156|171:185|203:236|196:291|246:253|253:203|253:203|244:180,1,227.500000968576
63,304,177021,6,0,B|97:334|151:355|267:374|267:374|314:323,1,280.000001192094
175,260,177566,2,0,B|248:247|248:247|208:160,1,157.500006678701
407,99,177839,2,0,B|315:97|315:97|345:42,1,131.250005565584
283,299,178112,5,0,0:0:0:0:
161,121,178248,1,0,0:0:0:0:
361,132,178384,1,0,0:0:0:0:
167,294,178521,1,0,0:0:0:0:
231,59,178657,1,0,0:0:0:0:
373,226,178794,1,0,0:0:0:0:
106,165,178930,1,0,0:0:0:0:
268,283,179203,5,0,0:0:0:0:
74,180,179421,2,0,B|123:121|123:121|142:200,1,150.000006318093
243,38,179858,5,0,0:0:0:0:
240,227,179994,1,0,0:0:0:0:
390,150,180131,1,0,0:0:0:0:
150,130,180266,5,0,0:0:0:0:
362,251,180403,1,0,0:0:0:0:
365,41,180539,1,0,0:0:0:0:
193,284,180675,5,0,0:0:0:0:
461,129,180812,1,0,0:0:0:0:
198,6,180948,1,0,0:0:0:0:
381,307,181085,1,0,0:0:0:0:
157,7,181221,1,0,0:0:0:0:
251,235,181348,6,0,P|228:323|336:296,1,243.750010266901
365,94,181930,2,0,L|377:173,1,75.0000031590466
102,97,182203,2,0,L|182:128,1,75.0000031590466
123,335,182476,1,0,0:0:0:0:
360,144,182612,1,0,0:0:0:0:
305,350,182749,1,0,0:0:0:0:
127,135,182885,1,0,0:0:0:0:
359,314,183021,2,0,L|322:368,1,56.2500023692849
166,158,183275,2,0,B|201:175|222:172|222:172|240:147,1,75.0000031590466
128,216,183566,6,0,B|156:238|156:238|191:216|191:216|196:246|196:246|246:250|255:210|255:210|276:198,1,206.250008687378
188,169,184112,2,0,L|249:166,1,56.2500023692849
188,278,184366,2,0,B|216:241|249:256|249:256|232:267|232:267,1,75.0000031590466
307,303,184657,1,0,0:0:0:0:
201,185,184803,1,0,0:0:0:0:
427,131,184948,1,0,0:0:0:0:
143,109,185094,2,0,B|180:85|195:102|195:102|142:140|191:129|191:129|179:147,1,131.250005528331
130,314,185494,2,0,L|190:306,1,56.2500023692849
151,220,185748,6,0,B|229:257|228:209|228:209|262:113|299:208|299:208,1,206.250008687378
379,209,186294,2,0,P|357:174|384:128,1,93.7500003725294
426,169,186548,2,0,B|395:95|395:95|361:107,1,93.7500003725294
179,275,186803,5,0,0:0:0:0:
232,83,186948,1,0,0:0:0:0:
385,324,187094,1,0,0:0:0:0:
145,192,187239,1,0,0:0:0:0:
344,235,187384,1,0,0:0:0:0:
165,312,187530,1,0,0:0:0:0:
237,203,187675,2,0,P|261:156|233:120,1,93.7500003725294
100,172,187930,5,0,0:0:0:0:
172,200,188148,2,0,B|179:267|179:267|254:253|291:191|286:127,1,250.000000993412
174,35,188584,5,0,0:0:0:0:
89,155,188730,1,0,0:0:0:0:
234,214,188875,1,0,0:0:0:0:
287,57,189021,5,0,0:0:0:0:
89,255,189166,1,0,0:0:0:0:
338,331,189312,1,0,0:0:0:0:
393,81,189421,5,0,0:0:0:0:
208,363,189566,2,0,B|219:341|219:341|219:353|219:353|221:359|221:359|214:367|214:367|222:364|222:364|229:356|229:356|231:366|231:366|236:363|236:363|238:351|238:351|248:351|248:351,1,93.7500003725294
512,384,189821,1,0,0:0:0:0:
209,109,190112,5,0,0:0:0:0:
125,264,190248,1,0,0:0:0:0:
331,220,190384,1,0,0:0:0:0:
221,51,190521,1,0,0:0:0:0:
134,186,190657,5,0,0:0:0:0:
371,105,190794,1,0,0:0:0:0:
272,278,190930,1,0,0:0:0:0:
87,167,191066,1,0,0:0:0:0:
173,273,191203,5,0,0:0:0:0:
387,189,191339,1,0,0:0:0:0:
253,48,191475,1,0,0:0:0:0:
128,299,191612,1,0,0:0:0:0:
335,313,191749,5,0,0:0:0:0:
352,49,191884,1,0,0:0:0:0:
120,77,192021,1,0,0:0:0:0:
332,354,192157,1,0,0:0:0:0:
135,196,192294,6,0,B|182:182|153:245|153:245|216:266|267:246|267:246|298:177,1,262.500001117588
389,38,192839,2,0,B|389:112|430:84|430:84|358:133|401:167|333:167|333:167|286:156|291:153,1,262.500001117588
229,315,193384,1,0,0:0:0:0:
155,221,193521,1,0,0:0:0:0:
410,324,193657,1,0,0:0:0:0:
487,185,193794,2,0,B|449:158|423:187|423:187|417:184|391:158|393:135|393:135|382:139|376:129|371:188,1,196.875000838191
190,132,194203,1,0,0:0:0:0:
94,315,194475,6,0,B|124:337|150:345|150:345|177:341|185:329|185:329|205:316|211:339|142:307|141:256,1,210.000008904935
340,286,195021,2,0,B|309:240|361:233|373:201|373:201|348:171,1,131.250000558794
259,131,195294,2,0,B|218:152|219:210|160:186|158:166,1,109.375000465662
172,276,195566,5,0,0:0:0:0:
172,63,195703,1,0,0:0:0:0:
298,219,195839,1,0,0:0:0:0:
40,298,195975,1,0,0:0:0:0:
234,169,196112,1,0,0:0:0:0:
23,29,196248,1,0,0:0:0:0:
98,248,196384,1,0,0:0:0:0:
107,232,196657,5,0,0:0:0:0:
162,147,196875,2,0,B|231:47|231:47|257:169,1,240.625001024456
197,247,197312,5,0,0:0:0:0:
340,268,197448,1,0,0:0:0:0:
266,321,197585,1,0,0:0:0:0:
271,179,197720,5,0,0:0:0:0:
153,229,197857,1,0,0:0:0:0:
264,354,197994,1,0,0:0:0:0:
367,269,198129,5,0,0:0:0:0:
272,137,198266,1,0,0:0:0:0:
264,384,198403,1,0,0:0:0:0:
114,210,198539,1,0,0:0:0:0:
410,266,198675,1,0,0:0:0:0:
123,115,198812,6,0,P|67:151|190:257,1,284.37500121072
224,345,199384,2,0,P|261:321|295:262,1,109.375000465662
235,126,199657,2,0,P|266:139|295:216,1,109.375000465662
287,313,199930,1,0,0:0:0:0:
169,239,200066,1,0,0:0:0:0:
330,195,200203,1,0,0:0:0:0:
210,313,200339,5,0,0:0:0:0:
425,124,200475,1,0,0:0:0:0:
425,124,200548,1,0,0:0:0:0:
425,124,200621,1,0,0:0:0:0:
328,165,200694,5,0,0:0:0:0:
328,165,200766,1,0,0:0:0:0:
328,165,200839,1,0,0:0:0:0:
116,108,201021,6,0,B|101:129|101:129|118:136|104:153|116:164|98:181|110:185|81:181|81:181|114:192|88:203|113:204|113:204,1,140.000000596047
236,304,201566,2,0,B|211:282|211:282|221:278,1,43.7500001862647
195,180,201812,2,0,B|204:145|227:133|227:133|255:155|275:193|275:193|283:185,1,131.250000558794
183,276,202110,1,0,0:0:0:0:
85,124,202247,1,0,0:0:0:0:
103,346,202383,1,0,0:0:0:0:
237,68,202521,2,0,B|268:71|248:85|248:85|219:104|286:104|276:127|276:127|249:149|219:135|219:135|239:172|234:165,1,192.500000819565
326,197,202929,1,0,0:0:0:0:
161,248,203203,6,0,P|172:287|381:357,1,280.000001192094
335,304,203748,2,0,P|360:286|306:275,1,115.500004016519
265,298,204021,2,0,P|260:256|315:255,1,96.2500033470993
209,211,204292,5,0,0:0:0:0:
394,240,204429,1,0,0:0:0:0:
158,265,204565,1,0,0:0:0:0:
370,116,204701,1,0,0:0:0:0:
213,307,204838,1,0,0:0:0:0:
279,78,204974,1,0,0:0:0:0:
90,177,205110,1,0,0:0:0:0:
256,200,205384,5,0,0:0:0:0:
354,314,205601,2,0,B|410:229|410:229|449:336,1,210.000000894071
262,275,206038,5,0,0:0:0:0:
337,159,206174,1,0,0:0:0:0:
197,220,206311,1,0,0:0:0:0:
306,215,206446,5,0,0:0:0:0:
182,174,206583,1,0,0:0:0:0:
237,288,206720,1,0,0:0:0:0:
307,169,206857,1,0,0:0:0:0:
170,295,206994,2,0,B|195:290|195:290|180:281|189:298|189:298|198:303|245:284,1,96.2500033470993
236,158,207266,2,0,B|263:135|236:104|236:104|176:124,1,115.500004016519
168,152,207566,5,0,0:0:0:0:
260,280,207703,1,0,0:0:0:0:
165,224,207839,1,0,0:0:0:0:
286,197,207975,1,0,0:0:0:0:
208,151,208112,5,0,0:0:0:0:
330,219,208249,1,0,0:0:0:0:
224,264,208385,1,0,0:0:0:0:
336,150,208521,1,0,0:0:0:0:
251,177,208657,5,0,0:0:0:0:
418,139,208794,1,0,0:0:0:0:
382,239,208930,1,0,0:0:0:0:
279,102,209066,1,0,0:0:0:0:
335,175,209203,6,0,B|364:154|373:133|374:127|374:127|373:117,1,65.6250027827922
246,68,209475,2,0,B|267:44|307:66,1,65.6250027827922
129,186,209749,5,0,0:0:0:0:
256,277,209886,1,0,0:0:0:0:
141,243,210022,1,0,0:0:0:0:
320,217,210159,1,0,0:0:0:0:
157,89,210294,5,0,0:0:0:0:
113,195,210431,1,0,0:0:0:0:
251,145,210567,1,0,0:0:0:0:
216,258,210704,1,0,0:0:0:0:
331,157,210839,5,0,0:0:0:0:
355,274,210976,1,0,0:0:0:0:
235,211,211112,1,0,0:0:0:0:
320,343,211249,1,0,0:0:0:0:
418,308,211384,5,0,0:0:0:0:
248,288,211521,1,0,0:0:0:0:
374,220,211657,1,0,0:0:0:0:
249,126,211794,1,0,0:0:0:0:
305,151,211930,5,0,0:0:0:0:
400,32,212067,1,0,0:0:0:0:
480,159,212203,1,0,0:0:0:0:
300,86,212340,1,0,0:0:0:0:
291,209,212475,5,0,0:0:0:0:
212,323,212612,1,0,0:0:0:0:
359,263,212748,1,0,0:0:0:0:
213,191,212885,1,0,0:0:0:0:
372,125,213020,5,0,0:0:0:0:
231,79,213157,1,0,0:0:0:0:
304,218,213293,1,0,0:0:0:0:
171,265,213430,1,0,0:0:0:0:
298,334,213565,5,0,0:0:0:0:
312,158,213702,1,0,0:0:0:0:
135,246,213838,1,0,0:0:0:0:
338,291,213975,1,0,0:0:0:0:
199,131,214112,5,0,0:0:0:0:
58,275,214249,1,0,0:0:0:0:
221,217,214385,1,0,0:0:0:0:
54,154,214522,1,0,0:0:0:0:
157,308,214657,5,0,0:0:0:0:
326,170,214794,1,0,0:0:0:0:
163,217,214930,1,0,0:0:0:0:
349,326,215067,1,0,0:0:0:0:
384,178,215202,5,0,0:0:0:0:
270,52,215339,1,0,0:0:0:0:
432,28,215475,1,0,0:0:0:0:
477,206,215612,1,0,0:0:0:0:
264,292,215747,5,0,0:0:0:0:
359,136,215884,1,0,0:0:0:0:
440,344,216020,1,0,0:0:0:0:
237,230,216157,1,0,0:0:0:0:
54,230,216294,5,0,0:0:0:0:
218,361,216431,1,0,0:0:0:0:
248,142,216567,1,0,0:0:0:0:
83,296,216704,1,0,0:0:0:0:
140,89,216839,5,0,0:0:0:0:
317,12,216976,1,0,0:0:0:0:
334,180,217112,1,0,0:0:0:0:
441,11,217249,1,0,0:0:0:0:
229,82,217384,5,0,0:0:0:0:
406,266,217521,1,0,0:0:0:0:
171,349,217657,1,0,0:0:0:0:
447,218,217794,1,0,0:0:0:0:
116,211,217929,5,0,0:0:0:0:
392,61,218066,1,0,0:0:0:0:
304,318,218202,1,0,0:0:0:0:
63,118,218339,1,0,0:0:0:0:
128,192,218476,5,0,0:0:0:0:
256,64,218613,1,0,0:0:0:0:
384,192,218748,1,0,0:0:0:0:
256,320,218886,1,0,0:0:0:0:
160,224,219021,5,0,0:0:0:0:
352,160,219158,1,0,0:0:0:0:
224,96,219294,1,0,0:0:0:0:
288,288,219431,1,0,0:0:0:0:
96,160,219566,5,0,0:0:0:0:
224,352,219703,1,0,0:0:0:0:
416,224,219839,1,0,0:0:0:0:
288,32,219976,1,0,0:0:0:0:
192,256,220111,5,0,0:0:0:0:
320,128,220248,1,0,0:0:0:0:
192,128,220384,1,0,0:0:0:0:
320,256,220521,1,0,0:0:0:0:
176,272,220658,5,0,0:0:0:0:
336,272,220795,1,0,0:0:0:0:
176,112,220930,1,0,0:0:0:0:
336,112,221068,1,0,0:0:0:0:
160,96,221203,5,0,0:0:0:0:
160,288,221339,1,0,0:0:0:0:
352,288,221475,1,0,0:0:0:0:
352,96,221613,1,0,0:0:0:0:
144,304,221748,5,0,0:0:0:0:
368,304,221885,1,0,0:0:0:0:
144,80,222021,1,0,0:0:0:0:
368,80,222158,1,0,0:0:0:0:
384,320,222293,5,0,0:0:0:0:
128,64,222430,1,0,0:0:0:0:
384,64,222566,1,0,0:0:0:0:
128,320,222703,1,0,0:0:0:0:
320,256,222839,5,0,0:0:0:0:
192,256,222975,1,0,0:0:0:0:
192,128,223112,1,0,0:0:0:0:
320,128,223248,1,0,0:0:0:0:
288,288,223384,5,0,0:0:0:0:
160,224,223521,1,0,0:0:0:0:
224,96,223657,1,0,0:0:0:0:
352,160,223794,1,0,0:0:0:0:
256,320,223929,5,0,0:0:0:0:
128,192,224066,1,0,0:0:0:0:
256,64,224202,1,0,0:0:0:0:
384,192,224339,1,0,0:0:0:0:
256,352,224474,5,0,0:0:0:0:
96,192,224611,1,0,0:0:0:0:
256,32,224747,1,0,0:0:0:0:
416,192,224884,1,0,0:0:0:0:
96,192,225021,5,0,0:0:0:0:
416,192,225158,1,0,0:0:0:0:
256,32,225294,1,0,0:0:0:0:
256,352,225431,1,0,0:0:0:0:
416,192,225566,5,0,0:0:0:0:
256,352,225703,1,0,0:0:0:0:
256,32,225839,1,0,0:0:0:0:
96,192,225976,1,0,0:0:0:0:
256,352,226111,5,0,0:0:0:0:
96,192,226248,1,0,0:0:0:0:
416,192,226384,1,0,0:0:0:0:
256,32,226521,1,0,0:0:0:0:
256,352,226657,5,0,0:0:0:0:
256,32,226793,1,0,0:0:0:0:
96,192,226930,1,0,0:0:0:0:
416,192,227066,1,0,0:0:0:0:
180,42,227203,6,0,B|166:66|145:48|145:48|138:74|167:79|111:97|87:78|83:94|83:94|88:127|55:122|59:146|73:157,1,196.875008348377
352,191,227748,2,0,B|338:210|347:242|381:241|381:241|396:215|438:251|472:310,1,196.875008348377
212,123,228294,2,0,B|196:146|216:163|216:163|241:181,1,70.0000002980235
332,44,228539,5,0,0:0:0:0:
94,180,228676,1,0,0:0:0:0:
368,309,228812,1,0,0:0:0:0:
93,71,228949,1,0,0:0:0:0:
231,349,229084,2,0,P|171:331|181:297,1,105.000000447035
147,172,229385,5,0,0:0:0:0:
147,172,229457,1,0,0:0:0:0:
147,172,229530,1,0,0:0:0:0:
431,273,229639,5,0,0:0:0:0:
431,273,229712,1,0,0:0:0:0:
431,273,229784,1,0,0:0:0:0:
348,62,229894,5,0,0:0:0:0:
348,62,229966,1,0,0:0:0:0:
348,62,230039,1,0,0:0:0:0:
330,331,230203,5,0,0:0:0:0:
111,82,230339,1,0,0:0:0:0:
374,351,230476,1,0,0:0:0:0:
80,54,230612,1,0,0:0:0:0:
420,372,230749,1,0,0:0:0:0:
48,20,230885,1,0,0:0:0:0:
469,220,231021,1,0,0:0:0:0:
52,230,231157,1,0,0:0:0:0:
219,293,231275,1,0,0:0:0:0:
262,309,231348,1,0,0:0:0:0:
219,293,231421,1,0,0:0:0:0:
262,309,231494,1,0,0:0:0:0:
286,191,231566,5,0,0:0:0:0:
243,172,231639,1,0,0:0:0:0:
200,153,231712,1,0,0:0:0:0:
157,134,231784,1,0,0:0:0:0:
114,115,231857,1,0,0:0:0:0:
71,96,231930,1,0,0:0:0:0:
26,123,232075,5,0,0:0:0:0:
53,160,232148,1,0,0:0:0:0:
89,189,232221,1,0,0:0:0:0:
130,210,232294,1,0,0:0:0:0:
174,222,232366,1,0,0:0:0:0:
220,224,232439,1,0,0:0:0:0:
266,218,232512,1,0,0:0:0:0:
359,303,232657,6,0,P|394:277|396:252,1,70.0000002980235
60,273,232903,5,0,0:0:0:0:
246,49,233040,1,0,0:0:0:0:
277,326,233176,1,0,0:0:0:0:
67,142,233313,1,0,0:0:0:0:
305,101,233448,2,0,P|344:90|321:169,1,157.500006678701
64,288,233748,6,0,P|79:256|110:285,1,87.5000003725294
192,288,234021,2,0,P|207:256|238:285,1,87.5000003725294
320,288,234294,2,0,P|335:256|366:285,1,87.5000003725294
448,288,234566,2,0,P|463:256|494:285,1,87.5000003725294
176,134,234840,1,0,0:0:0:0:
450,79,234976,1,0,0:0:0:0:
205,245,235113,1,0,0:0:0:0:
435,318,235249,1,0,0:0:0:0:
116,162,235384,1,0,0:0:0:0:
116,162,235457,1,0,0:0:0:0:
116,162,235530,1,0,0:0:0:0:
192,277,235658,2,0,B|201:298|201:298|228:279|228:279|225:296|225:296|241:282,1,87.5000003725294
422,85,235931,6,0,B|427:145|427:145|390:120|390:120|324:185,1,196.875008348377
78,62,236475,2,0,B|59:94|97:107|97:107|65:128|101:143|101:143|71:156|71:156|54:177|54:177|73:204,1,196.875008348377
290,345,237021,2,0,P|250:321|259:282,1,87.5000003725294
440,151,237294,5,0,0:0:0:0:
154,163,237431,1,0,0:0:0:0:
397,282,237567,1,0,0:0:0:0:
261,57,237703,1,0,0:0:0:0:
73,230,237839,2,0,P|53:270|78:300,1,87.5000003725294
394,104,238112,6,0,P|406:141|381:186,1,87.5000003725294
169,327,238357,2,0,B|135:312|135:312|164:301,1,65.625000279397
141,20,238575,2,0,B|178:34|172:86|251:66|251:66|229:117|267:131,1,183.750002534688
131,254,238876,1,0,0:0:0:0:
386,76,239012,1,0,0:0:0:0:
102,187,239149,1,0,0:0:0:0:
275,18,239285,1,0,0:0:0:0:
434,229,239421,1,0,0:0:0:0:
103,124,239558,1,0,0:0:0:0:
326,299,239694,1,0,0:0:0:0:
371,61,239831,1,0,0:0:0:0:
142,347,239966,2,0,P|87:313|101:253,1,122.500000521541
250,147,240294,5,0,0:0:0:0:
285,176,240366,1,0,0:0:0:0:
298,220,240439,1,0,0:0:0:0:
286,265,240512,1,0,0:0:0:0:
252,296,240584,1,0,0:0:0:0:
205,301,240657,1,0,0:0:0:0:
150,197,240839,5,0,0:0:0:0:
188,170,240912,1,0,0:0:0:0:
233,163,240984,1,0,0:0:0:0:
278,172,241057,1,0,0:0:0:0:
317,197,241130,1,0,0:0:0:0:
339,238,241203,1,0,0:0:0:0:
79,61,241384,6,0,P|106:41|138:67,1,65.625000279397
256,280,241604,1,0,0:0:0:0:
364,103,241739,1,0,0:0:0:0:
127,219,241875,1,0,0:0:0:0:
429,287,242204,1,0,0:0:0:0:
223,328,242476,5,0,0:0:0:0:
328,87,242613,1,0,0:0:0:0:
93,180,242749,1,0,0:0:0:0:
384,336,242885,1,0,0:0:0:0:
111,252,243021,1,0,0:0:0:0:
326,32,243158,1,0,0:0:0:0:
330,331,243294,1,0,0:0:0:0:
77,103,243431,1,0,0:0:0:0:
272,351,243567,1,0,0:0:0:0:
380,113,243703,1,0,0:0:0:0:
65,282,243840,1,0,0:0:0:0:
435,318,243976,1,0,0:0:0:0:
12,155,244113,1,0,0:0:0:0:
329,47,244249,1,0,0:0:0:0:
221,264,244358,2,0,B|183:338|183:338|248:270|248:270|254:283|254:283|265:276,1,192.500000819565
