osu file format v14

[General]
AudioFilename: audio.mp3
AudioLeadIn: 0
PreviewTime: 104911
Countdown: 0
SampleSet: Soft
StackLeniency: 0.7
Mode: 3
LetterboxInBreaks: 0
SpecialStyle: 0
WidescreenStoryboard: 1

[Editor]
Bookmarks: 184,35093,52547,70002,122365,139820,174729,209638,227093,244547
DistanceSpacing: 1.5
BeatDivisor: 4
GridSize: 4
TimelineZoom: 1.4

[Metadata]
Title:Explorers
TitleUnicode:Explorers
Artist:Hinkik
ArtistUnicode:Hinkik
Creator:Disguise
Version:Timekeeper's Extravaganza
Source:
Tags:glitch hop mid tempo moombathon electronic forest instrumental fa featured artist Geometry Dash mobile game
BeatmapID:4176816
BeatmapSetID:2007968

[Difficulty]
HPDrainRate:9
CircleSize:4
OverallDifficulty:8
ApproachRate:5
SliderMultiplier:1.4
SliderTickRate:1

[Events]
//Background and Video events
0,0,"bg.jpg",0,0
//Break Periods
//Storyboard Layer 0 (Background)
//Storyboard Layer 1 (Fail)
//Storyboard Layer 2 (Pass)
//Storyboard Layer 3 (Foreground)
//Storyboard Layer 4 (Overlay)
//Storyboard Sound Samples

[TimingPoints]
184,545.454545454546,4,2,1,35,1,0
35093,-100,4,2,1,35,0,1
52547,-100,4,2,1,35,0,0
104911,-100,4,2,1,35,0,1
120184,-100,4,2,1,35,0,0
122365,-100,4,2,1,35,0,1
139820,-100,4,2,1,35,0,0
209638,-100,4,2,1,35,0,1
224911,-100,4,2,1,35,0,0
227093,-100,4,2,1,35,0,1
244547,-100,4,2,1,35,0,0

[HitObjects]
320,192,184,128,0,456:0:0:0:0:
192,192,320,128,0,456:0:0:0:0:
448,192,456,128,0,593:0:0:0:0:
64,192,593,128,0,729:0:0:0:0:
320,192,729,128,0,1002:0:0:0:0:
192,192,865,128,0,1002:0:0:0:0:
448,192,1002,128,0,1138:0:0:0:0:
64,192,1138,128,0,1274:0:0:0:0:
320,192,1274,128,0,1547:0:0:0:0:
192,192,1411,128,0,1547:0:0:0:0:
448,192,1547,128,0,1684:0:0:0:0:
64,192,1684,128,0,1820:0:0:0:0:
192,192,1820,128,0,1956:0:0:0:0:
320,192,1956,128,0,2093:0:0:0:0:
64,192,2093,128,0,2229:0:0:0:0:
448,192,2229,128,0,2365:0:0:0:0:
192,192,2365,128,0,2638:0:0:0:0:
64,192,2502,128,0,2638:0:0:0:0:
320,192,2638,128,0,2774:0:0:0:0:
64,192,2774,128,0,2911:0:0:0:0:
192,192,2911,128,0,3184:0:0:0:0:
64,192,3047,128,0,3184:0:0:0:0:
320,192,3184,128,0,3320:0:0:0:0:
64,192,3320,128,0,3456:0:0:0:0:
192,192,3456,128,0,3729:0:0:0:0:
64,192,3593,128,0,3729:0:0:0:0:
320,192,3729,128,0,3865:0:0:0:0:
64,192,3865,128,0,4002:0:0:0:0:
320,192,4002,128,0,4138:0:0:0:0:
64,192,4138,128,0,4274:0:0:0:0:
448,192,4274,128,0,4411:0:0:0:0:
192,192,4411,128,0,4547:0:0:0:0:
64,192,4547,128,0,4820:0:0:0:0:
192,192,4684,128,0,4820:0:0:0:0:
320,192,4820,128,0,4956:0:0:0:0:
448,192,4956,128,0,5093:0:0:0:0:
64,192,5093,128,0,5365:0:0:0:0:
192,192,5229,128,0,5365:0:0:0:0:
320,192,5365,128,0,5502:0:0:0:0:
448,192,5502,128,0,5638:0:0:0:0:
64,192,5638,128,0,5911:0:0:0:0:
192,192,5774,128,0,5911:0:0:0:0:
320,192,5911,128,0,6047:0:0:0:0:
448,192,6047,128,0,6184:0:0:0:0:
192,192,6184,128,0,6320:0:0:0:0:
448,192,6320,128,0,6456:0:0:0:0:
320,192,6456,128,0,6593:0:0:0:0:
64,192,6593,128,0,6729:0:0:0:0:
192,192,6729,128,0,7002:0:0:0:0:
64,192,6865,128,0,7002:0:0:0:0:
320,192,7002,128,0,7138:0:0:0:0:
448,192,7138,128,0,7274:0:0:0:0:
64,192,7274,128,0,7547:0:0:0:0:
192,192,7411,128,0,7547:0:0:0:0:
448,192,7547,128,0,7684:0:0:0:0:
192,192,7684,128,0,7820:0:0:0:0:
320,192,7820,128,0,8093:0:0:0:0:
448,192,7956,128,0,8093:0:0:0:0:
64,192,8093,128,0,8229:0:0:0:0:
320,192,8229,128,0,8365:0:0:0:0:
192,192,8365,128,0,8638:0:0:0:0:
320,192,8502,128,0,8638:0:0:0:0:
64,192,8638,128,0,8774:0:0:0:0:
192,192,8774,128,0,8911:0:0:0:0:
320,192,8911,128,0,9184:0:0:0:0:
192,192,9047,128,0,9184:0:0:0:0:
448,192,9184,128,0,9320:0:0:0:0:
64,192,9320,128,0,9456:0:0:0:0:
320,192,9456,128,0,9729:0:0:0:0:
192,192,9593,128,0,9729:0:0:0:0:
448,192,9729,128,0,9865:0:0:0:0:
64,192,9865,128,0,10002:0:0:0:0:
320,192,10002,128,0,10274:0:0:0:0:
192,192,10138,128,0,10274:0:0:0:0:
448,192,10274,128,0,10411:0:0:0:0:
64,192,10411,128,0,10547:0:0:0:0:
192,192,10547,128,0,10684:0:0:0:0:
320,192,10684,128,0,10820:0:0:0:0:
64,192,10820,128,0,10956:0:0:0:0:
448,192,10956,128,0,11093:0:0:0:0:
192,192,11093,128,0,11365:0:0:0:0:
64,192,11229,128,0,11365:0:0:0:0:
320,192,11365,128,0,11502:0:0:0:0:
64,192,11502,128,0,11638:0:0:0:0:
192,192,11638,128,0,11911:0:0:0:0:
64,192,11774,128,0,11911:0:0:0:0:
320,192,11911,128,0,12047:0:0:0:0:
64,192,12047,128,0,12184:0:0:0:0:
192,192,12184,128,0,12456:0:0:0:0:
64,192,12320,128,0,12456:0:0:0:0:
320,192,12456,128,0,12593:0:0:0:0:
64,192,12593,128,0,12729:0:0:0:0:
320,192,12729,128,0,12865:0:0:0:0:
64,192,12865,128,0,13002:0:0:0:0:
448,192,13002,128,0,13138:0:0:0:0:
192,192,13138,128,0,13274:0:0:0:0:
64,192,13274,128,0,13547:0:0:0:0:
192,192,13411,128,0,13547:0:0:0:0:
320,192,13547,128,0,13684:0:0:0:0:
448,192,13684,128,0,13820:0:0:0:0:
64,192,13820,128,0,14093:0:0:0:0:
192,192,13956,128,0,14093:0:0:0:0:
320,192,14093,128,0,14229:0:0:0:0:
448,192,14229,128,0,14365:0:0:0:0:
64,192,14365,128,0,14638:0:0:0:0:
192,192,14502,128,0,14638:0:0:0:0:
320,192,14638,128,0,14774:0:0:0:0:
448,192,14774,128,0,14911:0:0:0:0:
192,192,14911,128,0,15047:0:0:0:0:
448,192,15047,128,0,15184:0:0:0:0:
320,192,15184,128,0,15320:0:0:0:0:
64,192,15320,128,0,15456:0:0:0:0:
192,192,15456,128,0,15729:0:0:0:0:
64,192,15593,128,0,15729:0:0:0:0:
320,192,15729,128,0,15865:0:0:0:0:
448,192,15865,128,0,16002:0:0:0:0:
64,192,16002,128,0,16274:0:0:0:0:
192,192,16138,128,0,16274:0:0:0:0:
448,192,16274,128,0,16411:0:0:0:0:
192,192,16411,128,0,16547:0:0:0:0:
320,192,16547,128,0,16820:0:0:0:0:
448,192,16684,128,0,16820:0:0:0:0:
64,192,16820,128,0,16956:0:0:0:0:
320,192,16956,128,0,17093:0:0:0:0:
192,192,17093,128,0,17365:0:0:0:0:
320,192,17229,128,0,17365:0:0:0:0:
64,192,17365,128,0,17502:0:0:0:0:
192,192,17502,128,0,17638:0:0:0:0:
448,192,17638,128,0,17774:0:0:0:0:
320,192,17638,128,0,17911:0:0:0:0:
192,192,17774,128,0,17911:0:0:0:0:
448,192,17911,128,0,18047:0:0:0:0:
64,192,18047,128,0,18184:0:0:0:0:
448,192,18184,128,0,18320:0:0:0:0:
320,192,18184,128,0,18456:0:0:0:0:
192,192,18320,128,0,18456:0:0:0:0:
448,192,18456,128,0,18593:0:0:0:0:
64,192,18593,128,0,18729:0:0:0:0:
448,192,18729,128,0,18865:0:0:0:0:
320,192,18729,128,0,19002:0:0:0:0:
192,192,18865,128,0,19002:0:0:0:0:
448,192,19002,128,0,19138:0:0:0:0:
64,192,19138,128,0,19274:0:0:0:0:
448,192,19274,128,0,19411:0:0:0:0:
192,192,19274,128,0,19411:0:0:0:0:
320,192,19411,128,0,19547:0:0:0:0:
64,192,19547,128,0,19684:0:0:0:0:
448,192,19684,128,0,19820:0:0:0:0:
320,192,19820,128,0,19956:0:0:0:0:
192,192,19820,128,0,20093:0:0:0:0:
64,192,19956,128,0,20093:0:0:0:0:
320,192,20093,128,0,20229:0:0:0:0:
64,192,20229,128,0,20365:0:0:0:0:
320,192,20365,128,0,20502:0:0:0:0:
192,192,20365,128,0,20638:0:0:0:0:
64,192,20502,128,0,20638:0:0:0:0:
320,192,20638,128,0,20774:0:0:0:0:
64,192,20774,128,0,20911:0:0:0:0:
448,192,20911,128,0,21047:0:0:0:0:
192,192,20911,128,0,21184:0:0:0:0:
64,192,21047,128,0,21184:0:0:0:0:
320,192,21184,128,0,21320:0:0:0:0:
64,192,21320,128,0,21456:0:0:0:0:
192,192,21456,128,0,21593:0:0:0:0:
320,192,21456,128,0,21593:0:0:0:0:
64,192,21593,128,0,21729:0:0:0:0:
448,192,21729,128,0,21865:0:0:0:0:
192,192,21865,128,0,22002:0:0:0:0:
448,192,22002,128,0,22138:0:0:0:0:
64,192,22002,128,0,22274:0:0:0:0:
192,192,22138,128,0,22274:0:0:0:0:
320,192,22274,128,0,22411:0:0:0:0:
448,192,22411,128,0,22547:0:0:0:0:
320,192,22547,128,0,22684:0:0:0:0:
64,192,22547,128,0,22820:0:0:0:0:
192,192,22684,128,0,22820:0:0:0:0:
320,192,22820,128,0,22956:0:0:0:0:
448,192,22956,128,0,23093:0:0:0:0:
320,192,23093,128,0,23229:0:0:0:0:
64,192,23093,128,0,23365:0:0:0:0:
192,192,23229,128,0,23365:0:0:0:0:
320,192,23365,128,0,23502:0:0:0:0:
448,192,23502,128,0,23638:0:0:0:0:
64,192,23638,128,0,23774:0:0:0:0:
192,192,23638,128,0,23774:0:0:0:0:
448,192,23774,128,0,23911:0:0:0:0:
320,192,23911,128,0,24047:0:0:0:0:
64,192,24047,128,0,24184:0:0:0:0:
320,192,24184,128,0,24320:0:0:0:0:
192,192,24184,128,0,24456:0:0:0:0:
64,192,24320,128,0,24456:0:0:0:0:
320,192,24456,128,0,24593:0:0:0:0:
448,192,24593,128,0,24729:0:0:0:0:
320,192,24729,128,0,24865:0:0:0:0:
64,192,24729,128,0,25002:0:0:0:0:
192,192,24865,128,0,25002:0:0:0:0:
448,192,25002,128,0,25138:0:0:0:0:
192,192,25138,128,0,25274:0:0:0:0:
64,192,25274,128,0,25411:0:0:0:0:
320,192,25274,128,0,25547:0:0:0:0:
448,192,25411,128,0,25547:0:0:0:0:
64,192,25547,128,0,25684:0:0:0:0:
320,192,25684,128,0,25820:0:0:0:0:
448,192,25820,128,0,25956:0:0:0:0:
192,192,25820,128,0,26093:0:0:0:0:
320,192,25956,128,0,26093:0:0:0:0:
64,192,26093,128,0,26229:0:0:0:0:
192,192,26229,128,0,26365:0:0:0:0:
320,192,26365,128,0,26638:0:0:0:0:
448,192,26365,128,0,26502:0:0:0:0:
192,192,26502,128,0,26638:0:0:0:0:
448,192,26638,128,0,26774:0:0:0:0:
64,192,26774,128,0,26911:0:0:0:0:
320,192,26911,128,0,27184:0:0:0:0:
448,192,26911,128,0,27047:0:0:0:0:
192,192,27047,128,0,27184:0:0:0:0:
448,192,27184,128,0,27320:0:0:0:0:
64,192,27320,128,0,27456:0:0:0:0:
448,192,27456,128,0,27593:0:0:0:0:
320,192,27456,128,0,27729:0:0:0:0:
192,192,27593,128,0,27729:0:0:0:0:
448,192,27729,128,0,27865:0:0:0:0:
64,192,27865,128,0,28002:0:0:0:0:
192,192,28002,128,0,28138:0:0:0:0:
448,192,28002,128,0,28138:0:0:0:0:
320,192,28138,128,0,28274:0:0:0:0:
64,192,28274,128,0,28411:0:0:0:0:
448,192,28411,128,0,28547:0:0:0:0:
320,192,28547,128,0,28684:0:0:0:0:
192,192,28547,128,0,28820:0:0:0:0:
64,192,28684,128,0,28820:0:0:0:0:
320,192,28820,128,0,28956:0:0:0:0:
64,192,28956,128,0,29093:0:0:0:0:
192,192,29093,128,0,29365:0:0:0:0:
320,192,29093,128,0,29229:0:0:0:0:
64,192,29229,128,0,29365:0:0:0:0:
320,192,29365,128,0,29502:0:0:0:0:
64,192,29502,128,0,29638:0:0:0:0:
448,192,29638,128,0,29774:0:0:0:0:
192,192,29638,128,0,29911:0:0:0:0:
64,192,29774,128,0,29911:0:0:0:0:
320,192,29911,128,0,30047:0:0:0:0:
64,192,30047,128,0,30184:0:0:0:0:
320,192,30184,128,0,30320:0:0:0:0:
192,192,30184,128,0,30320:0:0:0:0:
64,192,30320,128,0,30456:0:0:0:0:
448,192,30456,128,0,30593:0:0:0:0:
192,192,30593,128,0,30729:0:0:0:0:
448,192,30729,128,0,30865:0:0:0:0:
64,192,30729,128,0,31002:0:0:0:0:
192,192,30865,128,0,31002:0:0:0:0:
320,192,31002,128,0,31138:0:0:0:0:
448,192,31138,128,0,31274:0:0:0:0:
64,192,31274,128,0,31547:0:0:0:0:
320,192,31274,128,0,31411:0:0:0:0:
192,192,31411,128,0,31547:0:0:0:0:
320,192,31547,128,0,31684:0:0:0:0:
448,192,31684,128,0,31820:0:0:0:0:
320,192,31820,128,0,31956:0:0:0:0:
64,192,31820,128,0,32093:0:0:0:0:
192,192,31956,128,0,32093:0:0:0:0:
320,192,32093,128,0,32229:0:0:0:0:
448,192,32229,128,0,32365:0:0:0:0:
64,192,32365,128,0,32502:0:0:0:0:
192,192,32365,128,0,32502:0:0:0:0:
448,192,32502,128,0,32638:0:0:0:0:
320,192,32638,128,0,32774:0:0:0:0:
64,192,32774,128,0,32911:0:0:0:0:
192,192,32911,128,0,33184:0:0:0:0:
320,192,32911,128,0,33047:0:0:0:0:
64,192,33047,128,0,33184:0:0:0:0:
320,192,33184,128,0,33320:0:0:0:0:
448,192,33320,128,0,33456:0:0:0:0:
320,192,33456,128,0,33593:0:0:0:0:
64,192,33456,128,0,33729:0:0:0:0:
192,192,33593,128,0,33729:0:0:0:0:
448,192,33729,128,0,33865:0:0:0:0:
192,192,33865,128,0,34002:0:0:0:0:
320,192,34002,128,0,34274:0:0:0:0:
64,192,34002,128,0,34138:0:0:0:0:
448,192,34138,128,0,34274:0:0:0:0:
64,192,34274,128,0,34411:0:0:0:0:
192,192,34411,128,0,34547:0:0:0:0:
320,192,34547,1,0,0:0:0:0:
64,192,34547,1,0,0:0:0:0:
448,192,34547,1,0,0:0:0:0:
64,192,35093,1,0,0:0:0:0:
192,192,35093,1,0,0:0:0:0:
448,192,35093,1,0,0:0:0:0:
320,192,35153,1,0,0:0:0:0:
64,192,35214,1,0,0:0:0:0:
448,192,35274,1,0,0:0:0:0:
192,192,35335,1,0,0:0:0:0:
320,192,35396,1,0,0:0:0:0:
448,192,35456,1,0,0:0:0:0:
192,192,35547,1,0,0:0:0:0:
64,192,35638,1,0,0:0:0:0:
320,192,35638,1,0,0:0:0:0:
448,192,35638,1,0,0:0:0:0:
192,192,35699,1,0,0:0:0:0:
64,192,35759,1,0,0:0:0:0:
320,192,35820,1,0,0:0:0:0:
192,192,35880,1,0,0:0:0:0:
448,192,35941,1,0,0:0:0:0:
320,192,36002,1,0,0:0:0:0:
192,192,36062,1,0,0:0:0:0:
448,192,36123,1,0,0:0:0:0:
320,192,36184,1,0,0:0:0:0:
64,192,36184,1,0,0:0:0:0:
64,192,36320,1,0,0:0:0:0:
320,192,36456,1,0,0:0:0:0:
192,192,36456,1,0,0:0:0:0:
320,192,36593,1,0,0:0:0:0:
448,192,36593,1,0,0:0:0:0:
448,192,36729,1,0,0:0:0:0:
192,192,36729,1,0,0:0:0:0:
64,192,36729,1,0,0:0:0:0:
320,192,36865,1,0,0:0:0:0:
64,192,36865,1,0,0:0:0:0:
448,192,37002,1,0,0:0:0:0:
192,192,37002,1,0,0:0:0:0:
448,192,37138,1,0,0:0:0:0:
64,192,37274,1,0,0:0:0:0:
192,192,37274,1,0,0:0:0:0:
320,192,37343,1,0,0:0:0:0:
64,192,37411,1,0,0:0:0:0:
448,192,37479,1,0,0:0:0:0:
320,192,37547,1,0,0:0:0:0:
192,192,37615,1,0,0:0:0:0:
448,192,37729,1,0,0:0:0:0:
64,192,37820,1,0,0:0:0:0:
320,192,37820,1,0,0:0:0:0:
192,192,37820,1,0,0:0:0:0:
448,192,37888,1,0,0:0:0:0:
192,192,37956,1,0,0:0:0:0:
320,192,38024,1,0,0:0:0:0:
64,192,38093,1,0,0:0:0:0:
192,192,38161,1,0,0:0:0:0:
64,192,38229,1,0,0:0:0:0:
320,192,38297,1,0,0:0:0:0:
192,192,38365,1,0,0:0:0:0:
448,192,38365,1,0,0:0:0:0:
448,192,38502,1,0,0:0:0:0:
320,192,38502,1,0,0:0:0:0:
192,192,38638,1,0,0:0:0:0:
64,192,38638,1,0,0:0:0:0:
192,192,38774,1,0,0:0:0:0:
320,192,38774,1,0,0:0:0:0:
320,192,38911,1,0,0:0:0:0:
448,192,38911,1,0,0:0:0:0:
64,192,38911,1,0,0:0:0:0:
64,192,39047,1,0,0:0:0:0:
192,192,39047,1,0,0:0:0:0:
320,192,39184,1,0,0:0:0:0:
448,192,39184,1,0,0:0:0:0:
320,192,39320,1,0,0:0:0:0:
64,192,39456,1,0,0:0:0:0:
192,192,39456,1,0,0:0:0:0:
448,192,39524,1,0,0:0:0:0:
320,192,39593,1,0,0:0:0:0:
192,192,39661,1,0,0:0:0:0:
448,192,39729,1,0,0:0:0:0:
64,192,39797,1,0,0:0:0:0:
320,192,39865,1,0,0:0:0:0:
192,192,39934,1,0,0:0:0:0:
64,192,40002,1,0,0:0:0:0:
320,192,40002,1,0,0:0:0:0:
448,192,40002,1,0,0:0:0:0:
192,192,40062,1,0,0:0:0:0:
448,192,40123,1,0,0:0:0:0:
64,192,40184,1,0,0:0:0:0:
320,192,40244,1,0,0:0:0:0:
448,192,40305,1,0,0:0:0:0:
192,192,40365,1,0,0:0:0:0:
320,192,40426,1,0,0:0:0:0:
64,192,40487,1,0,0:0:0:0:
448,192,40547,1,0,0:0:0:0:
192,192,40547,1,0,0:0:0:0:
192,192,40684,1,0,0:0:0:0:
448,192,40820,1,0,0:0:0:0:
320,192,40820,1,0,0:0:0:0:
448,192,40956,1,0,0:0:0:0:
192,192,40956,1,0,0:0:0:0:
320,192,41093,1,0,0:0:0:0:
64,192,41093,1,0,0:0:0:0:
192,192,41093,1,0,0:0:0:0:
64,192,41229,1,0,0:0:0:0:
448,192,41229,1,0,0:0:0:0:
320,192,41365,1,0,0:0:0:0:
192,192,41365,1,0,0:0:0:0:
320,192,41502,1,0,0:0:0:0:
448,192,41638,1,0,0:0:0:0:
64,192,41638,1,0,0:0:0:0:
192,192,41706,1,0,0:0:0:0:
64,192,41774,1,0,0:0:0:0:
448,192,41911,1,0,0:0:0:0:
192,192,41956,1,0,0:0:0:0:
448,192,42002,1,0,0:0:0:0:
64,192,42047,1,0,0:0:0:0:
192,192,42184,1,0,0:0:0:0:
448,192,42184,1,0,0:0:0:0:
320,192,42184,1,0,0:0:0:0:
64,192,42252,1,0,0:0:0:0:
192,192,42320,1,0,0:0:0:0:
320,192,42456,1,0,0:0:0:0:
64,192,42502,1,0,0:0:0:0:
320,192,42547,1,0,0:0:0:0:
448,192,42593,1,0,0:0:0:0:
192,192,42729,1,0,0:0:0:0:
64,192,42729,1,0,0:0:0:0:
320,192,42790,1,0,0:0:0:0:
64,192,42850,1,0,0:0:0:0:
192,192,43002,1,0,0:0:0:0:
320,192,43047,1,0,0:0:0:0:
192,192,43093,1,0,0:0:0:0:
64,192,43138,1,0,0:0:0:0:
448,192,43274,1,0,0:0:0:0:
64,192,43274,1,0,0:0:0:0:
192,192,43274,1,0,0:0:0:0:
320,192,43335,1,0,0:0:0:0:
448,192,43396,1,0,0:0:0:0:
64,192,43547,1,0,0:0:0:0:
448,192,43593,1,0,0:0:0:0:
64,192,43638,1,0,0:0:0:0:
320,192,43684,1,0,0:0:0:0:
320,192,43820,1,0,0:0:0:0:
448,192,43820,1,0,0:0:0:0:
64,192,43820,1,0,0:0:0:0:
192,192,43880,1,0,0:0:0:0:
448,192,43941,1,0,0:0:0:0:
64,192,44002,1,0,0:0:0:0:
320,192,44062,1,0,0:0:0:0:
192,192,44123,1,0,0:0:0:0:
64,192,44184,1,0,0:0:0:0:
448,192,44274,1,0,0:0:0:0:
320,192,44365,1,0,0:0:0:0:
192,192,44365,1,0,0:0:0:0:
64,192,44365,1,0,0:0:0:0:
448,192,44426,1,0,0:0:0:0:
192,192,44487,1,0,0:0:0:0:
320,192,44547,1,0,0:0:0:0:
448,192,44608,1,0,0:0:0:0:
64,192,44668,1,0,0:0:0:0:
192,192,44729,1,0,0:0:0:0:
448,192,44790,1,0,0:0:0:0:
64,192,44850,1,0,0:0:0:0:
192,192,44911,1,0,0:0:0:0:
320,192,44911,1,0,0:0:0:0:
320,192,45047,1,0,0:0:0:0:
448,192,45184,1,0,0:0:0:0:
192,192,45184,1,0,0:0:0:0:
192,192,45320,1,0,0:0:0:0:
64,192,45320,1,0,0:0:0:0:
64,192,45456,1,0,0:0:0:0:
448,192,45456,1,0,0:0:0:0:
320,192,45456,1,0,0:0:0:0:
192,192,45593,1,0,0:0:0:0:
320,192,45593,1,0,0:0:0:0:
448,192,45729,1,0,0:0:0:0:
192,192,45729,1,0,0:0:0:0:
448,192,45865,1,0,0:0:0:0:
64,192,46002,1,0,0:0:0:0:
320,192,46002,1,0,0:0:0:0:
192,192,46070,1,0,0:0:0:0:
64,192,46138,1,0,0:0:0:0:
320,192,46206,1,0,0:0:0:0:
448,192,46274,1,0,0:0:0:0:
192,192,46343,1,0,0:0:0:0:
64,192,46456,1,0,0:0:0:0:
320,192,46547,1,0,0:0:0:0:
192,192,46547,1,0,0:0:0:0:
448,192,46547,1,0,0:0:0:0:
64,192,46615,1,0,0:0:0:0:
448,192,46684,1,0,0:0:0:0:
320,192,46752,1,0,0:0:0:0:
64,192,46820,1,0,0:0:0:0:
448,192,46888,1,0,0:0:0:0:
64,192,46956,1,0,0:0:0:0:
192,192,47024,1,0,0:0:0:0:
320,192,47093,1,0,0:0:0:0:
448,192,47093,1,0,0:0:0:0:
320,192,47229,1,0,0:0:0:0:
64,192,47229,1,0,0:0:0:0:
192,192,47365,1,0,0:0:0:0:
64,192,47365,1,0,0:0:0:0:
448,192,47502,1,0,0:0:0:0:
192,192,47502,1,0,0:0:0:0:
448,192,47638,1,0,0:0:0:0:
64,192,47638,1,0,0:0:0:0:
320,192,47638,1,0,0:0:0:0:
192,192,47774,1,0,0:0:0:0:
320,192,47774,1,0,0:0:0:0:
192,192,47911,1,0,0:0:0:0:
64,192,47911,1,0,0:0:0:0:
64,192,48047,1,0,0:0:0:0:
320,192,48184,1,0,0:0:0:0:
448,192,48184,1,0,0:0:0:0:
64,192,48252,1,0,0:0:0:0:
192,192,48320,1,0,0:0:0:0:
448,192,48388,1,0,0:0:0:0:
64,192,48456,1,0,0:0:0:0:
320,192,48524,1,0,0:0:0:0:
192,192,48593,1,0,0:0:0:0:
448,192,48661,1,0,0:0:0:0:
320,192,48729,1,0,0:0:0:0:
192,192,48729,1,0,0:0:0:0:
64,192,48729,1,0,0:0:0:0:
448,192,48790,1,0,0:0:0:0:
64,192,48850,1,0,0:0:0:0:
320,192,48911,1,0,0:0:0:0:
192,192,48971,1,0,0:0:0:0:
64,192,49032,1,0,0:0:0:0:
448,192,49093,1,0,0:0:0:0:
192,192,49153,1,0,0:0:0:0:
320,192,49214,1,0,0:0:0:0:
64,192,49274,1,0,0:0:0:0:
448,192,49274,1,0,0:0:0:0:
448,192,49411,1,0,0:0:0:0:
320,192,49547,1,0,0:0:0:0:
64,192,49547,1,0,0:0:0:0:
192,192,49684,1,0,0:0:0:0:
64,192,49684,1,0,0:0:0:0:
192,192,49820,1,0,0:0:0:0:
320,192,49820,1,0,0:0:0:0:
448,192,49820,1,0,0:0:0:0:
320,192,49956,1,0,0:0:0:0:
192,192,50093,1,0,0:0:0:0:
448,192,50093,1,0,0:0:0:0:
192,192,50229,1,0,0:0:0:0:
64,192,50365,1,0,0:0:0:0:
448,192,50365,1,0,0:0:0:0:
192,192,50502,1,0,0:0:0:0:
448,192,50638,1,0,0:0:0:0:
320,192,50684,1,0,0:0:0:0:
64,192,50729,1,0,0:0:0:0:
192,192,50774,1,0,0:0:0:0:
320,192,50911,1,0,0:0:0:0:
64,192,50911,1,0,0:0:0:0:
448,192,51047,1,0,0:0:0:0:
192,192,51184,1,0,0:0:0:0:
448,192,51252,1,0,0:0:0:0:
320,192,51320,1,0,0:0:0:0:
448,192,51456,1,0,0:0:0:0:
64,192,51593,1,0,0:0:0:0:
192,192,51729,1,0,0:0:0:0:
64,192,51797,1,0,0:0:0:0:
320,192,51865,1,0,0:0:0:0:
448,192,52002,1,0,0:0:0:0:
192,192,52002,1,0,0:0:0:0:
64,192,52138,1,0,0:0:0:0:
320,192,52274,1,0,0:0:0:0:
448,192,52274,1,0,0:0:0:0:
192,192,52547,1,0,0:0:0:0:
448,192,52547,1,0,0:0:0:0:
64,192,52547,1,0,0:0:0:0:
320,192,52593,1,0,0:0:0:0:
64,192,52684,1,0,0:0:0:0:
448,192,52729,1,0,0:0:0:0:
192,192,52774,1,0,0:0:0:0:
320,192,52820,1,0,0:0:0:0:
64,192,52865,1,0,0:0:0:0:
448,192,52911,1,0,0:0:0:0:
192,192,52956,1,0,0:0:0:0:
320,192,53002,1,0,0:0:0:0:
64,192,53047,1,0,0:0:0:0:
448,192,53093,1,0,0:0:0:0:
192,192,53147,1,0,0:0:0:0:
320,192,53202,1,0,0:0:0:0:
64,192,53256,1,0,0:0:0:0:
448,192,53311,1,0,0:0:0:0:
192,192,53365,1,0,0:0:0:0:
320,192,53420,1,0,0:0:0:0:
64,192,53474,1,0,0:0:0:0:
448,192,53529,1,0,0:0:0:0:
192,192,53584,1,0,0:0:0:0:
320,192,53638,1,0,0:0:0:0:
64,192,53706,1,0,0:0:0:0:
448,192,53774,1,0,0:0:0:0:
320,192,53843,1,0,0:0:0:0:
192,192,53911,1,0,0:0:0:0:
64,192,53979,1,0,0:0:0:0:
448,192,54047,1,0,0:0:0:0:
320,192,54115,1,0,0:0:0:0:
192,192,54184,1,0,0:0:0:0:
64,192,54252,1,0,0:0:0:0:
448,192,54320,1,0,0:0:0:0:
320,192,54388,1,0,0:0:0:0:
192,192,54456,1,0,0:0:0:0:
64,192,54524,1,0,0:0:0:0:
320,192,54593,1,0,0:0:0:0:
192,192,54661,1,0,0:0:0:0:
448,192,54729,1,0,0:0:0:0:
448,192,54865,1,0,0:0:0:0:
320,192,55002,1,0,0:0:0:0:
448,192,55070,1,0,0:0:0:0:
192,192,55138,1,0,0:0:0:0:
320,192,55206,1,0,0:0:0:0:
64,192,55274,1,0,0:0:0:0:
64,192,55411,1,0,0:0:0:0:
192,192,55547,1,0,0:0:0:0:
64,192,55615,1,0,0:0:0:0:
320,192,55684,1,0,0:0:0:0:
192,192,55752,1,0,0:0:0:0:
448,192,55820,1,0,0:0:0:0:
448,192,55956,1,0,0:0:0:0:
448,192,56093,1,0,0:0:0:0:
448,192,56229,1,0,0:0:0:0:
192,192,56365,1,0,0:0:0:0:
192,192,56502,1,0,0:0:0:0:
448,192,56547,1,0,0:0:0:0:
448,192,56638,1,0,0:0:0:0:
192,192,56706,1,0,0:0:0:0:
320,192,56774,1,0,0:0:0:0:
64,192,56843,1,0,0:0:0:0:
192,192,56911,1,0,0:0:0:0:
192,192,57047,1,0,0:0:0:0:
64,192,57115,1,0,0:0:0:0:
320,192,57184,1,0,0:0:0:0:
192,192,57252,1,0,0:0:0:0:
448,192,57320,1,0,0:0:0:0:
320,192,57388,1,0,0:0:0:0:
64,192,57456,1,0,0:0:0:0:
64,192,57593,1,0,0:0:0:0:
320,192,57661,1,0,0:0:0:0:
448,192,57729,1,0,0:0:0:0:
192,192,57797,1,0,0:0:0:0:
320,192,57865,1,0,0:0:0:0:
64,192,57934,1,0,0:0:0:0:
192,192,58002,1,0,0:0:0:0:
192,192,58138,1,0,0:0:0:0:
192,192,58274,1,0,0:0:0:0:
192,192,58411,1,0,0:0:0:0:
320,192,58547,1,0,0:0:0:0:
320,192,58684,1,0,0:0:0:0:
64,192,58729,1,0,0:0:0:0:
64,192,58820,1,0,0:0:0:0:
320,192,58888,1,0,0:0:0:0:
192,192,58956,1,0,0:0:0:0:
448,192,59024,1,0,0:0:0:0:
320,192,59093,1,0,0:0:0:0:
320,192,59229,1,0,0:0:0:0:
448,192,59297,1,0,0:0:0:0:
192,192,59365,1,0,0:0:0:0:
320,192,59434,1,0,0:0:0:0:
64,192,59502,1,0,0:0:0:0:
192,192,59570,1,0,0:0:0:0:
448,192,59638,1,0,0:0:0:0:
448,192,59774,1,0,0:0:0:0:
192,192,59843,1,0,0:0:0:0:
64,192,59911,1,0,0:0:0:0:
320,192,59979,1,0,0:0:0:0:
192,192,60047,1,0,0:0:0:0:
448,192,60115,1,0,0:0:0:0:
320,192,60184,1,0,0:0:0:0:
320,192,60320,1,0,0:0:0:0:
320,192,60456,1,0,0:0:0:0:
320,192,60593,1,0,0:0:0:0:
192,192,60729,1,0,0:0:0:0:
192,192,60865,1,0,0:0:0:0:
448,192,60911,1,0,0:0:0:0:
448,192,61002,1,0,0:0:0:0:
192,192,61070,1,0,0:0:0:0:
320,192,61138,1,0,0:0:0:0:
64,192,61206,1,0,0:0:0:0:
192,192,61274,1,0,0:0:0:0:
192,192,61411,1,0,0:0:0:0:
64,192,61479,1,0,0:0:0:0:
320,192,61547,1,0,0:0:0:0:
192,192,61615,1,0,0:0:0:0:
448,192,61684,1,0,0:0:0:0:
320,192,61752,1,0,0:0:0:0:
64,192,61820,1,0,0:0:0:0:
64,192,61956,1,0,0:0:0:0:
320,192,62024,1,0,0:0:0:0:
448,192,62093,1,0,0:0:0:0:
192,192,62161,1,0,0:0:0:0:
320,192,62229,1,0,0:0:0:0:
64,192,62297,1,0,0:0:0:0:
192,192,62365,1,0,0:0:0:0:
192,192,62502,1,0,0:0:0:0:
192,192,62638,1,0,0:0:0:0:
192,192,62774,1,0,0:0:0:0:
320,192,62911,1,0,0:0:0:0:
320,192,63047,1,0,0:0:0:0:
64,192,63093,1,0,0:0:0:0:
64,192,63184,1,0,0:0:0:0:
320,192,63252,1,0,0:0:0:0:
192,192,63320,1,0,0:0:0:0:
448,192,63388,1,0,0:0:0:0:
320,192,63456,1,0,0:0:0:0:
320,192,63593,1,0,0:0:0:0:
448,192,63661,1,0,0:0:0:0:
192,192,63729,1,0,0:0:0:0:
320,192,63797,1,0,0:0:0:0:
64,192,63865,1,0,0:0:0:0:
192,192,63934,1,0,0:0:0:0:
448,192,64002,1,0,0:0:0:0:
448,192,64138,1,0,0:0:0:0:
192,192,64206,1,0,0:0:0:0:
64,192,64274,1,0,0:0:0:0:
320,192,64343,1,0,0:0:0:0:
192,192,64411,1,0,0:0:0:0:
448,192,64479,1,0,0:0:0:0:
320,192,64547,1,0,0:0:0:0:
320,192,64684,1,0,0:0:0:0:
320,192,64820,1,0,0:0:0:0:
320,192,64956,1,0,0:0:0:0:
192,192,65093,1,0,0:0:0:0:
192,192,65229,1,0,0:0:0:0:
448,192,65274,1,0,0:0:0:0:
448,192,65365,1,0,0:0:0:0:
192,192,65434,1,0,0:0:0:0:
320,192,65502,1,0,0:0:0:0:
64,192,65570,1,0,0:0:0:0:
192,192,65638,1,0,0:0:0:0:
192,192,65774,1,0,0:0:0:0:
64,192,65843,1,0,0:0:0:0:
320,192,65911,1,0,0:0:0:0:
192,192,65979,1,0,0:0:0:0:
448,192,66047,1,0,0:0:0:0:
320,192,66115,1,0,0:0:0:0:
64,192,66184,1,0,0:0:0:0:
64,192,66320,1,0,0:0:0:0:
320,192,66388,1,0,0:0:0:0:
448,192,66456,1,0,0:0:0:0:
192,192,66524,1,0,0:0:0:0:
320,192,66593,1,0,0:0:0:0:
64,192,66661,1,0,0:0:0:0:
192,192,66729,1,0,0:0:0:0:
192,192,66865,1,0,0:0:0:0:
192,192,67002,1,0,0:0:0:0:
192,192,67138,1,0,0:0:0:0:
320,192,67274,1,0,0:0:0:0:
320,192,67411,1,0,0:0:0:0:
64,192,67456,1,0,0:0:0:0:
64,192,67547,1,0,0:0:0:0:
320,192,67615,1,0,0:0:0:0:
192,192,67684,1,0,0:0:0:0:
448,192,67752,1,0,0:0:0:0:
64,192,67820,1,0,0:0:0:0:
320,192,67820,1,0,0:0:0:0:
192,192,68093,1,0,0:0:0:0:
448,192,68365,1,0,0:0:0:0:
320,192,68365,1,0,0:0:0:0:
320,192,68774,1,0,0:0:0:0:
448,192,68774,1,0,0:0:0:0:
192,192,68911,1,0,0:0:0:0:
64,192,69047,1,0,0:0:0:0:
320,192,69047,1,0,0:0:0:0:
448,192,69184,1,0,0:0:0:0:
64,192,69320,1,0,0:0:0:0:
192,192,69320,1,0,0:0:0:0:
448,192,69456,1,0,0:0:0:0:
64,192,69456,1,0,0:0:0:0:
192,192,69456,1,0,0:0:0:0:
192,192,70002,1,0,0:0:0:0:
320,192,70002,1,0,0:0:0:0:
448,192,70002,1,0,0:0:0:0:
64,192,70138,1,0,0:0:0:0:
320,192,70184,1,0,0:0:0:0:
448,192,70229,1,0,0:0:0:0:
192,192,70274,1,0,0:0:0:0:
320,192,70320,1,0,0:0:0:0:
448,192,70365,1,0,0:0:0:0:
64,192,70411,1,0,0:0:0:0:
192,192,70456,1,0,0:0:0:0:
320,192,70502,1,0,0:0:0:0:
192,192,70547,1,0,0:0:0:0:
64,192,70547,1,0,0:0:0:0:
448,192,70547,1,0,0:0:0:0:
448,192,70668,1,0,0:0:0:0:
320,192,70729,1,0,0:0:0:0:
64,192,70790,1,0,0:0:0:0:
448,192,70850,1,0,0:0:0:0:
192,192,70911,1,0,0:0:0:0:
64,192,70971,1,0,0:0:0:0:
320,192,71032,1,0,0:0:0:0:
448,192,71093,1,0,0:0:0:0:
192,192,71093,1,0,0:0:0:0:
448,192,71229,1,0,0:0:0:0:
64,192,71365,1,0,0:0:0:0:
192,192,71365,1,0,0:0:0:0:
320,192,71502,1,0,0:0:0:0:
192,192,71502,1,0,0:0:0:0:
64,192,71638,1,0,0:0:0:0:
320,192,71638,1,0,0:0:0:0:
448,192,71638,1,0,0:0:0:0:
64,192,71911,1,0,0:0:0:0:
320,192,71971,1,0,0:0:0:0:
192,192,72032,1,0,0:0:0:0:
64,192,72093,1,0,0:0:0:0:
320,192,72153,1,0,0:0:0:0:
448,192,72184,1,0,0:0:0:0:
192,192,72184,1,0,0:0:0:0:
64,192,72244,1,0,0:0:0:0:
320,192,72305,1,0,0:0:0:0:
192,192,72365,1,0,0:0:0:0:
448,192,72426,1,0,0:0:0:0:
192,192,72487,1,0,0:0:0:0:
64,192,72547,1,0,0:0:0:0:
320,192,72608,1,0,0:0:0:0:
192,192,72668,1,0,0:0:0:0:
64,192,72729,1,0,0:0:0:0:
320,192,72729,1,0,0:0:0:0:
448,192,72729,1,0,0:0:0:0:
192,192,72797,1,0,0:0:0:0:
448,192,72865,1,0,0:0:0:0:
320,192,73002,1,0,0:0:0:0:
192,192,73070,1,0,0:0:0:0:
64,192,73138,1,0,0:0:0:0:
320,192,73206,1,0,0:0:0:0:
448,192,73274,1,0,0:0:0:0:
192,192,73274,1,0,0:0:0:0:
192,192,73411,1,0,0:0:0:0:
320,192,73547,1,0,0:0:0:0:
320,192,73684,1,0,0:0:0:0:
192,192,73820,1,0,0:0:0:0:
448,192,73820,1,0,0:0:0:0:
64,192,73820,1,0,0:0:0:0:
64,192,73956,1,0,0:0:0:0:
320,192,74093,1,0,0:0:0:0:
192,192,74161,1,0,0:0:0:0:
448,192,74229,1,0,0:0:0:0:
320,192,74297,1,0,0:0:0:0:
64,192,74365,1,0,0:0:0:0:
192,192,74365,1,0,0:0:0:0:
448,192,74426,1,0,0:0:0:0:
64,192,74487,1,0,0:0:0:0:
64,192,74638,1,0,0:0:0:0:
192,192,74684,1,0,0:0:0:0:
448,192,74729,1,0,0:0:0:0:
320,192,74774,1,0,0:0:0:0:
192,192,74843,1,0,0:0:0:0:
320,192,74911,1,0,0:0:0:0:
448,192,74911,1,0,0:0:0:0:
64,192,74911,1,0,0:0:0:0:
64,192,75032,1,0,0:0:0:0:
320,192,75093,1,0,0:0:0:0:
192,192,75153,1,0,0:0:0:0:
320,192,75214,1,0,0:0:0:0:
448,192,75274,1,0,0:0:0:0:
320,192,75335,1,0,0:0:0:0:
192,192,75396,1,0,0:0:0:0:
64,192,75456,1,0,0:0:0:0:
448,192,75456,1,0,0:0:0:0:
64,192,75593,1,0,0:0:0:0:
192,192,75593,1,0,0:0:0:0:
320,192,75729,1,0,0:0:0:0:
448,192,75729,1,0,0:0:0:0:
448,192,75865,1,0,0:0:0:0:
192,192,75865,1,0,0:0:0:0:
192,192,76002,1,0,0:0:0:0:
64,192,76002,1,0,0:0:0:0:
320,192,76002,1,0,0:0:0:0:
448,192,76062,1,0,0:0:0:0:
64,192,76123,1,0,0:0:0:0:
320,192,76184,1,0,0:0:0:0:
320,192,76274,1,0,0:0:0:0:
192,192,76343,1,0,0:0:0:0:
64,192,76411,1,0,0:0:0:0:
448,192,76456,1,0,0:0:0:0:
64,192,76547,1,0,0:0:0:0:
192,192,76547,1,0,0:0:0:0:
448,192,76615,1,0,0:0:0:0:
192,192,76684,1,0,0:0:0:0:
320,192,76752,1,0,0:0:0:0:
64,192,76820,1,0,0:0:0:0:
320,192,76888,1,0,0:0:0:0:
192,192,76956,1,0,0:0:0:0:
448,192,77024,1,0,0:0:0:0:
320,192,77093,1,0,0:0:0:0:
64,192,77093,1,0,0:0:0:0:
192,192,77093,1,0,0:0:0:0:
448,192,77161,1,0,0:0:0:0:
64,192,77229,1,0,0:0:0:0:
192,192,77297,1,0,0:0:0:0:
448,192,77365,1,0,0:0:0:0:
64,192,77434,1,0,0:0:0:0:
320,192,77502,1,0,0:0:0:0:
192,192,77570,1,0,0:0:0:0:
64,192,77638,1,0,0:0:0:0:
448,192,77638,1,0,0:0:0:0:
448,192,77774,1,0,0:0:0:0:
192,192,77911,1,0,0:0:0:0:
192,192,78047,1,0,0:0:0:0:
64,192,78184,1,0,0:0:0:0:
320,192,78184,1,0,0:0:0:0:
448,192,78184,1,0,0:0:0:0:
192,192,78252,1,0,0:0:0:0:
448,192,78320,1,0,0:0:0:0:
192,192,78388,1,0,0:0:0:0:
320,192,78456,1,0,0:0:0:0:
64,192,78593,1,0,0:0:0:0:
448,192,78729,1,0,0:0:0:0:
320,192,78729,1,0,0:0:0:0:
448,192,78865,1,0,0:0:0:0:
192,192,78911,1,0,0:0:0:0:
64,192,78956,1,0,0:0:0:0:
320,192,79002,1,0,0:0:0:0:
192,192,79047,1,0,0:0:0:0:
64,192,79093,1,0,0:0:0:0:
448,192,79138,1,0,0:0:0:0:
320,192,79184,1,0,0:0:0:0:
192,192,79229,1,0,0:0:0:0:
64,192,79274,1,0,0:0:0:0:
320,192,79274,1,0,0:0:0:0:
448,192,79274,1,0,0:0:0:0:
64,192,79396,1,0,0:0:0:0:
192,192,79456,1,0,0:0:0:0:
64,192,79517,1,0,0:0:0:0:
448,192,79547,1,0,0:0:0:0:
320,192,79615,1,0,0:0:0:0:
192,192,79684,1,0,0:0:0:0:
448,192,79752,1,0,0:0:0:0:
320,192,79820,1,0,0:0:0:0:
64,192,79820,1,0,0:0:0:0:
64,192,79956,1,0,0:0:0:0:
192,192,79956,1,0,0:0:0:0:
448,192,80093,1,0,0:0:0:0:
320,192,80093,1,0,0:0:0:0:
192,192,80229,1,0,0:0:0:0:
320,192,80229,1,0,0:0:0:0:
448,192,80365,1,0,0:0:0:0:
192,192,80365,1,0,0:0:0:0:
64,192,80365,1,0,0:0:0:0:
64,192,80638,1,0,0:0:0:0:
192,192,80699,1,0,0:0:0:0:
448,192,80759,1,0,0:0:0:0:
320,192,80820,1,0,0:0:0:0:
192,192,80880,1,0,0:0:0:0:
64,192,80911,1,0,0:0:0:0:
448,192,80911,1,0,0:0:0:0:
320,192,80971,1,0,0:0:0:0:
192,192,81032,1,0,0:0:0:0:
448,192,81093,1,0,0:0:0:0:
64,192,81153,1,0,0:0:0:0:
320,192,81214,1,0,0:0:0:0:
448,192,81274,1,0,0:0:0:0:
192,192,81335,1,0,0:0:0:0:
320,192,81396,1,0,0:0:0:0:
448,192,81456,1,0,0:0:0:0:
192,192,81456,1,0,0:0:0:0:
64,192,81456,1,0,0:0:0:0:
320,192,81524,1,0,0:0:0:0:
64,192,81593,1,0,0:0:0:0:
320,192,81729,1,0,0:0:0:0:
192,192,81797,1,0,0:0:0:0:
448,192,81865,1,0,0:0:0:0:
64,192,81934,1,0,0:0:0:0:
192,192,82002,1,0,0:0:0:0:
320,192,82002,1,0,0:0:0:0:
320,192,82138,1,0,0:0:0:0:
192,192,82274,1,0,0:0:0:0:
192,192,82411,1,0,0:0:0:0:
320,192,82547,1,0,0:0:0:0:
64,192,82547,1,0,0:0:0:0:
448,192,82547,1,0,0:0:0:0:
448,192,82684,1,0,0:0:0:0:
192,192,82820,1,0,0:0:0:0:
320,192,82888,1,0,0:0:0:0:
64,192,82956,1,0,0:0:0:0:
192,192,83024,1,0,0:0:0:0:
448,192,83093,1,0,0:0:0:0:
320,192,83093,1,0,0:0:0:0:
192,192,83161,1,0,0:0:0:0:
448,192,83229,1,0,0:0:0:0:
64,192,83274,1,0,0:0:0:0:
448,192,83365,1,0,0:0:0:0:
320,192,83411,1,0,0:0:0:0:
64,192,83456,1,0,0:0:0:0:
192,192,83502,1,0,0:0:0:0:
320,192,83547,1,0,0:0:0:0:
192,192,83638,1,0,0:0:0:0:
64,192,83638,1,0,0:0:0:0:
448,192,83638,1,0,0:0:0:0:
448,192,83759,1,0,0:0:0:0:
192,192,83820,1,0,0:0:0:0:
320,192,83880,1,0,0:0:0:0:
192,192,83941,1,0,0:0:0:0:
64,192,84002,1,0,0:0:0:0:
192,192,84062,1,0,0:0:0:0:
320,192,84123,1,0,0:0:0:0:
448,192,84184,1,0,0:0:0:0:
64,192,84184,1,0,0:0:0:0:
448,192,84320,1,0,0:0:0:0:
320,192,84320,1,0,0:0:0:0:
192,192,84456,1,0,0:0:0:0:
64,192,84456,1,0,0:0:0:0:
64,192,84593,1,0,0:0:0:0:
320,192,84593,1,0,0:0:0:0:
320,192,84729,1,0,0:0:0:0:
448,192,84729,1,0,0:0:0:0:
192,192,84729,1,0,0:0:0:0:
64,192,84790,1,0,0:0:0:0:
448,192,84850,1,0,0:0:0:0:
320,192,84911,1,0,0:0:0:0:
192,192,85002,1,0,0:0:0:0:
320,192,85062,1,0,0:0:0:0:
448,192,85123,1,0,0:0:0:0:
64,192,85184,1,0,0:0:0:0:
320,192,85274,128,0,85547:0:0:0:0:
448,192,85274,1,0,0:0:0:0:
192,192,85411,1,0,0:0:0:0:
192,192,85547,128,0,85684:0:0:0:0:
320,192,85684,1,0,0:0:0:0:
192,192,85820,128,0,86093:0:0:0:0:
320,192,85956,1,0,0:0:0:0:
320,192,86093,128,0,86229:0:0:0:0:
64,192,86229,1,0,0:0:0:0:
320,192,86365,128,0,86638:0:0:0:0:
192,192,86502,1,0,0:0:0:0:
448,192,86638,128,0,86774:0:0:0:0:
320,192,86774,1,0,0:0:0:0:
64,192,86911,128,0,87184:0:0:0:0:
192,192,87047,1,0,0:0:0:0:
448,192,87184,128,0,87320:0:0:0:0:
320,192,87320,1,0,0:0:0:0:
448,192,87456,1,0,0:0:0:0:
320,192,87456,1,0,0:0:0:0:
192,192,87456,1,0,0:0:0:0:
64,192,87593,1,0,0:0:0:0:
320,192,87638,1,0,0:0:0:0:
448,192,87684,1,0,0:0:0:0:
192,192,87729,1,0,0:0:0:0:
320,192,87774,1,0,0:0:0:0:
448,192,87820,1,0,0:0:0:0:
64,192,87865,1,0,0:0:0:0:
192,192,87911,1,0,0:0:0:0:
320,192,87956,1,0,0:0:0:0:
448,192,88002,1,0,0:0:0:0:
192,192,88002,1,0,0:0:0:0:
64,192,88002,1,0,0:0:0:0:
448,192,88123,1,0,0:0:0:0:
320,192,88184,1,0,0:0:0:0:
64,192,88244,1,0,0:0:0:0:
448,192,88305,1,0,0:0:0:0:
192,192,88365,1,0,0:0:0:0:
64,192,88426,1,0,0:0:0:0:
320,192,88487,1,0,0:0:0:0:
192,192,88547,1,0,0:0:0:0:
448,192,88547,1,0,0:0:0:0:
448,192,88684,1,0,0:0:0:0:
192,192,88820,1,0,0:0:0:0:
64,192,88820,1,0,0:0:0:0:
192,192,88956,1,0,0:0:0:0:
320,192,88956,1,0,0:0:0:0:
448,192,89093,1,0,0:0:0:0:
320,192,89093,1,0,0:0:0:0:
64,192,89093,1,0,0:0:0:0:
64,192,89365,1,0,0:0:0:0:
320,192,89426,1,0,0:0:0:0:
192,192,89485,1,0,0:0:0:0:
64,192,89547,1,0,0:0:0:0:
320,192,89608,1,0,0:0:0:0:
192,192,89638,1,0,0:0:0:0:
448,192,89638,1,0,0:0:0:0:
64,192,89699,1,0,0:0:0:0:
320,192,89759,1,0,0:0:0:0:
192,192,89820,1,0,0:0:0:0:
448,192,89880,1,0,0:0:0:0:
192,192,89941,1,0,0:0:0:0:
64,192,90002,1,0,0:0:0:0:
320,192,90062,1,0,0:0:0:0:
192,192,90123,1,0,0:0:0:0:
448,192,90184,1,0,0:0:0:0:
320,192,90184,1,0,0:0:0:0:
64,192,90184,1,0,0:0:0:0:
192,192,90252,1,0,0:0:0:0:
448,192,90320,1,0,0:0:0:0:
320,192,90456,1,0,0:0:0:0:
192,192,90524,1,0,0:0:0:0:
64,192,90593,1,0,0:0:0:0:
320,192,90661,1,0,0:0:0:0:
192,192,90729,1,0,0:0:0:0:
448,192,90729,1,0,0:0:0:0:
192,192,90865,1,0,0:0:0:0:
320,192,91002,1,0,0:0:0:0:
320,192,91138,1,0,0:0:0:0:
64,192,91274,1,0,0:0:0:0:
448,192,91274,1,0,0:0:0:0:
192,192,91274,1,0,0:0:0:0:
64,192,91411,1,0,0:0:0:0:
320,192,91547,1,0,0:0:0:0:
192,192,91615,1,0,0:0:0:0:
448,192,91684,1,0,0:0:0:0:
320,192,91752,1,0,0:0:0:0:
64,192,91820,1,0,0:0:0:0:
192,192,91820,1,0,0:0:0:0:
448,192,91880,1,0,0:0:0:0:
64,192,91941,1,0,0:0:0:0:
320,192,92093,1,0,0:0:0:0:
192,192,92138,1,0,0:0:0:0:
448,192,92184,1,0,0:0:0:0:
320,192,92229,1,0,0:0:0:0:
192,192,92297,1,0,0:0:0:0:
320,192,92365,1,0,0:0:0:0:
448,192,92365,1,0,0:0:0:0:
64,192,92365,1,0,0:0:0:0:
192,192,92638,1,0,0:0:0:0:
320,192,92684,1,0,0:0:0:0:
64,192,92729,1,0,0:0:0:0:
192,192,92774,1,0,0:0:0:0:
320,192,92820,1,0,0:0:0:0:
448,192,92865,1,0,0:0:0:0:
192,192,92911,1,0,0:0:0:0:
64,192,92911,1,0,0:0:0:0:
448,192,93184,1,0,0:0:0:0:
192,192,93229,1,0,0:0:0:0:
64,192,93274,1,0,0:0:0:0:
320,192,93320,1,0,0:0:0:0:
448,192,93388,1,0,0:0:0:0:
320,192,93456,1,0,0:0:0:0:
192,192,93456,1,0,0:0:0:0:
64,192,93456,1,0,0:0:0:0:
448,192,93517,1,0,0:0:0:0:
64,192,93577,1,0,0:0:0:0:
448,192,93638,1,0,0:0:0:0:
320,192,93699,1,0,0:0:0:0:
192,192,93759,1,0,0:0:0:0:
64,192,93820,1,0,0:0:0:0:
448,192,93865,1,0,0:0:0:0:
320,192,93911,1,0,0:0:0:0:
192,192,94002,1,0,0:0:0:0:
64,192,94002,1,0,0:0:0:0:
448,192,94070,1,0,0:0:0:0:
192,192,94138,1,0,0:0:0:0:
320,192,94206,1,0,0:0:0:0:
64,192,94274,1,0,0:0:0:0:
320,192,94343,1,0,0:0:0:0:
192,192,94411,1,0,0:0:0:0:
448,192,94479,1,0,0:0:0:0:
192,192,94547,1,0,0:0:0:0:
64,192,94547,1,0,0:0:0:0:
320,192,94547,1,0,0:0:0:0:
448,192,94615,1,0,0:0:0:0:
64,192,94684,1,0,0:0:0:0:
192,192,94752,1,0,0:0:0:0:
448,192,94820,1,0,0:0:0:0:
64,192,94888,1,0,0:0:0:0:
320,192,94956,1,0,0:0:0:0:
192,192,95024,1,0,0:0:0:0:
448,192,95093,1,0,0:0:0:0:
64,192,95093,1,0,0:0:0:0:
448,192,95229,1,0,0:0:0:0:
192,192,95365,1,0,0:0:0:0:
192,192,95502,1,0,0:0:0:0:
448,192,95638,1,0,0:0:0:0:
320,192,95638,1,0,0:0:0:0:
64,192,95638,1,0,0:0:0:0:
192,192,95706,1,0,0:0:0:0:
448,192,95774,1,0,0:0:0:0:
192,192,95843,1,0,0:0:0:0:
320,192,95911,1,0,0:0:0:0:
64,192,96047,1,0,0:0:0:0:
320,192,96184,1,0,0:0:0:0:
448,192,96184,1,0,0:0:0:0:
448,192,96320,1,0,0:0:0:0:
192,192,96365,1,0,0:0:0:0:
64,192,96411,1,0,0:0:0:0:
320,192,96456,1,0,0:0:0:0:
192,192,96502,1,0,0:0:0:0:
64,192,96547,1,0,0:0:0:0:
448,192,96593,1,0,0:0:0:0:
320,192,96638,1,0,0:0:0:0:
192,192,96684,1,0,0:0:0:0:
448,192,96729,1,0,0:0:0:0:
320,192,96729,1,0,0:0:0:0:
64,192,96729,1,0,0:0:0:0:
64,192,96850,1,0,0:0:0:0:
192,192,96911,1,0,0:0:0:0:
64,192,96971,1,0,0:0:0:0:
448,192,97002,1,0,0:0:0:0:
320,192,97070,1,0,0:0:0:0:
192,192,97138,1,0,0:0:0:0:
448,192,97206,1,0,0:0:0:0:
64,192,97274,1,0,0:0:0:0:
320,192,97274,1,0,0:0:0:0:
64,192,97411,1,0,0:0:0:0:
192,192,97411,1,0,0:0:0:0:
320,192,97547,1,0,0:0:0:0:
448,192,97547,1,0,0:0:0:0:
320,192,97684,1,0,0:0:0:0:
192,192,97684,1,0,0:0:0:0:
64,192,97820,1,0,0:0:0:0:
192,192,97820,1,0,0:0:0:0:
448,192,97820,1,0,0:0:0:0:
64,192,98093,1,0,0:0:0:0:
192,192,98153,1,0,0:0:0:0:
448,192,98214,1,0,0:0:0:0:
320,192,98274,1,0,0:0:0:0:
192,192,98335,1,0,0:0:0:0:
448,192,98365,1,0,0:0:0:0:
64,192,98365,1,0,0:0:0:0:
320,192,98426,1,0,0:0:0:0:
192,192,98487,1,0,0:0:0:0:
448,192,98547,1,0,0:0:0:0:
64,192,98608,1,0,0:0:0:0:
320,192,98668,1,0,0:0:0:0:
448,192,98729,1,0,0:0:0:0:
192,192,98790,1,0,0:0:0:0:
320,192,98850,1,0,0:0:0:0:
64,192,98911,1,0,0:0:0:0:
192,192,98911,1,0,0:0:0:0:
448,192,98911,1,0,0:0:0:0:
320,192,98979,1,0,0:0:0:0:
64,192,99047,1,0,0:0:0:0:
320,192,99184,1,0,0:0:0:0:
192,192,99252,1,0,0:0:0:0:
448,192,99320,1,0,0:0:0:0:
64,192,99388,1,0,0:0:0:0:
320,192,99456,1,0,0:0:0:0:
192,192,99456,1,0,0:0:0:0:
320,192,99593,1,0,0:0:0:0:
192,192,99729,1,0,0:0:0:0:
192,192,99865,1,0,0:0:0:0:
448,192,100002,1,0,0:0:0:0:
64,192,100002,1,0,0:0:0:0:
320,192,100002,1,0,0:0:0:0:
448,192,100138,1,0,0:0:0:0:
192,192,100274,1,0,0:0:0:0:
320,192,100343,1,0,0:0:0:0:
64,192,100411,1,0,0:0:0:0:
192,192,100479,1,0,0:0:0:0:
448,192,100547,1,0,0:0:0:0:
320,192,100547,1,0,0:0:0:0:
64,192,100608,1,0,0:0:0:0:
192,192,100668,1,0,0:0:0:0:
320,192,100729,1,0,0:0:0:0:
192,192,100820,1,0,0:0:0:0:
320,192,100865,1,0,0:0:0:0:
64,192,100911,1,0,0:0:0:0:
192,192,100956,1,0,0:0:0:0:
320,192,101024,1,0,0:0:0:0:
192,192,101093,1,0,0:0:0:0:
64,192,101093,1,0,0:0:0:0:
448,192,101093,1,0,0:0:0:0:
320,192,101365,1,0,0:0:0:0:
192,192,101411,1,0,0:0:0:0:
448,192,101456,1,0,0:0:0:0:
320,192,101502,1,0,0:0:0:0:
448,192,101638,1,0,0:0:0:0:
64,192,101638,1,0,0:0:0:0:
448,192,101774,1,0,0:0:0:0:
192,192,101911,1,0,0:0:0:0:
320,192,101979,1,0,0:0:0:0:
64,192,102002,1,0,0:0:0:0:
192,192,102047,1,0,0:0:0:0:
448,192,102184,1,0,0:0:0:0:
320,192,102184,1,0,0:0:0:0:
64,192,102184,1,0,0:0:0:0:
64,192,102320,1,0,0:0:0:0:
448,192,102456,1,0,0:0:0:0:
320,192,102456,1,0,0:0:0:0:
448,192,102593,1,0,0:0:0:0:
320,192,102729,128,0,103002:0:0:0:0:
192,192,102865,1,0,0:0:0:0:
192,192,103002,128,0,103138:0:0:0:0:
320,192,103138,1,0,0:0:0:0:
192,192,103274,128,0,103547:0:0:0:0:
320,192,103411,1,0,0:0:0:0:
320,192,103547,128,0,103684:0:0:0:0:
64,192,103684,1,0,0:0:0:0:
320,192,103820,128,0,104093:0:0:0:0:
192,192,103956,1,0,0:0:0:0:
448,192,104093,128,0,104229:0:0:0:0:
320,192,104229,1,0,0:0:0:0:
192,192,104365,1,0,0:0:0:0:
64,192,104365,128,0,104638:0:0:0:0:
448,192,104365,1,0,0:0:0:0:
320,192,104502,1,0,0:0:0:0:
448,192,104638,128,0,104911:0:0:0:0:
320,192,104911,1,0,0:0:0:0:
64,192,104911,1,0,0:0:0:0:
192,192,104911,1,0,0:0:0:0:
448,192,104971,1,0,0:0:0:0:
192,192,105032,1,0,0:0:0:0:
320,192,105093,1,0,0:0:0:0:
64,192,105153,1,0,0:0:0:0:
448,192,105214,1,0,0:0:0:0:
192,192,105274,1,0,0:0:0:0:
320,192,105365,1,0,0:0:0:0:
64,192,105456,1,0,0:0:0:0:
448,192,105456,1,0,0:0:0:0:
192,192,105456,1,0,0:0:0:0:
320,192,105517,1,0,0:0:0:0:
192,192,105577,1,0,0:0:0:0:
448,192,105638,1,0,0:0:0:0:
320,192,105699,1,0,0:0:0:0:
64,192,105759,1,0,0:0:0:0:
448,192,105820,1,0,0:0:0:0:
192,192,105880,1,0,0:0:0:0:
64,192,105941,1,0,0:0:0:0:
320,192,106002,1,0,0:0:0:0:
448,192,106002,1,0,0:0:0:0:
192,192,106138,1,0,0:0:0:0:
192,192,106274,1,0,0:0:0:0:
320,192,106291,1,0,0:0:0:0:
64,192,106411,1,0,0:0:0:0:
192,192,106428,1,0,0:0:0:0:
64,192,106547,1,0,0:0:0:0:
320,192,106547,1,0,0:0:0:0:
448,192,106547,1,0,0:0:0:0:
448,192,106684,1,0,0:0:0:0:
320,192,106820,1,0,0:0:0:0:
448,192,106837,1,0,0:0:0:0:
192,192,106956,1,0,0:0:0:0:
320,192,106973,1,0,0:0:0:0:
64,192,107093,1,0,0:0:0:0:
448,192,107093,1,0,0:0:0:0:
192,192,107153,1,0,0:0:0:0:
320,192,107214,1,0,0:0:0:0:
64,192,107274,1,0,0:0:0:0:
448,192,107335,1,0,0:0:0:0:
192,192,107396,1,0,0:0:0:0:
320,192,107456,1,0,0:0:0:0:
192,192,107547,1,0,0:0:0:0:
448,192,107638,1,0,0:0:0:0:
64,192,107638,1,0,0:0:0:0:
320,192,107638,1,0,0:0:0:0:
192,192,107699,1,0,0:0:0:0:
448,192,107759,1,0,0:0:0:0:
320,192,107820,1,0,0:0:0:0:
64,192,107880,1,0,0:0:0:0:
448,192,107941,1,0,0:0:0:0:
192,192,108002,1,0,0:0:0:0:
64,192,108062,1,0,0:0:0:0:
320,192,108123,1,0,0:0:0:0:
448,192,108184,1,0,0:0:0:0:
192,192,108184,1,0,0:0:0:0:
320,192,108320,1,0,0:0:0:0:
320,192,108456,1,0,0:0:0:0:
192,192,108473,1,0,0:0:0:0:
448,192,108593,1,0,0:0:0:0:
320,192,108610,1,0,0:0:0:0:
64,192,108729,1,0,0:0:0:0:
192,192,108729,1,0,0:0:0:0:
448,192,108729,1,0,0:0:0:0:
64,192,108865,1,0,0:0:0:0:
192,192,109002,1,0,0:0:0:0:
64,192,109019,1,0,0:0:0:0:
320,192,109138,1,0,0:0:0:0:
192,192,109155,1,0,0:0:0:0:
64,192,109274,1,0,0:0:0:0:
448,192,109274,1,0,0:0:0:0:
320,192,109335,1,0,0:0:0:0:
192,192,109396,1,0,0:0:0:0:
448,192,109456,1,0,0:0:0:0:
320,192,109517,1,0,0:0:0:0:
448,192,109577,1,0,0:0:0:0:
192,192,109638,1,0,0:0:0:0:
320,192,109729,1,0,0:0:0:0:
64,192,109820,1,0,0:0:0:0:
192,192,109820,1,0,0:0:0:0:
448,192,109820,1,0,0:0:0:0:
320,192,109880,1,0,0:0:0:0:
192,192,109941,1,0,0:0:0:0:
64,192,110002,1,0,0:0:0:0:
320,192,110062,1,0,0:0:0:0:
192,192,110123,1,0,0:0:0:0:
448,192,110184,1,0,0:0:0:0:
320,192,110244,1,0,0:0:0:0:
192,192,110305,1,0,0:0:0:0:
320,192,110365,1,0,0:0:0:0:
448,192,110365,1,0,0:0:0:0:
192,192,110502,1,0,0:0:0:0:
192,192,110638,1,0,0:0:0:0:
320,192,110655,1,0,0:0:0:0:
64,192,110774,1,0,0:0:0:0:
192,192,110791,1,0,0:0:0:0:
64,192,110911,1,0,0:0:0:0:
320,192,110911,1,0,0:0:0:0:
448,192,110911,1,0,0:0:0:0:
448,192,111047,1,0,0:0:0:0:
320,192,111184,1,0,0:0:0:0:
448,192,111200,1,0,0:0:0:0:
192,192,111320,1,0,0:0:0:0:
320,192,111337,1,0,0:0:0:0:
64,192,111456,1,0,0:0:0:0:
192,192,111456,1,0,0:0:0:0:
448,192,111517,1,0,0:0:0:0:
320,192,111577,1,0,0:0:0:0:
448,192,111729,1,0,0:0:0:0:
64,192,111774,1,0,0:0:0:0:
192,192,111820,1,0,0:0:0:0:
320,192,111865,1,0,0:0:0:0:
64,192,111911,1,0,0:0:0:0:
448,192,112002,1,0,0:0:0:0:
192,192,112002,1,0,0:0:0:0:
320,192,112002,1,0,0:0:0:0:
64,192,112062,1,0,0:0:0:0:
448,192,112123,1,0,0:0:0:0:
64,192,112274,1,0,0:0:0:0:
320,192,112320,1,0,0:0:0:0:
192,192,112365,1,0,0:0:0:0:
64,192,112411,1,0,0:0:0:0:
320,192,112456,1,0,0:0:0:0:
448,192,112547,1,0,0:0:0:0:
192,192,112547,1,0,0:0:0:0:
64,192,112608,1,0,0:0:0:0:
320,192,112668,1,0,0:0:0:0:
448,192,112820,1,0,0:0:0:0:
64,192,112865,1,0,0:0:0:0:
320,192,112911,1,0,0:0:0:0:
192,192,112956,1,0,0:0:0:0:
448,192,113002,1,0,0:0:0:0:
192,192,113093,1,0,0:0:0:0:
320,192,113093,1,0,0:0:0:0:
64,192,113093,1,0,0:0:0:0:
448,192,113153,1,0,0:0:0:0:
64,192,113214,1,0,0:0:0:0:
320,192,113365,1,0,0:0:0:0:
64,192,113411,1,0,0:0:0:0:
192,192,113456,1,0,0:0:0:0:
448,192,113502,1,0,0:0:0:0:
320,192,113547,1,0,0:0:0:0:
64,192,113638,1,0,0:0:0:0:
192,192,113638,1,0,0:0:0:0:
320,192,113699,1,0,0:0:0:0:
448,192,113759,1,0,0:0:0:0:
64,192,113820,1,0,0:0:0:0:
192,192,113880,1,0,0:0:0:0:
448,192,113941,1,0,0:0:0:0:
64,192,114002,1,0,0:0:0:0:
320,192,114093,1,0,0:0:0:0:
64,192,114184,1,0,0:0:0:0:
448,192,114184,1,0,0:0:0:0:
192,192,114184,1,0,0:0:0:0:
320,192,114244,1,0,0:0:0:0:
192,192,114305,1,0,0:0:0:0:
448,192,114365,1,0,0:0:0:0:
320,192,114426,1,0,0:0:0:0:
64,192,114487,1,0,0:0:0:0:
448,192,114547,1,0,0:0:0:0:
192,192,114608,1,0,0:0:0:0:
64,192,114668,1,0,0:0:0:0:
320,192,114729,1,0,0:0:0:0:
448,192,114729,1,0,0:0:0:0:
192,192,114865,1,0,0:0:0:0:
192,192,115002,1,0,0:0:0:0:
320,192,115019,1,0,0:0:0:0:
64,192,115138,1,0,0:0:0:0:
192,192,115155,1,0,0:0:0:0:
64,192,115274,1,0,0:0:0:0:
320,192,115274,1,0,0:0:0:0:
448,192,115274,1,0,0:0:0:0:
448,192,115411,1,0,0:0:0:0:
320,192,115547,1,0,0:0:0:0:
448,192,115564,1,0,0:0:0:0:
192,192,115684,1,0,0:0:0:0:
320,192,115701,1,0,0:0:0:0:
64,192,115820,1,0,0:0:0:0:
448,192,115820,1,0,0:0:0:0:
192,192,115880,1,0,0:0:0:0:
320,192,115941,1,0,0:0:0:0:
64,192,116002,1,0,0:0:0:0:
448,192,116062,1,0,0:0:0:0:
192,192,116123,1,0,0:0:0:0:
320,192,116184,1,0,0:0:0:0:
192,192,116274,1,0,0:0:0:0:
448,192,116365,1,0,0:0:0:0:
64,192,116365,1,0,0:0:0:0:
320,192,116365,1,0,0:0:0:0:
192,192,116426,1,0,0:0:0:0:
448,192,116487,1,0,0:0:0:0:
320,192,116547,1,0,0:0:0:0:
64,192,116608,1,0,0:0:0:0:
448,192,116668,1,0,0:0:0:0:
192,192,116729,1,0,0:0:0:0:
64,192,116790,1,0,0:0:0:0:
320,192,116850,1,0,0:0:0:0:
448,192,116911,1,0,0:0:0:0:
192,192,116911,1,0,0:0:0:0:
320,192,117047,1,0,0:0:0:0:
320,192,117184,1,0,0:0:0:0:
192,192,117201,1,0,0:0:0:0:
448,192,117320,1,0,0:0:0:0:
320,192,117337,1,0,0:0:0:0:
64,192,117456,1,0,0:0:0:0:
192,192,117456,1,0,0:0:0:0:
448,192,117456,1,0,0:0:0:0:
64,192,117593,1,0,0:0:0:0:
192,192,117729,1,0,0:0:0:0:
64,192,117746,1,0,0:0:0:0:
320,192,117865,1,0,0:0:0:0:
192,192,117882,1,0,0:0:0:0:
64,192,118002,1,0,0:0:0:0:
448,192,118002,1,0,0:0:0:0:
320,192,118062,1,0,0:0:0:0:
192,192,118123,1,0,0:0:0:0:
448,192,118184,1,0,0:0:0:0:
320,192,118244,1,0,0:0:0:0:
448,192,118305,1,0,0:0:0:0:
192,192,118365,1,0,0:0:0:0:
320,192,118456,1,0,0:0:0:0:
64,192,118547,1,0,0:0:0:0:
192,192,118547,1,0,0:0:0:0:
448,192,118547,1,0,0:0:0:0:
320,192,118608,1,0,0:0:0:0:
192,192,118668,1,0,0:0:0:0:
64,192,118729,1,0,0:0:0:0:
320,192,118790,1,0,0:0:0:0:
192,192,118850,1,0,0:0:0:0:
448,192,118911,1,0,0:0:0:0:
320,192,118971,1,0,0:0:0:0:
192,192,119032,1,0,0:0:0:0:
320,192,119093,1,0,0:0:0:0:
448,192,119093,1,0,0:0:0:0:
192,192,119229,1,0,0:0:0:0:
192,192,119365,1,0,0:0:0:0:
320,192,119382,1,0,0:0:0:0:
64,192,119502,1,0,0:0:0:0:
192,192,119518,1,0,0:0:0:0:
64,192,119638,1,0,0:0:0:0:
320,192,119638,1,0,0:0:0:0:
448,192,119638,1,0,0:0:0:0:
448,192,119774,1,0,0:0:0:0:
320,192,119911,1,0,0:0:0:0:
448,192,119928,1,0,0:0:0:0:
192,192,120047,1,0,0:0:0:0:
320,192,120064,1,0,0:0:0:0:
64,192,120184,1,0,0:0:0:0:
448,192,120244,1,0,0:0:0:0:
320,192,120305,1,0,0:0:0:0:
448,192,120456,1,0,0:0:0:0:
64,192,120502,1,0,0:0:0:0:
192,192,120547,1,0,0:0:0:0:
320,192,120593,1,0,0:0:0:0:
64,192,120638,1,0,0:0:0:0:
448,192,120729,1,0,0:0:0:0:
192,192,120790,1,0,0:0:0:0:
448,192,120850,1,0,0:0:0:0:
64,192,121002,1,0,0:0:0:0:
320,192,121047,1,0,0:0:0:0:
192,192,121093,1,0,0:0:0:0:
64,192,121138,1,0,0:0:0:0:
320,192,121184,1,0,0:0:0:0:
448,192,121274,1,0,0:0:0:0:
64,192,121365,1,0,0:0:0:0:
320,192,121396,1,0,0:0:0:0:
448,192,121547,1,0,0:0:0:0:
64,192,121593,1,0,0:0:0:0:
320,192,121638,1,0,0:0:0:0:
192,192,121684,1,0,0:0:0:0:
448,192,121729,1,0,0:0:0:0:
64,192,121820,1,0,0:0:0:0:
192,192,121820,1,0,0:0:0:0:
320,192,121880,1,0,0:0:0:0:
64,192,121941,1,0,0:0:0:0:
320,192,122093,1,0,0:0:0:0:
448,192,122093,1,0,0:0:0:0:
64,192,122138,1,0,0:0:0:0:
192,192,122184,1,0,0:0:0:0:
320,192,122229,1,0,0:0:0:0:
64,192,122365,1,0,0:0:0:0:
192,192,122365,1,0,0:0:0:0:
448,192,122365,1,0,0:0:0:0:
320,192,122426,1,0,0:0:0:0:
64,192,122487,1,0,0:0:0:0:
448,192,122547,1,0,0:0:0:0:
192,192,122608,1,0,0:0:0:0:
320,192,122668,1,0,0:0:0:0:
448,192,122729,1,0,0:0:0:0:
192,192,122820,1,0,0:0:0:0:
64,192,122911,1,0,0:0:0:0:
320,192,122911,1,0,0:0:0:0:
448,192,122911,1,0,0:0:0:0:
192,192,122971,1,0,0:0:0:0:
64,192,123032,1,0,0:0:0:0:
320,192,123093,1,0,0:0:0:0:
192,192,123153,1,0,0:0:0:0:
448,192,123214,1,0,0:0:0:0:
320,192,123274,1,0,0:0:0:0:
192,192,123335,1,0,0:0:0:0:
448,192,123396,1,0,0:0:0:0:
320,192,123456,1,0,0:0:0:0:
64,192,123456,1,0,0:0:0:0:
64,192,123593,1,0,0:0:0:0:
320,192,123729,1,0,0:0:0:0:
192,192,123729,1,0,0:0:0:0:
320,192,123865,1,0,0:0:0:0:
448,192,123865,1,0,0:0:0:0:
448,192,124002,1,0,0:0:0:0:
192,192,124002,1,0,0:0:0:0:
64,192,124002,1,0,0:0:0:0:
320,192,124138,1,0,0:0:0:0:
64,192,124138,1,0,0:0:0:0:
448,192,124274,1,0,0:0:0:0:
192,192,124274,1,0,0:0:0:0:
448,192,124411,1,0,0:0:0:0:
64,192,124547,1,0,0:0:0:0:
192,192,124547,1,0,0:0:0:0:
320,192,124615,1,0,0:0:0:0:
64,192,124684,1,0,0:0:0:0:
448,192,124752,1,0,0:0:0:0:
320,192,124820,1,0,0:0:0:0:
192,192,124888,1,0,0:0:0:0:
448,192,125002,1,0,0:0:0:0:
64,192,125093,1,0,0:0:0:0:
320,192,125093,1,0,0:0:0:0:
192,192,125093,1,0,0:0:0:0:
448,192,125161,1,0,0:0:0:0:
192,192,125229,1,0,0:0:0:0:
320,192,125297,1,0,0:0:0:0:
64,192,125365,1,0,0:0:0:0:
192,192,125434,1,0,0:0:0:0:
64,192,125502,1,0,0:0:0:0:
320,192,125570,1,0,0:0:0:0:
192,192,125638,1,0,0:0:0:0:
448,192,125638,1,0,0:0:0:0:
448,192,125774,1,0,0:0:0:0:
320,192,125774,1,0,0:0:0:0:
192,192,125911,1,0,0:0:0:0:
64,192,125911,1,0,0:0:0:0:
192,192,126047,1,0,0:0:0:0:
320,192,126047,1,0,0:0:0:0:
320,192,126184,1,0,0:0:0:0:
448,192,126184,1,0,0:0:0:0:
64,192,126184,1,0,0:0:0:0:
64,192,126320,1,0,0:0:0:0:
192,192,126320,1,0,0:0:0:0:
320,192,126456,1,0,0:0:0:0:
448,192,126456,1,0,0:0:0:0:
320,192,126593,1,0,0:0:0:0:
64,192,126729,1,0,0:0:0:0:
192,192,126729,1,0,0:0:0:0:
448,192,126797,1,0,0:0:0:0:
320,192,126865,1,0,0:0:0:0:
192,192,126934,1,0,0:0:0:0:
448,192,127002,1,0,0:0:0:0:
64,192,127070,1,0,0:0:0:0:
320,192,127138,1,0,0:0:0:0:
192,192,127206,1,0,0:0:0:0:
64,192,127274,1,0,0:0:0:0:
320,192,127274,1,0,0:0:0:0:
448,192,127274,1,0,0:0:0:0:
192,192,127335,1,0,0:0:0:0:
448,192,127396,1,0,0:0:0:0:
64,192,127456,1,0,0:0:0:0:
320,192,127517,1,0,0:0:0:0:
448,192,127577,1,0,0:0:0:0:
192,192,127638,1,0,0:0:0:0:
320,192,127699,1,0,0:0:0:0:
64,192,127759,1,0,0:0:0:0:
448,192,127820,1,0,0:0:0:0:
192,192,127820,1,0,0:0:0:0:
192,192,127956,1,0,0:0:0:0:
448,192,128093,1,0,0:0:0:0:
320,192,128093,1,0,0:0:0:0:
448,192,128229,1,0,0:0:0:0:
192,192,128229,1,0,0:0:0:0:
320,192,128365,1,0,0:0:0:0:
64,192,128365,1,0,0:0:0:0:
192,192,128365,1,0,0:0:0:0:
64,192,128502,1,0,0:0:0:0:
448,192,128502,1,0,0:0:0:0:
320,192,128638,1,0,0:0:0:0:
192,192,128638,1,0,0:0:0:0:
320,192,128774,1,0,0:0:0:0:
448,192,128911,1,0,0:0:0:0:
64,192,128911,1,0,0:0:0:0:
192,192,128979,1,0,0:0:0:0:
64,192,129047,1,0,0:0:0:0:
448,192,129184,1,0,0:0:0:0:
192,192,129229,1,0,0:0:0:0:
448,192,129274,1,0,0:0:0:0:
64,192,129320,1,0,0:0:0:0:
192,192,129456,1,0,0:0:0:0:
448,192,129456,1,0,0:0:0:0:
320,192,129456,1,0,0:0:0:0:
64,192,129524,1,0,0:0:0:0:
192,192,129593,1,0,0:0:0:0:
320,192,129729,1,0,0:0:0:0:
64,192,129774,1,0,0:0:0:0:
320,192,129820,1,0,0:0:0:0:
448,192,129865,1,0,0:0:0:0:
192,192,130002,1,0,0:0:0:0:
64,192,130002,1,0,0:0:0:0:
320,192,130062,1,0,0:0:0:0:
64,192,130123,1,0,0:0:0:0:
192,192,130274,1,0,0:0:0:0:
320,192,130320,1,0,0:0:0:0:
192,192,130365,1,0,0:0:0:0:
64,192,130411,1,0,0:0:0:0:
448,192,130547,1,0,0:0:0:0:
64,192,130547,1,0,0:0:0:0:
192,192,130547,1,0,0:0:0:0:
320,192,130608,1,0,0:0:0:0:
448,192,130668,1,0,0:0:0:0:
64,192,130820,1,0,0:0:0:0:
448,192,130865,1,0,0:0:0:0:
64,192,130911,1,0,0:0:0:0:
320,192,130956,1,0,0:0:0:0:
320,192,131093,1,0,0:0:0:0:
448,192,131093,1,0,0:0:0:0:
64,192,131093,1,0,0:0:0:0:
192,192,131153,1,0,0:0:0:0:
448,192,131214,1,0,0:0:0:0:
64,192,131274,1,0,0:0:0:0:
320,192,131335,1,0,0:0:0:0:
192,192,131396,1,0,0:0:0:0:
64,192,131456,1,0,0:0:0:0:
448,192,131547,1,0,0:0:0:0:
320,192,131638,1,0,0:0:0:0:
192,192,131638,1,0,0:0:0:0:
64,192,131638,1,0,0:0:0:0:
448,192,131699,1,0,0:0:0:0:
192,192,131759,1,0,0:0:0:0:
320,192,131820,1,0,0:0:0:0:
448,192,131880,1,0,0:0:0:0:
64,192,131941,1,0,0:0:0:0:
192,192,132002,1,0,0:0:0:0:
448,192,132062,1,0,0:0:0:0:
64,192,132123,1,0,0:0:0:0:
192,192,132184,1,0,0:0:0:0:
320,192,132184,1,0,0:0:0:0:
320,192,132320,1,0,0:0:0:0:
448,192,132456,1,0,0:0:0:0:
192,192,132456,1,0,0:0:0:0:
192,192,132593,1,0,0:0:0:0:
64,192,132593,1,0,0:0:0:0:
64,192,132729,1,0,0:0:0:0:
448,192,132729,1,0,0:0:0:0:
320,192,132729,1,0,0:0:0:0:
192,192,132865,1,0,0:0:0:0:
320,192,132865,1,0,0:0:0:0:
448,192,133002,1,0,0:0:0:0:
192,192,133002,1,0,0:0:0:0:
448,192,133138,1,0,0:0:0:0:
64,192,133274,1,0,0:0:0:0:
320,192,133274,1,0,0:0:0:0:
192,192,133343,1,0,0:0:0:0:
64,192,133411,1,0,0:0:0:0:
320,192,133479,1,0,0:0:0:0:
448,192,133547,1,0,0:0:0:0:
192,192,133615,1,0,0:0:0:0:
64,192,133729,1,0,0:0:0:0:
320,192,133820,1,0,0:0:0:0:
192,192,133820,1,0,0:0:0:0:
448,192,133820,1,0,0:0:0:0:
64,192,133888,1,0,0:0:0:0:
448,192,133956,1,0,0:0:0:0:
320,192,134024,1,0,0:0:0:0:
64,192,134093,1,0,0:0:0:0:
448,192,134161,1,0,0:0:0:0:
64,192,134229,1,0,0:0:0:0:
192,192,134297,1,0,0:0:0:0:
320,192,134365,1,0,0:0:0:0:
448,192,134365,1,0,0:0:0:0:
320,192,134502,1,0,0:0:0:0:
64,192,134502,1,0,0:0:0:0:
192,192,134638,1,0,0:0:0:0:
64,192,134638,1,0,0:0:0:0:
448,192,134774,1,0,0:0:0:0:
192,192,134774,1,0,0:0:0:0:
448,192,134911,1,0,0:0:0:0:
64,192,134911,1,0,0:0:0:0:
320,192,134911,1,0,0:0:0:0:
192,192,135047,1,0,0:0:0:0:
320,192,135047,1,0,0:0:0:0:
192,192,135184,1,0,0:0:0:0:
64,192,135184,1,0,0:0:0:0:
64,192,135320,1,0,0:0:0:0:
320,192,135456,1,0,0:0:0:0:
448,192,135456,1,0,0:0:0:0:
64,192,135524,1,0,0:0:0:0:
192,192,135593,1,0,0:0:0:0:
448,192,135661,1,0,0:0:0:0:
64,192,135729,1,0,0:0:0:0:
320,192,135797,1,0,0:0:0:0:
192,192,135865,1,0,0:0:0:0:
448,192,135934,1,0,0:0:0:0:
320,192,136002,1,0,0:0:0:0:
192,192,136002,1,0,0:0:0:0:
64,192,136002,1,0,0:0:0:0:
448,192,136062,1,0,0:0:0:0:
64,192,136123,1,0,0:0:0:0:
320,192,136184,1,0,0:0:0:0:
192,192,136244,1,0,0:0:0:0:
64,192,136305,1,0,0:0:0:0:
448,192,136365,1,0,0:0:0:0:
192,192,136426,1,0,0:0:0:0:
320,192,136487,1,0,0:0:0:0:
64,192,136547,1,0,0:0:0:0:
448,192,136547,1,0,0:0:0:0:
448,192,136684,1,0,0:0:0:0:
320,192,136820,1,0,0:0:0:0:
64,192,136820,1,0,0:0:0:0:
192,192,136956,1,0,0:0:0:0:
64,192,136956,1,0,0:0:0:0:
192,192,137093,1,0,0:0:0:0:
320,192,137093,1,0,0:0:0:0:
448,192,137093,1,0,0:0:0:0:
320,192,137229,1,0,0:0:0:0:
192,192,137365,1,0,0:0:0:0:
448,192,137365,1,0,0:0:0:0:
192,192,137502,1,0,0:0:0:0:
64,192,137638,1,0,0:0:0:0:
448,192,137638,1,0,0:0:0:0:
192,192,137774,1,0,0:0:0:0:
448,192,137911,1,0,0:0:0:0:
320,192,137956,1,0,0:0:0:0:
64,192,138002,1,0,0:0:0:0:
192,192,138047,1,0,0:0:0:0:
320,192,138184,1,0,0:0:0:0:
64,192,138184,1,0,0:0:0:0:
448,192,138320,1,0,0:0:0:0:
192,192,138456,1,0,0:0:0:0:
448,192,138524,1,0,0:0:0:0:
320,192,138593,1,0,0:0:0:0:
448,192,138729,1,0,0:0:0:0:
64,192,138865,1,0,0:0:0:0:
192,192,139002,1,0,0:0:0:0:
64,192,139070,1,0,0:0:0:0:
320,192,139138,1,0,0:0:0:0:
448,192,139274,1,0,0:0:0:0:
192,192,139274,1,0,0:0:0:0:
64,192,139411,1,0,0:0:0:0:
320,192,139547,1,0,0:0:0:0:
448,192,139547,1,0,0:0:0:0:
192,192,139820,128,0,139956:0:0:0:0:
64,192,139820,128,0,140365:0:0:0:0:
448,192,139820,128,0,140093:0:0:0:0:
192,192,140093,128,0,140229:0:0:0:0:
192,192,140365,128,0,140502:0:0:0:0:
192,192,140638,128,0,140774:0:0:0:0:
448,192,140911,128,0,141047:0:0:0:0:
448,192,141184,128,0,141320:0:0:0:0:
448,192,141456,128,0,141593:0:0:0:0:
448,192,141729,128,0,141865:0:0:0:0:
192,192,142002,128,0,142138:0:0:0:0:
192,192,142274,128,0,142411:0:0:0:0:
192,192,142547,128,0,142684:0:0:0:0:
192,192,142820,128,0,142956:0:0:0:0:
320,192,143093,128,0,143229:0:0:0:0:
64,192,143229,128,0,143365:0:0:0:0:
320,192,143365,128,0,143502:0:0:0:0:
192,192,143502,128,0,143638:0:0:0:0:
320,192,143638,128,0,143774:0:0:0:0:
192,192,143774,128,0,143911:0:0:0:0:
320,192,143911,128,0,144047:0:0:0:0:
64,192,144184,128,0,144729:0:0:0:0:
320,192,144456,1,0,0:0:0:0:
320,192,144729,128,0,145274:0:0:0:0:
192,192,145002,1,0,0:0:0:0:
192,192,145274,128,0,145547:0:0:0:0:
320,192,145547,128,0,145684:0:0:0:0:
64,192,145684,128,0,145820:0:0:0:0:
320,192,145820,128,0,145956:0:0:0:0:
192,192,145956,128,0,146093:0:0:0:0:
320,192,146093,128,0,146229:0:0:0:0:
448,192,146365,128,0,146638:0:0:0:0:
320,192,146638,128,0,146911:0:0:0:0:
64,192,146911,128,0,147184:0:0:0:0:
320,192,147184,128,0,147456:0:0:0:0:
448,192,147456,128,0,147593:0:0:0:0:
192,192,147593,128,0,147729:0:0:0:0:
320,192,147729,128,0,147865:0:0:0:0:
64,192,147865,128,0,148002:0:0:0:0:
192,192,148002,128,0,148138:0:0:0:0:
192,192,148274,128,0,148411:0:0:0:0:
320,192,148411,128,0,148547:0:0:0:0:
64,192,148547,128,0,149093:0:0:0:0:
320,192,148820,1,0,0:0:0:0:
320,192,149093,128,0,149638:0:0:0:0:
192,192,149365,1,0,0:0:0:0:
192,192,149638,128,0,149911:0:0:0:0:
320,192,149911,128,0,150047:0:0:0:0:
64,192,150047,128,0,150184:0:0:0:0:
320,192,150184,128,0,150320:0:0:0:0:
192,192,150320,128,0,150456:0:0:0:0:
320,192,150456,128,0,150593:0:0:0:0:
448,192,150729,128,0,151002:0:0:0:0:
320,192,151002,128,0,151274:0:0:0:0:
64,192,151274,128,0,151547:0:0:0:0:
448,192,151547,128,0,151684:0:0:0:0:
320,192,151684,128,0,151820:0:0:0:0:
192,192,151820,128,0,151956:0:0:0:0:
448,192,151956,128,0,152093:0:0:0:0:
64,192,152093,128,0,152229:0:0:0:0:
192,192,152229,128,0,152365:0:0:0:0:
64,192,152365,128,0,152502:0:0:0:0:
320,192,152502,128,0,152638:0:0:0:0:
192,192,152638,128,0,152774:0:0:0:0:
64,192,152911,128,0,153456:0:0:0:0:
192,192,153184,1,0,0:0:0:0:
192,192,153456,128,0,154002:0:0:0:0:
320,192,153729,1,0,0:0:0:0:
320,192,154002,128,0,154274:0:0:0:0:
64,192,154274,128,0,154411:0:0:0:0:
192,192,154411,128,0,154547:0:0:0:0:
320,192,154547,128,0,154684:0:0:0:0:
448,192,154820,128,0,154956:0:0:0:0:
448,192,155093,128,0,155229:0:0:0:0:
192,192,155229,128,0,155365:0:0:0:0:
320,192,155365,128,0,155502:0:0:0:0:
64,192,155502,128,0,155638:0:0:0:0:
320,192,155638,128,0,155774:0:0:0:0:
192,192,155774,128,0,155911:0:0:0:0:
64,192,155911,128,0,156047:0:0:0:0:
192,192,156047,128,0,156184:0:0:0:0:
448,192,156184,128,0,156320:0:0:0:0:
320,192,156320,128,0,156456:0:0:0:0:
64,192,156456,128,0,156593:0:0:0:0:
448,192,156593,128,0,156729:0:0:0:0:
320,192,156729,128,0,156865:0:0:0:0:
64,192,156865,128,0,157002:0:0:0:0:
320,192,157002,128,0,157138:0:0:0:0:
448,192,157274,1,0,0:0:0:0:
64,192,157274,128,0,157820:0:0:0:0:
192,192,157274,128,0,157547:0:0:0:0:
448,192,157547,128,0,157684:0:0:0:0:
320,192,157547,128,0,157684:0:0:0:0:
320,192,157820,128,0,158365:0:0:0:0:
448,192,158093,128,0,158229:0:0:0:0:
64,192,158093,128,0,158229:0:0:0:0:
192,192,158365,128,0,158638:0:0:0:0:
448,192,158638,128,0,158774:0:0:0:0:
320,192,158638,128,0,158774:0:0:0:0:
64,192,158774,128,0,158911:0:0:0:0:
320,192,158911,128,0,159047:0:0:0:0:
192,192,159047,128,0,159184:0:0:0:0:
320,192,159184,128,0,159320:0:0:0:0:
64,192,159184,128,0,159320:0:0:0:0:
448,192,159456,128,0,159729:0:0:0:0:
320,192,159729,128,0,160002:0:0:0:0:
192,192,159729,128,0,159865:0:0:0:0:
64,192,160002,128,0,160274:0:0:0:0:
320,192,160274,128,0,160411:0:0:0:0:
448,192,160274,128,0,160411:0:0:0:0:
192,192,160411,128,0,160547:0:0:0:0:
448,192,160547,128,0,160684:0:0:0:0:
320,192,160684,128,0,160820:0:0:0:0:
192,192,160820,128,0,160956:0:0:0:0:
64,192,160820,128,0,160956:0:0:0:0:
320,192,160956,128,0,161093:0:0:0:0:
448,192,161093,128,0,161229:0:0:0:0:
64,192,161229,128,0,161365:0:0:0:0:
192,192,161365,128,0,161502:0:0:0:0:
320,192,161365,128,0,161502:0:0:0:0:
64,192,161638,128,0,162184:0:0:0:0:
192,192,161911,128,0,162047:0:0:0:0:
320,192,161911,128,0,162047:0:0:0:0:
320,192,162184,128,0,162729:0:0:0:0:
192,192,162456,128,0,162593:0:0:0:0:
448,192,162456,128,0,162593:0:0:0:0:
192,192,162729,128,0,163002:0:0:0:0:
320,192,163002,128,0,163138:0:0:0:0:
448,192,163002,128,0,163138:0:0:0:0:
64,192,163138,128,0,163274:0:0:0:0:
320,192,163274,128,0,163411:0:0:0:0:
192,192,163411,128,0,163547:0:0:0:0:
320,192,163547,128,0,163684:0:0:0:0:
64,192,163547,128,0,163684:0:0:0:0:
448,192,163820,128,0,164093:0:0:0:0:
320,192,164093,128,0,164365:0:0:0:0:
64,192,164093,128,0,164229:0:0:0:0:
64,192,164365,128,0,164638:0:0:0:0:
320,192,164638,128,0,164911:0:0:0:0:
192,192,164638,128,0,164774:0:0:0:0:
448,192,164911,128,0,165047:0:0:0:0:
192,192,165047,128,0,165184:0:0:0:0:
320,192,165184,128,0,165320:0:0:0:0:
448,192,165184,128,0,165320:0:0:0:0:
64,192,165320,128,0,165456:0:0:0:0:
192,192,165456,128,0,165593:0:0:0:0:
192,192,165729,128,0,165865:0:0:0:0:
448,192,165729,128,0,165865:0:0:0:0:
320,192,165865,128,0,166002:0:0:0:0:
64,192,166002,128,0,166547:0:0:0:0:
192,192,166274,128,0,166411:0:0:0:0:
320,192,166274,128,0,166411:0:0:0:0:
320,192,166547,128,0,167093:0:0:0:0:
192,192,166820,128,0,166956:0:0:0:0:
64,192,166820,128,0,166956:0:0:0:0:
192,192,167093,128,0,167365:0:0:0:0:
320,192,167365,128,0,167502:0:0:0:0:
448,192,167365,128,0,167502:0:0:0:0:
64,192,167502,128,0,167638:0:0:0:0:
320,192,167638,128,0,167774:0:0:0:0:
192,192,167774,128,0,167911:0:0:0:0:
320,192,167911,128,0,168047:0:0:0:0:
448,192,167911,128,0,168047:0:0:0:0:
448,192,168184,128,0,168456:0:0:0:0:
320,192,168456,128,0,168729:0:0:0:0:
192,192,168456,128,0,168593:0:0:0:0:
64,192,168729,128,0,169002:0:0:0:0:
448,192,169002,128,0,169138:0:0:0:0:
192,192,169002,128,0,169138:0:0:0:0:
320,192,169138,128,0,169274:0:0:0:0:
192,192,169274,128,0,169411:0:0:0:0:
448,192,169411,128,0,169547:0:0:0:0:
64,192,169547,128,0,169684:0:0:0:0:
320,192,169547,128,0,169684:0:0:0:0:
192,192,169684,128,0,169820:0:0:0:0:
64,192,169820,128,0,169956:0:0:0:0:
320,192,169956,128,0,170093:0:0:0:0:
192,192,170093,128,0,170229:0:0:0:0:
448,192,170093,128,0,170229:0:0:0:0:
64,192,170365,128,0,170911:0:0:0:0:
320,192,170638,128,0,170774:0:0:0:0:
192,192,170638,128,0,170774:0:0:0:0:
192,192,170911,128,0,171456:0:0:0:0:
320,192,171184,128,0,171320:0:0:0:0:
448,192,171184,128,0,171320:0:0:0:0:
320,192,171456,128,0,171729:0:0:0:0:
64,192,171729,128,0,171865:0:0:0:0:
448,192,171729,128,0,171865:0:0:0:0:
192,192,171865,128,0,172002:0:0:0:0:
320,192,172002,128,0,172138:0:0:0:0:
448,192,172274,128,0,172411:0:0:0:0:
64,192,172274,128,0,172411:0:0:0:0:
448,192,172547,128,0,172684:0:0:0:0:
192,192,172684,128,0,172820:0:0:0:0:
320,192,172820,128,0,172956:0:0:0:0:
64,192,172956,128,0,173093:0:0:0:0:
320,192,173093,128,0,173229:0:0:0:0:
192,192,173229,128,0,173365:0:0:0:0:
64,192,173365,128,0,173502:0:0:0:0:
192,192,173502,128,0,173638:0:0:0:0:
448,192,173638,128,0,173774:0:0:0:0:
320,192,173774,128,0,173911:0:0:0:0:
64,192,173911,128,0,174047:0:0:0:0:
320,192,174047,128,0,174184:0:0:0:0:
448,192,174184,1,0,0:0:0:0:
192,192,174184,1,0,0:0:0:0:
64,192,174184,1,0,0:0:0:0:
448,192,174729,1,0,0:0:0:0:
320,192,174729,1,0,0:0:0:0:
192,192,174729,1,0,0:0:0:0:
64,192,174865,1,0,0:0:0:0:
320,192,174911,1,0,0:0:0:0:
448,192,174956,1,0,0:0:0:0:
192,192,175002,1,0,0:0:0:0:
320,192,175047,1,0,0:0:0:0:
448,192,175093,1,0,0:0:0:0:
64,192,175138,1,0,0:0:0:0:
192,192,175184,1,0,0:0:0:0:
320,192,175229,1,0,0:0:0:0:
448,192,175274,1,0,0:0:0:0:
192,192,175274,1,0,0:0:0:0:
64,192,175274,1,0,0:0:0:0:
448,192,175396,1,0,0:0:0:0:
320,192,175456,1,0,0:0:0:0:
64,192,175517,1,0,0:0:0:0:
448,192,175577,1,0,0:0:0:0:
192,192,175638,1,0,0:0:0:0:
64,192,175699,1,0,0:0:0:0:
320,192,175759,1,0,0:0:0:0:
448,192,175820,1,0,0:0:0:0:
192,192,175820,1,0,0:0:0:0:
448,192,175956,1,0,0:0:0:0:
64,192,176093,1,0,0:0:0:0:
192,192,176093,1,0,0:0:0:0:
320,192,176229,1,0,0:0:0:0:
192,192,176229,1,0,0:0:0:0:
64,192,176365,1,0,0:0:0:0:
320,192,176365,1,0,0:0:0:0:
448,192,176365,1,0,0:0:0:0:
64,192,176502,1,0,0:0:0:0:
192,192,176502,1,0,0:0:0:0:
320,192,176638,1,0,0:0:0:0:
448,192,176638,1,0,0:0:0:0:
64,192,176774,1,0,0:0:0:0:
320,192,176774,1,0,0:0:0:0:
448,192,176911,1,0,0:0:0:0:
192,192,176911,1,0,0:0:0:0:
64,192,176971,1,0,0:0:0:0:
320,192,177032,1,0,0:0:0:0:
192,192,177093,1,0,0:0:0:0:
448,192,177153,1,0,0:0:0:0:
192,192,177214,1,0,0:0:0:0:
64,192,177274,1,0,0:0:0:0:
320,192,177335,1,0,0:0:0:0:
192,192,177396,1,0,0:0:0:0:
64,192,177456,1,0,0:0:0:0:
320,192,177456,1,0,0:0:0:0:
448,192,177456,1,0,0:0:0:0:
192,192,177524,1,0,0:0:0:0:
448,192,177593,1,0,0:0:0:0:
320,192,177729,1,0,0:0:0:0:
192,192,177797,1,0,0:0:0:0:
64,192,177865,1,0,0:0:0:0:
320,192,177934,1,0,0:0:0:0:
448,192,178002,1,0,0:0:0:0:
192,192,178002,1,0,0:0:0:0:
192,192,178138,1,0,0:0:0:0:
320,192,178274,1,0,0:0:0:0:
320,192,178411,1,0,0:0:0:0:
192,192,178547,1,0,0:0:0:0:
448,192,178547,1,0,0:0:0:0:
64,192,178547,1,0,0:0:0:0:
64,192,178684,1,0,0:0:0:0:
320,192,178820,1,0,0:0:0:0:
192,192,178888,1,0,0:0:0:0:
448,192,178956,1,0,0:0:0:0:
320,192,179024,1,0,0:0:0:0:
64,192,179093,1,0,0:0:0:0:
192,192,179093,1,0,0:0:0:0:
448,192,179153,1,0,0:0:0:0:
64,192,179214,1,0,0:0:0:0:
320,192,179365,1,0,0:0:0:0:
192,192,179411,1,0,0:0:0:0:
448,192,179456,1,0,0:0:0:0:
320,192,179502,1,0,0:0:0:0:
192,192,179570,1,0,0:0:0:0:
320,192,179638,1,0,0:0:0:0:
448,192,179638,1,0,0:0:0:0:
64,192,179638,1,0,0:0:0:0:
64,192,179774,1,0,0:0:0:0:
192,192,179774,1,0,0:0:0:0:
448,192,179911,1,0,0:0:0:0:
192,192,179911,1,0,0:0:0:0:
320,192,180047,1,0,0:0:0:0:
64,192,180047,1,0,0:0:0:0:
448,192,180184,1,0,0:0:0:0:
320,192,180184,1,0,0:0:0:0:
64,192,180320,1,0,0:0:0:0:
192,192,180320,1,0,0:0:0:0:
320,192,180456,1,0,0:0:0:0:
192,192,180456,1,0,0:0:0:0:
64,192,180593,1,0,0:0:0:0:
448,192,180593,1,0,0:0:0:0:
448,192,180729,1,0,0:0:0:0:
192,192,180729,1,0,0:0:0:0:
320,192,180729,1,0,0:0:0:0:
192,192,180865,1,0,0:0:0:0:
64,192,180865,1,0,0:0:0:0:
64,192,181002,1,0,0:0:0:0:
448,192,181002,1,0,0:0:0:0:
320,192,181138,1,0,0:0:0:0:
448,192,181138,1,0,0:0:0:0:
64,192,181274,1,0,0:0:0:0:
192,192,181274,1,0,0:0:0:0:
448,192,181343,1,0,0:0:0:0:
192,192,181411,1,0,0:0:0:0:
320,192,181479,1,0,0:0:0:0:
64,192,181547,1,0,0:0:0:0:
320,192,181615,1,0,0:0:0:0:
192,192,181684,1,0,0:0:0:0:
448,192,181752,1,0,0:0:0:0:
320,192,181820,1,0,0:0:0:0:
64,192,181820,1,0,0:0:0:0:
192,192,181820,1,0,0:0:0:0:
448,192,181888,1,0,0:0:0:0:
64,192,181956,1,0,0:0:0:0:
192,192,182024,1,0,0:0:0:0:
448,192,182093,1,0,0:0:0:0:
64,192,182161,1,0,0:0:0:0:
320,192,182229,1,0,0:0:0:0:
192,192,182297,1,0,0:0:0:0:
64,192,182365,1,0,0:0:0:0:
448,192,182365,1,0,0:0:0:0:
448,192,182502,1,0,0:0:0:0:
192,192,182638,1,0,0:0:0:0:
192,192,182774,1,0,0:0:0:0:
64,192,182911,1,0,0:0:0:0:
320,192,182911,1,0,0:0:0:0:
448,192,182911,1,0,0:0:0:0:
192,192,182979,1,0,0:0:0:0:
448,192,183047,1,0,0:0:0:0:
192,192,183115,1,0,0:0:0:0:
320,192,183184,1,0,0:0:0:0:
64,192,183320,1,0,0:0:0:0:
448,192,183456,1,0,0:0:0:0:
64,192,183456,1,0,0:0:0:0:
448,192,183593,1,0,0:0:0:0:
192,192,183638,1,0,0:0:0:0:
64,192,183684,1,0,0:0:0:0:
320,192,183729,1,0,0:0:0:0:
192,192,183774,1,0,0:0:0:0:
64,192,183820,1,0,0:0:0:0:
448,192,183865,1,0,0:0:0:0:
320,192,183911,1,0,0:0:0:0:
192,192,183956,1,0,0:0:0:0:
448,192,184002,1,0,0:0:0:0:
320,192,184002,1,0,0:0:0:0:
64,192,184002,1,0,0:0:0:0:
64,192,184123,1,0,0:0:0:0:
192,192,184184,1,0,0:0:0:0:
448,192,184274,1,0,0:0:0:0:
320,192,184343,1,0,0:0:0:0:
192,192,184411,1,0,0:0:0:0:
448,192,184479,1,0,0:0:0:0:
320,192,184547,1,0,0:0:0:0:
64,192,184547,1,0,0:0:0:0:
192,192,184684,1,0,0:0:0:0:
64,192,184684,1,0,0:0:0:0:
448,192,184820,1,0,0:0:0:0:
320,192,184820,1,0,0:0:0:0:
448,192,184956,1,0,0:0:0:0:
192,192,184956,1,0,0:0:0:0:
192,192,185093,1,0,0:0:0:0:
64,192,185093,1,0,0:0:0:0:
320,192,185093,1,0,0:0:0:0:
448,192,185153,1,0,0:0:0:0:
64,192,185214,1,0,0:0:0:0:
192,192,185274,1,0,0:0:0:0:
320,192,185365,1,0,0:0:0:0:
192,192,185434,1,0,0:0:0:0:
448,192,185502,1,0,0:0:0:0:
320,192,185547,1,0,0:0:0:0:
192,192,185593,1,0,0:0:0:0:
64,192,185638,1,0,0:0:0:0:
448,192,185638,1,0,0:0:0:0:
320,192,185699,1,0,0:0:0:0:
192,192,185759,1,0,0:0:0:0:
448,192,185820,1,0,0:0:0:0:
64,192,185880,1,0,0:0:0:0:
320,192,185941,1,0,0:0:0:0:
448,192,186002,1,0,0:0:0:0:
192,192,186062,1,0,0:0:0:0:
320,192,186123,1,0,0:0:0:0:
448,192,186184,1,0,0:0:0:0:
192,192,186184,1,0,0:0:0:0:
64,192,186184,1,0,0:0:0:0:
320,192,186252,1,0,0:0:0:0:
64,192,186320,1,0,0:0:0:0:
320,192,186456,1,0,0:0:0:0:
192,192,186524,1,0,0:0:0:0:
448,192,186593,1,0,0:0:0:0:
64,192,186661,1,0,0:0:0:0:
192,192,186729,1,0,0:0:0:0:
320,192,186729,1,0,0:0:0:0:
320,192,186865,1,0,0:0:0:0:
192,192,187002,1,0,0:0:0:0:
192,192,187138,1,0,0:0:0:0:
320,192,187274,1,0,0:0:0:0:
64,192,187274,1,0,0:0:0:0:
448,192,187274,1,0,0:0:0:0:
448,192,187411,1,0,0:0:0:0:
192,192,187547,1,0,0:0:0:0:
320,192,187615,1,0,0:0:0:0:
64,192,187684,1,0,0:0:0:0:
192,192,187752,1,0,0:0:0:0:
448,192,187820,1,0,0:0:0:0:
320,192,187820,1,0,0:0:0:0:
64,192,187880,1,0,0:0:0:0:
448,192,187941,1,0,0:0:0:0:
192,192,188002,1,0,0:0:0:0:
64,192,188062,1,0,0:0:0:0:
320,192,188093,1,0,0:0:0:0:
448,192,188138,1,0,0:0:0:0:
64,192,188184,1,0,0:0:0:0:
192,192,188229,1,0,0:0:0:0:
320,192,188297,1,0,0:0:0:0:
192,192,188365,1,0,0:0:0:0:
64,192,188365,1,0,0:0:0:0:
448,192,188365,1,0,0:0:0:0:
320,192,188502,1,0,0:0:0:0:
448,192,188502,1,0,0:0:0:0:
320,192,188638,1,0,0:0:0:0:
192,192,188638,1,0,0:0:0:0:
64,192,188774,1,0,0:0:0:0:
192,192,188774,1,0,0:0:0:0:
448,192,188911,1,0,0:0:0:0:
320,192,188911,1,0,0:0:0:0:
64,192,189047,1,0,0:0:0:0:
192,192,189047,1,0,0:0:0:0:
448,192,189184,1,0,0:0:0:0:
64,192,189184,1,0,0:0:0:0:
192,192,189320,1,0,0:0:0:0:
320,192,189320,1,0,0:0:0:0:
320,192,189456,1,0,0:0:0:0:
448,192,189456,1,0,0:0:0:0:
64,192,189456,1,0,0:0:0:0:
192,192,189593,1,0,0:0:0:0:
64,192,189593,1,0,0:0:0:0:
192,192,189729,1,0,0:0:0:0:
320,192,189729,1,0,0:0:0:0:
64,192,189865,1,0,0:0:0:0:
448,192,189865,1,0,0:0:0:0:
320,192,190002,128,0,190274:0:0:0:0:
192,192,190138,1,0,0:0:0:0:
192,192,190274,128,0,190411:0:0:0:0:
320,192,190411,1,0,0:0:0:0:
192,192,190547,128,0,190820:0:0:0:0:
320,192,190684,1,0,0:0:0:0:
320,192,190820,128,0,190956:0:0:0:0:
64,192,190956,1,0,0:0:0:0:
320,192,191093,128,0,191365:0:0:0:0:
192,192,191229,1,0,0:0:0:0:
448,192,191365,128,0,191502:0:0:0:0:
320,192,191502,1,0,0:0:0:0:
64,192,191638,128,0,191911:0:0:0:0:
192,192,191774,1,0,0:0:0:0:
448,192,191911,128,0,192047:0:0:0:0:
320,192,192047,1,0,0:0:0:0:
448,192,192184,1,0,0:0:0:0:
320,192,192184,1,0,0:0:0:0:
192,192,192184,1,0,0:0:0:0:
64,192,192320,1,0,0:0:0:0:
320,192,192365,1,0,0:0:0:0:
448,192,192411,1,0,0:0:0:0:
192,192,192456,1,0,0:0:0:0:
320,192,192502,1,0,0:0:0:0:
448,192,192547,1,0,0:0:0:0:
64,192,192593,1,0,0:0:0:0:
192,192,192638,1,0,0:0:0:0:
320,192,192684,1,0,0:0:0:0:
448,192,192729,1,0,0:0:0:0:
192,192,192729,1,0,0:0:0:0:
64,192,192729,1,0,0:0:0:0:
448,192,192850,1,0,0:0:0:0:
320,192,192911,1,0,0:0:0:0:
64,192,192971,1,0,0:0:0:0:
448,192,193032,1,0,0:0:0:0:
192,192,193093,1,0,0:0:0:0:
64,192,193153,1,0,0:0:0:0:
320,192,193214,1,0,0:0:0:0:
192,192,193274,1,0,0:0:0:0:
448,192,193274,1,0,0:0:0:0:
448,192,193411,1,0,0:0:0:0:
192,192,193547,1,0,0:0:0:0:
64,192,193547,1,0,0:0:0:0:
192,192,193684,1,0,0:0:0:0:
320,192,193684,1,0,0:0:0:0:
448,192,193820,1,0,0:0:0:0:
320,192,193820,1,0,0:0:0:0:
64,192,193820,1,0,0:0:0:0:
64,192,194093,1,0,0:0:0:0:
320,192,194153,1,0,0:0:0:0:
192,192,194214,1,0,0:0:0:0:
64,192,194274,1,0,0:0:0:0:
320,192,194335,1,0,0:0:0:0:
192,192,194365,1,0,0:0:0:0:
448,192,194365,1,0,0:0:0:0:
64,192,194426,1,0,0:0:0:0:
320,192,194487,1,0,0:0:0:0:
192,192,194547,1,0,0:0:0:0:
448,192,194608,1,0,0:0:0:0:
192,192,194668,1,0,0:0:0:0:
64,192,194729,1,0,0:0:0:0:
320,192,194790,1,0,0:0:0:0:
192,192,194850,1,0,0:0:0:0:
448,192,194911,1,0,0:0:0:0:
320,192,194911,1,0,0:0:0:0:
64,192,194911,1,0,0:0:0:0:
192,192,194979,1,0,0:0:0:0:
448,192,195047,1,0,0:0:0:0:
320,192,195184,1,0,0:0:0:0:
192,192,195252,1,0,0:0:0:0:
64,192,195320,1,0,0:0:0:0:
320,192,195388,1,0,0:0:0:0:
192,192,195456,1,0,0:0:0:0:
448,192,195456,1,0,0:0:0:0:
192,192,195593,1,0,0:0:0:0:
320,192,195729,1,0,0:0:0:0:
320,192,195865,1,0,0:0:0:0:
64,192,196002,1,0,0:0:0:0:
448,192,196002,1,0,0:0:0:0:
192,192,196002,1,0,0:0:0:0:
64,192,196138,1,0,0:0:0:0:
320,192,196274,1,0,0:0:0:0:
192,192,196343,1,0,0:0:0:0:
448,192,196411,1,0,0:0:0:0:
320,192,196479,1,0,0:0:0:0:
64,192,196547,1,0,0:0:0:0:
192,192,196547,1,0,0:0:0:0:
448,192,196608,1,0,0:0:0:0:
64,192,196668,1,0,0:0:0:0:
320,192,196820,1,0,0:0:0:0:
192,192,196865,1,0,0:0:0:0:
448,192,196911,1,0,0:0:0:0:
320,192,196956,1,0,0:0:0:0:
192,192,197024,1,0,0:0:0:0:
320,192,197093,1,0,0:0:0:0:
448,192,197093,1,0,0:0:0:0:
64,192,197093,1,0,0:0:0:0:
64,192,197229,1,0,0:0:0:0:
192,192,197229,1,0,0:0:0:0:
448,192,197365,1,0,0:0:0:0:
192,192,197365,1,0,0:0:0:0:
320,192,197502,1,0,0:0:0:0:
64,192,197502,1,0,0:0:0:0:
448,192,197638,1,0,0:0:0:0:
320,192,197638,1,0,0:0:0:0:
64,192,197774,1,0,0:0:0:0:
192,192,197774,1,0,0:0:0:0:
320,192,197911,1,0,0:0:0:0:
192,192,197911,1,0,0:0:0:0:
64,192,198047,1,0,0:0:0:0:
448,192,198047,1,0,0:0:0:0:
448,192,198184,1,0,0:0:0:0:
192,192,198184,1,0,0:0:0:0:
320,192,198184,1,0,0:0:0:0:
192,192,198320,1,0,0:0:0:0:
64,192,198320,1,0,0:0:0:0:
64,192,198456,1,0,0:0:0:0:
448,192,198456,1,0,0:0:0:0:
320,192,198593,1,0,0:0:0:0:
448,192,198593,1,0,0:0:0:0:
64,192,198729,1,0,0:0:0:0:
192,192,198729,1,0,0:0:0:0:
448,192,198797,1,0,0:0:0:0:
192,192,198865,1,0,0:0:0:0:
320,192,198934,1,0,0:0:0:0:
64,192,199002,1,0,0:0:0:0:
320,192,199070,1,0,0:0:0:0:
192,192,199138,1,0,0:0:0:0:
448,192,199206,1,0,0:0:0:0:
320,192,199274,1,0,0:0:0:0:
64,192,199274,1,0,0:0:0:0:
192,192,199274,1,0,0:0:0:0:
448,192,199343,1,0,0:0:0:0:
64,192,199411,1,0,0:0:0:0:
192,192,199479,1,0,0:0:0:0:
448,192,199547,1,0,0:0:0:0:
64,192,199615,1,0,0:0:0:0:
320,192,199684,1,0,0:0:0:0:
192,192,199752,1,0,0:0:0:0:
64,192,199820,1,0,0:0:0:0:
448,192,199820,1,0,0:0:0:0:
448,192,199956,1,0,0:0:0:0:
192,192,200093,1,0,0:0:0:0:
192,192,200229,1,0,0:0:0:0:
64,192,200365,1,0,0:0:0:0:
320,192,200365,1,0,0:0:0:0:
448,192,200365,1,0,0:0:0:0:
192,192,200434,1,0,0:0:0:0:
448,192,200502,1,0,0:0:0:0:
192,192,200570,1,0,0:0:0:0:
320,192,200638,1,0,0:0:0:0:
64,192,200774,1,0,0:0:0:0:
320,192,200911,1,0,0:0:0:0:
448,192,200911,1,0,0:0:0:0:
448,192,201047,1,0,0:0:0:0:
192,192,201093,1,0,0:0:0:0:
64,192,201138,1,0,0:0:0:0:
320,192,201184,1,0,0:0:0:0:
192,192,201229,1,0,0:0:0:0:
64,192,201274,1,0,0:0:0:0:
448,192,201320,1,0,0:0:0:0:
320,192,201365,1,0,0:0:0:0:
192,192,201411,1,0,0:0:0:0:
448,192,201456,1,0,0:0:0:0:
320,192,201456,1,0,0:0:0:0:
64,192,201456,1,0,0:0:0:0:
64,192,201577,1,0,0:0:0:0:
192,192,201638,1,0,0:0:0:0:
64,192,201699,1,0,0:0:0:0:
448,192,201729,1,0,0:0:0:0:
320,192,201797,1,0,0:0:0:0:
192,192,201865,1,0,0:0:0:0:
448,192,201934,1,0,0:0:0:0:
320,192,202002,1,0,0:0:0:0:
64,192,202002,1,0,0:0:0:0:
192,192,202138,1,0,0:0:0:0:
64,192,202138,1,0,0:0:0:0:
448,192,202274,1,0,0:0:0:0:
320,192,202274,1,0,0:0:0:0:
192,192,202411,1,0,0:0:0:0:
320,192,202411,1,0,0:0:0:0:
448,192,202547,1,0,0:0:0:0:
192,192,202547,1,0,0:0:0:0:
64,192,202547,1,0,0:0:0:0:
64,192,202820,1,0,0:0:0:0:
192,192,202880,1,0,0:0:0:0:
448,192,202941,1,0,0:0:0:0:
320,192,203002,1,0,0:0:0:0:
192,192,203062,1,0,0:0:0:0:
64,192,203093,1,0,0:0:0:0:
448,192,203093,1,0,0:0:0:0:
320,192,203153,1,0,0:0:0:0:
192,192,203214,1,0,0:0:0:0:
448,192,203274,1,0,0:0:0:0:
64,192,203335,1,0,0:0:0:0:
320,192,203396,1,0,0:0:0:0:
448,192,203456,1,0,0:0:0:0:
192,192,203517,1,0,0:0:0:0:
320,192,203577,1,0,0:0:0:0:
448,192,203638,1,0,0:0:0:0:
192,192,203638,1,0,0:0:0:0:
64,192,203638,1,0,0:0:0:0:
320,192,203706,1,0,0:0:0:0:
64,192,203774,1,0,0:0:0:0:
320,192,203911,1,0,0:0:0:0:
192,192,203979,1,0,0:0:0:0:
448,192,204047,1,0,0:0:0:0:
64,192,204115,1,0,0:0:0:0:
192,192,204184,1,0,0:0:0:0:
320,192,204184,1,0,0:0:0:0:
320,192,204320,1,0,0:0:0:0:
192,192,204456,1,0,0:0:0:0:
192,192,204593,1,0,0:0:0:0:
320,192,204729,1,0,0:0:0:0:
64,192,204729,1,0,0:0:0:0:
448,192,204729,1,0,0:0:0:0:
448,192,204865,1,0,0:0:0:0:
192,192,205002,1,0,0:0:0:0:
320,192,205070,1,0,0:0:0:0:
64,192,205138,1,0,0:0:0:0:
192,192,205206,1,0,0:0:0:0:
448,192,205274,1,0,0:0:0:0:
320,192,205274,1,0,0:0:0:0:
64,192,205335,1,0,0:0:0:0:
448,192,205396,1,0,0:0:0:0:
192,192,205456,1,0,0:0:0:0:
64,192,205517,1,0,0:0:0:0:
320,192,205547,1,0,0:0:0:0:
448,192,205593,1,0,0:0:0:0:
64,192,205638,1,0,0:0:0:0:
192,192,205684,1,0,0:0:0:0:
192,192,205820,1,0,0:0:0:0:
64,192,205820,1,0,0:0:0:0:
448,192,205820,1,0,0:0:0:0:
320,192,205956,1,0,0:0:0:0:
448,192,205956,1,0,0:0:0:0:
320,192,206093,1,0,0:0:0:0:
192,192,206093,1,0,0:0:0:0:
64,192,206229,1,0,0:0:0:0:
192,192,206229,1,0,0:0:0:0:
448,192,206365,1,0,0:0:0:0:
320,192,206365,1,0,0:0:0:0:
64,192,206502,1,0,0:0:0:0:
192,192,206502,1,0,0:0:0:0:
448,192,206638,1,0,0:0:0:0:
64,192,206638,1,0,0:0:0:0:
192,192,206774,1,0,0:0:0:0:
320,192,206774,1,0,0:0:0:0:
320,192,206911,1,0,0:0:0:0:
448,192,206911,1,0,0:0:0:0:
64,192,206911,1,0,0:0:0:0:
192,192,207047,1,0,0:0:0:0:
64,192,207047,1,0,0:0:0:0:
192,192,207184,1,0,0:0:0:0:
320,192,207184,1,0,0:0:0:0:
64,192,207320,1,0,0:0:0:0:
448,192,207320,1,0,0:0:0:0:
320,192,207456,128,0,207729:0:0:0:0:
192,192,207593,1,0,0:0:0:0:
192,192,207729,128,0,207865:0:0:0:0:
320,192,207865,1,0,0:0:0:0:
192,192,208002,128,0,208274:0:0:0:0:
320,192,208138,1,0,0:0:0:0:
320,192,208274,128,0,208411:0:0:0:0:
64,192,208411,1,0,0:0:0:0:
320,192,208547,128,0,208820:0:0:0:0:
192,192,208684,1,0,0:0:0:0:
448,192,208820,128,0,208956:0:0:0:0:
320,192,208956,1,0,0:0:0:0:
64,192,209093,128,0,209365:0:0:0:0:
192,192,209093,1,0,0:0:0:0:
320,192,209229,1,0,0:0:0:0:
448,192,209365,128,0,209638:0:0:0:0:
192,192,209638,5,0,0:0:0:0:
64,192,209638,1,0,0:0:0:0:
320,192,209638,1,0,0:0:0:0:
448,192,209699,1,0,0:0:0:0:
192,192,209759,1,0,0:0:0:0:
320,192,209820,1,0,0:0:0:0:
64,192,209880,1,0,0:0:0:0:
448,192,209941,1,0,0:0:0:0:
192,192,210002,1,0,0:0:0:0:
320,192,210093,1,0,0:0:0:0:
192,192,210184,1,0,0:0:0:0:
448,192,210184,1,0,0:0:0:0:
64,192,210184,1,0,0:0:0:0:
320,192,210244,1,0,0:0:0:0:
192,192,210305,1,0,0:0:0:0:
448,192,210365,1,0,0:0:0:0:
320,192,210426,1,0,0:0:0:0:
64,192,210487,1,0,0:0:0:0:
448,192,210547,1,0,0:0:0:0:
192,192,210608,1,0,0:0:0:0:
64,192,210668,1,0,0:0:0:0:
448,192,210729,1,0,0:0:0:0:
320,192,210729,1,0,0:0:0:0:
192,192,210865,1,0,0:0:0:0:
192,192,211002,1,0,0:0:0:0:
320,192,211019,1,0,0:0:0:0:
64,192,211138,1,0,0:0:0:0:
192,192,211155,1,0,0:0:0:0:
448,192,211274,1,0,0:0:0:0:
320,192,211274,1,0,0:0:0:0:
64,192,211274,1,0,0:0:0:0:
448,192,211411,1,0,0:0:0:0:
320,192,211547,1,0,0:0:0:0:
448,192,211564,1,0,0:0:0:0:
192,192,211684,1,0,0:0:0:0:
320,192,211701,1,0,0:0:0:0:
448,192,211820,1,0,0:0:0:0:
64,192,211820,1,0,0:0:0:0:
192,192,211880,1,0,0:0:0:0:
320,192,211941,1,0,0:0:0:0:
64,192,212002,1,0,0:0:0:0:
448,192,212062,1,0,0:0:0:0:
192,192,212123,1,0,0:0:0:0:
320,192,212184,1,0,0:0:0:0:
192,192,212274,1,0,0:0:0:0:
320,192,212365,1,0,0:0:0:0:
64,192,212365,1,0,0:0:0:0:
448,192,212365,1,0,0:0:0:0:
192,192,212426,1,0,0:0:0:0:
448,192,212487,1,0,0:0:0:0:
320,192,212547,1,0,0:0:0:0:
64,192,212608,1,0,0:0:0:0:
448,192,212668,1,0,0:0:0:0:
192,192,212729,1,0,0:0:0:0:
64,192,212790,1,0,0:0:0:0:
320,192,212850,1,0,0:0:0:0:
192,192,212911,1,0,0:0:0:0:
448,192,212911,1,0,0:0:0:0:
320,192,213047,1,0,0:0:0:0:
320,192,213184,1,0,0:0:0:0:
192,192,213201,1,0,0:0:0:0:
448,192,213320,1,0,0:0:0:0:
320,192,213337,1,0,0:0:0:0:
448,192,213456,1,0,0:0:0:0:
192,192,213456,1,0,0:0:0:0:
64,192,213456,1,0,0:0:0:0:
64,192,213593,1,0,0:0:0:0:
192,192,213729,1,0,0:0:0:0:
64,192,213746,1,0,0:0:0:0:
320,192,213865,1,0,0:0:0:0:
192,192,213882,1,0,0:0:0:0:
448,192,214002,1,0,0:0:0:0:
64,192,214002,1,0,0:0:0:0:
320,192,214062,1,0,0:0:0:0:
192,192,214123,1,0,0:0:0:0:
448,192,214184,1,0,0:0:0:0:
320,192,214244,1,0,0:0:0:0:
448,192,214305,1,0,0:0:0:0:
192,192,214365,1,0,0:0:0:0:
320,192,214456,1,0,0:0:0:0:
448,192,214547,1,0,0:0:0:0:
192,192,214547,1,0,0:0:0:0:
64,192,214547,1,0,0:0:0:0:
320,192,214608,1,0,0:0:0:0:
192,192,214668,1,0,0:0:0:0:
64,192,214729,1,0,0:0:0:0:
320,192,214790,1,0,0:0:0:0:
192,192,214850,1,0,0:0:0:0:
448,192,214911,1,0,0:0:0:0:
320,192,214971,1,0,0:0:0:0:
192,192,215032,1,0,0:0:0:0:
448,192,215093,1,0,0:0:0:0:
320,192,215093,1,0,0:0:0:0:
192,192,215229,1,0,0:0:0:0:
192,192,215365,1,0,0:0:0:0:
320,192,215382,1,0,0:0:0:0:
64,192,215502,1,0,0:0:0:0:
192,192,215519,1,0,0:0:0:0:
448,192,215638,1,0,0:0:0:0:
320,192,215638,1,0,0:0:0:0:
64,192,215638,1,0,0:0:0:0:
448,192,215774,1,0,0:0:0:0:
320,192,215911,1,0,0:0:0:0:
448,192,215928,1,0,0:0:0:0:
192,192,216047,1,0,0:0:0:0:
320,192,216064,1,0,0:0:0:0:
192,192,216184,1,0,0:0:0:0:
64,192,216184,1,0,0:0:0:0:
448,192,216244,1,0,0:0:0:0:
320,192,216305,1,0,0:0:0:0:
448,192,216456,1,0,0:0:0:0:
64,192,216502,1,0,0:0:0:0:
192,192,216547,1,0,0:0:0:0:
320,192,216593,1,0,0:0:0:0:
64,192,216638,1,0,0:0:0:0:
320,192,216729,1,0,0:0:0:0:
192,192,216729,1,0,0:0:0:0:
448,192,216729,1,0,0:0:0:0:
64,192,216790,1,0,0:0:0:0:
448,192,216850,1,0,0:0:0:0:
64,192,217002,1,0,0:0:0:0:
320,192,217047,1,0,0:0:0:0:
192,192,217093,1,0,0:0:0:0:
64,192,217138,1,0,0:0:0:0:
320,192,217184,1,0,0:0:0:0:
192,192,217274,1,0,0:0:0:0:
448,192,217274,1,0,0:0:0:0:
64,192,217335,1,0,0:0:0:0:
320,192,217396,1,0,0:0:0:0:
448,192,217547,1,0,0:0:0:0:
64,192,217593,1,0,0:0:0:0:
320,192,217638,1,0,0:0:0:0:
192,192,217684,1,0,0:0:0:0:
448,192,217729,1,0,0:0:0:0:
64,192,217820,1,0,0:0:0:0:
320,192,217820,1,0,0:0:0:0:
192,192,217820,1,0,0:0:0:0:
448,192,217880,1,0,0:0:0:0:
64,192,217941,1,0,0:0:0:0:
320,192,218093,1,0,0:0:0:0:
64,192,218138,1,0,0:0:0:0:
192,192,218184,1,0,0:0:0:0:
448,192,218229,1,0,0:0:0:0:
320,192,218274,1,0,0:0:0:0:
192,192,218365,1,0,0:0:0:0:
64,192,218365,1,0,0:0:0:0:
320,192,218426,1,0,0:0:0:0:
448,192,218487,1,0,0:0:0:0:
64,192,218547,1,0,0:0:0:0:
192,192,218608,1,0,0:0:0:0:
448,192,218668,1,0,0:0:0:0:
64,192,218729,1,0,0:0:0:0:
320,192,218820,1,0,0:0:0:0:
192,192,218911,1,0,0:0:0:0:
448,192,218911,1,0,0:0:0:0:
64,192,218911,1,0,0:0:0:0:
320,192,218971,1,0,0:0:0:0:
192,192,219032,1,0,0:0:0:0:
448,192,219093,1,0,0:0:0:0:
320,192,219153,1,0,0:0:0:0:
64,192,219214,1,0,0:0:0:0:
448,192,219274,1,0,0:0:0:0:
192,192,219335,1,0,0:0:0:0:
64,192,219396,1,0,0:0:0:0:
448,192,219456,1,0,0:0:0:0:
320,192,219456,1,0,0:0:0:0:
192,192,219593,1,0,0:0:0:0:
192,192,219729,1,0,0:0:0:0:
320,192,219746,1,0,0:0:0:0:
64,192,219865,1,0,0:0:0:0:
192,192,219882,1,0,0:0:0:0:
448,192,220002,1,0,0:0:0:0:
320,192,220002,1,0,0:0:0:0:
64,192,220002,1,0,0:0:0:0:
448,192,220138,1,0,0:0:0:0:
320,192,220274,1,0,0:0:0:0:
448,192,220291,1,0,0:0:0:0:
192,192,220411,1,0,0:0:0:0:
320,192,220428,1,0,0:0:0:0:
448,192,220547,1,0,0:0:0:0:
64,192,220547,1,0,0:0:0:0:
192,192,220608,1,0,0:0:0:0:
320,192,220668,1,0,0:0:0:0:
64,192,220729,1,0,0:0:0:0:
448,192,220790,1,0,0:0:0:0:
192,192,220850,1,0,0:0:0:0:
320,192,220911,1,0,0:0:0:0:
192,192,221002,1,0,0:0:0:0:
320,192,221093,1,0,0:0:0:0:
64,192,221093,1,0,0:0:0:0:
448,192,221093,1,0,0:0:0:0:
192,192,221153,1,0,0:0:0:0:
448,192,221214,1,0,0:0:0:0:
320,192,221274,1,0,0:0:0:0:
64,192,221335,1,0,0:0:0:0:
448,192,221396,1,0,0:0:0:0:
192,192,221456,1,0,0:0:0:0:
64,192,221517,1,0,0:0:0:0:
320,192,221577,1,0,0:0:0:0:
192,192,221638,1,0,0:0:0:0:
448,192,221638,1,0,0:0:0:0:
320,192,221774,1,0,0:0:0:0:
320,192,221911,1,0,0:0:0:0:
192,192,221928,1,0,0:0:0:0:
448,192,222047,1,0,0:0:0:0:
320,192,222064,1,0,0:0:0:0:
448,192,222184,1,0,0:0:0:0:
192,192,222184,1,0,0:0:0:0:
64,192,222184,1,0,0:0:0:0:
64,192,222320,1,0,0:0:0:0:
192,192,222456,1,0,0:0:0:0:
64,192,222473,1,0,0:0:0:0:
320,192,222593,1,0,0:0:0:0:
192,192,222610,1,0,0:0:0:0:
448,192,222729,1,0,0:0:0:0:
64,192,222729,1,0,0:0:0:0:
320,192,222790,1,0,0:0:0:0:
192,192,222850,1,0,0:0:0:0:
448,192,222911,1,0,0:0:0:0:
320,192,222971,1,0,0:0:0:0:
448,192,223032,1,0,0:0:0:0:
192,192,223093,1,0,0:0:0:0:
320,192,223184,1,0,0:0:0:0:
448,192,223274,1,0,0:0:0:0:
192,192,223274,1,0,0:0:0:0:
64,192,223274,1,0,0:0:0:0:
320,192,223335,1,0,0:0:0:0:
192,192,223396,1,0,0:0:0:0:
64,192,223456,1,0,0:0:0:0:
320,192,223517,1,0,0:0:0:0:
192,192,223577,1,0,0:0:0:0:
448,192,223638,1,0,0:0:0:0:
320,192,223699,1,0,0:0:0:0:
192,192,223759,1,0,0:0:0:0:
448,192,223820,1,0,0:0:0:0:
320,192,223820,1,0,0:0:0:0:
192,192,223956,1,0,0:0:0:0:
192,192,224093,1,0,0:0:0:0:
320,192,224110,1,0,0:0:0:0:
64,192,224229,1,0,0:0:0:0:
192,192,224246,1,0,0:0:0:0:
448,192,224365,1,0,0:0:0:0:
320,192,224365,1,0,0:0:0:0:
64,192,224365,1,0,0:0:0:0:
448,192,224502,1,0,0:0:0:0:
320,192,224638,1,0,0:0:0:0:
448,192,224655,1,0,0:0:0:0:
192,192,224774,1,0,0:0:0:0:
320,192,224791,1,0,0:0:0:0:
64,192,224911,1,0,0:0:0:0:
448,192,224971,1,0,0:0:0:0:
320,192,225032,1,0,0:0:0:0:
448,192,225184,1,0,0:0:0:0:
64,192,225229,1,0,0:0:0:0:
192,192,225274,1,0,0:0:0:0:
320,192,225320,1,0,0:0:0:0:
64,192,225365,1,0,0:0:0:0:
448,192,225456,1,0,0:0:0:0:
192,192,225517,1,0,0:0:0:0:
448,192,225577,1,0,0:0:0:0:
64,192,225729,1,0,0:0:0:0:
320,192,225774,1,0,0:0:0:0:
192,192,225820,1,0,0:0:0:0:
64,192,225865,1,0,0:0:0:0:
320,192,225911,1,0,0:0:0:0:
448,192,226002,1,0,0:0:0:0:
64,192,226062,1,0,0:0:0:0:
320,192,226123,1,0,0:0:0:0:
448,192,226274,1,0,0:0:0:0:
64,192,226320,1,0,0:0:0:0:
320,192,226365,1,0,0:0:0:0:
192,192,226411,1,0,0:0:0:0:
448,192,226456,1,0,0:0:0:0:
192,192,226547,1,0,0:0:0:0:
64,192,226547,1,0,0:0:0:0:
320,192,226608,1,0,0:0:0:0:
64,192,226668,1,0,0:0:0:0:
320,192,226820,1,0,0:0:0:0:
448,192,226820,1,0,0:0:0:0:
64,192,226865,1,0,0:0:0:0:
192,192,226911,1,0,0:0:0:0:
320,192,226956,1,0,0:0:0:0:
64,192,227093,1,0,0:0:0:0:
192,192,227093,1,0,0:0:0:0:
448,192,227093,1,0,0:0:0:0:
320,192,227153,1,0,0:0:0:0:
64,192,227214,1,0,0:0:0:0:
448,192,227274,1,0,0:0:0:0:
192,192,227335,1,0,0:0:0:0:
320,192,227396,1,0,0:0:0:0:
448,192,227456,1,0,0:0:0:0:
192,192,227547,1,0,0:0:0:0:
64,192,227638,1,0,0:0:0:0:
320,192,227638,1,0,0:0:0:0:
448,192,227638,1,0,0:0:0:0:
192,192,227699,1,0,0:0:0:0:
64,192,227759,1,0,0:0:0:0:
320,192,227820,1,0,0:0:0:0:
192,192,227880,1,0,0:0:0:0:
448,192,227941,1,0,0:0:0:0:
320,192,228002,1,0,0:0:0:0:
192,192,228062,1,0,0:0:0:0:
448,192,228123,1,0,0:0:0:0:
320,192,228184,1,0,0:0:0:0:
64,192,228184,1,0,0:0:0:0:
64,192,228320,1,0,0:0:0:0:
320,192,228456,1,0,0:0:0:0:
192,192,228456,1,0,0:0:0:0:
320,192,228593,1,0,0:0:0:0:
448,192,228593,1,0,0:0:0:0:
448,192,228729,1,0,0:0:0:0:
192,192,228729,1,0,0:0:0:0:
64,192,228729,1,0,0:0:0:0:
320,192,228865,1,0,0:0:0:0:
64,192,228865,1,0,0:0:0:0:
448,192,229002,1,0,0:0:0:0:
192,192,229002,1,0,0:0:0:0:
448,192,229138,1,0,0:0:0:0:
64,192,229274,1,0,0:0:0:0:
192,192,229274,1,0,0:0:0:0:
320,192,229343,1,0,0:0:0:0:
64,192,229411,1,0,0:0:0:0:
448,192,229479,1,0,0:0:0:0:
320,192,229547,1,0,0:0:0:0:
192,192,229615,1,0,0:0:0:0:
448,192,229729,1,0,0:0:0:0:
64,192,229820,1,0,0:0:0:0:
320,192,229820,1,0,0:0:0:0:
192,192,229820,1,0,0:0:0:0:
448,192,229888,1,0,0:0:0:0:
192,192,229956,1,0,0:0:0:0:
320,192,230024,1,0,0:0:0:0:
64,192,230093,1,0,0:0:0:0:
192,192,230161,1,0,0:0:0:0:
64,192,230229,1,0,0:0:0:0:
320,192,230297,1,0,0:0:0:0:
192,192,230365,1,0,0:0:0:0:
448,192,230365,1,0,0:0:0:0:
448,192,230502,1,0,0:0:0:0:
320,192,230502,1,0,0:0:0:0:
192,192,230638,1,0,0:0:0:0:
64,192,230638,1,0,0:0:0:0:
192,192,230774,1,0,0:0:0:0:
320,192,230774,1,0,0:0:0:0:
320,192,230911,1,0,0:0:0:0:
448,192,230911,1,0,0:0:0:0:
64,192,230911,1,0,0:0:0:0:
64,192,231047,1,0,0:0:0:0:
192,192,231047,1,0,0:0:0:0:
320,192,231184,1,0,0:0:0:0:
448,192,231184,1,0,0:0:0:0:
320,192,231320,1,0,0:0:0:0:
64,192,231456,1,0,0:0:0:0:
192,192,231456,1,0,0:0:0:0:
448,192,231524,1,0,0:0:0:0:
320,192,231593,1,0,0:0:0:0:
192,192,231661,1,0,0:0:0:0:
448,192,231729,1,0,0:0:0:0:
64,192,231797,1,0,0:0:0:0:
320,192,231865,1,0,0:0:0:0:
192,192,231934,1,0,0:0:0:0:
64,192,232002,1,0,0:0:0:0:
320,192,232002,1,0,0:0:0:0:
448,192,232002,1,0,0:0:0:0:
192,192,232062,1,0,0:0:0:0:
448,192,232123,1,0,0:0:0:0:
64,192,232184,1,0,0:0:0:0:
320,192,232244,1,0,0:0:0:0:
448,192,232305,1,0,0:0:0:0:
192,192,232365,1,0,0:0:0:0:
320,192,232426,1,0,0:0:0:0:
64,192,232487,1,0,0:0:0:0:
448,192,232547,1,0,0:0:0:0:
192,192,232547,1,0,0:0:0:0:
192,192,232684,1,0,0:0:0:0:
448,192,232820,1,0,0:0:0:0:
320,192,232820,1,0,0:0:0:0:
448,192,232956,1,0,0:0:0:0:
192,192,232956,1,0,0:0:0:0:
320,192,233093,1,0,0:0:0:0:
64,192,233093,1,0,0:0:0:0:
192,192,233093,1,0,0:0:0:0:
64,192,233229,1,0,0:0:0:0:
448,192,233229,1,0,0:0:0:0:
320,192,233365,1,0,0:0:0:0:
192,192,233365,1,0,0:0:0:0:
320,192,233502,1,0,0:0:0:0:
448,192,233638,1,0,0:0:0:0:
64,192,233638,1,0,0:0:0:0:
192,192,233706,1,0,0:0:0:0:
64,192,233774,1,0,0:0:0:0:
448,192,233911,1,0,0:0:0:0:
192,192,233956,1,0,0:0:0:0:
448,192,234002,1,0,0:0:0:0:
64,192,234047,1,0,0:0:0:0:
192,192,234184,1,0,0:0:0:0:
448,192,234184,1,0,0:0:0:0:
320,192,234184,1,0,0:0:0:0:
64,192,234252,1,0,0:0:0:0:
192,192,234320,1,0,0:0:0:0:
320,192,234456,1,0,0:0:0:0:
64,192,234502,1,0,0:0:0:0:
320,192,234547,1,0,0:0:0:0:
448,192,234593,1,0,0:0:0:0:
192,192,234729,1,0,0:0:0:0:
64,192,234729,1,0,0:0:0:0:
320,192,234790,1,0,0:0:0:0:
64,192,234850,1,0,0:0:0:0:
192,192,235002,1,0,0:0:0:0:
320,192,235047,1,0,0:0:0:0:
192,192,235093,1,0,0:0:0:0:
64,192,235138,1,0,0:0:0:0:
448,192,235274,1,0,0:0:0:0:
64,192,235274,1,0,0:0:0:0:
192,192,235274,1,0,0:0:0:0:
320,192,235335,1,0,0:0:0:0:
448,192,235396,1,0,0:0:0:0:
64,192,235547,1,0,0:0:0:0:
448,192,235593,1,0,0:0:0:0:
64,192,235638,1,0,0:0:0:0:
320,192,235684,1,0,0:0:0:0:
320,192,235820,1,0,0:0:0:0:
448,192,235820,1,0,0:0:0:0:
64,192,235820,1,0,0:0:0:0:
192,192,235880,1,0,0:0:0:0:
448,192,235941,1,0,0:0:0:0:
64,192,236002,1,0,0:0:0:0:
320,192,236062,1,0,0:0:0:0:
192,192,236123,1,0,0:0:0:0:
64,192,236184,1,0,0:0:0:0:
448,192,236274,1,0,0:0:0:0:
320,192,236365,1,0,0:0:0:0:
192,192,236365,1,0,0:0:0:0:
64,192,236365,1,0,0:0:0:0:
448,192,236426,1,0,0:0:0:0:
192,192,236487,1,0,0:0:0:0:
320,192,236547,1,0,0:0:0:0:
448,192,236608,1,0,0:0:0:0:
64,192,236668,1,0,0:0:0:0:
192,192,236729,1,0,0:0:0:0:
448,192,236790,1,0,0:0:0:0:
64,192,236850,1,0,0:0:0:0:
192,192,236911,1,0,0:0:0:0:
320,192,236911,1,0,0:0:0:0:
320,192,237047,1,0,0:0:0:0:
448,192,237184,1,0,0:0:0:0:
192,192,237184,1,0,0:0:0:0:
192,192,237320,1,0,0:0:0:0:
64,192,237320,1,0,0:0:0:0:
64,192,237456,1,0,0:0:0:0:
448,192,237456,1,0,0:0:0:0:
320,192,237456,1,0,0:0:0:0:
192,192,237593,1,0,0:0:0:0:
320,192,237593,1,0,0:0:0:0:
448,192,237729,1,0,0:0:0:0:
192,192,237729,1,0,0:0:0:0:
448,192,237865,1,0,0:0:0:0:
64,192,238002,1,0,0:0:0:0:
320,192,238002,1,0,0:0:0:0:
192,192,238070,1,0,0:0:0:0:
64,192,238138,1,0,0:0:0:0:
320,192,238206,1,0,0:0:0:0:
448,192,238274,1,0,0:0:0:0:
192,192,238343,1,0,0:0:0:0:
64,192,238456,1,0,0:0:0:0:
320,192,238547,1,0,0:0:0:0:
192,192,238547,1,0,0:0:0:0:
448,192,238547,1,0,0:0:0:0:
64,192,238615,1,0,0:0:0:0:
448,192,238684,1,0,0:0:0:0:
320,192,238752,1,0,0:0:0:0:
64,192,238820,1,0,0:0:0:0:
448,192,238888,1,0,0:0:0:0:
64,192,238956,1,0,0:0:0:0:
192,192,239024,1,0,0:0:0:0:
320,192,239093,1,0,0:0:0:0:
448,192,239093,1,0,0:0:0:0:
320,192,239229,1,0,0:0:0:0:
64,192,239229,1,0,0:0:0:0:
192,192,239365,1,0,0:0:0:0:
64,192,239365,1,0,0:0:0:0:
448,192,239502,1,0,0:0:0:0:
192,192,239502,1,0,0:0:0:0:
448,192,239638,1,0,0:0:0:0:
64,192,239638,1,0,0:0:0:0:
320,192,239638,1,0,0:0:0:0:
192,192,239774,1,0,0:0:0:0:
320,192,239774,1,0,0:0:0:0:
192,192,239911,1,0,0:0:0:0:
64,192,239911,1,0,0:0:0:0:
64,192,240047,1,0,0:0:0:0:
320,192,240184,1,0,0:0:0:0:
448,192,240184,1,0,0:0:0:0:
64,192,240252,1,0,0:0:0:0:
192,192,240320,1,0,0:0:0:0:
448,192,240388,1,0,0:0:0:0:
64,192,240456,1,0,0:0:0:0:
320,192,240524,1,0,0:0:0:0:
192,192,240593,1,0,0:0:0:0:
448,192,240661,1,0,0:0:0:0:
320,192,240729,1,0,0:0:0:0:
192,192,240729,1,0,0:0:0:0:
64,192,240729,1,0,0:0:0:0:
448,192,240790,1,0,0:0:0:0:
64,192,240850,1,0,0:0:0:0:
320,192,240911,1,0,0:0:0:0:
192,192,240971,1,0,0:0:0:0:
64,192,241032,1,0,0:0:0:0:
448,192,241093,1,0,0:0:0:0:
192,192,241153,1,0,0:0:0:0:
320,192,241214,1,0,0:0:0:0:
64,192,241274,1,0,0:0:0:0:
448,192,241274,1,0,0:0:0:0:
448,192,241411,1,0,0:0:0:0:
320,192,241547,1,0,0:0:0:0:
64,192,241547,1,0,0:0:0:0:
192,192,241684,1,0,0:0:0:0:
64,192,241684,1,0,0:0:0:0:
192,192,241820,1,0,0:0:0:0:
320,192,241820,1,0,0:0:0:0:
448,192,241820,1,0,0:0:0:0:
320,192,241956,1,0,0:0:0:0:
192,192,242093,1,0,0:0:0:0:
448,192,242093,1,0,0:0:0:0:
192,192,242229,1,0,0:0:0:0:
64,192,242365,1,0,0:0:0:0:
448,192,242365,1,0,0:0:0:0:
192,192,242502,1,0,0:0:0:0:
448,192,242638,1,0,0:0:0:0:
320,192,242684,1,0,0:0:0:0:
64,192,242729,1,0,0:0:0:0:
192,192,242774,1,0,0:0:0:0:
320,192,242911,1,0,0:0:0:0:
64,192,242911,1,0,0:0:0:0:
448,192,243047,1,0,0:0:0:0:
192,192,243184,1,0,0:0:0:0:
448,192,243252,1,0,0:0:0:0:
320,192,243320,1,0,0:0:0:0:
448,192,243456,1,0,0:0:0:0:
64,192,243593,1,0,0:0:0:0:
192,192,243729,1,0,0:0:0:0:
64,192,243797,1,0,0:0:0:0:
320,192,243865,1,0,0:0:0:0:
448,192,244002,1,0,0:0:0:0:
192,192,244002,1,0,0:0:0:0:
64,192,244138,1,0,0:0:0:0:
320,192,244274,1,0,0:0:0:0:
448,192,244274,1,0,0:0:0:0:
448,192,244547,1,0,0:0:0:0:
64,192,244547,1,0,0:0:0:0:
192,192,244547,1,0,0:0:0:0:
