osu file format v14

[General]
AudioFilename: audio.mp3
AudioLeadIn: 0
PreviewTime: 91393
Countdown: 2
SampleSet: Soft
StackLeniency: 0.2
Mode: 0
LetterboxInBreaks: 0
CountdownOffset: 1
WidescreenStoryboard: 1
SamplesMatchPlaybackRate: 1

[Editor]
Bookmarks: 4518,6243,7277,9001,10036,12105,14174,25208,91415,102449,104346,106587,108312,109346,112105,113484,121760,204518,206415,210381,211415
DistanceSpacing: 1.7
BeatDivisor: 2
GridSize: 8
TimelineZoom: 1.7

[Metadata]
Title:Realms
TitleUnicode:Realms
Artist:Hinkik & A Himitsu
ArtistUnicode:Hinkik & A Himitsu
Creator:realy0_
Version:hitsounds reeeee
Source:
Tags:drumstep
BeatmapID:1964482
BeatmapSetID:667287

[Difficulty]
HPDrainRate:10
CircleSize:3.5
OverallDifficulty:10
ApproachRate:9
SliderMultiplier:1.40000000596046
SliderTickRate:1

[Events]
//Background and Video events
0,0,"Sans titre-5.jpg",0,0
//Break Periods
2,91615,101849
//Storyboard Layer 0 (Background)
//Storyboard Layer 1 (Fail)
//Storyboard Layer 2 (Pass)
//Storyboard Layer 3 (Foreground)
//Storyboard Sound Samples

[TimingPoints]
381,344.827586206897,4,2,21,25,1,0
725,-100,4,2,21,25,0,0
4518,-100,4,2,22,25,0,0
5036,-100,4,2,21,25,0,0
5898,-100,4,2,23,25,0,0
6243,-100,4,2,24,25,0,0
6587,-100,4,2,21,25,0,0
7277,-100,4,2,22,25,0,0
7794,-100,4,2,21,25,0,0
8312,-100,4,2,23,25,0,0
8656,-100,4,2,25,25,0,0
9001,-100,4,2,24,25,0,0
9346,-100,4,2,21,25,0,0
10036,-100,4,2,26,25,0,0
11070,-100,4,2,25,25,0,0
11415,-100,4,2,27,25,0,0
12105,-100,4,2,26,25,0,0
12794,-100,4,2,28,25,0,0
13484,-100,4,2,29,25,0,0
13656,-100,4,2,30,25,0,0
13829,-100,4,2,29,25,0,0
14001,-100,4,2,30,25,0,0
14174,-100,4,3,1,35,0,0
16587,-100,4,3,2,35,0,0
18312,-100,4,3,1,35,0,0
19346,-100,4,3,3,35,0,0
21070,-100,4,3,1,35,0,0
22105,-100,4,3,3,35,0,0
22449,-100,4,3,4,35,0,0
23139,-100,4,3,1,35,0,0
23829,-100,4,3,5,35,0,0
25208,-100,4,3,10,50,0,0
36243,-100,4,2,60,55,0,0
41760,-100,4,2,60,37,0,0
42105,-100,4,2,60,40,0,0
42449,-100,4,2,60,42,0,0
42794,-100,4,2,60,45,0,0
43139,-100,4,2,60,47,0,0
43484,-100,4,2,60,50,0,0
43656,-100,4,2,60,45,0,0
43829,-100,4,2,60,43,0,0
44001,-100,4,2,60,40,0,0
44174,-100,4,2,60,35,0,0
44346,-100,4,2,60,30,0,0
46932,-100,4,2,1,80,0,0
47277,-100,4,2,1,80,0,1
56932,-100,4,2,1,80,0,0
57622,-100,4,2,0,80,0,0
57967,-100,4,2,1,80,0,0
58312,-100,4,2,1,80,0,1
68312,-100,4,2,0,80,0,0
69001,-100,4,2,1,80,0,0
69346,-100,4,2,1,80,0,1
69368,-100,4,2,1,75,0,0
74863,-100,4,2,1,75,0,1
79001,-100,4,2,1,75,0,0
79346,-100,4,2,0,75,0,0
80036,-100,4,2,1,75,0,0
80381,-100,4,2,1,75,0,1
80402,-100,4,2,1,75,0,0
85898,-100,4,2,1,75,0,1
88656,-100,4,2,81,75,0,0
90725,-100,4,2,82,75,0,0
91415,-100,4,2,5,60,0,1
91437,-100,4,2,5,60,0,0
102449,-100,4,2,31,35,0,0
103484,-100,4,2,33,35,0,0
103829,-100,4,2,32,35,0,0
104346,-100,4,2,34,35,0,0
104863,-100,4,2,32,35,0,0
105208,-100,4,2,33,35,0,0
106587,-100,4,2,35,35,0,0
107277,-100,4,2,33,35,0,0
107967,-100,4,2,35,35,0,0
108312,-100,4,2,31,35,0,0
108656,-100,4,2,32,35,0,0
109001,-100,4,2,33,35,0,0
109346,-100,4,2,36,35,0,0
109863,-100,4,2,32,35,0,0
110381,-100,4,2,37,35,0,0
112105,-100,4,2,38,35,0,0
112794,-100,4,2,39,35,0,0
113312,-100,4,2,40,35,0,0
113484,-100,4,3,41,30,0,0
114518,-100,4,3,42,30,0,0
114863,-100,4,3,43,30,0,0
115381,-100,4,3,44,30,0,0
115898,-100,4,3,43,30,0,0
116243,-100,4,3,42,30,0,0
117622,-100,4,3,45,30,0,0
118656,-100,4,3,46,30,0,0
119001,-100,4,3,47,30,0,0
119346,-100,4,3,48,30,0,0
119691,-100,4,3,49,30,0,0
120036,-100,4,3,47,30,0,0
120381,-100,4,3,50,30,0,0
120898,-100,4,3,51,30,0,0
121415,-100,4,3,52,30,0,0
121760,-100,4,3,43,33,0,0
122105,-100,4,3,43,35,0,0
122449,-100,4,3,43,37,0,0
122794,-100,4,3,43,40,0,0
123139,-100,4,3,53,37,0,0
123484,-100,4,3,53,35,0,0
123829,-100,4,3,53,33,0,0
124001,-100,4,3,54,33,0,0
124174,-100,4,3,53,33,0,0
124346,-100,4,3,55,33,0,0
124518,-100,4,2,60,55,0,0
130036,-100,4,2,60,37,0,0
130381,-100,4,2,60,40,0,0
130725,-100,4,2,60,42,0,0
131070,-100,4,2,60,45,0,0
131415,-100,4,2,60,47,0,0
131760,-100,4,2,60,50,0,0
132105,-100,4,2,60,53,0,0
132449,-100,4,2,60,55,0,0
132794,-100,4,2,60,36,0,0
132881,-100,4,2,60,37,0,0
132967,-100,4,2,60,38,0,0
133053,-100,4,2,60,39,0,0
133139,-100,4,2,60,40,0,0
133225,-100,4,2,60,41,0,0
133312,-100,4,2,60,42,0,0
133398,-100,4,2,60,43,0,0
133484,-100,4,2,60,44,0,0
133570,-100,4,2,60,45,0,0
133656,-100,4,2,60,46,0,0
133743,-100,4,2,60,47,0,0
133829,-100,4,2,60,48,0,0
133915,-100,4,2,60,49,0,0
134001,-100,4,2,60,50,0,0
134087,-100,4,2,60,51,0,0
134174,-100,4,2,60,50,0,0
135208,-100,4,2,1,80,0,0
135553,-100,4,2,1,80,0,1
145208,-100,4,2,1,80,0,0
145898,-100,4,2,0,80,0,0
146243,-100,4,2,1,80,0,0
146587,-100,4,2,1,80,0,1
156587,-100,4,2,0,80,0,0
157277,-100,4,2,1,80,0,0
157622,-100,4,2,1,80,0,1
167277,-100,4,2,80,40,0,0
167967,-100,4,2,0,80,0,0
168312,-100,4,2,1,80,0,0
168656,-100,4,2,1,80,0,1
174174,-100,4,2,80,75,0,0
175036,-100,4,2,1,80,0,0
175553,-100,4,2,80,75,0,0
176415,-100,4,2,1,80,0,0
176932,-100,4,2,5,85,0,0
178312,-100,4,2,0,80,0,0
179260,-100,4,2,1,80,0,0
179691,-100,4,2,1,80,0,1
189346,-100,4,2,83,75,0,0
189863,-100,4,2,0,80,0,0
190036,-100,4,2,83,75,0,0
190381,-100,4,2,1,80,0,0
190725,-100,4,2,1,80,0,1
200381,-100,4,2,60,80,0,0
201760,-100,4,2,5,70,0,0
203829,-100,4,2,32,15,0,0
204174,-100,4,2,38,15,0,0
204518,-100,4,2,31,15,0,0
204863,-100,4,2,37,15,0,0
205553,-100,4,2,32,15,0,0
206243,-100,4,2,37,15,0,0
206415,-100,4,2,34,15,0,0
206932,-100,4,2,32,15,0,0
207622,-100,4,2,35,15,0,0
209346,-100,4,2,37,15,0,0
210381,-100,4,2,31,15,0,0
210725,-100,4,2,32,15,0,0
211070,-100,4,2,35,15,0,0
211415,-100,4,2,34,15,0,0
211932,-100,4,2,32,15,0,0
212449,-100,4,2,35,15,0,0

[Colours]
Combo1 : 73,62,106
Combo2 : 242,204,205
Combo3 : 252,82,82
Combo4 : 90,197,216
Combo5 : 202,156,226
Combo6 : 210,115,45

[HitObjects]
280,319,3139,5,6,0:0:0:0:
396,317,4174,69,2,0:0:0:0:
271,204,4518,2,0,L|486:157,2,210.000000894069,10|8|2,0:0|0:0|0:0,0:0:0:0:
280,319,5898,5,6,0:0:0:0:
419,310,6243,69,10,0:0:0:0:
419,310,6587,1,8,0:0:0:0:
419,310,6932,1,2,0:0:0:0:
271,204,7277,2,0,L|486:157,2,210.000000894069,10|8|8,0:0|0:0|0:0,0:0:0:0:
280,319,8656,5,14,0:0:0:0:
427,309,9001,69,10,0:0:0:0:
427,309,9346,1,8,0:0:0:0:
427,309,9691,1,2,0:0:0:0:
427,309,10036,1,10,0:0:0:0:
228,180,10553,1,8,0:0:0:0:
427,309,11070,1,10,0:0:0:0:
280,319,11415,5,12,0:0:0:0:
427,309,12105,69,10,0:0:0:0:
280,319,12794,5,6,0:0:0:0:
354,230,13484,70,0,L|450:227,1,70.000000298023,10|2,0:0|0:0,0:0:0:0:
354,230,13829,2,0,L|433:228,1,70.000000298023,8|8,0:0|0:0,0:0:0:0:
150,253,14174,5,6,0:0:0:0:
316,124,14346,1,0,2:0:0:0:
150,253,14518,53,0,0:0:0:0:
316,124,14691,1,0,2:0:0:0:
150,253,14863,1,0,0:0:0:0:
316,124,15036,1,0,2:0:0:0:
150,253,15208,1,0,0:0:0:0:
150,253,15381,1,0,0:0:0:0:
40,329,15553,5,8,2:3:0:0:
316,124,15725,1,0,2:0:0:0:
150,253,15898,69,0,0:0:0:0:
40,329,16070,5,2,2:3:0:0:
150,253,16243,69,0,0:0:0:0:
316,124,16415,1,0,2:0:0:0:
150,253,16587,1,2,0:0:0:0:
150,253,16760,1,0,0:0:0:0:
40,329,16932,21,12,2:3:0:0:
316,124,17105,1,0,2:0:0:0:
150,253,17277,53,0,0:0:0:0:
316,124,17449,1,0,2:0:0:0:
150,253,17622,1,0,0:0:0:0:
316,124,17794,1,0,2:0:0:0:
150,253,17967,1,0,0:0:0:0:
150,253,18139,1,0,0:0:0:0:
40,329,18312,5,8,2:3:0:0:
316,124,18484,1,0,2:0:0:0:
150,253,18656,69,0,0:0:0:0:
40,329,18829,5,2,2:3:0:0:
150,253,19001,69,0,0:0:0:0:
316,124,19174,1,0,2:0:0:0:
150,253,19346,1,2,0:0:0:0:
150,253,19518,1,0,0:0:0:0:
40,329,19691,21,12,2:3:0:0:
316,124,19863,1,0,2:0:0:0:
150,253,20036,53,0,0:0:0:0:
316,124,20208,1,0,2:0:0:0:
150,253,20381,1,0,0:0:0:0:
316,124,20553,1,0,2:0:0:0:
150,253,20725,1,0,0:0:0:0:
150,253,20898,1,0,0:0:0:0:
40,329,21070,5,2,2:3:0:0:
316,124,21243,1,0,2:0:0:0:
150,253,21415,69,0,0:0:0:0:
40,329,21587,5,2,2:3:0:0:
150,253,21760,69,0,0:0:0:0:
316,124,21932,1,0,2:0:0:0:
150,253,22105,1,8,0:0:0:0:
150,253,22277,1,0,0:0:0:0:
40,329,22449,21,12,2:3:0:0:
316,124,22622,1,0,2:0:0:0:
150,253,22794,53,0,0:0:0:0:
316,124,22967,1,0,2:0:0:0:
150,253,23139,5,2,0:0:0:0:
316,124,23312,1,0,2:0:0:0:
150,253,23484,69,0,0:0:0:0:
150,253,23656,1,0,0:0:0:0:
40,329,23829,5,6,2:3:0:0:
316,124,24001,1,0,2:0:0:0:
150,253,24174,69,0,0:0:0:0:
316,124,24346,1,0,2:0:0:0:
150,253,24518,5,8,0:3:0:0:
40,329,24691,1,0,2:0:0:0:
150,253,24863,69,0,0:0:0:0:
150,253,25036,1,0,0:0:0:0:
16,155,25208,37,2,2:3:0:0:
316,124,25381,1,0,2:0:0:0:
116,157,25553,5,8,0:0:0:0:
316,124,25725,1,0,2:0:0:0:
150,253,25898,21,0,0:0:0:0:
16,155,26070,37,2,2:3:0:0:
116,157,26243,5,8,0:0:0:0:
150,253,26415,21,0,0:0:0:0:
16,155,26587,37,2,2:3:0:0:
316,124,26760,1,0,2:0:0:0:
116,157,26932,5,8,0:0:0:0:
316,124,27105,1,0,2:0:0:0:
16,155,27191,69,2,2:3:0:0:
150,253,27277,37,0,0:0:0:0:
16,155,27449,37,2,2:3:0:0:
116,157,27622,5,8,0:0:0:0:
150,253,27794,21,0,0:0:0:0:
16,155,27967,37,2,2:3:0:0:
316,124,28139,1,0,2:0:0:0:
116,157,28312,5,8,0:0:0:0:
316,124,28484,1,0,2:0:0:0:
150,253,28656,21,0,0:0:0:0:
16,155,28829,37,2,2:3:0:0:
116,157,29001,5,8,0:0:0:0:
150,253,29174,21,0,0:0:0:0:
16,155,29346,37,2,2:3:0:0:
316,124,29518,1,0,2:0:0:0:
116,157,29691,5,8,0:0:0:0:
316,124,29863,1,0,2:0:0:0:
16,155,29949,69,2,2:3:0:0:
150,253,30036,37,0,0:0:0:0:
16,155,30208,37,2,2:3:0:0:
116,157,30381,5,8,0:0:0:0:
150,253,30553,21,0,0:0:0:0:
16,155,30725,37,2,2:3:0:0:
316,124,30898,1,0,2:0:0:0:
116,157,31070,5,8,0:0:0:0:
316,124,31243,1,0,2:0:0:0:
150,253,31415,21,0,0:0:0:0:
16,155,31587,37,2,2:3:0:0:
116,157,31760,5,8,0:0:0:0:
150,253,31932,21,0,0:0:0:0:
16,155,32105,37,2,2:3:0:0:
316,124,32277,1,0,2:0:0:0:
116,157,32449,5,8,0:0:0:0:
316,124,32622,1,0,2:0:0:0:
16,155,32708,69,2,2:3:0:0:
150,253,32794,37,0,0:0:0:0:
16,155,32967,37,2,2:3:0:0:
116,157,33139,5,8,0:0:0:0:
150,253,33312,21,0,0:0:0:0:
16,155,33484,37,2,2:3:0:0:
316,124,33656,1,0,2:0:0:0:
116,157,33829,5,8,0:0:0:0:
316,124,34001,1,0,2:0:0:0:
150,253,34174,21,0,0:0:0:0:
16,155,34346,37,2,2:3:0:0:
116,157,34518,5,8,0:0:0:0:
150,253,34691,21,0,0:0:0:0:
16,155,34863,37,2,2:3:0:0:
316,124,35036,1,0,2:0:0:0:
116,157,35208,5,8,0:0:0:0:
316,124,35381,1,0,2:0:0:0:
16,155,35467,69,2,2:3:0:0:
150,253,35553,37,0,0:0:0:0:
16,155,35725,37,2,2:3:0:0:
116,157,35898,5,8,0:0:0:0:
150,253,36070,21,0,0:0:0:0:
212,158,36243,37,10,0:0:0:0:
212,158,36587,1,10,0:0:0:0:
212,158,36932,1,10,0:0:0:0:
212,158,37277,1,10,0:0:0:0:
212,158,37622,1,10,0:0:0:0:
212,158,37967,1,10,0:0:0:0:
212,158,38312,1,10,0:0:0:0:
212,158,38656,1,10,0:0:0:0:
212,158,39001,1,10,0:0:0:0:
212,158,39346,1,10,0:0:0:0:
212,158,39691,1,10,0:0:0:0:
212,158,40036,1,10,0:0:0:0:
212,158,40381,1,10,0:0:0:0:
212,158,40725,1,10,0:0:0:0:
212,158,41070,1,10,0:0:0:0:
212,158,41415,1,10,0:0:0:0:
212,158,41760,1,14,0:0:0:0:
212,158,41932,1,2,0:0:0:0:
212,158,42105,1,14,0:0:0:0:
212,158,42277,1,2,0:0:0:0:
212,158,42449,1,14,0:0:0:0:
212,158,42622,1,2,0:0:0:0:
212,158,42794,1,14,0:0:0:0:
212,158,42967,1,2,0:0:0:0:
212,158,43139,1,14,0:0:0:0:
212,158,43312,1,2,0:0:0:0:
212,158,43484,1,10,0:0:0:0:
212,158,43656,1,6,0:0:0:0:
212,158,43829,1,10,0:0:0:0:
212,158,44001,1,2,0:0:0:0:
212,158,44174,1,14,0:0:0:0:
212,158,44346,1,2,0:0:0:0:
157,74,46932,5,8,1:2:0:0:
25,77,47277,69,2,0:0:0:0:
157,74,47622,5,8,0:0:0:0:
25,77,48139,69,2,0:0:0:0:
157,74,48312,5,8,0:0:0:0:
25,77,48656,69,2,0:0:0:0:
157,74,49001,5,8,0:0:0:0:
25,77,49260,69,2,0:0:0:0:
25,77,49518,1,2,0:0:0:0:
157,74,49691,5,8,0:0:0:0:
157,74,49949,1,8,0:0:0:0:
25,77,50036,69,2,0:0:0:0:
157,74,50381,5,8,0:0:0:0:
25,77,50898,69,2,0:0:0:0:
157,74,51070,5,8,0:0:0:0:
25,77,51243,69,2,0:0:0:0:
25,77,51415,1,2,0:0:0:0:
157,74,51760,5,8,0:0:0:0:
25,77,51932,69,2,0:0:0:0:
25,77,52105,1,2,0:0:0:0:
25,77,52363,1,2,0:0:0:0:
157,74,52449,5,8,0:0:0:0:
25,77,52622,69,2,0:0:0:0:
25,77,52794,1,2,0:0:0:0:
157,74,53139,5,8,0:0:0:0:
25,77,53656,69,2,0:0:0:0:
157,74,53829,5,8,0:0:0:0:
25,77,54001,69,2,0:0:0:0:
25,77,54174,1,2,0:0:0:0:
157,74,54518,5,8,0:0:0:0:
25,77,54777,69,2,0:0:0:0:
25,77,55036,1,2,0:0:0:0:
157,74,55208,5,8,0:0:0:0:
157,74,55467,1,8,0:0:0:0:
25,77,55553,69,2,0:0:0:0:
157,74,55898,5,8,0:0:0:0:
25,77,56415,69,2,0:0:0:0:
157,74,56587,5,8,0:0:0:0:
25,77,56760,69,2,0:0:0:0:
25,77,56932,1,2,0:0:0:0:
431,38,57622,69,2,0:0:0:0:
157,74,57967,21,8,1:2:0:0:
25,77,58312,69,2,0:0:0:0:
157,74,58656,5,8,0:0:0:0:
25,77,59174,69,2,0:0:0:0:
157,74,59346,5,8,0:0:0:0:
25,77,59691,69,2,0:0:0:0:
157,74,60036,5,8,0:0:0:0:
25,77,60294,69,2,0:0:0:0:
25,77,60553,1,2,0:0:0:0:
157,74,60725,5,8,0:0:0:0:
157,74,60984,1,8,0:0:0:0:
25,77,61070,69,2,0:0:0:0:
157,74,61415,5,8,0:0:0:0:
25,77,61932,69,2,0:0:0:0:
157,74,62105,5,8,0:0:0:0:
25,77,62277,69,2,0:0:0:0:
25,77,62449,1,2,0:0:0:0:
157,74,62794,5,8,0:0:0:0:
25,77,62967,69,2,0:0:0:0:
25,77,63139,1,2,0:0:0:0:
25,77,63398,1,2,0:0:0:0:
157,74,63484,5,8,0:0:0:0:
25,77,63656,69,2,0:0:0:0:
25,77,63829,1,2,0:0:0:0:
157,74,64174,5,8,0:0:0:0:
25,77,64691,69,2,0:0:0:0:
157,74,64863,5,8,0:0:0:0:
25,77,65036,69,2,0:0:0:0:
25,77,65208,1,2,0:0:0:0:
157,74,65553,5,8,0:0:0:0:
25,77,65812,69,2,0:0:0:0:
25,77,66070,1,2,0:0:0:0:
157,74,66243,5,8,0:0:0:0:
157,74,66501,1,8,0:0:0:0:
25,77,66587,69,2,0:0:0:0:
157,74,66932,5,8,0:0:0:0:
25,77,67449,69,2,0:0:0:0:
157,74,67622,5,8,0:0:0:0:
25,77,67967,69,2,0:0:0:0:
431,38,68312,69,0,0:0:0:0:
431,38,68656,1,0,0:0:0:0:
157,74,69001,21,8,1:2:0:0:
25,77,69346,69,2,0:0:0:0:
157,74,69691,5,8,0:0:0:0:
25,77,70208,69,2,0:0:0:0:
157,74,70381,5,8,0:0:0:0:
25,77,70725,69,2,0:0:0:0:
157,74,71070,5,8,0:0:0:0:
25,77,71329,69,2,0:0:0:0:
25,77,71587,1,2,0:0:0:0:
157,74,71760,5,8,0:0:0:0:
25,77,72105,69,2,0:0:0:0:
157,74,72449,5,8,0:0:0:0:
25,77,72967,69,2,0:0:0:0:
157,74,73139,5,8,0:0:0:0:
25,77,73484,69,2,0:0:0:0:
157,74,73829,5,8,0:0:0:0:
25,77,74087,69,2,0:0:0:0:
25,77,74346,1,2,0:0:0:0:
157,74,74518,5,8,0:0:0:0:
25,77,74863,69,2,0:0:0:0:
157,74,75208,5,8,0:0:0:0:
25,77,75725,69,2,0:0:0:0:
157,74,75898,5,8,0:0:0:0:
25,77,76243,69,2,0:0:0:0:
157,74,76587,5,8,0:0:0:0:
25,77,76846,69,2,0:0:0:0:
25,77,77105,1,2,0:0:0:0:
157,74,77277,5,8,0:0:0:0:
25,77,77622,69,2,0:0:0:0:
157,74,77967,5,8,0:0:0:0:
25,77,78484,69,2,0:0:0:0:
157,74,78656,5,8,0:0:0:0:
25,77,79001,69,2,0:0:0:0:
431,38,79346,69,2,0:0:0:0:
431,38,79691,1,0,0:0:0:0:
157,74,80036,21,8,1:2:0:0:
25,77,80381,69,2,0:0:0:0:
157,74,80725,5,8,0:0:0:0:
25,77,81243,69,2,0:0:0:0:
157,74,81415,5,8,0:0:0:0:
25,77,81760,69,2,0:0:0:0:
157,74,82105,5,8,0:0:0:0:
25,77,82363,69,2,0:0:0:0:
25,77,82622,1,2,0:0:0:0:
157,74,82794,5,8,0:0:0:0:
25,77,83139,69,2,0:0:0:0:
157,74,83484,5,8,0:0:0:0:
25,77,84001,69,2,0:0:0:0:
157,74,84174,5,8,0:0:0:0:
25,77,84518,69,2,0:0:0:0:
157,74,84863,5,8,0:0:0:0:
25,77,85122,69,2,0:0:0:0:
25,77,85381,1,2,0:0:0:0:
157,74,85553,5,8,0:0:0:0:
25,77,85898,69,2,0:0:0:0:
157,74,86243,5,8,0:0:0:0:
25,77,86760,69,2,0:0:0:0:
157,74,86932,5,8,0:0:0:0:
25,77,87277,69,2,0:0:0:0:
157,74,87622,5,8,0:0:0:0:
25,77,87881,69,2,0:0:0:0:
25,77,88139,1,2,0:0:0:0:
157,74,88312,5,8,0:0:0:0:
25,77,88656,5,10,0:0:0:0:
25,77,90036,1,6,0:0:0:0:
25,77,90294,1,6,0:0:0:0:
25,77,90553,1,6,0:0:0:0:
157,74,90725,69,12,0:0:0:0:
25,77,91415,69,14,0:0:0:0:
309,277,102449,69,14,0:0:0:0:
309,277,103484,69,2,0:0:0:0:
384,324,103829,6,8,P|397:263|281:188,2,210.000000894069,14|8|8,0:0|0:0|0:0,0:0:0:0:
309,277,105208,1,4,0:0:0:0:
309,277,105553,1,2,0:0:0:0:
309,277,106587,1,6,0:0:0:0:
309,277,107277,69,8,0:0:0:0:
309,277,107622,1,2,0:0:0:0:
309,277,107967,5,14,0:0:0:0:
309,277,108312,69,8,0:0:0:0:
309,277,108656,1,8,0:0:0:0:
309,277,109001,1,2,0:0:0:0:
384,324,109346,6,8,P|397:263|281:188,2,210.000000894069,14|8|2,0:0|0:0|0:0,0:0:0:0:
309,277,110725,1,4,0:2:0:0:
309,277,111415,69,8,0:0:0:0:
309,277,112105,5,14,0:0:0:0:
309,277,112794,70,0,L|405:274,1,70.000000298023,2|8,0:0|0:0,0:0:0:0:
309,277,113139,2,0,L|388:275,1,70.000000298023,2|2,0:0|0:0,0:0:0:0:
312,143,113484,1,10,2:3:0:0:
429,141,113656,53,2,2:3:0:0:
181,238,113829,5,2,0:0:0:0:
429,141,114001,69,2,2:3:0:0:
181,238,114174,5,2,0:0:0:0:
429,141,114346,69,2,2:3:0:0:
181,238,114518,21,10,0:0:0:0:
181,238,114691,69,2,0:0:0:0:
312,143,114863,5,10,2:3:0:0:
429,141,115036,53,2,2:3:0:0:
181,238,115208,5,2,0:0:0:0:
312,143,115381,5,10,2:3:0:0:
181,238,115553,69,2,0:0:0:0:
429,141,115725,69,2,2:3:0:0:
181,238,115898,21,10,0:0:0:0:
181,238,116070,69,2,0:0:0:0:
429,141,116243,69,2,2:3:0:0:
429,141,116415,1,2,2:3:0:0:
181,238,116587,21,10,0:0:0:0:
429,141,116760,53,2,2:3:0:0:
181,238,116932,5,2,0:0:0:0:
429,141,117105,69,2,2:3:0:0:
181,238,117276,5,2,0:0:0:0:
181,238,117449,1,2,0:0:0:0:
429,141,117622,69,2,2:3:0:0:
429,141,117794,1,2,2:3:0:0:
181,238,117967,5,2,0:0:0:0:
429,141,118139,69,2,2:3:0:0:
181,238,118312,21,10,0:0:0:0:
429,141,118484,53,2,2:3:0:0:
181,238,118656,21,10,0:0:0:0:
181,238,118829,69,2,0:0:0:0:
312,143,119001,5,10,2:3:0:0:
429,141,119174,53,2,2:3:0:0:
181,238,119346,21,10,0:0:0:0:
429,141,119518,53,2,2:3:0:0:
181,238,119691,21,10,0:0:0:0:
429,141,119863,53,2,2:3:0:0:
181,238,120035,21,10,0:0:0:0:
181,238,120208,69,2,0:0:0:0:
312,143,120381,5,10,2:3:0:0:
429,141,120553,53,2,2:3:0:0:
181,238,120725,5,2,0:0:0:0:
312,143,120898,5,10,2:3:0:0:
181,238,121070,69,2,0:0:0:0:
429,141,121243,69,2,2:3:0:0:
181,238,121414,21,10,0:0:0:0:
181,238,121587,69,2,0:0:0:0:
312,143,121760,69,2,2:3:0:0:
429,141,121932,1,2,2:3:0:0:
181,238,122105,5,2,0:0:0:0:
429,141,122277,69,2,2:3:0:0:
181,238,122449,5,2,0:0:0:0:
429,141,122622,69,2,2:3:0:0:
181,238,122794,5,2,0:0:0:0:
181,238,122967,1,2,0:0:0:0:
429,141,123139,69,2,2:3:0:0:
429,141,123312,1,2,2:3:0:0:
181,238,123484,5,2,0:0:0:0:
429,141,123656,69,2,2:3:0:0:
181,238,123829,21,10,0:0:0:0:
429,141,124001,1,10,2:3:0:0:
181,238,124173,69,10,0:0:0:0:
181,238,124346,1,10,0:0:0:0:
212,158,124518,37,10,0:0:0:0:
276,188,124691,1,0,0:0:0:0:
212,158,124862,1,10,0:0:0:0:
277,188,125036,1,0,0:0:0:0:
212,158,125207,1,10,0:0:0:0:
278,188,125381,1,0,0:0:0:0:
212,158,125552,1,10,0:0:0:0:
279,188,125725,1,0,0:0:0:0:
212,158,125897,1,10,0:0:0:0:
279,188,126070,1,0,0:0:0:0:
212,158,126242,1,10,0:0:0:0:
279,188,126415,1,0,0:0:0:0:
212,158,126587,1,10,0:0:0:0:
280,188,126760,1,0,0:0:0:0:
212,158,126931,1,10,0:0:0:0:
281,189,127105,1,0,0:0:0:0:
212,158,127276,1,10,0:0:0:0:
281,189,127449,1,0,0:0:0:0:
212,158,127621,1,10,0:0:0:0:
281,189,127794,1,0,0:0:0:0:
212,158,127966,1,10,0:0:0:0:
281,189,128139,1,0,0:0:0:0:
212,158,128311,1,10,0:0:0:0:
281,189,128484,1,0,0:0:0:0:
212,158,128656,1,10,0:0:0:0:
281,189,128829,1,0,0:0:0:0:
212,158,129000,1,10,0:0:0:0:
281,189,129174,1,0,0:0:0:0:
212,158,129345,1,10,0:0:0:0:
282,189,129518,1,0,0:0:0:0:
212,158,129690,1,10,0:0:0:0:
282,189,129863,1,0,0:0:0:0:
212,158,130035,1,14,0:0:0:0:
212,158,130207,1,2,0:0:0:0:
212,158,130380,1,14,0:0:0:0:
212,158,130552,1,2,0:0:0:0:
212,158,130724,1,14,0:0:0:0:
212,158,130897,1,2,0:0:0:0:
212,158,131069,1,14,0:0:0:0:
212,158,131242,1,2,0:0:0:0:
212,158,131414,1,14,0:0:0:0:
212,158,131587,1,2,0:0:0:0:
212,158,131759,1,10,0:0:0:0:
212,158,131931,1,6,0:0:0:0:
212,158,132104,1,10,0:0:0:0:
212,158,132276,1,2,0:0:0:0:
212,158,132449,1,14,0:0:0:0:
212,158,132621,1,2,0:0:0:0:
212,158,132794,2,0,L|210:116,3,35.0000001490115,14|2|2|2,0:0|0:0|0:0|0:0,0:0:0:0:
212,158,133139,2,0,L|210:116,3,35.0000001490115,14|2|2|2,0:0|0:0|0:0|0:0,0:0:0:0:
212,158,133484,2,0,L|210:116,3,35.0000001490115,14|2|2|2,0:0|0:0|0:0|0:0,0:0:0:0:
212,158,133829,2,0,L|210:116,3,35.0000001490115,14|2|2|2,0:0|0:0|0:0|0:0,0:0:0:0:
212,158,134174,1,14,0:0:0:0:
25,77,135208,5,8,1:2:0:0:
25,77,135553,69,2,1:2:0:0:
157,74,135898,5,8,0:0:0:0:
265,146,136243,1,0,1:0:0:0:
25,77,136415,69,2,0:0:0:0:
157,74,136587,5,8,0:0:0:0:
25,77,136932,69,2,1:2:0:0:
157,74,137277,5,8,0:0:0:0:
25,77,137536,69,2,0:0:0:0:
265,146,137622,1,0,1:0:0:0:
25,77,137794,1,2,0:0:0:0:
157,74,137967,5,8,0:0:0:0:
157,74,138225,1,8,0:0:0:0:
25,77,138312,69,2,1:2:0:0:
157,74,138656,5,8,0:0:0:0:
265,146,139001,1,0,1:0:0:0:
25,77,139174,69,2,0:0:0:0:
157,74,139346,5,8,0:0:0:0:
25,77,139518,69,2,0:0:0:0:
25,77,139691,1,2,1:2:0:0:
157,74,140036,5,8,0:0:0:0:
25,77,140208,69,2,0:0:0:0:
25,77,140381,1,2,1:2:0:0:
25,77,140639,1,2,0:0:0:0:
157,74,140725,5,8,0:0:0:0:
25,77,140898,69,2,0:0:0:0:
25,77,141070,1,2,1:2:0:0:
157,74,141415,5,8,0:0:0:0:
265,146,141760,1,0,1:0:0:0:
25,77,141932,69,2,0:0:0:0:
157,74,142105,5,8,0:0:0:0:
25,77,142277,69,2,0:0:0:0:
25,77,142449,1,2,1:2:0:0:
157,74,142794,5,8,0:0:0:0:
25,77,143053,69,2,0:0:0:0:
265,146,143139,1,0,1:0:0:0:
25,77,143312,1,2,0:0:0:0:
157,74,143484,5,8,0:0:0:0:
157,74,143743,1,8,0:0:0:0:
25,77,143829,69,2,1:2:0:0:
157,74,144174,5,8,0:0:0:0:
265,146,144518,1,0,1:0:0:0:
25,77,144691,69,2,0:0:0:0:
157,74,144863,5,8,0:0:0:0:
25,77,145036,69,2,0:0:0:0:
25,77,145208,1,2,0:0:0:0:
431,38,145898,69,2,0:0:0:0:
157,74,146243,21,8,1:2:0:0:
25,77,146587,69,2,0:0:0:0:
157,74,146932,5,8,0:0:0:0:
25,77,147449,69,2,0:0:0:0:
157,74,147622,5,8,0:0:0:0:
25,77,147967,69,2,0:0:0:0:
157,74,148312,5,8,0:0:0:0:
25,77,148570,69,2,0:0:0:0:
25,77,148829,1,2,0:0:0:0:
157,74,149001,5,8,0:0:0:0:
157,74,149260,1,8,0:0:0:0:
25,77,149346,69,2,0:0:0:0:
157,74,149691,5,8,0:0:0:0:
25,77,150208,69,2,0:0:0:0:
157,74,150381,5,8,0:0:0:0:
25,77,150553,69,2,0:0:0:0:
25,77,150725,1,2,0:0:0:0:
157,74,151070,5,8,0:0:0:0:
25,77,151243,69,2,0:0:0:0:
25,77,151415,1,2,0:0:0:0:
25,77,151674,1,2,0:0:0:0:
157,74,151760,5,8,0:0:0:0:
25,77,151932,69,2,0:0:0:0:
25,77,152105,1,2,0:0:0:0:
157,74,152449,5,8,0:0:0:0:
25,77,152967,69,2,0:0:0:0:
157,74,153139,5,8,0:0:0:0:
25,77,153312,69,2,0:0:0:0:
25,77,153484,1,2,0:0:0:0:
157,74,153829,5,8,0:0:0:0:
25,77,154087,69,2,0:0:0:0:
25,77,154346,1,2,0:0:0:0:
157,74,154518,5,8,0:0:0:0:
157,74,154777,1,8,0:0:0:0:
25,77,154863,69,2,0:0:0:0:
157,74,155208,5,8,0:0:0:0:
25,77,155725,69,2,0:0:0:0:
157,74,155898,5,8,0:0:0:0:
25,77,156243,69,2,0:0:0:0:
431,38,156587,69,0,0:0:0:0:
431,38,156932,1,2,0:0:0:0:
157,74,157277,21,8,1:2:0:0:
25,77,157622,69,2,0:0:0:0:
157,74,157967,5,8,0:0:0:0:
25,77,158484,69,2,0:0:0:0:
157,74,158656,5,8,0:0:0:0:
25,77,159001,69,2,0:0:0:0:
157,74,159346,5,8,0:0:0:0:
25,77,159605,69,2,0:0:0:0:
25,77,159863,1,2,0:0:0:0:
157,74,160036,5,8,0:0:0:0:
25,77,160381,69,2,0:0:0:0:
157,74,160725,5,8,0:0:0:0:
25,77,161243,69,2,0:0:0:0:
157,74,161415,5,8,0:0:0:0:
25,77,161760,69,2,0:0:0:0:
157,74,162105,5,8,0:0:0:0:
25,77,162363,69,2,0:0:0:0:
25,77,162622,1,2,0:0:0:0:
157,74,162794,5,8,0:0:0:0:
25,77,163139,69,2,0:0:0:0:
157,74,163484,5,8,0:0:0:0:
25,77,164001,69,2,0:0:0:0:
157,74,164174,5,8,0:0:0:0:
25,77,164518,69,2,0:0:0:0:
157,74,164863,5,8,0:0:0:0:
25,77,165122,69,2,0:0:0:0:
25,77,165381,1,2,0:0:0:0:
157,74,165553,5,8,0:0:0:0:
25,77,165898,69,2,0:0:0:0:
157,74,166243,5,8,0:0:0:0:
25,77,166760,69,2,0:0:0:0:
157,74,166932,5,8,0:0:0:0:
298,123,167277,6,0,B|332:108|332:108|379:121,1,70.000000298023,8|0,0:0|0:0,0:0:0:0:
298,123,167622,2,0,B|332:108|332:108|379:121,1,70.000000298023,8|0,0:0|0:0,0:0:0:0:
431,38,167967,37,2,0:0:0:0:
157,74,168312,21,8,0:0:0:0:
25,77,168656,69,2,0:0:0:0:
157,74,169001,5,8,0:0:0:0:
25,77,169518,69,2,0:0:0:0:
157,74,169691,5,8,0:0:0:0:
25,77,170036,69,2,0:0:0:0:
157,74,170381,5,8,0:0:0:0:
25,77,170639,69,2,0:0:0:0:
25,77,170898,1,2,0:0:0:0:
157,74,171070,5,8,0:0:0:0:
25,77,171415,69,2,0:0:0:0:
157,74,171760,5,8,0:0:0:0:
25,77,172277,69,2,0:0:0:0:
157,74,172449,5,8,0:0:0:0:
25,77,172794,69,2,0:0:0:0:
157,74,173139,5,8,0:0:0:0:
25,77,173398,69,2,0:0:0:0:
25,77,173656,1,2,0:0:0:0:
157,74,173829,5,8,0:0:0:0:
25,77,174174,5,6,0:0:0:0:
25,77,175036,53,2,0:0:0:0:
157,74,175208,5,8,0:0:0:0:
25,77,175553,5,6,0:0:0:0:
25,77,176415,53,2,0:0:0:0:
157,74,176587,5,8,0:0:0:0:
25,77,176932,69,6,0:0:0:0:
431,38,178312,69,0,0:0:0:0:
431,38,178656,1,0,0:0:0:0:
431,38,179001,1,0,0:0:0:0:
25,77,179260,5,2,0:0:0:0:
157,74,179346,5,8,0:0:0:0:
25,77,179691,69,2,0:0:0:0:
157,74,180036,5,8,0:0:0:0:
25,77,180553,69,2,0:0:0:0:
157,74,180725,5,8,0:0:0:0:
25,77,181070,69,2,0:0:0:0:
157,74,181415,5,8,0:0:0:0:
25,77,181674,69,2,0:0:0:0:
25,77,181932,1,2,0:0:0:0:
157,74,182105,5,8,0:0:0:0:
157,74,182363,1,8,0:0:0:0:
25,77,182449,69,2,0:0:0:0:
157,74,182794,5,8,0:0:0:0:
25,77,183312,69,2,0:0:0:0:
157,74,183484,5,8,0:0:0:0:
25,77,183656,69,2,0:0:0:0:
25,77,183829,1,2,0:0:0:0:
157,74,184174,5,8,0:0:0:0:
25,77,184346,69,2,0:0:0:0:
25,77,184518,1,2,0:0:0:0:
25,77,184777,1,2,0:0:0:0:
157,74,184863,5,8,0:0:0:0:
25,77,185036,69,2,0:0:0:0:
25,77,185208,1,2,0:0:0:0:
157,74,185553,5,8,0:0:0:0:
25,77,186070,69,2,0:0:0:0:
157,74,186243,5,8,0:0:0:0:
25,77,186415,69,2,0:0:0:0:
25,77,186587,1,2,0:0:0:0:
157,74,186932,5,8,0:0:0:0:
25,77,187191,69,2,0:0:0:0:
25,77,187449,1,2,0:0:0:0:
157,74,187622,5,8,0:0:0:0:
157,74,187881,1,8,0:0:0:0:
25,77,187967,69,2,0:0:0:0:
157,74,188312,5,8,0:0:0:0:
25,77,188829,69,2,0:0:0:0:
157,74,189001,5,8,0:0:0:0:
25,77,189174,69,2,0:0:0:0:
25,77,189346,21,6,0:0:0:0:
401,57,189863,37,2,0:0:0:0:
25,77,190036,37,12,0:0:0:0:
157,74,190381,69,8,0:0:0:0:
25,77,190725,69,2,0:0:0:0:
157,74,191070,5,8,0:0:0:0:
25,77,191587,69,2,0:0:0:0:
157,74,191760,5,8,0:0:0:0:
25,77,192105,69,2,0:0:0:0:
157,74,192449,5,8,0:0:0:0:
25,77,192708,69,2,0:0:0:0:
25,77,192967,1,2,0:0:0:0:
157,74,193139,5,8,0:0:0:0:
157,74,193398,1,8,0:0:0:0:
25,77,193484,69,2,0:0:0:0:
157,74,193829,5,8,0:0:0:0:
25,77,194346,69,2,0:0:0:0:
157,74,194518,5,8,0:0:0:0:
25,77,194691,69,2,0:0:0:0:
25,77,194863,1,2,0:0:0:0:
157,74,195208,5,8,0:0:0:0:
25,77,195381,69,2,0:0:0:0:
25,77,195553,1,2,0:0:0:0:
25,77,195812,1,2,0:0:0:0:
157,74,195898,5,8,0:0:0:0:
25,77,196070,69,2,0:0:0:0:
25,77,196243,1,2,0:0:0:0:
157,74,196587,5,8,0:0:0:0:
25,77,197105,69,2,0:0:0:0:
157,74,197277,5,8,0:0:0:0:
25,77,197449,69,2,0:0:0:0:
25,77,197622,1,2,0:0:0:0:
157,74,197967,5,8,0:0:0:0:
25,77,198225,69,2,0:0:0:0:
25,77,198484,1,2,0:0:0:0:
157,74,198656,5,8,0:0:0:0:
157,74,198915,1,8,0:0:0:0:
25,77,199001,69,2,0:0:0:0:
157,74,199346,5,8,0:0:0:0:
25,77,199863,69,2,0:0:0:0:
157,74,200036,5,8,0:0:0:0:
25,77,200381,69,6,0:0:0:0:
25,77,201760,1,6,3:2:0:0:
290,324,203829,54,0,L|432:304,1,140.000000596046,8|8,0:0|0:0,0:0:0:0:
276,228,204518,1,10,0:0:0:0:
276,228,204863,1,2,0:0:0:0:
276,228,205553,1,8,0:0:0:0:
290,324,205898,2,0,L|432:304,1,140.000000596046,8|8,0:0|0:0,0:0:0:0:
276,228,206415,1,10,0:0:0:0:
276,228,206932,1,8,0:0:0:0:
276,228,207622,1,8,0:0:0:0:
276,228,209346,1,8,0:0:0:0:
276,228,210381,1,10,0:0:0:0:
276,228,210725,1,8,0:0:0:0:
276,228,211070,1,8,0:0:0:0:
256,345,211415,2,0,L|468:299,2,210.000000894069,10|8|8,0:0|0:0|0:0,0:0:0:0:
