osu file format v14

[General]
AudioFilename: audio.mp3
AudioLeadIn: 0
PreviewTime: 91393
Countdown: 2
SampleSet: Soft
StackLeniency: 0.7
Mode: 0
LetterboxInBreaks: 0
CountdownOffset: 1
WidescreenStoryboard: 1

[Editor]
Bookmarks: 91415,102449
DistanceSpacing: 1.6
BeatDivisor: 4
GridSize: 16
TimelineZoom: 3.099999

[Metadata]
Title:Realms
TitleUnicode:Realms
Artist:Hinkik & A Himitsu
ArtistUnicode:Hinkik & A Himitsu
Creator:realy0_
Version:Insane
Source:
Tags:drumstep
BeatmapID:1411978
BeatmapSetID:667287

[Difficulty]
HPDrainRate:5
CircleSize:3.5
OverallDifficulty:7.5
ApproachRate:8.6
SliderMultiplier:1.40000000596046
SliderTickRate:1

[Events]
//Background and Video events
0,0,"Sans titre-5.jpg",0,0
//Break Periods
2,44546,46273
2,91614,101101
//Storyboard Layer 0 (Background)
//Storyboard Layer 1 (Fail)
//Storyboard Layer 2 (Pass)
//Storyboard Layer 3 (Foreground)
//Storyboard Sound Samples

[TimingPoints]
381,344.827586206897,4,2,0,60,1,0
725,-133.333333333333,4,2,0,60,0,0
14174,-90.9090909090909,4,2,0,60,0,0
24518,-133.333333333333,4,2,0,60,0,0
25208,-80,4,2,0,60,0,0
36243,-80,4,2,0,60,0,0
47277,-66.6666666666667,4,2,0,60,0,1
56932,-133.333333333333,4,2,0,60,0,0
58312,-66.6666666666667,4,2,0,60,0,1
67967,-133.333333333333,4,2,0,60,0,0
69346,-71.4285714285714,4,2,0,60,0,1
69368,-71.4285714285714,4,2,0,60,0,0
74863,-71.4285714285714,4,2,0,60,0,0
79001,-133.333333333333,4,2,0,60,0,0
80381,-71.4285714285714,4,2,0,60,0,1
80402,-71.4285714285714,4,2,0,60,0,0
85898,-71.4285714285714,4,2,0,60,0,0
88656,-133.333333333333,4,2,0,60,0,0
90036,-100,4,2,0,60,0,0
90725,-66.6666666666667,4,2,0,60,0,0
91415,-133.333333333333,4,2,0,60,0,1
91437,-133.333333333333,4,2,0,60,0,0
102449,-100,4,2,0,60,0,0
112794,-133.333333333333,4,2,0,60,0,0
113484,-90.9090909090909,4,2,0,60,0,0
123829,-90.9090909090909,4,2,0,60,0,0
124518,-80,4,2,0,60,0,0
134174,-200,4,2,0,60,0,0
135553,-66.6666666666667,4,2,0,60,0,1
145208,-133.333333333333,4,2,0,60,0,0
146587,-66.6666666666667,4,2,0,60,0,1
156243,-133.333333333333,4,2,0,60,0,0
157622,-66.6666666666667,4,2,0,60,0,1
167277,-66.6666666666667,4,2,0,60,0,0
168656,-66.6666666666667,4,2,0,60,0,1
174174,-66.6666666666667,4,2,0,60,0,0
179691,-66.6666666666667,4,2,0,60,0,1
189346,-66.6666666666667,4,2,0,60,0,0
190725,-66.6666666666667,4,2,0,60,0,1
200381,-66.6666666666667,4,2,0,60,0,0

[Colours]
Combo1 : 0,255,172
Combo2 : 255,0,128
Combo3 : 255,217,128
Combo4 : 106,230,255
Combo5 : 148,148,148

[HitObjects]
256,192,812,12,0,3139,0:0:0:0:
333,271,4518,6,0,B|391:282|430:248|430:248|465:255|494:282,2,157.5000066787
235,311,5898,1,0,0:0:0:0:
67,176,7277,2,0,P|57:101|32:20,2,157.5000066787
140,251,8656,1,0,0:0:0:0:
375,88,9691,1,0,0:0:0:0:
375,88,10036,2,0,P|413:52|524:63,1,157.5000066787
310,153,11070,6,0,L|250:139,1,52.5000022262334
199,211,11415,2,0,B|149:232|98:206|98:206|41:176|-8:219,2,210.000008904934
427,333,13484,6,0,L|414:261,1,52.5000022262334
497,255,13829,2,0,L|506:203,1,52.5000022262334
324,60,14174,6,0,B|251:35|251:35|216:48|171:39,2,154.000005355358
424,56,15036,1,0,2:0:0:0:
424,56,15208,2,0,P|412:109|399:136,1,77.0000026776789
313,174,15553,2,0,B|242:131|208:127|208:127|217:145|222:168,1,154.000005355358
270,266,16070,2,0,P|342:273|405:220,1,154.000005355358
402,129,16587,1,0,0:0:0:0:
402,129,16760,1,0,0:0:0:0:
186,208,16932,6,0,P|176:259|157:300,1,77.0000026776789
29,336,17277,2,0,B|131:342|83:373|195:381,2,154.000005355358
29,336,18139,1,0,0:0:0:0:
23,149,18312,2,0,P|12:204|101:216,1,154.000005355358
229,231,18829,2,0,B|205:262|205:262|212:204|185:150,1,154.000005355358
31,50,19346,2,0,L|124:59,1,77.0000026776789
306,145,19691,6,0,B|328:112|367:103|367:103|405:115|444:98,2,154.000005355358
231,90,20553,1,0,2:3:0:0:
231,90,20725,2,0,P|216:54|209:16,1,77.0000026776789,0|0,0:3|0:3,0:3:0:0:
106,161,21070,2,0,B|112:196|146:221|146:221|182:216|214:182,1,154.000005355358
392,186,21587,2,0,B|407:169|424:163|424:163|394:147|312:141,1,154.000005355358
231,90,22105,1,0,0:0:0:0:
231,90,22277,1,0,0:0:0:0:
258,309,22449,6,0,B|289:285|305:251|305:251|411:292|351:341|489:384,2,308.000010710716
9,33,24518,6,0,L|-4:105,1,52.5000022262334
79,111,24863,2,0,L|88:163,1,52.5000022262334
306,42,25208,6,0,B|361:49|389:89|389:89|445:76,1,131.250000558793
498,101,25553,2,0,B|390:104|438:146|294:152,1,175.000000745057
206,210,26070,1,0,0:0:0:0:
206,210,26243,2,0,P|220:161|221:117,1,87.5000003725287
33,9,26587,6,0,B|50:53|90:71|90:71|124:111|122:151,1,175.000000745057
1,323,27105,1,0,0:0:0:0:
0,284,27191,2,0,P|5:218|16:153,1,131.250000558793
185,251,27622,2,0,P|141:256|100:271,1,87.5000003725287
121,151,27967,5,0,0:0:0:0:
121,151,28139,1,0,0:0:0:0:
301,221,28312,2,0,B|369:187|427:188|427:188|478:238,1,175.000000745057
458,218,28829,1,0,0:0:0:0:
328,87,29001,2,0,P|278:80|237:62,1,87.5000003725287
0,97,29346,6,0,P|32:150|120:128,1,131.250000558793
151,220,29691,2,0,B|147:265|147:265|122:310,1,87.5000003725287
105,334,29949,1,0,0:0:0:0:
105,334,30036,1,0,0:0:0:0:
13,251,30208,1,0,0:0:0:0:
227,341,30381,2,0,L|353:351,1,87.5000003725287
487,212,30725,6,0,B|492:192|502:181|502:181|455:186|398:230,1,131.250000558793
333,251,31070,2,0,B|225:238|277:200|134:182,2,175.000000745057
460,289,31932,1,0,0:0:0:0:
441,91,32105,6,0,B|403:63|359:62|359:62|322:98|327:140,1,175.000000745057
188,310,32622,1,0,0:0:0:0:
160,279,32708,2,0,P|166:213|230:203,1,131.250000558793
402,265,33139,2,0,B|368:292|368:292|325:303,1,87.5000003725287
326,139,33484,6,0,L|332:51,1,87.5000003725287
153,191,33829,2,0,L|159:278,1,87.5000003725287
478,167,34174,2,0,L|442:247,1,87.5000003725287
272,332,34518,2,0,L|295:247,1,87.5000003725287
166,38,34863,6,0,B|58:41|106:83|-38:89,1,175.000000745057
161,240,35381,1,0,0:0:0:0:
161,240,35467,1,0,0:0:0:0:
161,240,35553,2,0,B|170:197|170:197|166:153,1,87.5000003725287
55,224,35898,2,0,B|49:266|49:266|61:311,1,87.5000003725287
333,360,36243,5,0,0:0:0:0:
337,365,36415,1,0,0:0:0:0:
289,266,36587,1,0,0:0:0:0:
289,266,36760,1,0,0:0:0:0:
404,149,36932,6,0,P|423:104|430:55,1,87.5000003725287
263,182,37277,2,0,P|270:225|288:265,1,87.5000003725287
469,305,37622,5,0,0:0:0:0:
469,305,37794,1,0,0:0:0:0:
381,206,37967,1,0,0:0:0:0:
381,206,38139,1,0,0:0:0:0:
160,274,38312,6,0,L|73:278,1,87.5000003725287
230,122,38656,2,0,L|317:127,1,87.5000003725287
482,62,39001,5,0,0:0:0:0:
482,62,39174,1,0,0:0:0:0:
390,185,39346,1,0,0:0:0:0:
390,185,39518,1,0,0:0:0:0:
230,122,39691,6,0,P|210:77|204:28,1,87.5000003725287
390,185,40036,2,0,P|383:233|364:278,1,87.5000003725287
186,216,40381,5,0,0:0:0:0:
186,216,40553,1,0,0:0:0:0:
271,355,40725,1,0,0:0:0:0:
271,355,40898,1,0,0:0:0:0:
4,291,41070,6,0,L|108:297,1,87.5000003725287
289,178,41415,2,0,L|185:184,1,87.5000003725287
394,43,41760,5,2,0:0:0:0:
429,174,41932,1,0,0:0:0:0:
493,67,42105,1,2,0:0:0:0:
351,139,42277,1,0,0:0:0:0:
293,45,42449,1,2,0:0:0:0:
242,228,42622,1,0,0:0:0:0:
198,104,42794,1,2,0:0:0:0:
353,256,42967,1,0,0:0:0:0:
59,297,43139,5,0,0:0:0:0:
289,382,43312,1,0,0:0:0:0:
289,382,43484,1,0,0:0:0:0:
349,172,43656,5,0,0:0:0:0:
217,248,43829,1,0,0:0:0:0:
217,248,44001,1,0,0:0:0:0:
244,44,44174,5,0,0:0:0:0:
274,127,44346,1,0,0:0:0:0:
256,192,46932,5,0,1:0:0:0:
0,286,47277,6,0,B|91:285|60:331|195:325,1,157.5000066787
214,268,47622,2,0,B|204:189|204:189|165:157|165:157|153:65,1,210.000008904934
56,180,48139,1,0,0:0:0:0:
312,30,48312,2,0,B|272:100|272:100|307:123,1,105.000004452467
370,151,48570,1,0,0:0:0:0:
370,151,48656,6,0,B|523:111|523:111|464:172,1,210.000008904934
351,266,49174,1,0,0:0:0:0:
351,266,49260,6,0,P|296:255|227:249,1,105.000004452467
150,221,49518,2,0,L|161:272,1,52.5000022262334
190,360,49691,2,0,P|138:349|86:343,1,105.000004452467
1,340,49949,1,0,0:0:0:0:
1,340,50036,5,0,0:0:0:0:
150,221,50208,1,0,0:0:0:0:
43,36,50381,2,0,B|10:94|0:185|0:185|50:167,1,210.000008904934
230,96,50898,1,0,0:0:0:0:
302,211,51070,2,0,P|290:267|247:313,1,105.000004452467
230,96,51415,6,0,B|284:85|329:117|329:117|382:122|419:97,1,157.5000066787
464,94,51760,1,0,0:0:0:0:
267,2,51932,1,0,0:0:0:0:
137,145,52105,6,0,P|125:94|138:43,1,105.000004452467
60,13,52363,1,0,0:0:0:0:
60,13,52449,1,0,0:0:0:0:
228,142,52622,1,0,0:0:0:0:
68,216,52794,6,0,P|15:253|63:347,1,157.5000066787
109,373,53139,2,0,B|188:363|188:363|220:324|220:324|299:313,2,210.000008904934
245,226,54001,1,0,0:0:0:0:
435,379,54174,6,0,B|395:226|395:226|456:285,1,210.000008904934
487,72,54691,1,0,0:0:0:0:
487,72,54777,6,0,P|476:127|470:196,1,105.000004452467
354,151,55036,2,0,L|381:195,1,52.5000022262334
306,251,55208,2,0,P|253:257|202:267,1,105.000004452467
138,321,55467,1,0,0:0:0:0:
138,321,55553,6,0,P|62:327|59:231,1,157.5000066787
76,184,55898,2,0,B|107:135|98:85|98:85|38:64|-5:92,1,210.000008904934
232,30,56415,1,0,0:0:0:0:
318,89,56587,2,0,L|431:77,1,105.000004452467
512,167,56932,6,0,B|434:181|464:221|376:238,1,157.5000066787
222,238,57622,6,0,L|231:290,1,52.5000022262334
310,315,57967,2,0,L|300:366,1,52.5000022262334
487,174,58312,6,0,B|466:75|466:75|476:21|519:-5,1,157.5000066787
415,65,58656,2,0,B|301:65|344:8|212:8,1,210.000008904934
343,158,59174,1,0,0:0:0:0:
119,106,59346,2,0,P|125:158|142:208,1,105.000004452467
103,283,59605,1,0,0:0:0:0:
103,283,59691,6,0,B|50:275|50:275|-18:296,2,105.000004452467
286,348,60208,1,0,0:0:0:0:
286,348,60294,6,0,P|270:294|258:225,1,105.000004452467
188,193,60553,2,0,L|199:142,1,52.5000022262334
171,57,60725,2,0,P|130:31|65:32,1,105.000004452467,0|0,3:0|0:0,0:0:0:0:
32,102,60984,1,0,0:0:0:0:
32,102,61070,6,0,B|39:161|39:161|68:185|68:185|76:244,1,157.5000066787
120,317,61415,2,0,B|5:287|5:287|49:332,1,157.5000066787
32,314,61760,1,0,0:0:0:0:
267,384,61932,5,0,0:0:0:0:
217,199,62105,1,0,0:0:0:0:
341,284,62277,1,0,0:0:0:0:
233,96,62449,6,0,B|177:94|139:133|139:133|110:141|86:139,1,157.5000066787,0|0,0:0|0:0,0:0:0:0:
36,70,62794,1,0,0:0:0:0:
217,199,62967,1,0,0:0:0:0:
362,17,63139,6,0,B|341:94|341:94|369:141,1,105.000004452467
421,167,63398,1,0,0:0:0:0:
421,167,63484,2,0,P|433:236|421:272,1,105.000004452467
262,358,63829,6,0,B|283:269|319:311|349:179,1,157.5000066787
283,156,64174,2,0,B|202:152|142:214|142:214|187:245,2,210.000008904934,0|0|0,3:0|0:0|0:0,0:0:0:0:
422,268,65036,1,0,0:0:0:0:
386,65,65208,6,0,B|418:24|482:27|482:27|511:65|506:123,1,210.000008904934,0|0,3:0|0:0,0:0:0:0:
266,75,65725,1,0,0:0:0:0:
266,75,65812,6,0,P|214:65|162:60,1,105.000004452467
114,129,66070,2,0,L|140:174,1,52.5000022262334
213,216,66243,2,0,B|246:206|246:206|263:174|291:153,1,105.000004452467
375,185,66501,1,0,0:0:0:0:
375,185,66587,6,0,B|376:276|330:245|336:380,1,157.5000066787
410,376,66932,2,0,B|446:338|446:338|382:358|293:378,1,210.000008904934
340,232,67449,1,0,0:0:0:0:
130,300,67622,2,0,P|79:287|27:281,1,105.000004452467
180,185,67967,6,0,B|269:159|223:127|309:102,1,157.5000066787
406,45,68657,6,0,L|415:97,1,52.5000022262334
494,123,69002,2,0,L|484:174,1,52.5000022262334
138,77,69346,6,0,B|92:56|29:54|29:54|46:86,1,146.999996139764
45,84,69691,1,0,0:0:0:0:
193,181,69863,1,0,0:0:0:0:
193,181,70036,6,0,P|260:155|318:153,1,97.9999974265096
167,336,70381,2,0,P|118:327|74:306,1,97.9999974265096
205,205,70725,2,0,P|262:162|318:145,1,97.9999974265096
204,348,71070,2,0,P|155:352|107:343,1,97.9999974265096
343,280,72105,6,0,B|392:266|433:285|433:285|468:328|518:328,1,146.999996139764
512,238,72449,2,0,P|494:171|476:142,1,97.9999974265096
289,176,72794,6,0,P|263:216|226:248,1,97.9999974265096,0|0,3:0|3:0,3:0:0:0:
236,38,73139,2,0,P|282:22|330:18,1,97.9999974265096,0|0,3:0|3:0,3:0:0:0:
307,196,73484,2,0,P|269:227|225:248,1,97.9999974265096
282,46,73829,2,0,P|330:42|378:51,1,97.9999974265096
176,69,74863,6,0,B|103:59|103:59|72:21|72:21|-14:9,1,195.999994853019
73,267,75381,1,0,0:0:0:0:
157,178,75553,2,0,B|271:178|228:121|352:122,1,195.999994853019
445,58,76070,1,0,0:0:0:0:
447,304,76243,6,0,P|332:290|341:220,1,195.999994853019
448,174,76760,1,0,0:0:0:0:
448,174,76846,1,0,0:0:0:0:
448,174,76932,6,0,P|491:125|529:156,2,97.9999974265096
510,257,77449,1,0,0:0:0:0:
233,206,77622,6,0,B|210:248|210:248|294:246|355:218,1,195.999994853019
159,331,78139,1,0,0:0:0:0:
186,114,78312,2,0,P|123:80|55:183,1,195.999994853019
282,49,78829,1,0,0:0:0:0:
282,49,79001,6,0,L|393:63,3,105.000004452467
512,139,80381,6,0,B|423:181|423:181|393:174|361:180,1,146.999996139764
373,179,80725,1,0,0:0:0:0:
222,235,80898,1,0,3:0:0:0:
222,235,81071,6,0,P|216:283|200:329,1,97.9999974265096,0|0,3:0|3:0,3:0:0:0:
0,336,81416,2,0,P|30:298|71:272,1,97.9999974265096,0|0,3:0|3:0,3:0:0:0:
187,186,81761,2,0,P|194:234|190:282,1,97.9999974265096,0|0,3:0|3:0,3:0:0:0:
1,337,82106,2,0,P|21:292|52:256,1,97.9999974265096,0|0,3:0|3:0,3:0:0:0:
275,177,83139,6,0,B|321:157|364:173|364:173|402:214|452:209,1,146.999996139764
439,120,83483,2,0,P|415:54|395:27,1,97.9999974265096
234,60,83829,6,0,P|206:100|168:131,1,97.9999974265096
4,20,84174,2,0,P|50:3|98:-1,1,97.9999974265096
223,106,84518,2,0,P|186:137|141:158,1,97.9999974265096
3,20,84863,2,0,P|51:16|99:24,1,97.9999974265096
118,384,85898,6,0,B|90:291|90:291|48:250|-1:266,1,195.999994853019
224,313,86415,1,0,0:0:0:0:
198,70,86587,2,0,B|163:201|163:201|220:172,1,195.999994853019
368,56,87105,1,0,0:0:0:0:
512,180,87277,6,0,B|472:147|422:147|422:147|390:176|388:237,1,195.999994853019
265,367,87794,1,0,0:0:0:0:
265,367,87881,1,0,0:0:0:0:
265,367,87967,6,0,B|260:330|260:330|241:315|241:315|235:278,2,97.9999974265096
370,333,88484,1,0,0:0:0:0:
213,122,88656,6,0,B|104:126|135:193|0:187,1,210.000008904934
355,47,90036,2,0,L|383:149,2,105.000000447034
481,185,90725,6,0,B|428:206|378:184|378:184|274:131|203:245|262:354|388:333|393:246,1,420.000017809867
361,228,101760,6,0,L|370:280,1,52.5000022262334
449,306,102105,2,0,L|439:357,1,52.5000022262334
206,302,102449,6,0,B|156:314|156:286|107:280|107:280|131:247|165:228|165:228|88:201|121:172|23:156|23:156|59:79|160:97,1,490.000002086161,0|0,3:0|3:0,3:0:0:0:
225,109,103829,2,0,B|301:134|362:105|362:105|380:70|391:31,2,210.000000894069
483,87,105208,6,0,B|415:182|387:346|387:346|418:268|487:229,1,420.000001788138
474,237,106415,1,0,0:0:0:0:
275,175,106587,6,0,B|269:142|248:111|248:111|309:154|320:238,1,210.000000894069
246,295,107277,2,0,B|171:300|196:263|108:269,1,140.000000596046
16,315,107794,1,0,0:0:0:0:
16,315,107967,5,0,0:0:0:0:
153,176,108312,2,0,P|84:162|14:164,2,140.000000596046
227,214,109174,1,0,0:0:0:0:
306,239,109346,6,0,B|382:231|433:187|433:187|394:177|358:143,2,210.000000894069
227,214,110553,1,0,0:0:0:0:
227,214,110725,6,0,B|149:185|55:189|55:189|91:221|150:240,2,280.000001192092
88,0,112794,6,0,L|79:52,1,52.5000022262334
0,78,113139,2,0,L|10:129,1,52.5000022262334
276,81,113484,6,0,P|323:65|376:57,1,77.0000026776789
429,192,113829,2,0,P|391:183|355:170,1,77.0000026776789
285,84,114174,2,0,P|333:72|387:69,1,77.0000026776789
428,208,114519,2,0,P|391:196|356:180,1,77.0000026776789
188,194,114863,6,0,B|180:233|196:270|196:270|231:281|278:264,1,154.000005355358
413,316,115381,2,0,B|374:299|336:311|336:311|297:302|275:269,1,154.000005355358
240,341,115898,2,0,L|279:274,1,77.0000026776789
143,138,116243,6,0,P|159:185|167:238,1,77.0000026776789
30,291,116588,2,0,P|38:253|51:217,1,77.0000026776789
140,147,116933,2,0,P|151:195|155:248,1,77.0000026776789
14,290,117278,2,0,P|25:253|41:218,1,77.0000026776789
255,173,117622,6,0,L|348:182,1,77.0000026776789
246,43,117967,2,0,L|158:75,1,77.0000026776789,0|0,0:3|0:3,0:3:0:0:
387,81,118312,2,0,L|369:-10,1,77.0000026776789
512,115,118657,2,0,L|486:205,1,77.0000026776789,0|0,0:2|0:2,0:2:0:0:
371,243,119001,6,0,P|324:227|271:219,1,77.0000026776789
218,356,119346,2,0,P|256:347|292:334,1,77.0000026776789
362,246,119691,2,0,P|314:234|260:231,1,77.0000026776789
219,372,120036,2,0,P|256:360|291:344,1,77.0000026776789
153,166,120381,6,0,P|169:213|177:266,1,77.0000026776789
40,319,120726,2,0,P|49:281|62:245,1,77.0000026776789
150,175,121071,2,0,P|162:223|165:277,1,77.0000026776789
24,318,121416,2,0,P|36:281|52:246,1,77.0000026776789
201,80,121760,5,0,0:0:0:0:
252,65,121932,1,0,0:0:0:0:
305,73,122105,1,0,0:0:0:0:
349,103,122277,1,0,0:0:0:0:
369,152,122449,1,0,0:0:0:0:
381,204,122622,1,0,0:0:0:0:
406,251,122794,1,0,0:0:0:0:
451,280,122967,1,0,0:0:0:0:
504,281,123139,2,0,L|531:187,3,77.0000026776789
371,330,123829,6,0,B|338:332|338:332|295:323,1,77.0000026776789
225,283,124174,2,0,B|258:274|258:274|300:280,1,77.0000026776789
461,358,124518,5,0,0:0:0:0:
461,358,124691,1,0,0:0:0:0:
416,243,124863,1,0,0:0:0:0:
416,243,125036,1,0,0:0:0:0:
508,98,125208,6,0,L|512:11,1,87.5000003725287
390,160,125553,2,0,L|419:253,1,87.5000003725287
308,327,125898,5,0,0:0:0:0:
308,327,126071,1,0,0:0:0:0:
155,277,126243,1,0,0:0:0:0:
155,277,126416,1,0,0:0:0:0:
82,339,126587,6,0,P|42:356|0:364,1,87.5000003725287
145,170,126932,2,0,P|187:177|227:195,1,87.5000003725287
362,336,127277,5,0,0:0:0:0:
362,336,127450,1,0,0:0:0:0:
412,169,127622,1,0,0:0:0:0:
412,169,127795,1,0,0:0:0:0:
227,195,127967,1,0,0:0:0:0:
227,195,128140,1,0,0:0:0:0:
200,91,128312,1,0,0:0:0:0:
200,91,128485,1,0,0:0:0:0:
412,169,128656,6,0,L|436:71,1,87.5000003725287
181,279,129000,2,0,L|198:387,1,87.5000003725287
200,91,129346,6,0,L|147:4,1,87.5000003725287
372,290,129690,2,0,L|460:354,1,87.5000003725287
338,203,130036,5,0,0:0:0:0:
247,246,130208,1,0,0:0:0:0:
313,112,130381,1,0,0:0:0:0:
372,290,130553,1,0,0:0:0:0:
458,202,130725,1,0,0:0:0:0:
248,246,130898,1,0,0:0:0:0:
290,367,131070,1,0,0:0:0:0:
357,187,131243,1,0,0:0:0:0:
170,285,131415,5,0,0:0:0:0:
48,196,131587,1,0,0:0:0:0:
48,196,131760,1,0,0:0:0:0:
203,373,131932,5,0,0:0:0:0:
279,137,132105,1,0,0:0:0:0:
279,137,132277,1,0,0:0:0:0:
170,164,132449,5,0,0:0:0:0:
154,67,132622,1,0,0:0:0:0:
420,94,132794,5,0,0:0:0:0:
440,111,132880,1,0,0:0:0:0:
455,132,132966,1,0,0:0:0:0:
465,157,133052,1,0,0:0:0:0:
468,183,133138,1,0,0:0:0:0:
465,208,133225,1,0,0:0:0:0:
455,233,133311,1,0,0:0:0:0:
439,254,133397,1,0,0:0:0:0:
417,269,133484,6,0,P|408:302|407:324,3,43.7500001862644
440,329,133829,2,0,P|449:362|450:384,3,43.7500001862644
343,378,134174,6,0,B|225:369|279:324|168:315,1,175.000000745057
43,347,135208,5,0,0:0:0:0:
196,149,135553,6,0,B|255:141|255:141|279:112|279:112|338:105,1,157.5000066787
412,62,135898,2,0,B|445:24|508:29|508:29|530:75|513:130,1,210.000008904934
279,10,136415,1,0,0:0:0:0:
383,180,136587,2,0,B|365:285,1,105.000004452467
418,356,136846,1,0,0:0:0:0:
418,356,136932,6,0,B|495:345|495:345|516:321,2,105.000004452467
275,348,137449,1,0,0:0:0:0:
275,348,137536,6,0,P|264:296|258:244,1,105.000004452467
272,156,137794,2,0,L|301:113,1,52.5000022262334
183,188,137967,2,0,P|131:177|79:171,1,105.000004452467
1,190,138225,1,0,0:0:0:0:
1,190,138312,5,0,0:0:0:0:
98,47,138484,1,0,0:0:0:0:
302,228,138656,6,0,B|455:188|455:188|418:225,1,210.000008904934
217,141,139174,1,0,0:0:0:0:
430,3,139346,2,0,B|418:54|418:54|393:100,1,105.000004452467
172,44,139691,6,0,B|68:36|114:5|23:0,1,157.5000066787
41,82,140036,1,0,0:0:0:0:
258,26,140208,1,0,0:0:0:0:
129,189,140381,6,0,P|116:239|129:290,1,105.000004452467
192,345,140639,1,0,0:0:0:0:
192,345,140725,1,0,0:0:0:0:
9,277,140898,1,0,0:0:0:0:
231,240,141070,6,0,B|255:230|283:231|283:231|330:259|383:243,1,157.5000066787
467,234,141415,2,0,P|505:289|393:304,2,210.000008904934
279,326,142277,1,0,0:0:0:0:
344,153,142449,6,0,B|381:97|459:50|459:50|464:103,1,210.000008904934,0|0,3:0|3:0,3:0:0:0:
318,249,142967,1,0,0:0:0:0:
318,249,143053,6,0,P|264:233|195:221,1,105.000004452467
163,151,143312,6,0,L|112:162,1,52.5000022262334
27,134,143484,6,0,P|1:93|2:28,1,105.000004452467,0|0,3:0|0:0,0:0:0:0:
76,2,143743,1,0,0:0:0:0:
76,2,143829,6,0,B|155:66|161:3|230:59,1,157.5000066787
290,99,144174,2,0,B|365:-13|365:-13|275:28,1,210.000008904934
194,210,144691,1,0,0:0:0:0:
417,72,144863,2,0,L|444:222,1,105.000004452467
330,281,145208,6,0,B|252:267|282:227|194:210,1,157.5000066787
103,232,145898,6,0,L|94:284,1,52.5000022262334
15,310,146243,2,0,L|25:361,1,52.5000022262334
293,323,146587,6,0,B|392:302|392:302|446:312|472:355,1,157.5000066787
512,274,146932,2,0,B|502:195|502:195|463:163|463:163|451:71,1,210.000008904934
250,232,147449,1,0,0:0:0:0:
276,49,147622,2,0,B|214:-2|214:-2|185:27,1,105.000004452467
128,69,147880,1,0,0:0:0:0:
128,69,147967,6,0,B|80:115|-4:149|-4:149|0:96,1,210.000008904934
165,183,148484,5,0,0:0:0:0:
165,183,148570,2,0,P|170:235|181:286,1,105.000004452467
157,373,148828,2,0,L|106:362,1,52.5000022262334
16,377,149001,2,0,P|21:324|32:273,1,105.000004452467
1,195,149259,1,0,0:0:0:0:
1,195,149346,5,0,0:0:0:0:
181,286,149518,1,0,0:0:0:0:
147,62,149691,2,0,B|273:62|230:5|344:5,1,210.000008904934
489,217,150208,1,0,0:0:0:0:
427,123,150380,2,0,P|439:67|482:21,1,105.000004452467
339,204,150725,6,0,B|284:210|242:174|242:174|189:164|150:186,1,157.5000066787
92,208,151070,1,0,0:0:0:0:
319,114,151242,1,0,0:0:0:0:
203,274,151415,6,0,L|217:387,1,105.000004452467
134,357,151673,1,0,0:0:0:0:
134,357,151759,1,0,0:0:0:0:
308,298,151932,1,0,0:0:0:0:
49,203,152104,6,0,P|26:132|83:84,1,157.5000066787
165,105,152449,2,0,B|207:132|267:111|267:111|276:61|245:12,2,210.000008904934
29,0,153311,1,0,0:0:0:0:
34,300,153484,6,0,B|113:290|113:290|145:251|145:251|224:240,1,210.000008904934
430,155,154001,1,0,0:0:0:0:
430,155,154087,6,0,P|414:209|436:280,1,105.000004452467
366,332,154346,2,0,L|387:389,1,52.5000022262334
270,348,154518,2,0,P|225:324|167:327,1,105.000004452467
91,352,154777,1,0,0:0:0:0:
91,352,154863,6,0,B|81:358|53:310|53:310|39:210,1,157.5000066787
95,148,155208,2,0,B|155:177|246:179|246:179|223:131,1,210.000008904934,0|0,3:0|3:0,3:0:0:0:
150,265,155725,1,0,0:0:0:0:
258,20,155897,2,0,P|203:15|155:33,1,105.000004452467
439,106,156243,5,0,0:0:0:0:
439,107,156587,1,0,0:0:0:0:
385,240,156932,6,0,L|394:292,1,52.5000022262334
473,318,157277,2,0,L|463:369,1,52.5000022262334
202,332,157622,6,0,B|111:338|142:292|53:293,1,157.5000066787
2,226,157967,2,0,B|-38:73|-38:73|23:132,1,210.000008904934
185,242,158484,1,0,0:0:0:0:
219,8,158656,2,0,P|174:32|139:95,1,105.000004452467
204,136,158915,1,0,0:0:0:0:
204,136,159001,6,0,B|254:118|254:118|325:127,2,105.000004452467
55,194,159518,1,0,0:0:0:0:
55,194,159604,6,0,P|110:202|177:220,1,105.000004452467
259,220,159862,2,0,L|231:264,1,52.5000022262334
174,337,160035,2,0,P|226:344|277:356,1,105.000004452467
358,383,160293,1,0,0:0:0:0:
358,383,160380,5,0,0:0:0:0:
512,267,160553,1,0,0:0:0:0:
332,104,160725,2,0,B|350:168|407:239|407:239|430:188,1,210.000008904934
467,34,161243,1,0,0:0:0:0:
198,155,161415,2,0,B|229:106|220:56|220:56|160:35|125:61,1,157.5000066787
88,77,161760,6,0,B|77:156|77:156|38:188|38:188|28:267,1,210.000008904934
27,267,162277,1,0,0:0:0:0:
137,145,162450,6,0,P|125:94|138:43,1,105.000004452467
60,13,162708,1,0,0:0:0:0:
60,13,162794,1,0,0:0:0:0:
228,142,162967,1,0,0:0:0:0:
68,216,163139,6,0,P|15:253|63:347,1,157.5000066787
109,373,163484,2,0,B|188:363|188:363|220:324|220:324|299:313,2,210.000008904934
245,226,164346,1,0,0:0:0:0:
435,379,164519,6,0,B|395:226|395:226|456:285,1,210.000008904934
