osu file format v14

[General]
AudioFilename: audio.mp3
AudioLeadIn: 0
PreviewTime: 65765
Countdown: 0
SampleSet: Soft
StackLeniency: 0.7
Mode: 0
LetterboxInBreaks: 0
WidescreenStoryboard: 1

[Editor]
Bookmarks: 9956,28780,47603,66427,85250,104074,122897,141721,160545,179368,198192
DistanceSpacing: 1
BeatDivisor: 4
GridSize: 16
TimelineZoom: 1

[Metadata]
Title:Sweets wa Tomaranai
TitleUnicode:スイーツはとまらない♪
Artist:Hinatabi Bitter Sweets
ArtistUnicode:日向美ビタースイーツ♪ ‎
Creator:VoiceCore
Version:Normal
Source:pop'n music peace
Tags:hakurei yoru SkyInTheFifteen Callionet japanese pop jpop j-pop video game sweet smile pajamas party full extended version ver Bemani くりむ crimm コナミデジタルエンタテインメント Konami Digital Entertainment TOMOSUKE 山本真央樹 Maoki Yamamoto CUTEG ひなビタ hinabita 山形まり花 Marika Yamagata 日高里菜 Rina Hidaka 春日咲子 Sakiko Kasuga 山口愛 Megumi Yamaguchi popn music peace DanceDanceRevolution A A20 jubeat festo SOUND VOLTEX VIVID WAVE GITADORA FUZZ-UP
BeatmapID:4195130
BeatmapSetID:1270586

[Difficulty]
HPDrainRate:3
CircleSize:2.5
OverallDifficulty:4
ApproachRate:6
SliderMultiplier:0.999999999999999
SliderTickRate:1

[Events]
//Background and Video events
0,0,"bg.jpg",0,0
//Break Periods
2,160545,178021
//Storyboard Layer 0 (Background)
//Storyboard Layer 1 (Fail)
//Storyboard Layer 2 (Pass)
//Storyboard Layer 3 (Foreground)
//Storyboard Layer 4 (Overlay)
//Storyboard Sound Samples

[TimingPoints]
545,294.117647058824,4,2,1,70,1,0
9956,-100,4,2,1,70,0,0
29074,-100,4,2,1,60,0,0
38192,-100,4,2,1,60,0,0
38486,-100,4,2,1,60,0,0
47162,-100,4,2,2,60,0,0
47456,-100,4,2,1,70,0,0
65250,-100,4,2,3,70,0,0
66133,-100,4,2,1,70,0,0
66427,-90.9090909090909,4,2,1,80,0,1
84270,-90.9090909090909,4,2,3,80,0,1
84956,-90.9090909090909,4,2,1,80,0,1
85250,-100,4,2,1,60,0,0
94662,-100,4,2,1,60,0,0
94956,-100,4,2,1,60,0,0
103633,-100,4,2,2,60,0,0
103927,-100,4,2,1,70,0,0
121917,-100,4,2,3,70,0,0
122603,-100,4,2,1,70,0,0
122897,-90.9090909090909,4,2,1,80,0,1
140741,-90.9090909090909,4,2,3,80,0,1
141427,-90.9090909090909,4,2,1,80,0,1
141721,-100,4,2,1,70,0,0
144037,-100,4,2,1,70,0,0
144074,-100,4,2,1,70,0,0
159564,-100,4,2,3,70,0,0
159956,-100,4,2,2,70,0,0
160397,-100,4,2,1,70,0,0
160545,-100,4,2,4,60,0,0
161133,-100,4,2,3,60,0,0
161427,-100,4,2,1,60,0,0
161721,-100,4,2,3,60,0,0
162162,-100,4,2,1,60,0,0
162309,-100,4,2,3,60,0,0
162603,-100,4,2,1,60,0,0
162897,-100,4,2,3,60,0,0
163780,-100,4,2,1,60,0,0
164074,-100,4,2,3,60,0,0
164515,-100,4,2,1,60,0,0
164662,-100,4,2,3,60,0,0
164956,-100,4,2,1,60,0,0
165250,-100,4,2,3,60,0,0
166133,-100,4,2,1,60,0,0
166427,-100,4,2,3,60,0,0
166868,-100,4,2,1,60,0,0
167015,-100,4,2,3,60,0,0
167309,-100,4,2,1,60,0,0
167603,-100,4,2,3,60,0,0
168486,-100,4,2,1,60,0,0
168780,-100,4,2,3,60,0,0
169221,-100,4,2,1,60,0,0
169368,-100,4,2,3,60,0,0
169662,-100,4,2,1,60,0,0
169956,-100,4,2,3,60,0,0
170839,-100,4,2,1,60,0,0
171133,-100,4,2,3,60,0,0
171574,-100,4,2,1,60,0,0
171721,-100,4,2,3,60,0,0
172015,-100,4,2,1,60,0,0
172309,-100,4,2,3,60,0,0
173192,-100,4,2,1,60,0,0
173486,-100,4,2,3,60,0,0
173927,-100,4,2,1,60,0,0
174074,-100,4,2,3,60,0,0
174368,-100,4,2,1,60,0,0
174662,-100,4,2,3,60,0,0
175545,-100,4,2,1,60,0,0
175839,-100,4,2,3,60,0,0
176280,-100,4,2,1,60,0,0
176427,-100,4,2,3,60,0,0
176721,-100,4,2,1,60,0,0
177015,-100,4,2,3,60,0,0
177162,-100,4,2,1,60,0,0
177603,-100,4,2,3,60,0,0
177750,-100,4,2,1,60,0,0
178192,-100,4,2,3,60,0,0
178339,-100,4,2,1,60,0,0
178633,-100,4,2,2,70,0,0
178780,-100,4,2,4,70,0,0
178927,-100,4,2,2,70,0,0
179221,-90.9090909090909,4,2,1,80,0,1
179368,-90.9090909090909,4,2,1,80,0,1
188339,-90.9090909090909,4,2,2,80,0,1
188633,-90.9090909090909,4,2,1,80,0,1
196574,-90.9090909090909,4,2,2,80,0,1
196647,-90.9090909090909,4,2,1,80,0,1
197015,-90.9090909090909,4,2,3,80,0,1
197603,-90.9090909090909,4,2,1,80,0,0

[Colours]
Combo1 : 212,212,212
Combo2 : 255,169,128
Combo3 : 174,174,255

[HitObjects]
255,381,9956,5,4,1:1:0:0:
234,285,10250,1,8,2:1:0:0:
234,285,10397,2,0,L|251:170,1,99.9999999999999,0|0,1:1|1:1,0:0:0:0:
281,148,10839,2,0,L|291:76,1,50,8|0,2:1|1:1,0:0:0:0:
235,13,11280,2,0,P|191:49|94:40,1,150,2|2,2:1|2:1,0:0:0:0:
3,28,12015,2,0,L|15:93,1,50,8|2,2:1|1:1,0:0:0:0:
43,116,12309,6,0,P|31:160|15:232,1,99.9999999999999,2|10,1:2|2:1,0:0:0:0:
53,250,12750,1,2,1:2:0:0:
88,343,13045,2,0,P|38:372|-3:360,2,99.9999999999999,2|0|2,1:1|1:1|2:1,0:0:0:0:
229,292,14074,2,0,L|337:306,1,99.9999999999999,2|8,2:1|2:1,0:0:0:0:
376,315,14515,1,2,2:1:0:0:
408,352,14662,5,4,1:1:0:0:
476,281,14956,1,8,2:1:0:0:
476,281,15103,2,0,P|487:220|464:173,1,99.9999999999999,0|0,1:1|1:1,0:0:0:0:
457,138,15545,2,0,L|399:145,1,50,8|0,2:1|1:1,0:0:0:0:
383,239,15986,2,0,P|336:220|227:197,1,150,2|2,2:1|2:1,0:0:0:0:
141,218,16721,2,0,L|79:204,1,50,8|2,2:1|1:1,0:0:0:0:
76,160,17015,6,0,L|56:58,1,99.9999999999999,0|8,1:1|2:1,0:0:0:0:
144,13,17603,2,0,L|164:115,1,99.9999999999999,0|8,2:1|2:1,0:0:0:0:
255,72,18192,2,0,P|301:142|488:101,1,300,4|0,1:1|3:3,0:0:0:0:
500,4,19368,5,4,1:1:0:0:
409,45,19662,1,8,2:1:0:0:
409,45,19809,2,0,P|366:73|347:123,1,99.9999999999999,0|0,1:1|1:1,0:0:0:0:
377,156,20250,2,0,P|370:199|367:222,1,50,8|0,2:1|1:1,0:0:0:0:
383,304,20692,2,0,P|354:343|243:340,1,150,2|2,2:1|2:1,0:0:0:0:
194,274,21427,2,0,L|123:289,1,50,8|2,2:1|1:1,0:0:0:0:
103,311,21721,6,0,P|30:299|15:269,1,99.9999999999999,0|8,1:2|2:1,0:0:0:0:
13,232,22162,1,0,1:1:0:0:
80,159,22456,2,0,L|195:129,2,99.9999999999999,2|0|2,1:1|1:1|2:1,0:0:0:0:
26,18,23486,2,0,P|76:6|129:48,1,99.9999999999999,2|8,2:1|2:1,0:0:0:0:
154,61,23927,1,2,2:1:0:0:
166,109,24074,5,4,1:1:0:0:
253,60,24368,1,8,2:1:0:0:
253,60,24515,2,0,L|362:73,1,99.9999999999999,0|0,1:1|1:1,0:0:0:0:
396,48,24956,2,0,L|464:55,1,50,8|0,2:1|1:1,0:0:0:0:
468,152,25397,2,0,P|472:198|388:237,1,150,2|2,2:1|2:1,0:0:0:0:
307,180,26133,2,0,L|292:240,1,50,8|2,2:1|1:1,0:0:0:0:
246,235,26427,6,0,P|189:216|151:222,1,99.9999999999999,2|8,1:1|2:1,0:0:0:0:
137,321,27015,2,0,P|194:340|232:334,1,99.9999999999999,2|8,2:1|2:1,0:0:0:0:
268,368,27456,1,0,1:1:0:0:
367,354,27750,1,8,2:1:0:0:
464,373,28045,2,0,B|481:266|481:266|456:216,1,150,8|0,2:1|3:3,0:0:0:0:
363,214,28780,5,4,1:1:0:0:
265,191,29074,1,8,2:1:0:0:
265,191,29221,2,0,P|189:210|177:226,2,99.9999999999999,2|2|2,2:1|1:1|2:1,0:0:0:0:
297,96,30103,6,0,L|404:76,1,99.9999999999999,2|0,2:1|1:1,0:0:0:0:
444,69,30545,1,2,2:1:0:0:
465,167,30839,2,0,P|491:175|512:188,2,50,10|2|0,2:1|2:1|1:1,0:0:0:0:
323,217,31574,5,2,2:2:0:0:
284,309,31868,1,2,1:2:0:0:
184,300,32162,1,2,2:2:0:0:
161,202,32456,2,0,P|113:181|56:168,1,99.9999999999999,2|0,2:1|1:1,0:0:0:0:
19,186,32897,2,0,P|13:79|102:22,1,200,2|4,2:1|1:1,0:0:0:0:
165,87,33780,5,8,2:1:0:0:
165,87,33927,2,0,L|149:192,2,99.9999999999999,2|2|2,2:1|1:1|2:1,0:0:0:0:
246,28,34809,2,0,P|271:63|341:59,1,99.9999999999999,2|0,2:1|1:1,0:0:0:0:
350,111,35250,1,2,2:1:0:0:
282,184,35545,1,10,2:1:0:0:
320,276,35839,6,0,L|305:333,2,50,2|2|10,1:2|2:2|2:1,0:0:0:0:
415,246,36427,2,0,P|442:294|461:356,1,99.9999999999999,2|8,2:1|2:1,0:0:0:0:
426,375,36868,1,2,2:1:0:0:
284,325,37309,2,0,P|176:330|81:362,1,200,8|2,2:3|2:3,0:0:0:0:
6,300,38192,6,0,P|43:264|49:212,1,99.9999999999999,4|8,1:1|2:1,0:0:0:0:
16,180,38633,2,0,L|1:124,2,50,0|0|0,1:1|2:1|1:1,0:0:0:0:
107,140,39221,1,0,2:1:0:0:
196,184,39515,2,0,P|262:183|295:158,1,99.9999999999999,2|0,2:1|1:1,0:0:0:0:
324,129,39956,1,2,2:1:0:0:
386,207,40250,2,0,L|390:257,2,50,10|2|0,2:1|2:1|1:1,0:0:0:0:
475,86,40986,5,2,1:2:0:0:
421,3,41280,1,2,1:2:0:0:
324,27,41574,1,2,2:2:0:0:
316,126,41868,2,0,P|339:194|349:230,1,99.9999999999999,2|0,2:1|1:1,0:0:0:0:
359,269,42309,1,2,2:1:0:0:
274,323,42603,2,0,L|260:372,2,50,10|0|4,2:1|2:1|1:1,0:0:0:0:
205,259,43192,5,8,2:1:0:0:
205,259,43339,2,0,P|134:265|96:296,2,99.9999999999999,0|0|0,1:1|1:1|2:1,0:0:0:0:
279,192,44221,2,0,P|285:135|297:84,1,99.9999999999999,2|0,2:2|1:1,0:0:0:0:
263,54,44662,1,2,2:1:0:0:
165,74,44956,1,10,2:1:0:0:
179,173,45250,2,0,B|116:190|67:138|109:146|57:94|-15:115,2,200,2|0|4,1:1|2:1|1:1,0:0:0:0:
179,173,47456,6,0,L|194:70,1,99.9999999999999,6|0,2:3|0:0,0:0:0:0:
224,34,47897,1,10,2:1:0:0:
294,105,48192,2,0,P|330:114|389:85,1,99.9999999999999,0|8,2:1|2:1,0:0:0:0:
434,98,48633,2,0,L|448:215,1,99.9999999999999,2|2,2:1|2:2,0:0:0:0:
464,300,49221,1,0,1:1:0:0:
464,300,49368,1,2,2:1:0:0:
318,265,49809,6,0,P|288:290|224:284,1,99.9999999999999,2|0,2:3|2:1,0:0:0:0:
209,241,50250,1,10,2:1:0:0:
188,143,50545,2,0,L|73:156,1,99.9999999999999,0|8,2:1|2:1,0:0:0:0:
55,191,50986,2,0,P|30:231|23:289,2,99.9999999999999,2|2|2,2:1|2:1|1:2,0:0:0:0:
235,104,52162,6,0,P|292:112|330:153,1,99.9999999999999,2|0,2:3|0:0,0:0:0:0:
310,187,52603,1,8,2:1:0:0:
229,245,52897,2,0,L|243:366,1,99.9999999999999,0|8,2:1|2:1,0:0:0:0:
281,373,53339,2,0,P|319:325|372:324,1,99.9999999999999,2|2,2:2|2:1,0:0:0:0:
448,368,53927,1,0,1:1:0:0:
448,368,54074,2,0,B|491:342|491:342|503:288,1,99.9999999999999,2|8,2:1|2:1,0:0:0:0:
424,231,54662,2,0,P|400:167|500:83,2,200,2|0|4,1:1|2:1|1:1,0:0:0:0:
424,231,56868,6,0,L|317:206,1,99.9999999999999,6|0,2:3|0:0,0:0:0:0:
284,235,57309,1,8,2:1:0:0:
205,173,57603,2,0,P|200:125|236:78,1,99.9999999999999,0|8,2:1|2:1,0:0:0:0:
204,38,58045,2,0,L|88:52,1,99.9999999999999,2|2,2:1|2:2,0:0:0:0:
40,126,58633,1,2,1:1:0:0:
40,126,58780,1,2,2:1:0:0:
133,243,59221,6,0,P|115:314|110:351,1,99.9999999999999,2|0,2:3|2:1,0:0:0:0:
156,360,59662,1,10,2:1:0:0:
242,310,59956,2,0,B|286:284|286:284|349:298,1,99.9999999999999,0|8,2:1|2:1,0:0:0:0:
378,272,60397,2,0,P|428:270|478:233,2,99.9999999999999,2|2|2,2:1|2:1|1:2,0:0:0:0:
319,80,61574,6,0,L|218:55,1,99.9999999999999,2|2,2:3|0:0,0:0:0:0:
186,91,62015,1,8,2:1:0:0:
223,183,62309,2,0,P|207:215|199:243,2,50,0|2|8,2:1|1:1|2:1,0:0:0:0:
272,186,62750,2,0,P|312:215|332:261,1,99.9999999999999,2|2,2:2|2:1,0:0:0:0:
436,273,63339,1,0,1:1:0:0:
436,273,63486,2,0,L|457:166,1,99.9999999999999,2|8,2:1|2:1,0:0:0:0:
400,91,64074,2,0,P|338:141|172:35,1,300,0|8,1:1|2:1,0:0:0:0:
77,73,65250,6,0,B|68:105|68:105|100:161,2,66.6666666666666,10|10|10,1:1|1:1|1:1,0:0:0:0:
90,7,65839,1,10,1:1:0:0:
181,207,66427,6,0,L|306:198,1,110.000003356934,4|8,1:1|2:1,0:0:0:0:
328,158,66868,1,0,1:1:0:0:
406,234,67162,2,0,P|446:214|476:207,2,55.0000016784668,0|8|0,1:1|2:1|2:1,0:0:0:0:
457,331,67750,2,0,P|374:342|296:377,1,165.0000050354,2|2,2:1|2:1,0:0:0:0:
213,306,68486,2,0,L|153:297,1,55.0000016784668,8|2,2:1|2:1,0:0:0:0:
115,332,68780,6,0,P|42:365|0:345,1,110.000003356934,2|10,1:2|2:1,0:0:0:0:
5,303,69221,2,0,L|25:176,1,110.000003356934,2|2,1:2|1:1,0:0:0:0:
18,84,69809,1,2,2:1:0:0:
123,55,70103,2,0,P|211:72|289:81,1,165.0000050354,2|2,2:2|2:1,0:0:0:0:
376,17,70839,2,0,L|435:8,1,55.0000016784668,8|2,2:1|2:1,0:0:0:0:
462,53,71133,6,0,P|475:88|437:164,1,110.000003356934,4|8,1:1|2:1,0:0:0:0:
396,158,71574,1,0,1:1:0:0:
378,266,71868,2,0,L|386:327,2,55.0000016784668,0|8|0,1:1|2:1|2:1,0:0:0:0:
267,258,72456,2,0,P|180:295|180:360,1,165.0000050354,2|2,2:1|2:1,0:0:0:0:
286,372,73192,2,0,L|353:353,1,55.0000016784668,8|2,2:1|2:1,0:0:0:0:
388,380,73486,6,0,L|408:260,1,110.000003356934,0|8,1:1|2:1,0:0:0:0:
336,186,74074,2,0,L|328:122,2,55.0000016784668,0|2|8,2:1|1:1|2:1,0:0:0:0:
245,249,74662,2,0,P|181:287|1:157,1,330.000010070801,4|8,1:1|2:1,0:0:0:0:
47,57,75839,6,0,P|96:49|162:44,1,110.000003356934,4|8,1:1|2:1,0:0:0:0:
187,89,76280,1,0,1:1:0:0:
296,78,76574,2,0,L|279:150,2,55.0000016784668,0|8|0,1:1|2:1|2:1,0:0:0:0:
388,17,77162,2,0,B|477:64|477:64|461:142,1,165.0000050354,2|2,2:1|2:1,0:0:0:0:
372,187,77897,2,0,P|361:238|356:258,1,55.0000016784668,8|2,2:1|2:1,0:0:0:0:
401,277,78192,6,0,P|431:339|423:382,1,110.000003356934,2|8,1:2|2:1,0:0:0:0:
369,381,78633,2,0,L|256:359,1,110.000003356934,2|2,1:1|1:1,0:0:0:0:
183,281,79221,1,0,2:1:0:0:
239,190,79515,2,0,P|225:128|204:21,1,165.0000050354,2|2,2:2|2:1,0:0:0:0:
96,16,80250,2,0,P|56:25|41:36,1,55.0000016784668,8|2,2:1|2:1,0:0:0:0:
25,85,80545,6,0,L|13:196,1,110.000003356934,4|8,1:1|2:1,0:0:0:0:
7,248,80986,1,0,1:1:0:0:
97,311,81280,2,0,P|94:351|76:377,2,55.0000016784668,0|8|0,1:1|2:1|2:1,0:0:0:0:
200,274,81868,2,0,B|272:301|272:301|274:337|274:337|329:359,1,165.0000050354,2|2,2:1|2:1,0:0:0:0:
357,251,82603,2,0,L|347:175,1,55.0000016784668,8|2,2:1|2:1,0:0:0:0:
303,166,82897,5,2,1:1:0:0:
389,96,83192,1,10,2:1:0:0:
389,96,83339,2,0,P|396:52|346:2,2,110.000003356934,2|2|2,1:1|1:1|2:1,0:0:0:0:
405,148,84074,6,0,B|432:171|432:171|490:155,2,73.3333355712891,14|10|10,1:1|1:1|1:1,0:0:0:0:
349,196,84662,1,0,0:0:0:0:
472,353,85250,6,0,P|399:365|358:374,1,99.9999999999999,4|8,1:1|2:1,0:0:0:0:
328,232,85986,1,0,1:1:0:0:
328,232,86133,2,0,P|279:224|212:215,1,99.9999999999999,8|0,2:1|1:1,0:0:0:0:
199,257,86574,1,2,2:1:0:0:
111,299,86868,1,0,1:1:0:0:
111,299,87015,2,0,P|70:331|39:377,2,99.9999999999999,0|10|0,2:1|2:1|1:1,0:0:0:0:
98,250,87750,5,2,2:1:0:0:
108,150,88045,1,2,2:1:0:0:
120,54,88339,1,2,1:1:0:0:
120,54,88486,2,0,L|7:37,1,99.9999999999999,8|0,2:1|1:1,0:0:0:0:
5,86,88927,1,2,2:1:0:0:
71,169,89221,1,0,1:1:0:0:
71,169,89368,2,0,P|99:228|89:263,1,99.9999999999999,0|10,2:1|2:1,0:0:0:0:
91,358,89956,6,0,P|142:348|194:342,1,99.9999999999999,4|0,1:1|0:0,0:0:0:0:
344,356,90692,1,0,1:1:0:0:
344,356,90839,2,0,P|395:346|447:340,1,99.9999999999999,8|0,2:1|1:1,0:0:0:0:
467,296,91280,1,2,2:1:0:0:
416,217,91574,1,0,1:1:0:0:
416,217,91721,2,0,P|364:184|327:198,1,99.9999999999999,0|10,2:1|2:1,0:0:0:0:
279,282,92309,6,0,L|307:79,2,200,2|2|4,1:1|2:1|1:1,0:0:0:0:
188,325,93780,2,0,P|127:298|157:174,1,200,8|2,2:3|2:3,0:0:0:0:
232,140,94662,5,4,1:1:0:0:
164,65,94956,2,0,B|93:108|20:78|20:78|53:98|60:137,1,200,8|8,2:1|2:1,0:0:0:0:
85,214,95839,1,0,1:1:0:0:
85,214,95986,2,0,B|48:257|48:257|62:306,1,99.9999999999999,2|0,2:1|1:1,0:0:0:0:
89,339,96427,1,2,2:1:0:0:
188,327,96721,2,0,L|175:389,2,50,10|2|0,2:1|2:1|1:1,0:0:0:0:
236,315,97162,6,0,P|302:340|337:329,2,99.9999999999999,2|2|0,2:1|1:1|1:1,0:0:0:0:
240,265,97897,1,8,2:1:0:0:
228,165,98192,1,0,1:1:0:0:
228,165,98339,2,0,P|289:114|325:122,1,99.9999999999999,2|0,2:1|1:1,0:0:0:0:
353,122,98780,1,2,2:1:0:0:
450,151,99074,2,0,L|512:139,2,50,10|10|4,2:1|2:1|1:1,0:0:0:0:
375,218,99662,6,0,B|397:316|397:316|281:293,1,200,8|8,2:1|2:1,0:0:0:0:
238,216,100545,1,0,1:1:0:0:
238,216,100692,2,0,P|206:254|204:323,1,99.9999999999999,2|0,2:2|1:1,0:0:0:0:
215,349,101133,1,2,2:1:0:0:
299,296,101427,1,10,2:1:0:0:
382,351,101721,2,0,B|431:339|431:339|456:231|456:231|500:218,2,200,2|0|4,1:1|2:1|1:1,0:0:0:0:
382,351,103927,6,0,P|332:322|271:314,1,99.9999999999999,6|0,2:3|0:0,0:0:0:0:
245,333,104368,1,10,2:1:0:0:
153,373,104662,2,0,L|51:382,1,99.9999999999999,0|8,2:1|2:1,0:0:0:0:
19,344,105103,2,0,P|20:284|57:251,1,99.9999999999999,2|2,1:1|2:2,0:0:0:0:
150,264,105692,1,0,1:1:0:0:
150,264,105839,1,2,2:1:0:0:
268,167,106280,6,0,L|253:64,1,99.9999999999999,2|2,1:3|2:1,0:0:0:0:
214,36,106721,1,8,2:1:0:0:
116,59,107015,2,0,P|81:94|69:157,1,99.9999999999999,0|8,2:1|2:1,0:0:0:0:
94,183,107456,2,0,P|58:166|-6:158,2,99.9999999999999,2|2|2,1:1|2:1|1:2,0:0:0:0:
267,282,108633,6,0,L|250:386,1,99.9999999999999,10|0,2:3|0:0,0:0:0:0:
299,372,109074,1,8,2:1:0:0:
382,317,109368,2,0,P|395:264|379:219,1,99.9999999999999,0|8,2:1|2:1,0:0:0:0:
354,179,109809,2,0,L|238:195,1,99.9999999999999,2|0,1:2|2:1,0:0:0:0:
196,111,110397,2,0,L|361:88,1,150,2|8,1:1|2:1,0:0:0:0:
422,26,111133,2,0,L|377:239,2,200,2|0|6,1:1|2:1|1:1,0:0:0:0:
422,26,113339,6,0,P|382:11|321:24,1,99.9999999999999,6|0,2:3|0:0,0:0:0:0:
278,33,113780,1,10,2:1:0:0:
228,119,114074,2,0,L|243:223,1,99.9999999999999,2|8,2:1|2:1,0:0:0:0:
248,267,114515,2,0,P|181:244|146:237,1,99.9999999999999,2|2,2:1|2:2,0:0:0:0:
57,255,115103,1,2,1:1:0:0:
57,255,115250,1,2,2:1:0:0:
166,357,115692,6,0,P|209:351|245:307,1,99.9999999999999,2|0,2:3|2:1,0:0:0:0:
221,265,116133,1,10,2:1:0:0:
286,188,116427,2,0,L|293:78,1,99.9999999999999,0|8,2:1|2:1,0:0:0:0:
294,38,116868,2,0,L|186:58,2,99.9999999999999,2|2|2,2:1|2:1|1:2,0:0:0:0:
457,153,118045,6,0,P|470:212|449:248,1,99.9999999999999,2|2,2:3|0:2,0:0:0:0:
402,245,118486,1,8,2:1:0:0:
322,185,118780,2,0,L|325:132,2,50,0|2|8,2:1|1:1|2:1,0:0:0:0:
281,214,119221,2,0,P|232:217|177:240,1,99.9999999999999,2|2,2:2|2:1,0:0:0:0:
220,334,119809,1,0,1:1:0:0:
220,334,119956,2,0,P|173:352|123:355,1,99.9999999999999,2|8,2:1|2:1,0:0:0:0:
36,311,120545,2,0,P|73:130|120:18,1,300,0|8,1:1|2:1,0:0:0:0:
216,36,121721,6,0,B|241:60|241:60|230:100,2,66.6666666666666,14|10|10,1:1|1:1|1:1,0:0:0:0:
151,51,122309,1,10,1:1:0:0:
31,235,122897,6,0,L|145:214,1,110.000003356934,4|8,1:1|2:1,0:0:0:0:
193,229,123339,1,0,1:1:0:0:
244,326,123633,2,0,L|233:386,2,55.0000016784668,0|8|0,1:1|2:1|2:1,0:0:0:0:
344,284,124221,2,0,P|386:233|362:130,1,165.0000050354,2|2,2:1|2:1,0:0:0:0:
269,99,124956,2,0,L|285:32,1,55.0000016784668,8|2,2:1|2:1,0:0:0:0:
332,25,125250,6,0,P|401:23|436:46,1,110.000003356934,2|10,1:2|2:1,0:0:0:0:
475,79,125692,2,0,P|485:144|493:205,1,110.000003356934,2|2,1:2|1:1,0:0:0:0:
433,283,126280,1,2,2:1:0:0:
490,376,126574,2,0,P|427:346|318:336,1,165.0000050354,2|2,2:2|2:1,0:0:0:0:
224,350,127309,2,0,L|163:357,1,55.0000016784668,8|2,2:1|2:1,0:0:0:0:
127,320,127603,6,0,P|115:278|149:210,1,110.000003356934,4|8,1:1|2:1,0:0:0:0:
180,181,128045,1,0,1:1:0:0:
119,89,128339,2,0,L|102:24,2,55.0000016784668,0|8|0,1:1|2:1|2:1,0:0:0:0:
43,168,128927,2,0,B|66:218|66:218|192:194,1,165.0000050354,2|2,2:1|2:1,0:0:0:0:
261,263,129662,2,0,L|329:249,1,55.0000016784668,8|2,2:1|2:1,0:0:0:0:
318,197,129956,6,0,P|276:180|246:106,1,110.000003356934,0|8,1:1|2:1,0:0:0:0:
213,19,130545,2,0,P|186:23|158:40,2,55.0000016784668,0|2|8,2:1|1:1|2:1,0:0:0:0:
319,45,131133,2,0,B|382:63|418:10|418:10|376:71|425:143|425:143|452:103|503:98,1,330.000010070801,4|8,1:1|2:1,0:0:0:0:
510,207,132309,6,0,P|481:236|462:315,1,110.000003356934,4|8,1:1|2:1,0:0:0:0:
422,340,132750,1,0,1:1:0:0:
319,298,133045,2,0,P|308:255|297:229,2,55.0000016784668,0|8|0,1:1|2:1|2:1,0:0:0:0:
232,366,133633,2,0,B|114:355|114:355|82:304,1,165.0000050354,2|2,2:1|2:1,0:0:0:0:
5,245,134368,2,0,L|16:182,1,55.0000016784668,8|2,2:1|1:1,0:0:0:0:
63,165,134662,6,0,P|48:126|39:59,1,110.000003356934,2|8,1:2|2:1,0:0:0:0:
81,24,135103,2,0,P|131:32|187:65,1,110.000003356934,2|2,1:1|1:1,0:0:0:0:
251,146,135692,1,2,2:1:0:0:
350,99,135986,2,0,P|346:152|331:282,1,165.0000050354,2|2,2:2|2:1,0:0:0:0:
244,328,136721,2,0,P|203:329|176:339,1,55.0000016784668,8|2,2:1|2:1,0:0:0:0:
141,306,137015,6,0,P|167:254|184:191,1,110.000003356934,4|8,1:1|2:1,0:0:0:0:
156,155,137456,1,0,1:1:0:0:
59,102,137750,2,0,P|28:96|-10:95,2,55.0000016784668,0|8|0,1:1|2:1|2:1,0:0:0:0:
154,45,138339,2,0,P|232:69|266:155,1,165.0000050354,2|2,2:1|2:1,0:0:0:0:
253,249,139074,2,0,L|329:237,1,55.0000016784668,8|2,2:1|2:1,0:0:0:0:
345,280,139368,5,2,1:1:0:0:
453,265,139662,1,10,2:1:0:0:
453,265,139809,2,0,L|433:387,2,110.000003356934,2|2|2,1:1|1:1|1:1,0:0:0:0:
476,214,140545,6,0,B|500:183|500:183|482:137,2,73.3333355712891,14|10|10,1:1|1:1|1:1,0:0:0:0:
407,187,141133,1,10,1:1:0:0:
292,23,141721,6,0,L|275:133,1,99.9999999999999,4|8,1:1|2:1,0:0:0:0:
292,169,142162,2,0,P|334:162|354:162,2,50,2|2|2,1:2|2:1|1:1,0:0:0:0:
192,165,142750,2,0,P|133:178|76:190,1,99.9999999999999,2|2,1:2|2:2,0:0:0:0:
82,285,143339,2,0,P|130:274|179:263,1,99.9999999999999,2|2,1:2|1:1,0:0:0:0:
272,313,143927,1,2,2:2:0:0:
272,313,144074,6,0,L|262:372,1,50,2|2,1:2|2:2,0:0:0:0:
164,376,144515,2,0,P|93:353|87:277,1,150,2|10,1:2|2:1,0:0:0:0:
150,212,145250,2,0,L|132:100,1,99.9999999999999,2|10,1:1|2:1,0:0:0:0:
93,97,145692,1,2,1:2:0:0:
93,97,145839,2,0,L|101:37,2,50,2|2|8,2:1|1:1|2:1,0:0:0:0:
33,178,146427,5,4,1:1:0:0:
33,178,146574,2,0,P|70:196|145:175,1,99.9999999999999,2|2,0:2|1:1,0:0:0:0:
173,206,147015,2,0,P|218:214|242:216,1,50,2|2,2:2|1:2,0:0:0:0:
273,129,147456,1,2,2:0:0:0:
273,129,147603,2,0,P|327:117|378:108,1,99.9999999999999,2|10,1:1|2:1,0:0:0:0:
458,157,148192,1,2,2:1:0:0:
435,254,148486,1,10,2:1:0:0:
356,315,148780,6,0,L|364:371,2,50,2|2|8,1:1|2:2|2:1,0:0:0:0:
261,281,149368,2,0,P|230:250|169:249,1,99.9999999999999,2|8,2:1|2:1,0:0:0:0:
76,240,149956,2,0,B|171:255|216:172|170:110|170:110|139:60|163:14,1,300,4|0,1:1|3:3,0:0:0:0:
253,55,151133,5,4,1:1:0:0:
348,26,151427,1,8,2:1:0:0:
417,98,151721,2,0,L|473:83,2,50,2|2|8,2:2|1:2|2:1,0:0:0:0:
392,141,152162,2,0,P|359:177|358:242,1,99.9999999999999,2|2,2:2|2:2,0:0:0:0:
413,306,152750,2,0,P|446:270|447:205,1,99.9999999999999,2|2,1:2|1:1,0:0:0:0:
353,226,153339,6,0,B|305:247|305:247|247:233,1,99.9999999999999,2|2,2:2|2:1,0:0:0:0:
194,159,153927,2,0,B|147:147|147:147|99:168,2,99.9999999999999,2|2|2,1:2|1:2|2:1,0:0:0:0:
279,107,154809,1,2,1:2:0:0:
375,134,155103,2,0,B|426:145|426:145|478:108,2,99.9999999999999,2|2|12,1:2|1:2|2:1,0:0:0:0:
307,210,155986,6,0,P|315:253|318:268,2,50,0|8|0,0:0|2:1|1:1,0:0:0:0:
267,190,156427,1,0,2:1:0:0:
267,190,156574,2,0,P|187:204|148:220,1,99.9999999999999,0|2,1:1|2:2,0:0:0:0:
78,252,157162,2,0,P|48:246|17:245,2,50,0|8|2,2:1|2:1|1:2,0:0:0:0:
141,330,157750,2,0,P|115:346|92:368,2,50,0|8|0,1:1|2:1|2:1,0:0:0:0:
183,356,158192,6,0,L|289:336,1,99.9999999999999,2|10,1:1|2:1,0:0:0:0:
380,327,158780,2,0,L|481:341,1,99.9999999999999,2|10,2:1|2:1,0:0:0:0:
475,240,159368,6,0,B|447:222|447:222|415:232,2,66.6666666666666,10|10|10,1:1|1:1|1:1,0:0:0:0:
509,183,159956,1,10,1:1:0:0:
286,68,179221,6,0,P|309:155|313:196,1,110.000003356934,14|0,2:1|0:0,0:0:0:0:
283,222,179662,1,10,2:1:0:0:
183,175,179956,2,0,P|146:173|89:235,1,110.000003356934,0|8,2:1|2:1,0:0:0:0:
57,260,180397,2,0,P|69:313|140:336,1,110.000003356934,2|2,2:1|2:2,0:0:0:0:
227,320,180986,1,2,1:1:0:0:
227,320,181133,1,2,2:1:0:0:
387,357,181574,6,0,P|447:343|480:304,1,110.000003356934,2|2,2:3|2:2,0:0:0:0:
481,254,182015,1,10,2:1:0:0:
373,230,182309,2,0,P|367:196|351:115,1,110.000003356934,0|8,2:1|2:1,0:0:0:0:
358,67,182750,1,2,2:1:0:0:
267,3,183045,1,2,2:1:0:0:
178,70,183339,2,0,P|202:125|199:186,1,110.000003356934,2|2,1:2|1:2,0:0:0:0:
100,216,183927,6,0,B|50:248|50:248|61:313,1,110.000003356934,2|0,2:3|0:1,0:0:0:0:
166,319,184515,2,0,L|155:383,2,55.0000016784668,0|0|2,1:1|2:1|1:1,0:0:0:0:
266,273,185103,2,0,B|303:271|333:293|299:291|340:319|380:312,1,110.000003356934,2|2,2:1|2:1,0:0:0:0:
473,352,185692,1,2,1:2:0:0:
473,352,185839,2,0,L|459:221,1,110.000003356934,2|10,2:1|2:1,0:0:0:0:
468,132,186427,6,0,P|468:75|411:40,1,110.000003356934,2|8,1:1|2:1,0:0:0:0:
388,78,186868,2,0,L|211:59,1,165.0000050354,2|8,1:1|2:1,0:0:0:0:
172,79,187456,1,8,2:1:0:0:
115,173,187750,1,8,2:1:0:0:
221,201,188045,2,0,P|269:185|334:170,1,110.000003356934,0|0,1:3|1:1,0:0:0:0:
433,199,188633,6,0,L|410:315,1,110.000003356934,6|0,2:3|0:0,0:0:0:0:
378,350,189074,1,10,2:1:0:0:
272,319,189368,2,0,B|225:351|225:351|150:328,1,110.000003356934,0|8,2:1|2:1,0:0:0:0:
119,343,189809,2,0,P|111:285|102:224,1,110.000003356934,2|0,2:1|2:1,0:0:0:0:
187,162,190397,2,0,L|202:97,2,55.0000016784668,2|2|2,1:1|2:1|1:2,0:0:0:0:
81,129,190986,6,0,P|40:80|23:37,1,110.000003356934,2|0,2:3|2:1,0:0:0:0:
72,14,191427,1,10,2:1:0:0:
180,29,191721,2,0,L|295:45,1,110.000003356934,2|8,2:1|2:1,0:0:0:0:
319,89,192162,2,0,B|352:80|352:80|401:100|401:100|437:90,2,110.000003356934,2|2|2,2:1|2:1|1:2,0:0:0:0:
250,175,193045,1,2,1:2:0:0:
324,255,193339,6,0,P|367:279|380:343,1,110.000003356934,4|0,2:1|0:0,0:0:0:0:
339,369,193780,1,10,2:1:0:0:
238,325,194074,2,0,L|219:396,2,55.0000016784668,2|0|10,2:1|1:1|2:1,0:0:0:0:
201,284,194515,2,0,P|90:275|68:274,1,110.000003356934,2|2,2:1|2:1,0:0:0:0:
59,177,195103,1,2,1:2:0:0:
59,177,195250,2,0,P|52:126|100:87,1,110.000003356934,2|10,2:1|2:1,0:0:0:0:
203,78,195839,5,12,1:1:0:0:
312,91,196133,1,8,2:1:0:0:
312,91,196280,2,0,L|443:60,2,110.000003356934,8|0|0,2:3|1:1|3:3,0:0:0:0:
293,142,197015,6,0,B|289:179|289:179|318:199,2,73.3333355712891,10|10|10,1:1|1:1|1:1,0:0:0:0:
229,123,197603,1,14,1:1:0:0:
