osu file format v14

[General]
AudioFilename: audio.mp3
AudioLeadIn: 0
PreviewTime: 65765
Countdown: 0
SampleSet: Soft
StackLeniency: 0.2
Mode: 0
LetterboxInBreaks: 0
WidescreenStoryboard: 1

[Editor]
Bookmarks: 9956,28780,38192,47603,65250,66427,84074,85250,94662,104074,113486,121721,122897,140545,141721,151133,159368,160545,169956,179368,197015,198192
DistanceSpacing: 1.1
BeatDivisor: 3
GridSize: 8
TimelineZoom: 0.7999996

[Metadata]
Title:Sweets wa Tomaranai
TitleUnicode:スイーツはとまらない♪
Artist:Hinatabi Bitter Sweets
ArtistUnicode:日向美ビタースイーツ♪ ‎
Creator:VoiceCore
Version:Expert
Source:pop'n music peace
Tags:hakurei yoru SkyInTheFifteen Callionet japanese pop jpop j-pop video game sweet smile pajamas party full extended version ver Bemani くりむ crimm コナミデジタルエンタテインメント Konami Digital Entertainment TOMOSUKE 山本真央樹 Maoki Yamamoto CUTEG ひなビタ hinabita 山形まり花 Marika Yamagata 日高里菜 Rina Hidaka 春日咲子 Sakiko Kasuga 山口愛 Megumi Yamaguchi popn music peace DanceDanceRevolution A A20 jubeat festo SOUND VOLTEX VIVID WAVE GITADORA FUZZ-UP
BeatmapID:2640406
BeatmapSetID:1270586

[Difficulty]
HPDrainRate:4.6
CircleSize:4.6
OverallDifficulty:8.8
ApproachRate:9.6
SliderMultiplier:2
SliderTickRate:1

[Events]
//Background and Video events
0,0,"bg.jpg",0,0
//Break Periods
//Storyboard Layer 0 (Background)
//Storyboard Layer 1 (Fail)
//Storyboard Layer 2 (Pass)
//Storyboard Layer 3 (Foreground)
Sprite,Foreground,Centre,"fade.png",320,-20 M,0,0,,0,0,320,-40 S,0,0,,0.84 F,0,7603,8780,0,0.8 F,0,27456,27897,0.8,0 M,0,28192,,0,0,860,240 F,0,28339,28780,0,0.8 F,0,36868,37309,0.8,0 M,0,37603,,0,0,-220,240 F,0,37750,38192,0,0.8 F,0,46280,46721,0.8,0 M,0,47015,,0,0,320,540 F,0,47162,47603,0,0.8 F,0,64809,65250,0.8,0 M,0,84662,,0,0,860,240 F,0,84809,85250,0,0.8 F,0,93339,93780,0.8,0 M,0,94074,,0,0,-220,240 F,0,94221,94662,0,0.8 F,0,102750,103192,0.8,0 M,0,103486,,0,0,320,540 F,0,103633,104074,0,0.8 F,0,112162,112603,0.8,0 M,0,112897,,0,0,320,-40 F,0,113045,113486,0,0.8 F,0,121280,121721,0.8,0 M,0,141133,,0,0,320,-40 F,0,141280,141721,0,0.8 F,0,149809,150250,0.8,0 M,0,150545,,0,0,320,540 F,0,150692,151133,0,0.8 F,0,158927,159368,0.8,0 M,0,159956,,0,0,860,240 F,0,160103,160545,0,0.8 F,0,168633,169074,0.8,0 M,0,169368,,0,0,-220,240 F,0,169515,169956,0,0.8 F,0,177162,177603,0.8,0
//Storyboard Layer 4 (Overlay)
//Storyboard Sound Samples

[TimingPoints]
545,294.117647058824,4,2,1,70,1,0
8780,-100,4,2,1,70,0,0
9956,-83.3333333333333,4,2,1,70,0,0
10250,-100,4,2,1,70,0,0
11280,-83.3333333333333,4,2,1,70,0,0
11721,-100,4,2,1,70,0,0
13633,-83.3333333333333,4,2,1,70,0,0
14074,-100,4,2,1,70,0,0
15986,-83.3333333333333,4,2,1,70,0,0
16427,-100,4,2,1,70,0,0
19368,-83.3333333333333,4,2,1,70,0,0
19662,-100,4,2,1,70,0,0
20692,-83.3333333333333,4,2,1,70,0,0
21133,-100,4,2,1,70,0,0
23045,-83.3333333333333,4,2,1,70,0,0
23486,-100,4,2,1,70,0,0
25397,-83.3333333333333,4,2,1,70,0,0
25839,-100,4,2,1,70,0,0
28780,-83.3333333333333,4,2,1,60,0,0
29074,-100,4,2,1,60,0,0
38192,-83.3333333333333,4,2,1,60,0,0
38486,-100,4,2,1,60,0,0
47162,-100,4,2,2,60,0,0
47456,-83.3333333333333,4,2,1,70,0,0
47897,-100,4,2,1,70,0,0
56868,-83.3333333333333,4,2,1,70,0,0
57309,-100,4,2,1,70,0,0
65250,-100,4,2,3,70,0,0
66133,-100,4,2,1,70,0,0
66427,-83.3333333333333,4,2,1,80,0,1
67750,-71.4285714285714,4,2,1,80,0,1
68192,-83.3333333333333,4,2,1,80,0,1
70103,-71.4285714285714,4,2,1,80,0,1
70545,-83.3333333333333,4,2,1,80,0,1
72456,-71.4285714285714,4,2,1,80,0,1
72897,-83.3333333333333,4,2,1,80,0,1
75839,-71.4285714285714,4,2,1,80,0,1
76133,-83.3333333333333,4,2,1,80,0,1
77162,-71.4285714285714,4,2,1,80,0,1
77603,-83.3333333333333,4,2,1,80,0,1
79515,-71.4285714285714,4,2,1,80,0,1
79956,-83.3333333333333,4,2,1,80,0,1
84270,-83.3333333333333,4,2,3,80,0,1
84956,-83.3333333333333,4,2,1,80,0,1
85250,-100,4,2,1,60,0,0
85545,-125,4,2,1,60,0,0
94662,-83.3333333333333,4,2,1,60,0,0
94956,-100,4,2,1,60,0,0
103633,-100,4,2,2,60,0,0
103927,-83.3333333333333,4,2,1,70,0,0
104368,-100,4,2,1,70,0,0
113339,-83.3333333333333,4,2,1,70,0,0
113780,-100,4,2,1,70,0,0
121917,-100,4,2,3,70,0,0
122603,-100,4,2,1,70,0,0
122897,-71.4285714285714,4,2,1,80,0,1
123192,-83.3333333333333,4,2,1,80,0,1
124221,-71.4285714285714,4,2,1,80,0,1
124662,-83.3333333333333,4,2,1,80,0,1
126574,-71.4285714285714,4,2,1,80,0,1
127015,-83.3333333333333,4,2,1,80,0,1
128927,-71.4285714285714,4,2,1,80,0,1
129368,-83.3333333333333,4,2,1,80,0,1
132309,-71.4285714285714,4,2,1,80,0,1
132603,-83.3333333333333,4,2,1,80,0,1
133633,-71.4285714285714,4,2,1,80,0,1
134074,-83.3333333333333,4,2,1,80,0,1
135986,-71.4285714285714,4,2,1,80,0,1
136427,-83.3333333333333,4,2,1,80,0,1
140741,-83.3333333333333,4,2,3,80,0,1
141427,-83.3333333333333,4,2,1,80,0,1
141721,-100,4,2,1,70,0,0
144037,-100,4,2,1,70,0,0
144074,-100,4,2,1,70,0,0
159564,-100,4,2,3,70,0,0
159956,-100,4,2,2,70,0,0
160397,-100,4,2,1,70,0,0
160545,-166.666666666667,4,2,4,60,0,0
161133,-166.666666666667,4,2,3,60,0,0
161427,-166.666666666667,4,2,1,60,0,0
161721,-166.666666666667,4,2,3,60,0,0
162162,-166.666666666667,4,2,1,60,0,0
162309,-166.666666666667,4,2,3,60,0,0
162603,-166.666666666667,4,2,1,60,0,0
162897,-166.666666666667,4,2,3,60,0,0
163780,-166.666666666667,4,2,1,60,0,0
164074,-166.666666666667,4,2,3,60,0,0
164515,-166.666666666667,4,2,1,60,0,0
164662,-166.666666666667,4,2,3,60,0,0
164956,-166.666666666667,4,2,1,60,0,0
165250,-166.666666666667,4,2,3,60,0,0
166133,-166.666666666667,4,2,1,60,0,0
166427,-166.666666666667,4,2,3,60,0,0
166868,-166.666666666667,4,2,1,60,0,0
167015,-166.666666666667,4,2,3,60,0,0
167309,-166.666666666667,4,2,1,60,0,0
167603,-166.666666666667,4,2,3,60,0,0
168486,-166.666666666667,4,2,1,60,0,0
168780,-166.666666666667,4,2,3,60,0,0
169221,-166.666666666667,4,2,1,60,0,0
169368,-166.666666666667,4,2,3,60,0,0
169662,-166.666666666667,4,2,1,60,0,0
169956,-166.666666666667,4,2,3,60,0,0
170839,-166.666666666667,4,2,1,60,0,0
171133,-166.666666666667,4,2,3,60,0,0
171574,-166.666666666667,4,2,1,60,0,0
171721,-166.666666666667,4,2,3,60,0,0
172015,-166.666666666667,4,2,1,60,0,0
172309,-166.666666666667,4,2,3,60,0,0
173192,-166.666666666667,4,2,1,60,0,0
173486,-166.666666666667,4,2,3,60,0,0
173927,-166.666666666667,4,2,1,60,0,0
174074,-166.666666666667,4,2,3,60,0,0
174368,-166.666666666667,4,2,1,60,0,0
174662,-166.666666666667,4,2,3,60,0,0
175545,-166.666666666667,4,2,1,60,0,0
175839,-166.666666666667,4,2,3,60,0,0
176280,-166.666666666667,4,2,1,60,0,0
176427,-166.666666666667,4,2,3,60,0,0
176721,-166.666666666667,4,2,1,60,0,0
177015,-166.666666666667,4,2,3,60,0,0
177162,-100,4,2,1,60,0,0
177603,-100,4,2,3,60,0,0
177750,-100,4,2,1,60,0,0
178192,-100,4,2,3,60,0,0
178339,-100,4,2,1,60,0,0
178633,-100,4,2,2,70,0,0
178780,-100,4,2,4,70,0,0
178927,-100,4,2,2,70,0,0
179221,-71.4285714285714,4,2,1,80,0,1
179368,-71.4285714285714,4,2,1,80,0,1
179662,-83.3333333333333,4,2,1,80,0,1
185103,-71.4285714285714,4,2,1,80,0,1
185839,-83.3333333333333,4,2,1,80,0,1
188339,-83.3333333333333,4,2,2,80,0,1
188633,-71.4285714285714,4,2,1,80,0,1
189074,-83.3333333333333,4,2,1,80,0,1
194515,-71.4285714285714,4,2,1,80,0,1
195839,-83.3333333333333,4,2,1,80,0,1
196574,-83.3333333333333,4,2,2,80,0,1
196647,-83.3333333333333,4,2,1,80,0,1
197015,-83.3333333333333,4,2,3,80,0,1
197603,-83.3333333333333,4,2,1,80,0,0

[Colours]
Combo1 : 212,212,212
Combo2 : 255,169,128
Combo3 : 174,174,255

[HitObjects]
256,380,8780,6,0,P|246:353|256:300,1,50,4|0,1:1|0:0,0:0:0:0:
312,288,8927,2,0,P|313:264|323:241,1,50,8|8,2:1|2:1,0:0:0:0:
368,350,9074,5,8,2:1:0:0:
409,361,9147,1,8,2:1:0:0:
437,336,9221,1,8,2:1:0:0:
419,321,9295,1,8,2:1:0:0:
423,308,9368,1,8,1:2:0:0:
418,301,9442,1,8,2:1:0:0:
420,295,9515,6,0,P|447:290|482:284,1,50,8|0,2:1|0:0,0:0:0:0:
368,350,9662,2,0,B|265:340|265:340|250:353|250:353|212:350,1,150,0|8,3:3|2:1,0:0:0:0:
180,275,9956,6,0,B|206:267|216:245|216:245|199:326,1,119.999996337891,4|0,1:1|0:0,0:0:0:0:
58,377,10250,1,8,2:1:0:0:
58,377,10397,2,0,P|67:320|11:247,1,150,0|0,1:1|0:0,0:0:0:0:
8,257,10692,5,0,1:1:0:0:
89,291,10839,1,8,2:1:0:0:
188,246,10986,2,0,B|106:258|106:258|89:291,1,100,0|0,1:1|1:1,0:0:0:0:
155,329,11280,6,0,P|205:368|373:338,1,239.999992675781,2|0,2:1|1:1,0:0:0:0:
308,195,11721,2,0,B|290:245|290:245|318:289,1,100,2|0,2:1|1:1,0:0:0:0:
379,235,12015,1,8,2:1:0:0:
508,215,12162,1,2,1:1:0:0:
478,346,12309,6,0,B|469:375|469:375|480:353,1,50,2|0,1:2|0:0,0:0:0:0:
478,346,12456,2,0,B|507:354|507:354|485:344,1,50,2|0,2:2|0:0,0:0:0:0:
478,346,12603,2,0,B|486:316|486:316|476:339,1,50,10|0,2:1|0:0,0:0:0:0:
478,346,12750,2,0,B|448:337|448:337|471:348,1,50,2|0,1:2|0:0,0:0:0:0:
379,235,13045,6,0,B|338:307|391:315|373:262,1,100,2|8,1:1|2:1,0:0:0:0:
300,336,13339,2,0,P|341:368|417:364,1,100,0|0,1:1|1:1,0:0:0:0:
237,225,13633,2,0,B|192:178|123:207|113:265|113:265|102:319|23:319,1,239.999992675781,2|0,2:1|1:1,0:0:0:0:
186,277,14074,6,0,P|173:342|167:390,2,100,2|0|8,2:1|1:1|2:1,0:0:0:0:
5,204,14515,1,2,2:1:0:0:
43,308,14662,6,0,P|65:263|124:257,1,100,4|0,1:1|0:0,0:0:0:0:
271,376,14956,1,8,2:1:0:0:
271,376,15103,2,0,L|116:355,1,150,0|0,1:1|0:0,0:0:0:0:
107,361,15397,5,0,1:1:0:0:
8,382,15545,1,8,2:1:0:0:
40,281,15692,2,0,B|52:223|52:223|-4:185,1,100,0|0,1:1|1:1,0:0:0:0:
57,271,15986,6,0,B|91:336|91:336|197:325|197:325|201:320|201:320|254:313,1,239.999992675781,2|0,2:1|1:1,0:0:0:0:
143,251,16427,2,0,P|179:217|240:228,1,100,2|0,2:1|1:1,0:0:0:0:
266,287,16721,1,8,2:1:0:0:
237,377,16868,1,2,1:1:0:0:
217,225,17015,6,0,P|284:234|439:253,1,200,0|8,1:1|2:1,0:0:0:0:
167,290,17603,5,0,2:1:0:0:
280,264,17750,1,0,1:1:0:0:
393,237,17897,1,8,2:1:0:0:
217,225,18045,1,0,1:1:0:0:
234,344,18192,5,4,1:1:0:0:
246,341,18265,1,8,2:1:0:0:
258,338,18339,1,8,2:1:0:0:
270,336,18412,1,8,2:1:0:0:
282,333,18486,2,0,L|290:272,1,50,8|0,2:1|0:0,0:0:0:0:
373,213,18633,5,8,2:1:0:0:
388,217,18706,1,8,2:1:0:0:
412,244,18780,1,8,1:2:0:0:
395,288,18853,1,8,2:1:0:0:
438,253,18927,2,0,P|472:241|506:248,1,50,8|8,2:1|2:1,0:0:0:0:
443,346,19074,2,0,B|416:368|416:368|313:356,1,100,0|8,3:3|2:1,0:0:0:0:
236,216,19368,6,0,B|199:177|139:239|186:292,1,119.999996337891,4|0,1:1|0:0,0:0:0:0:
324,217,19662,1,8,2:1:0:0:
324,217,19809,2,0,P|296:280|272:363,1,150,0|0,1:1|0:0,0:0:0:0:
285,367,20103,5,0,1:1:0:0:
208,290,20250,1,8,2:1:0:0:
103,355,20397,2,0,B|47:364|47:364|40:371|40:371|1:377,1,100,0|0,1:1|1:1,0:0:0:0:
6,291,20692,6,0,B|117:319|117:319|136:307|136:307|103:245|103:245|121:206,1,239.999992675781,2|0,2:1|1:1,0:0:0:0:
277,213,21133,2,0,P|216:247|185:238,1,100,2|0,2:1|1:1,0:0:0:0:
124,202,21427,1,8,2:1:0:0:
164,367,21574,1,2,1:1:0:0:
280,275,21721,6,0,P|247:319|260:373,1,100,0|0,1:2|2:1,0:0:0:0:
354,297,22015,2,0,P|358:346|327:384,1,100,8|0,2:1|1:1,0:0:0:0:
190,219,22456,6,0,B|221:223|221:223|264:195|264:195|299:201,1,100,2|8,1:1|2:1,0:0:0:0:
380,267,22750,2,0,L|256:280,1,100,0|0,1:1|1:1,0:0:0:0:
66,303,23045,2,0,B|49:248|49:248|122:280|122:280|85:409,1,239.999992675781,2|0,2:1|1:1,0:0:0:0:
93,378,23486,6,0,P|156:348|195:352,2,100,2|0|8,2:1|1:1|2:1,0:0:0:0:
38,210,23927,1,2,2:1:0:0:
11,280,24074,6,0,P|62:282|104:241,1,100,4|0,1:1|0:0,0:0:0:0:
239,200,24368,1,8,2:1:0:0:
239,200,24515,2,0,P|221:277|296:329,1,150,0|0,1:1|0:0,0:0:0:0:
282,319,24809,5,0,1:1:0:0:
330,233,24956,1,8,2:1:0:0:
463,345,25103,2,0,L|329:325,1,100,0|0,1:1|1:1,0:0:0:0:
434,201,25397,6,0,B|489:241|469:338|386:357|386:357|341:302,1,239.999992675781,2|0,2:1|1:1,0:0:0:0:
269,262,25839,2,0,L|372:250,1,100,2|0,2:1|1:1,0:0:0:0:
497,288,26133,1,8,2:1:0:0:
442,381,26280,1,2,1:1:0:0:
376,270,26427,6,0,P|368:286|354:325,1,50,2|0,1:1|0:0,0:0:0:0:
353,335,26574,2,0,P|331:261|301:227,1,100,2|8,2:1|2:1,0:0:0:0:
136,270,26868,6,0,P|144:286|158:325,1,50,2|0,1:1|0:0,0:0:0:0:
159,335,27015,2,0,P|181:261|211:227,2,100,2|2|8,2:1|1:1|2:1,0:0:0:0:
327,359,27456,6,0,P|243:328|215:362,1,100,0|4,1:1|1:1,0:0:0:0:
181,375,27677,1,0,1:1:0:0:
172,369,27750,2,0,L|110:379,1,50,8|0,2:1|2:1,0:0:0:0:
69,239,27897,2,0,L|20:233,1,50,8|0,2:1|0:0,0:0:0:0:
127,293,28045,5,8,2:1:0:0:
147,298,28118,1,8,2:1:0:0:
170,289,28192,1,8,1:2:0:0:
182,259,28265,1,8,2:1:0:0:
196,213,28339,1,8,2:1:0:0:
249,195,28412,1,8,2:1:0:0:
281,198,28486,5,0,3:3:0:0:
268,196,28559,1,8,2:1:0:0:
256,194,28633,1,8,2:1:0:0:
243,192,28706,1,8,2:1:0:0:
231,190,28780,6,0,B|176:154|164:95|195:47|195:47|162:106|82:79,1,239.999992675781,4|8,1:1|2:1,0:0:0:0:
31,24,29221,6,0,P|86:15|133:11,1,100,2|0,2:1|2:1,0:0:0:0:
36,99,29515,2,0,P|91:90|138:86,1,100,2|8,1:1|2:1,0:0:0:0:
41,174,29809,1,2,2:1:0:0:
92,289,29956,1,0,1:1:0:0:
92,289,30103,6,0,P|12:261|-11:273,1,100,2|8,2:1|2:1,0:0:0:0:
32,334,30397,1,0,1:1:0:0:
32,334,30544,2,0,P|111:361|135:349,1,100,2|0,2:1|1:1,0:0:0:0:
237,277,30839,5,10,2:1:0:0:
210,379,30986,1,2,2:1:0:0:
92,289,31133,2,0,L|137:78,1,200,0|8,1:1|2:1,0:0:0:0:
79,26,31574,6,0,L|26:18,1,50,2|0,2:2|0:0,0:0:0:0:
86,16,31721,1,0,2:1:0:0:
177,171,31868,6,0,L|230:163,1,50,2|0,1:2|0:0,0:0:0:0:
167,162,32015,1,8,2:1:0:0:
92,289,32162,6,0,L|39:281,1,50,2|0,2:2|0:0,0:0:0:0:
99,278,32309,1,0,1:1:0:0:
154,339,32456,6,0,P|183:280|158:219,1,100,2|8,2:1|2:1,0:0:0:0:
75,159,32750,1,0,1:1:0:0:
48,237,32897,2,0,P|-3:189|31:91,1,150,2|0,2:1|0:0,0:0:0:0:
20,105,33192,1,10,2:1:0:0:
127,137,33339,1,2,2:1:0:0:
250,6,33486,6,0,B|46:37,1,200,4|8,1:1|2:1,0:0:0:0:
211,187,33927,6,0,L|232:75,1,100,2|0,2:1|2:1,0:0:0:0:
113,246,34221,2,0,L|134:134,1,100,2|8,1:1|2:1,0:0:0:0:
15,305,34515,1,2,2:1:0:0:
33,206,34662,1,0,1:1:0:0:
185,367,34809,6,0,B|226:377|226:377|194:335|117:331|74:357,1,200,2|0,2:1|1:1,0:0:0:0:
4,384,35250,1,2,2:1:0:0:
16,303,35397,1,0,1:1:0:0:
161,202,35545,1,10,2:1:0:0:
147,113,35692,1,0,2:1:0:0:
53,24,35839,6,0,P|26:16|-6:16,1,50,2|0,1:2|0:0,0:0:0:0:
53,24,35986,2,0,P|25:30|-2:46,1,50,2|0,2:2|0:0,0:0:0:0:
53,24,36133,2,0,P|32:43|16:71,1,50,10|0,2:1|0:0,0:0:0:0:
53,24,36280,2,0,P|44:51|45:83,1,50,2|0,1:2|0:0,0:0:0:0:
121,62,36427,5,2,2:1:0:0:
225,120,36574,2,0,L|206:17,1,100,0|8,1:2|2:1,0:0:0:0:
89,137,36868,2,0,P|49:204|55:241,1,100,2|4,2:1|1:1,0:0:0:0:
135,230,37162,5,8,2:3:0:0:
134,218,37236,1,8,2:3:0:0:
132,207,37309,1,8,2:3:0:0:
125,332,37456,5,8,2:3:0:0:
124,344,37530,1,8,2:3:0:0:
122,355,37603,1,0,3:3:0:0:
109,339,37677,1,0,3:3:0:0:
119,317,37750,1,0,3:3:0:0:
143,304,37824,1,0,3:3:0:0:
179,315,37897,5,2,2:3:0:0:
204,351,37971,1,2,2:3:0:0:
236,363,38045,1,2,2:3:0:0:
256,358,38118,1,2,2:3:0:0:
264,347,38192,6,0,B|324:332|324:332|353:357|353:357|417:342|417:342|424:326|424:326|521:303,1,239.999992675781,4|8,1:1|2:1,0:0:0:0:
508,143,38633,1,0,1:1:0:0:
371,269,38780,1,0,2:1:0:0:
476,301,38927,2,0,P|461:216|453:176,1,100,0|8,1:1|2:1,0:0:0:0:
381,179,39221,2,0,P|381:115|424:81,1,100,0|0,2:1|1:1,0:0:0:0:
403,90,39515,6,0,L|261:71,1,100,2|8,2:1|2:1,0:0:0:0:
468,46,39809,1,0,1:1:0:0:
403,90,39956,2,0,P|375:130|381:179,1,100,2|0,2:1|1:1,0:0:0:0:
431,240,40250,5,10,2:1:0:0:
261,202,40397,1,2,2:1:0:0:
403,90,40545,1,0,1:1:0:0:
467,371,40839,1,8,2:1:0:0:
373,322,40986,6,0,L|379:380,1,50,2|0,1:2|0:0,0:0:0:0:
362,317,41133,1,0,2:1:0:0:
448,192,41280,6,0,L|454:250,1,50,2|0,1:2|0:0,0:0:0:0:
437,187,41427,1,8,2:1:0:0:
298,145,41574,6,0,L|304:203,1,50,2|0,2:2|0:0,0:0:0:0:
287,140,41721,1,0,1:1:0:0:
340,79,41868,6,0,P|393:113|452:92,1,100,2|8,2:1|2:1,0:0:0:0:
503,10,42162,1,0,1:1:0:0:
402,36,42309,2,0,B|326:57|326:57|298:31,1,100,2|0,2:1|1:1,0:0:0:0:
301,35,42530,1,2,0:1:0:0:
288,25,42603,2,0,L|303:145,1,100,10|0,2:1|2:1,0:0:0:0:
321,310,42897,6,0,P|392:257|367:149,1,200,4|8,1:1|2:1,0:0:0:0:
413,281,43339,6,0,P|481:260|541:252,1,100,0|0,1:1|2:1,0:0:0:0:
372,364,43633,2,0,P|304:343|244:335,1,100,0|8,1:1|2:1,0:0:0:0:
498,376,43927,1,0,2:1:0:0:
413,281,44074,1,0,1:1:0:0:
479,240,44221,6,0,B|474:214|474:214|481:212|481:212|502:36,1,200,2|0,2:2|1:1,0:0:0:0:
434,9,44662,1,2,2:1:0:0:
359,41,44809,1,0,1:1:0:0:
406,222,44956,1,10,2:1:0:0:
320,206,45103,1,0,2:1:0:0:
451,153,45250,6,0,P|487:217|400:308,1,200,2|8,1:1|2:1,0:0:0:0:
281,301,45692,1,0,1:1:0:0:
286,374,45839,1,0,2:1:0:0:
352,263,45986,2,0,L|337:137,1,100,0|8,1:1|2:1,0:0:0:0:
417,306,46280,1,0,2:1:0:0:
479,255,46427,5,4,1:1:0:0:
480,242,46500,1,8,2:1:0:0:
481,230,46574,1,8,2:1:0:0:
483,217,46647,1,8,2:1:0:0:
484,205,46721,1,8,2:1:0:0:
450,130,46868,5,0,1:3:0:0:
430,125,46942,1,0,1:3:0:0:
401,140,47015,1,8,2:1:0:0:
384,172,47089,1,8,2:1:0:0:
368,126,47162,1,0,1:1:0:0:
328,110,47236,1,0,1:1:0:0:
294,121,47309,1,8,2:1:0:0:
236,189,47456,6,0,P|246:133|188:70,2,119.999996337891,6|0|0,2:3|1:1|0:0,0:0:0:0:
94,123,47897,5,10,2:1:0:0:
52,21,48045,1,0,1:1:0:0:
172,148,48192,1,0,2:1:0:0:
0,152,48339,2,0,P|50:131|109:122,1,100,2|8,1:1|2:1,0:0:0:0:
172,148,48633,6,0,B|142:103|142:103|165:23,1,100,2|0,2:1|1:1,0:0:0:0:
166,53,48853,1,2,0:1:0:0:
178,45,48927,2,0,L|294:62,1,100,2|8,2:2|2:1,0:0:0:0:
369,74,49221,5,0,1:1:0:0:
466,12,49368,1,2,2:1:0:0:
286,72,49515,2,0,B|270:109|236:116|236:116|291:137|305:174,1,150,2|0,1:2|0:0,0:0:0:0:
293,176,49809,6,0,P|350:148|507:155,1,200,2|0,2:3|2:1,0:0:0:0:
484,146,50250,1,10,2:1:0:0:
381,103,50397,1,0,1:1:0:0:
508,76,50545,1,0,2:1:0:0:
316,57,50692,1,2,1:1:0:0:
316,57,50986,6,0,P|301:119|296:167,1,100,2|0,2:1|1:1,0:0:0:0:
196,57,51280,2,0,P|211:119|216:167,1,100,2|8,2:1|2:1,0:0:0:0:
130,123,51574,2,0,P|78:121|29:176,1,100,2|0,1:2|2:1,0:0:0:0:
382,123,51868,2,0,P|434:121|483:176,1,100,2|8,1:2|2:1,0:0:0:0:
256,87,52162,6,0,P|276:36|405:37,1,200,2|0,2:3|0:0,0:0:0:0:
382,123,52603,1,8,2:1:0:0:
480,66,52750,1,0,1:1:0:0:
300,31,52897,1,0,2:1:0:0:
256,117,53045,2,0,P|197:129|158:137,1,100,2|8,1:1|2:1,0:0:0:0:
22,17,53339,6,0,B|1:67|1:67|48:131,1,100,2|0,2:2|1:1,0:0:0:0:
151,139,53633,2,0,L|162:38,1,100,2|8,2:1|2:1,0:0:0:0:
86,56,53927,5,0,1:1:0:0:
238,22,54074,1,2,2:1:0:0:
310,140,54221,2,0,B|278:172|278:172|210:156,2,100,0|8|0,1:1|2:1|2:1,0:0:0:0:
364,75,54662,6,0,P|357:123|487:150,1,200,2|8,1:1|2:1,0:0:0:0:
406,15,55103,2,0,P|436:67|428:109,1,100,0|0,1:1|2:1,0:0:0:0:
364,75,55397,5,0,1:1:0:0:
504,37,55545,1,8,2:1:0:0:
396,169,55692,1,2,2:1:0:0:
213,21,55839,1,4,1:1:0:0:
213,21,55986,2,0,L|102:4,1,100,10|8,2:1|1:1,0:0:0:0:
64,100,56280,5,8,2:3:0:0:
43,118,56353,1,8,2:1:0:0:
0,129,56427,1,8,2:1:0:0:
34,135,56500,1,8,2:1:0:0:
54,162,56574,1,0,3:3:0:0:
75,171,56647,1,0,3:3:0:0:
86,171,56721,1,8,2:1:0:0:
146,117,56868,6,0,P|146:68|94:21,2,119.999996337891,6|0|0,2:3|1:1|0:0,0:0:0:0:
256,179,57309,5,8,2:1:0:0:
391,141,57456,1,0,1:1:0:0:
350,76,57603,1,0,2:1:0:0:
505,164,57750,2,0,P|473:124|493:61,1,100,2|8,1:1|2:1,0:0:0:0:
501,2,58045,6,0,L|385:20,1,100,2|0,2:1|1:1,0:0:0:0:
170,109,58339,2,0,B|201:117|201:117|213:135|213:135|321:160,1,150,2|0,2:2|0:0,0:0:0:0:
318,147,58633,5,2,1:1:0:0:
276,13,58780,1,2,2:1:0:0:
147,182,58927,2,0,P|86:172|92:46,1,200,2|2,1:2|2:3,0:0:0:0:
79,54,59368,6,0,P|105:71|74:59,1,100,0|0,1:2|2:1,0:0:0:0:
198,10,59662,1,10,2:1:0:0:
186,98,59809,1,0,1:2:0:0:
18,190,59956,1,0,2:1:0:0:
0,86,60103,1,2,1:1:0:0:
414,159,60397,6,0,P|398:92|385:36,1,100,2|0,2:1|1:1,0:0:0:0:
256,160,60692,2,0,P|304:128|310:75,1,100,2|8,2:1|2:1,0:0:0:0:
256,160,60986,2,0,P|208:128|202:75,1,100,2|0,1:2|2:1,0:0:0:0:
98,159,61280,2,0,P|114:92|127:36,1,100,2|8,1:2|2:1,0:0:0:0:
256,19,61574,6,0,L|256:133,1,100,2|4,2:3|1:1,0:0:0:0:
345,136,61868,5,2,0:0:0:0:
444,63,62015,1,8,2:1:0:0:
505,115,62162,1,0,1:1:0:0:
347,36,62309,2,0,B|378:28|378:28|420:47|420:47|464:35,2,100,0|2|8,2:1|1:1|2:1,0:0:0:0:
182,152,62750,6,0,P|159:81|98:68,1,100,2|0,2:2|1:1,0:0:0:0:
14,165,63045,2,0,P|62:141|112:140,1,100,2|8,2:1|2:1,0:0:0:0:
182,152,63339,5,0,1:1:0:0:
223,20,63486,1,2,2:1:0:0:
151,79,63633,1,0,1:1:0:0:
151,79,63780,6,0,L|21:66,1,100,8|0,2:1|2:1,0:0:0:0:
360,79,64074,2,0,L|490:66,1,100,0|0,1:1|2:1,0:0:0:0:
330,153,64368,5,8,2:1:0:0:
182,5,64515,1,0,1:1:0:0:
182,153,64662,5,8,2:1:0:0:
330,5,64809,1,0,1:1:0:0:
360,79,64956,5,8,2:1:0:0:
151,79,65103,1,2,1:1:0:0:
256,192,65250,6,0,L|256:116,1,66.6666666666667,10|0,1:1|0:0,0:0:0:0:
256,192,65446,6,0,L|321:230,1,66.6666666666667,10|0,1:1|0:0,0:0:0:0:
256,192,65643,6,0,L|190:230,1,66.6666666666667,10|0,1:1|0:0,0:0:0:0:
256,281,65839,6,0,P|248:304|244:337,1,50,10|0,1:1|0:0,0:0:0:0:
168,323,65986,2,0,P|178:369|189:384,1,50
106,278,66133,5,8,2:1:0:0:
96,277,66206,1,8,2:1:0:0:
88,279,66280,1,8,2:1:0:0:
81,283,66353,1,8,2:1:0:0:
76,288,66427,2,0,L|302:252,1,179.999994506836,4|0,1:1|0:0,0:0:0:0:
267,267,66721,5,8,2:1:0:0:
443,336,66868,2,0,P|372:332|324:361,1,119.999996337891,0|0,1:1|2:1,0:0:0:0:
330,354,67162,5,0,1:1:0:0:
430,242,67309,1,8,2:1:0:0:
235,118,67456,2,0,B|243:40|243:40|298:15|298:15|334:47,1,179.999994506836,0|0,2:1|0:0,0:0:0:0:
339,62,67750,6,0,B|291:50|258:94|288:80|256:137|176:102,2,139.999995727539,2|8|0,2:1|2:1|1:1,0:0:0:0:
407,209,68192,2,0,P|379:278|362:334,1,119.999996337891,2|0,2:1|1:1,0:0:0:0:
426,364,68486,1,8,2:1:0:0:
204,240,68633,1,2,2:1:0:0:
80,337,68780,6,0,B|77:354|89:372|89:372|83:358|86:343,1,59.9999981689454,2|0,1:2|0:0,0:0:0:0:
0,326,68927,2,0,B|-2:343|9:361|9:361|3:347|6:332,1,59.9999981689454,2|0,2:2|0:0,0:0:0:0:
124,236,69074,2,0,B|121:253|133:271|133:271|127:257|130:242,1,59.9999981689454,10|0,2:1|0:0,0:0:0:0:
14,180,69221,2,0,B|11:197|23:215|23:215|17:201|20:186,1,59.9999981689454,2|0,1:2|0:0,0:0:0:0:
85,349,69515,6,0,P|103:291|131:225,1,119.999996337891,2|8,1:1|2:1,0:0:0:0:
282,189,69809,2,0,P|291:102|254:69,1,119.999996337891,2|0,2:1|1:1,0:0:0:0:
47,148,70103,2,0,B|33:124|2:113|2:113|92:124|92:124|109:119|109:119|122:126|122:126|224:139,1,279.999991455078,2|0,2:2|1:1,0:0:0:0:
303,9,70545,5,2,2:1:0:0:
384,238,70692,1,0,1:1:0:0:
512,84,70839,1,8,2:1:0:0:
282,189,70986,1,2,2:1:0:0:
343,138,71133,2,0,B|379:199|332:248|332:248|305:276|315:335,1,179.999994506836,4|0,1:1|0:0,0:0:0:0:
327,310,71427,5,8,2:1:0:0:
135,371,71574,2,0,B|164:317|164:317|137:256,1,119.999996337891,0|0,1:1|2:1,0:0:0:0:
140,263,71868,5,0,1:1:0:0:
255,354,72015,1,8,2:1:0:0:
384,201,72162,2,0,P|435:181|507:177,1,119.999996337891,0|0,2:1|1:1,0:0:0:0:
343,270,72456,6,0,B|355:226|323:187|320:220|287:177|313:118,2,139.999995727539,2|8|0,2:1|2:1|1:1,0:0:0:0:
128,201,72897,2,0,P|77:181|5:177,1,119.999996337891,2|0,2:1|1:1,0:0:0:0:
0,103,73192,1,8,2:1:0:0:
104,19,73339,1,2,2:1:0:0:
139,111,73486,5,0,1:1:0:0:
464,35,73780,1,8,2:1:0:0:
404,83,73927,2,0,P|385:144|425:207,1,119.999996337891,2|0,1:1|2:1,0:0:0:0:
470,320,74221,2,0,P|426:273|352:276,1,119.999996337891,2|8,1:1|2:1,0:0:0:0:
231,258,74515,2,0,P|293:243|327:177,1,119.999996337891,2|4,2:1|1:1,0:0:0:0:
243,15,74809,5,8,2:1:0:0:
240,29,74882,1,8,2:1:0:0:
238,44,74956,1,8,2:1:0:0:
235,59,75029,1,8,2:1:0:0:
233,74,75103,2,0,L|168:87,1,59.9999981689454,8|0,2:1|0:0,0:0:0:0:
75,178,75250,5,8,2:1:0:0:
105,162,75324,1,8,2:1:0:0:
148,165,75397,1,8,2:3:0:0:
178,202,75471,1,8,2:3:0:0:
169,253,75545,1,8,2:1:0:0:
207,213,75618,1,8,2:1:0:0:
239,217,75692,1,0,3:3:0:0:
252,224,75765,1,0,3:3:0:0:
259,222,75839,2,0,P|152:230|41:253,1,209.999993591309,4|0,1:1|0:0,0:0:0:0:
39,261,76133,5,8,2:1:0:0:
233,296,76280,2,0,P|183:333|226:400,1,119.999996337891,0|0,1:1|2:1,0:0:0:0:
194,382,76574,5,0,1:1:0:0:
156,219,76721,1,8,2:1:0:0:
306,30,76868,2,0,B|365:61|365:61|349:68|349:68|314:123|360:166,1,179.999994506836,0|0,2:1|0:0,0:0:0:0:
367,165,77162,6,0,B|405:156|405:156|433:98|433:98|480:87,2,139.999995727539,2|8|0,2:1|2:1|1:1,0:0:0:0:
135,76,77603,2,0,L|280:95,1,119.999996337891,2|0,2:1|1:1,0:0:0:0:
306,30,77897,1,8,2:1:0:0:
398,239,78045,1,2,2:1:0:0:
335,355,78192,6,0,P|334:328|361:290,1,59.9999981689454,2|0,1:2|0:0,0:0:0:0:
398,239,78339,2,0,P|324:266|274:244,2,119.999996337891,2|8|2,2:1|2:1|1:1,0:0:0:0:
468,366,78927,6,0,L|341:345,1,119.999996337891,2|8,1:1|2:1,0:0:0:0:
154,206,79221,2,0,B|197:163|197:163|295:190,1,119.999996337891,2|0,2:1|1:1,0:0:0:0:
58,377,79515,2,0,B|14:358|2:306|2:306|60:338|123:333|123:333|129:291|183:269,1,279.999991455078,2|0,2:2|1:1,0:0:0:0:
252,336,79956,5,2,2:1:0:0:
75,252,80103,1,0,1:1:0:0:
254,178,80250,1,8,2:1:0:0:
150,15,80397,1,2,2:1:0:0:
92,68,80545,2,0,L|283:35,1,179.999994506836,4|0,1:1|0:0,0:0:0:0:
282,47,80839,5,8,2:1:0:0:
173,187,80986,2,0,B|232:169|232:169|292:197,1,119.999996337891,0|0,1:1|2:1,0:0:0:0:
284,193,81280,5,0,1:1:0:0:
252,336,81427,1,8,2:1:0:0:
235,125,81574,2,0,L|361:101,1,119.999996337891,0|0,2:1|1:1,0:0:0:0:
500,333,81868,6,0,B|432:352|371:297|431:287|368:219|284:235,1,239.999992675781,2|0,2:1|1:1,0:0:0:0:
12,333,82309,2,0,B|80:352|141:297|81:287|144:219|228:235,1,239.999992675781,2|8,2:1|2:1,0:0:0:0:
500,333,82750,1,2,2:1:0:0:
455,269,82897,5,2,1:1:0:0:
373,312,83045,1,0,2:1:0:0:
363,193,83192,1,10,2:1:0:0:
251,319,83339,1,2,1:1:0:0:
214,139,83486,1,0,2:1:0:0:
133,339,83633,1,2,1:1:0:0:
16,106,83780,1,10,2:1:0:0:
23,376,83927,1,2,2:1:0:0:
138,182,84074,6,0,L|17:205,1,79.9999975585938,14|0,1:1|0:0,0:0:0:0:
105,272,84270,6,0,L|146:156,1,79.9999975585938,10|0,1:1|0:0,0:0:0:0:
43,199,84466,6,0,L|123:292,1,79.9999975585938,10|0,1:1|0:0,0:0:0:0:
137,181,84662,5,10,1:1:0:0:
137,181,84956,5,8,2:1:0:0:
144,175,85030,1,8,2:1:0:0:
153,171,85103,1,8,2:1:0:0:
164,169,85177,1,8,2:1:0:0:
175,169,85250,2,0,B|148:122|89:147|89:147|39:100|-6:142,1,200,4|8,1:1|2:1,0:0:0:0:
64,309,85839,5,0,2:1:0:0:
150,299,85986,1,0,1:1:0:0:
236,289,86133,1,8,2:1:0:0:
5,161,86427,1,0,1:1:0:0:
55,221,86574,6,0,L|30:61,1,160,2|0,2:1|1:1,0:0:0:0:
108,44,87015,2,0,P|146:21|190:31,1,80,0|0,2:1|1:1,0:0:0:0:
245,141,87309,1,10,2:1:0:0:
126,124,87456,1,0,2:1:0:0:
191,20,87603,1,0,1:1:0:0:
140,202,87750,6,0,B|85:218|53:173|81:182|46:126|-29:157,2,160,2|2|2,2:1|2:1|1:1,0:0:0:0:
240,153,88486,2,0,P|221:204|215:244,1,80,8|0,2:1|2:1,0:0:0:0:
237,377,88780,1,0,1:1:0:0:
174,326,88927,6,0,P|133:366|23:348,1,160,2|0,2:1|1:1,0:0:0:0:
58,284,89368,1,0,2:1:0:0:
58,284,89515,1,0,1:1:0:0:
220,322,89662,2,0,B|208:283|208:283|170:309,1,80,10|0,2:1|0:0,0:0:0:0:
31,375,89956,1,4,1:1:0:0:
58,284,90103,6,0,B|175:270|175:270|213:243,1,160,0|0,0:0|2:1,0:0:0:0:
149,193,90545,1,0,2:1:0:0:
200,128,90692,1,0,1:1:0:0:
153,59,90839,1,8,2:1:0:0:
73,81,90986,1,0,2:1:0:0:
69,163,91133,1,0,1:1:0:0:
149,193,91280,6,0,P|186:142|128:47,1,160,2|0,2:1|1:1,0:0:0:0:
73,81,91721,2,0,B|13:97|13:97|34:62,1,80,0|0,2:1|1:1,0:0:0:0:
93,5,92015,1,10,2:1:0:0:
141,174,92162,1,0,2:1:0:0:
7,268,92309,6,0,B|49:258|93:291|93:338|93:338|98:317|130:295,1,160,2|8,1:1|2:1,0:0:0:0:
165,364,92750,1,0,1:1:0:0:
18,342,92897,1,2,2:1:0:0:
133,238,93045,2,0,L|218:250,1,80,0|8,1:1|2:1,0:0:0:0:
91,168,93339,2,0,L|2:183,1,80,2|4,2:1|1:1,0:0:0:0:
28,100,93633,5,8,2:3:0:0:
25,90,93706,1,8,2:3:0:0:
22,80,93780,1,8,2:3:0:0:
87,6,93927,5,8,2:3:0:0:
84,16,94000,1,8,2:3:0:0:
81,26,94074,1,0,3:3:0:0:
103,21,94147,1,0,3:3:0:0:
144,29,94221,1,0,3:3:0:0:
174,63,94295,1,0,3:3:0:0:
174,112,94368,5,2,2:3:0:0:
200,144,94442,1,2,2:3:0:0:
232,156,94515,1,2,2:3:0:0:
256,149,94589,1,2,2:3:0:0:
264,138,94662,6,0,B|280:116|280:116|361:103|361:103|384:121|384:121|402:194|322:242,1,239.999992675781,4|8,1:1|2:1,0:0:0:0:
282,216,95103,2,0,L|297:324,1,100,0|0,1:1|2:1,0:0:0:0:
465,381,95397,1,0,1:1:0:0:
408,278,95545,1,8,2:1:0:0:
345,375,95692,1,0,2:1:0:0:
408,278,95839,1,0,1:1:0:0:
357,214,95986,6,0,P|386:140|433:127,1,100,2|8,2:1|2:1,0:0:0:0:
477,104,96280,1,0,1:1:0:0:
357,214,96427,2,0,L|249:197,1,100,2|0,2:1|1:1,0:0:0:0:
285,16,96721,5,10,2:1:0:0:
477,104,96868,1,2,2:1:0:0:
357,214,97015,1,0,1:1:0:0:
458,28,97162,6,0,P|377:48|341:59,1,100,2|8,2:1|2:1,0:0:0:0:
430,239,97456,2,0,P|414:161|369:141,1,100,2|0,1:1|2:1,0:0:0:0:
357,214,97750,1,0,1:1:0:0:
301,294,97897,1,8,2:1:0:0:
471,369,98045,1,0,2:1:0:0:
456,153,98192,1,0,1:1:0:0:
430,237,98339,6,0,L|448:120,1,100,2|8,2:1|2:1,0:0:0:0:
295,14,98633,2,0,P|293:78|347:111,2,100,0|2|0,1:1|2:1|1:1,0:0:0:0:
419,62,99074,2,0,L|427:3,1,50,10|0,2:1|0:0,0:0:0:0:
391,134,99221,2,0,L|399:193,1,50,10|0,2:1|2:1,0:0:0:0:
315,101,99368,5,4,1:1:0:0:
501,34,99515,2,0,P|524:72|505:134,1,100,0|8,0:0|2:1,0:0:0:0:
444,163,99809,2,0,P|384:171|335:182,1,100,0|0,1:1|2:1,0:0:0:0:
357,255,100103,2,0,P|405:244|455:238,1,100,0|8,1:1|2:1,0:0:0:0:
462,314,100397,1,0,2:1:0:0:
293,382,100545,1,0,1:1:0:0:
285,137,100692,6,0,P|322:230|341:331,1,200,2|0,2:2|1:1,0:0:0:0:
293,382,101133,2,0,P|308:317|343:304,1,100,2|0,2:1|1:1,0:0:0:0:
480,236,101427,2,0,P|510:190|489:138,1,100,10|0,2:1|2:1,0:0:0:0:
308,26,101721,6,0,B|272:17|262:10|262:10|315:68|408:40,1,200,2|8,1:1|2:1,0:0:0:0:
481,18,102162,2,0,L|456:122,1,100,0|0,1:1|2:1,0:0:0:0:
491,248,102456,5,0,1:1:0:0:
363,140,102603,1,8,2:1:0:0:
308,240,102750,1,0,2:1:0:0:
465,164,102897,5,4,1:1:0:0:
462,151,102970,1,8,2:1:0:0:
460,139,103044,1,8,2:1:0:0:
458,127,103117,1,8,2:1:0:0:
456,114,103191,1,8,2:1:0:0:
374,90,103339,5,0,1:3:0:0:
373,75,103412,1,0,1:3:0:0:
384,52,103486,1,8,2:1:0:0:
418,39,103559,1,8,2:1:0:0:
368,39,103633,1,0,1:1:0:0:
338,19,103706,1,0,1:1:0:0:
295,8,103780,1,8,2:1:0:0:
226,64,103927,6,0,P|197:119|180:182,2,119.999996337891,6|0|0,2:3|1:1|0:0,0:0:0:0:
282,142,104368,5,10,2:1:0:0:
370,166,104515,1,0,1:1:0:0:
208,182,104662,1,0,2:1:0:0:
106,22,104809,2,0,P|183:47|205:57,1,100,2|8,1:1|2:1,0:0:0:0:
158,120,105103,6,0,P|110:153|54:131,1,100,2|0,1:1|1:1,0:0:0:0:
77,138,105324,1,2,0:1:0:0:
79,128,105397,2,0,B|12:138|12:138|-7:183,1,100,2|8,2:2|2:1,0:0:0:0:
1,56,105692,5,0,1:1:0:0:
191,73,105839,2,0,B|210:48|210:48|182:-10|110:-11|70:33,1,200,2|8,2:1|2:1,0:0:0:0:
113,102,106280,6,0,B|137:170|137:170|213:155,1,150,2|0,1:3|0:0,0:0:0:0:
226,155,106574,1,2,2:1:0:0:
317,57,106721,1,8,2:1:0:0:
338,142,106868,1,0,1:1:0:0:
232,18,107015,1,0,2:1:0:0:
415,116,107162,2,0,P|472:121|533:130,1,100,2|8,1:1|2:1,0:0:0:0:
338,142,107456,6,0,P|346:74|398:36,1,100,2|0,1:1|1:1,0:0:0:0:
174,142,107750,2,0,P|166:74|114:36,1,100,2|8,2:1|2:1,0:0:0:0:
97,116,108045,2,0,P|40:121|-21:130,1,100,2|0,1:2|2:1,0:0:0:0:
255,69,108339,6,0,B|280:29|256:0|230:31|260:81,1,100,2|8,1:2|2:1,0:0:0:0:
174,142,108633,1,10,2:3:0:0:
415,116,108780,2,0,B|382:72|382:72|399:12,1,100,6|0,1:1|0:0,0:0:0:0:
474,62,109074,5,8,2:1:0:0:
425,129,109221,1,0,1:1:0:0:
292,76,109368,5,0,2:1:0:0:
324,174,109515,1,2,1:1:0:0:
394,28,109662,5,8,2:1:0:0:
97,116,109809,2,0,B|130:72|130:72|113:12,1,100,2|0,1:2|1:1,0:0:0:0:
45,54,110103,2,0,B|12:98|12:98|29:158,1,100,0|8,2:1|2:1,0:0:0:0:
117,28,110397,2,0,P|165:92|280:66,1,200,2|0,1:1|1:1,0:0:0:0:
316,9,110839,5,8,2:1:0:0:
396,171,110986,1,0,1:1:0:0:
476,100,111133,2,0,L|254:82,1,200,2|8,1:1|2:1,0:0:0:0:
218,29,111574,2,0,P|172:24|115:61,1,100,0|0,1:1|2:1,0:0:0:0:
220,185,111868,5,0,1:1:0:0:
265,96,112015,1,8,2:1:0:0:
94,126,112162,1,2,1:2:0:0:
84,123,112236,1,2,0:2:0:0:
73,120,112309,5,6,1:1:0:0:
199,20,112456,2,0,P|181:98|174:132,1,100,8|8,2:1|2:1,0:0:0:0:
322,127,112750,5,8,2:1:0:0:
334,131,112824,1,8,2:1:0:0:
348,128,112897,1,8,1:2:0:0:
331,111,112971,1,8,2:1:0:0:
300,112,113045,1,8,2:1:0:0:
266,133,113118,1,8,2:1:0:0:
266,178,113192,1,0,3:3:0:0:
328,243,113339,6,0,B|378:237|378:237|396:245|396:245|463:236,2,119.999996337891,6|0|0,2:3|1:1|0:0,0:0:0:0:
187,376,113780,5,10,2:1:0:0:
245,209,113927,1,0,1:1:0:0:
328,243,114074,2,0,B|387:285|365:352|365:352|339:368|339:368|286:352,1,200,2|8,2:1|2:1,0:0:0:0:
255,288,114515,6,0,L|145:299,1,100,2|0,2:1|1:1,0:0:0:0:
399,366,114809,2,0,B|492:377|492:377|511:351|511:351|493:310,1,150,2|0,2:2|0:0,0:0:0:0:
493,317,115103,5,2,1:1:0:0:
512,227,115250,1,2,2:1:0:0:
329,310,115397,2,0,B|271:324|220:270|269:275|217:206|129:237,1,200,2|2,1:2|2:3,0:0:0:0:
159,230,115839,6,0,P|133:247|164:235,1,100,0|0,1:2|2:1,0:0:0:0:
55,212,116133,1,10,2:1:0:0:
98,354,116280,1,0,1:1:0:0:
13,375,116427,1,0,2:1:0:0:
124,261,116574,1,2,1:1:0:0:
511,368,116868,6,0,P|432:358|382:354,1,100,2|0,2:1|1:1,0:0:0:0:
256,315,117162,2,0,P|307:283|359:289,1,100,2|8,2:1|2:1,0:0:0:0:
100,356,117456,2,0,P|50:361|1:368,1,100,2|0,1:2|2:1,0:0:0:0:
256,315,117750,6,0,P|205:283|153:289,1,100,2|8,1:2|2:1,0:0:0:0:
189,363,118045,1,2,2:3:0:0:
264,211,118192,2,0,B|287:232|287:232|373:244,1,100,4|2,1:1|0:2,0:0:0:0:
446,219,118486,1,8,2:1:0:0:
351,349,118633,1,0,1:1:0:0:
218,300,118780,2,0,P|235:247|255:199,2,100,0|2|8,2:1|1:1|2:1,0:0:0:0:
126,240,119221,6,0,P|193:259|219:315,1,100,2|0,2:2|1:1,0:0:0:0:
18,311,119515,2,0,B|12:263|12:263|50:222,1,100,2|8,2:1|2:1,0:0:0:0:
142,317,119809,5,0,1:1:0:0:
75,368,119956,1,2,2:1:0:0:
126,240,120103,1,0,1:1:0:0:
126,240,120250,6,0,L|0:255,1,100,8|0,2:1|2:1,0:0:0:0:
386,240,120545,6,0,L|512:255,1,100,0|0,1:1|2:1,0:0:0:0:
306,379,120839,5,8,2:1:0:0:
206,206,120986,1,0,1:1:0:0:
206,379,121133,5,8,2:1:0:0:
306,206,121280,1,0,1:1:0:0:
356,293,121427,5,8,2:1:0:0:
156,293,121574,1,2,1:1:0:0:
256,192,121721,6,0,L|256:268,1,66.6666666666667,14|0,1:1|0:0,0:0:0:0:
256,192,121917,6,0,L|322:154,1,66.6666666666667,10|0,1:1|0:0,0:0:0:0:
256,192,122113,6,0,L|191:154,1,66.6666666666667,10|0,1:1|0:0,0:0:0:0:
256,96,122309,6,0,P|242:75|238:43,1,50,10|0,1:1|0:0,0:0:0:0:
172,4,122456,2,0,P|167:28|147:54,1,50,0|0,0:0|0:0,0:0:0:0:
78,78,122603,5,8,2:1:0:0:
69,76,122677,1,8,2:1:0:0:
62,70,122750,1,8,2:1:0:0:
58,62,122824,1,8,2:1:0:0:
59,52,122897,2,0,P|137:128|100:246,1,209.999993591309,4|0,1:1|0:0,0:0:0:0:
109,225,123192,5,8,2:1:0:0:
4,373,123339,2,0,B|58:342|58:342|125:359,1,119.999996337891,0|0,1:1|2:1,0:0:0:0:
113,356,123633,5,0,1:1:0:0:
34,204,123780,1,8,2:1:0:0:
316,349,123927,2,0,B|352:308|315:258|256:270|250:312|250:312|240:340|198:334,1,179.999994506836,0|0,2:1|0:0,0:0:0:0:
218,323,124221,6,0,B|278:311|278:311|296:321|296:321|374:305,2,139.999995727539,2|8|0,2:1|2:1|1:1,0:0:0:0:
119,183,124662,2,0,P|134:117|186:84,1,119.999996337891,2|0,2:1|1:1,0:0:0:0:
240,126,124956,1,8,2:1:0:0:
451,51,125103,1,2,2:1:0:0:
342,12,125250,6,0,B|318:-1|297:16|297:16|323:21,1,59.9999981689454,2|0,1:2|0:0,0:0:0:0:
374,87,125397,2,0,B|350:101|354:127|354:127|372:107,1,59.9999981689454,2|0,2:2|0:0,0:0:0:0:
264,84,125545,2,0,B|236:84|227:109|227:109|252:101,1,59.9999981689454,10|0,2:1|0:0,0:0:0:0:
388,203,125692,2,0,B|375:226|392:247|392:247|397:221,1,59.9999981689454,2|0,1:2|0:0,0:0:0:0:
451,51,125986,6,0,L|319:31,1,119.999996337891,2|8,1:1|2:1,0:0:0:0:
192,136,126280,2,0,B|103:152|103:152|135:135,1,119.999996337891,2|0,2:1|1:1,0:0:0:0:
401,249,126574,2,0,B|431:172|337:90|268:121|268:121|273:151|260:171,1,279.999991455078,2|0,2:2|1:1,0:0:0:0:
164,248,127015,5,2,2:1:0:0:
102,42,127162,1,0,1:1:0:0:
306,4,127309,1,8,2:1:0:0:
104,152,127456,1,2,2:1:0:0:
46,103,127603,6,0,P|122:78|163:197,1,179.999994506836,4|0,1:1|0:0,0:0:0:0:
178,162,127897,1,8,2:1:0:0:
0,293,128045,2,0,P|19:219|31:173,1,119.999996337891,0|0,1:1|2:1,0:0:0:0:
30,177,128339,5,0,1:1:0:0:
126,270,128486,1,8,2:1:0:0:
301,123,128633,2,0,P|306:50|267:16,1,119.999996337891,0|0,2:1|1:1,0:0:0:0:
178,162,128927,6,0,L|322:131,2,139.999995727539,2|8|0,2:1|2:1|1:1,0:0:0:0:
301,261,129368,2,0,P|306:334|267:368,1,119.999996337891,2|0,2:1|1:1,0:0:0:0:
179,298,129662,1,8,2:1:0:0:
58,382,129809,1,2,2:1:0:0:
10,309,129956,5,0,1:1:0:0:
172,20,130250,1,8,2:1:0:0:
150,97,130397,2,0,B|103:135|103:135|42:125,1,119.999996337891,2|0,1:1|2:1,0:0:0:0:
176,178,130692,2,0,B|232:199|232:199|254:257,1,119.999996337891,2|8,1:1|2:1,0:0:0:0:
233,114,130986,2,0,B|223:54|223:54|262:6,1,119.999996337891,2|4,2:1|1:1,0:0:0:0:
442,154,131280,5,8,2:1:0:0:
450,166,131353,1,8,2:1:0:0:
456,179,131427,1,8,2:1:0:0:
460,194,131500,1,8,2:1:0:0:
461,210,131574,2,0,P|422:192|389:191,1,59.9999981689454,8|0,2:1|0:0,0:0:0:0:
356,285,131721,5,8,1:2:0:0:
353,308,131795,1,8,2:1:0:0:
374,340,131868,1,8,2:3:0:0:
423,350,131942,1,8,2:3:0:0:
468,314,132015,1,8,2:1:0:0:
437,320,132089,1,8,2:1:0:0:
417,307,132162,1,0,3:3:0:0:
417,295,132236,1,0,3:3:0:0:
422,288,132309,2,0,L|206:324,1,209.999993591309,4|0,1:1|0:0,0:0:0:0:
204,318,132603,5,8,2:1:0:0:
76,197,132750,2,0,P|75:137|118:98,1,119.999996337891,0|0,1:1|2:1,0:0:0:0:
116,98,133045,5,0,1:1:0:0:
153,240,133192,1,8,2:1:0:0:
17,50,133339,2,0,B|60:45|77:5|77:5|53:66|124:117,1,179.999994506836,0|0,2:1|0:0,0:0:0:0:
116,98,133633,6,0,B|164:110|197:66|167:80|199:23|279:58,2,139.999995727539,2|8|0,2:1|2:1|1:1,0:0:0:0:
155,260,134074,2,0,P|93:237|38:233,1,119.999996337891,2|0,2:1|1:1,0:0:0:0:
1,300,134368,1,8,2:1:0:0:
209,198,134515,1,2,2:1:0:0:
279,235,134662,6,0,P|287:269|266:325,1,59.9999981689454,2|0,1:2|0:0,0:0:0:0:
209,198,134809,2,0,L|354:217,2,119.999996337891,2|8|2,2:1|2:1|1:1,0:0:0:0:
290,283,135397,6,0,P|299:356|372:388,1,119.999996337891,2|8,1:1|2:1,0:0:0:0:
410,250,135692,2,0,P|464:195|452:133,1,119.999996337891,2|0,2:1|1:1,0:0:0:0:
202,135,135986,2,0,B|306:133|391:174|391:174|345:145|337:78,1,279.999991455078,2|0,2:2|1:1,0:0:0:0:
301,0,136427,5,2,2:1:0:0:
474,78,136574,1,0,1:1:0:0:
299,182,136721,1,8,2:1:0:0:
364,317,136868,1,2,2:1:0:0:
410,250,137015,6,0,P|396:161|373:61,1,179.999994506836,4|0,1:1|0:0,0:0:0:0:
360,66,137309,1,8,2:1:0:0:
220,159,137456,2,0,B|159:168|159:168|108:107,1,119.999996337891,0|0,1:1|2:1,0:0:0:0:
121,123,137750,5,0,1:1:0:0:
300,181,137897,1,8,2:1:0:0:
33,286,138045,2,0,L|62:153,1,119.999996337891,0|0,2:1|1:1,0:0:0:0:
214,49,138339,6,0,B|206:10|206:10|150:-11|107:59|148:36|109:104|34:83,1,239.999992675781,2|0,2:1|1:1,0:0:0:0:
298,49,138780,2,0,B|305:10|305:10|361:-11|404:59|363:36|402:104|477:83,1,239.999992675781,2|8,2:1|2:1,0:0:0:0:
214,49,139221,1,2,2:1:0:0:
256,117,139368,5,2,1:1:0:0:
173,179,139515,1,0,2:1:0:0:
322,158,139662,1,10,2:1:0:0:
203,266,139809,1,2,1:1:0:0:
403,172,139956,1,0,2:1:0:0:
288,336,140103,1,2,1:1:0:0:
480,146,140250,1,10,2:1:0:0:
397,375,140397,1,2,1:1:0:0:
374,202,140545,6,0,L|495:179,1,79.9999975585938,14|0,1:1|0:0,0:0:0:0:
407,112,140741,6,0,L|366:228,1,79.9999975585938,10|0,1:1|0:0,0:0:0:0:
469,185,140937,6,0,L|389:92,1,79.9999975585938,10|0,1:1|0:0,0:0:0:0:
375,203,141133,5,10,1:1:0:0:
375,203,141427,5,8,2:1:0:0:
368,210,141500,1,8,2:1:0:0:
368,219,141574,1,8,2:1:0:0:
370,227,141647,1,8,2:1:0:0:
376,235,141721,1,4,1:1:0:0:
451,224,141868,6,0,L|438:288,1,50,2|0,0:2|0:0,0:0:0:0:
465,220,142015,1,8,2:1:0:0:
311,326,142162,6,0,P|320:350|327:383,1,50,2|0,1:2|0:0,0:0:0:0:
232,328,142309,2,0,P|206:323|174:313,1,50,2|0,2:1|0:0,0:0:0:0:
269,258,142456,2,0,P|285:238|310:215,1,50,2|0,1:1|0:0,0:0:0:0:
258,255,142603,1,8,2:1:0:0:
101,346,142750,6,0,L|31:360,1,50,2|0,2:2|0:0,0:0:0:0:
111,354,142897,1,0,1:1:0:0:
145,228,143045,6,0,L|75:242,1,50,2|0,2:2|0:0,0:0:0:0:
155,236,143192,1,8,2:1:0:0:
274,358,143339,6,0,L|204:372,1,50,2|0,1:2|0:0,0:0:0:0:
284,366,143486,1,0,2:1:0:0:
438,247,143633,6,0,P|353:236|304:228,1,100,2|8,1:1|2:1,0:0:0:0:
460,381,143927,2,0,P|450:340|409:325,1,75,2|0,2:2|0:0,0:0:0:0:
412,324,144074,6,0,P|375:341|339:324,1,50,2|0,1:2|0:0,0:0:0:0:
363,261,144221,2,0,P|324:246|311:209,1,50,2|0,2:2|0:0,0:0:0:0:
305,384,144368,2,0,P|288:347|305:311,1,50,10|0,2:1|0:0,0:0:0:0:
251,204,144515,2,0,P|236:261|211:323,1,100,2|2,1:2|2:1,0:0:0:0:
142,327,144760,5,2,0:1:0:0:
65,295,144858,5,2,0:2:0:0:
42,216,144956,6,0,P|101:220|142:266,1,100,10|0,2:1|2:1,0:0:0:0:
55,343,145250,6,0,P|65:293|76:265,1,50,2|0,1:1|0:0,0:0:0:0:
121,196,145397,2,0,P|131:246|142:274,1,50,2|0,2:2|0:0,0:0:0:0:
202,278,145545,6,0,P|250:261|280:257,1,50,10|0,2:1|0:0,0:0:0:0:
385,359,145692,2,0,P|433:375|463:379,1,50,2|0,1:2|0:0,0:0:0:0:
331,260,145839,5,2,2:1:0:0:
333,272,145912,1,2,0:1:0:0:
335,284,145986,1,2,1:1:0:0:
484,220,146133,5,8,2:1:0:0:
390,350,146280,2,0,P|429:331|458:334,2,50,8|8|4,2:1|2:1|1:1,0:0:0:0:
330,302,146574,1,2,0:2:0:0:
508,349,146721,2,0,P|495:282|435:254,1,100,8|2,2:1|1:1,0:0:0:0:
313,380,147015,6,0,L|263:371,1,50,2|0,2:2|0:0,0:0:0:0:
213,230,147162,2,0,L|163:239,1,50,2|0,1:2|0:0,0:0:0:0:
224,223,147309,5,8,2:1:0:0:
109,300,147456,2,0,L|59:291,1,50,2|0,2:2|0:0,0:0:0:0:
3,240,147603,5,2,1:1:0:0:
74,196,147750,1,0,2:1:0:0:
109,300,147897,1,10,2:1:0:0:
220,235,148045,1,0,1:1:0:0:
206,371,148192,5,2,2:1:0:0:
41,331,148339,1,2,1:1:0:0:
142,228,148486,1,10,2:1:0:0:
279,338,148633,1,0,2:1:0:0:
493,234,148780,5,2,1:1:0:0:
492,223,148853,1,2,0:1:0:0:
490,211,148927,1,2,2:2:0:0:
435,286,149074,2,0,P|413:322|418:386,2,100,8|0|2,2:1|1:1|2:1,0:0:0:0:
338,303,149515,2,0,B|278:311|309:234|445:289|409:401,1,200,2|0,1:2|2:1,0:0:0:0:
330,381,149956,5,4,1:1:0:0:
209,320,150103,1,8,2:1:0:0:
196,322,150176,1,8,2:1:0:0:
184,324,150250,1,8,2:1:0:0:
193,248,150397,5,8,2:1:0:0:
185,238,150471,1,8,2:1:0:0:
172,228,150544,1,8,1:2:0:0:
148,220,150618,1,8,2:1:0:0:
116,233,150692,1,8,2:1:0:0:
110,271,150765,1,8,2:1:0:0:
118,281,150839,5,0,3:3:0:0:
69,300,150912,1,8,2:1:0:0:
24,279,150986,1,8,2:1:0:0:
13,227,151059,1,8,2:1:0:0:
52,188,151133,2,0,B|67:139|67:139|33:88,1,100,4|0,1:1|0:0,0:0:0:0:
203,5,151427,2,0,B|188:54|188:54|222:105,1,100,8|0,2:1|1:1,0:0:0:0:
276,43,151721,6,0,P|301:24|341:22,1,50,2|0,2:2|0:0,0:0:0:0:
291,121,151868,2,0,P|319:133|341:166,1,50,2|0,1:2|0:0,0:0:0:0:
282,128,152015,1,8,2:1:0:0:
466,50,152162,6,0,P|453:12|431:-26,1,50,2|0,2:2|0:0,0:0:0:0:
462,62,152309,1,0,1:1:0:0:
413,151,152456,6,0,P|400:113|378:75,1,50,2|0,2:2|0:0,0:0:0:0:
409,163,152603,1,8,2:1:0:0:
276,43,152750,6,0,P|240:17|161:34,1,100,2|0,1:2|2:1,0:0:0:0:
39,102,153045,2,0,L|145:80,1,100,2|8,1:1|2:1,0:0:0:0:
244,175,153339,6,0,P|209:128|237:66,1,100,2|0,2:2|1:1,0:0:0:0:
402,19,153633,1,2,2:1:0:0:
352,115,153780,1,8,2:1:0:0:
413,159,153927,6,0,L|538:138,1,100,2|0,1:2|2:1,0:0:0:0:
290,68,154221,2,0,L|156:56,1,100,2|8,1:2|2:1,0:0:0:0:
402,19,154515,1,2,2:1:0:0:
342,189,154662,5,2,1:2:0:0:
344,179,154736,1,2,0:1:0:0:
339,169,154809,1,2,2:2:0:0:
326,162,154883,1,2,0:1:0:0:
311,161,154956,2,0,B|241:172|241:172|215:137,1,100,10|2,2:1|1:2,0:0:0:0:
144,24,155250,5,2,2:1:0:0:
149,16,155324,1,2,0:1:0:0:
158,10,155397,1,2,1:2:0:0:
168,8,155471,1,2,0:1:0:0:
180,13,155545,2,0,L|152:141,1,100,8|12,2:1|2:1,0:0:0:0:
158,110,155839,6,0,P|217:76|260:84,1,100,0|0,1:1|0:0,0:0:0:0:
381,164,156133,1,8,2:1:0:0:
223,148,156280,1,0,1:1:0:0:
337,24,156427,1,0,2:1:0:0:
314,189,156574,2,0,L|289:68,1,100,0|8,1:1|2:1,0:0:0:0:
21,13,156868,6,0,P|14:73|85:125,1,150,2|0,2:2|0:0,0:0:0:0:
95,126,157162,1,0,2:1:0:0:
248,10,157309,1,8,2:1:0:0:
88,52,157456,2,0,P|173:57|306:78,1,200,2|0,1:2|1:1,0:0:0:0:
497,150,157897,1,8,2:1:0:0:
497,150,158045,6,0,P|446:84|457:52,2,100,0|2|0,2:1|1:1|2:1,0:0:0:0:
371,139,158486,2,0,P|312:148|274:169,1,100,10|0,2:1|1:1,0:0:0:0:
204,30,158780,2,0,P|245:69|306:68,1,100,2|0,2:1|1:1,0:0:0:0:
117,161,159074,2,0,L|8:174,1,100,10|2,2:1|2:1,0:0:0:0:
276,145,159368,6,0,L|300:74,1,66.6666666666667,10|0,1:1|0:0,0:0:0:0:
286,232,159564,6,0,L|336:289,1,66.6666666666667,10|0,1:1|0:0,0:0:0:0:
205,198,159760,6,0,L|131:212,1,66.6666666666667,10|0,1:1|0:0,0:0:0:0:
276,145,159956,6,0,L|264:89,3,50,10|0|0|0,2:1|0:0|0:0|0:0,0:0:0:0:
189,115,160250,5,8,2:1:0:0:
179,106,160323,1,8,2:1:0:0:
168,100,160397,1,0,3:3:0:0:
156,97,160470,1,0,3:3:0:0:
144,97,160544,1,4,1:1:0:0:
144,97,161133,2,0,P|156:150|168:225,2,119.999996337891,0|8|0,2:2|2:3|2:2,0:0:0:0:
67,94,161868,6,0,P|53:42|114:6,1,119.999996337891,2|0,0:0|3:3,0:0:0:0:
144,97,162309,1,0,2:2:0:0:
10,170,162603,1,2,2:3:0:0:
69,269,162897,1,2,2:2:0:0:
69,269,163486,2,0,P|122:252|203:253,2,119.999996337891,0|8|0,2:2|2:3|2:2,0:0:0:0:
27,335,164221,6,0,B|72:343|94:378|94:378|103:354|135:341,1,119.999996337891,2|0,0:0|3:3,0:0:0:0:
197,377,164662,1,0,2:2:0:0:
232,257,164956,1,2,2:3:0:0:
147,187,165250,1,2,2:2:0:0:
147,187,165839,2,0,P|156:138|108:88,2,119.999996337891,0|8|0,2:2|2:3|2:2,0:0:0:0:
148,266,166574,6,0,L|21:251,1,119.999996337891,2|0,0:0|3:3,0:0:0:0:
12,181,167015,1,0,2:2:0:0:
82,116,167309,1,2,2:3:0:0:
8,15,167603,6,0,P|45:61|213:64,1,239.999992675781,2|2,2:2|2:2,0:0:0:0:
212,64,168486,2,0,L|219:2,2,59.9999981689454,8|0|0,2:3|0:0|2:2,0:0:0:0:
112,123,169074,2,0,L|128:189,1,59.9999981689454,2|0,0:0|3:3,0:0:0:0:
61,224,169368,2,0,P|100:257|184:233,1,119.999996337891,0|2,2:2|2:3,0:0:0:0:
265,174,169956,5,2,2:2:0:0:
265,174,170545,2,0,P|283:85|289:39,2,119.999996337891,0|8|0,2:2|2:3|2:2,0:0:0:0:
337,203,171280,6,0,P|337:255|416:271,1,119.999996337891,2|0,0:0|3:3,0:0:0:0:
461,216,171721,1,0,2:2:0:0:
320,300,172015,1,2,2:3:0:0:
428,377,172309,1,2,2:2:0:0:
428,377,172897,2,0,P|352:364|295:360,2,119.999996337891,0|8|0,2:2|2:3|2:2,0:0:0:0:
474,314,173633,6,0,B|487:264|437:249|437:249|414:267|394:262,1,119.999996337891,2|0,0:0|3:3,0:0:0:0:
337,316,174074,1,0,2:2:0:0:
263,188,174368,1,2,2:3:0:0:
337,113,174662,1,2,2:2:0:0:
337,113,175250,2,0,P|297:67|325:12,2,119.999996337891,0|8|0,2:2|2:3|2:2,0:0:0:0:
392,59,175986,6,0,L|516:76,1,119.999996337891,2|0,0:0|3:3,0:0:0:0:
443,145,176427,1,0,2:2:0:0:
502,265,176721,1,2,2:3:0:0:
320,355,177015,1,2,2:2:0:0:
388,249,177162,6,0,L|381:309,1,50,8|0,2:1|0:0,0:0:0:0:
447,344,177456,6,0,B|451:372|451:372|455:340,1,50,8|0,2:1|0:0,0:0:0:0:
382,298,177603,2,0,B|355:287|355:287|381:306,1,50,10|0,2:1|0:0,0:0:0:0:
455,265,177750,2,0,B|477:247|477:247|447:260,1,50,10|0,2:1|0:0,0:0:0:0:
455,265,178045,6,0,P|396:254|341:246,1,100,10|0,3:1|2:2,0:0:0:0:
218,183,178339,2,0,P|279:175|339:167,1,100,10|0,3:1|0:0,0:0:0:0:
263,322,178633,6,0,P|204:311|149:303,1,100,10|0,2:1|1:1,0:0:0:0:
362,101,178927,2,0,P|423:93|483:85,1,100,10|0,2:1|0:0,0:0:0:0:
129,372,179221,6,0,P|87:320|131:240,2,139.999995727539,14|0|0,2:1|1:1|0:0,0:0:0:0:
271,310,179662,1,10,2:1:0:0:
124,181,179809,1,0,1:1:0:0:
164,305,179956,1,0,2:1:0:0:
296,102,180103,2,0,P|205:116|163:125,1,119.999996337891,2|8,1:1|2:1,0:0:0:0:
124,181,180397,6,0,B|87:145|87:145|120:52,1,119.999996337891,2|0,2:1|1:1,0:0:0:0:
116,68,180618,1,2,0:1:0:0:
123,54,180692,2,0,L|29:66,1,59.9999981689454,2|0,2:2|0:0,0:0:0:0:
6,13,180839,1,8,2:1:0:0:
177,121,180986,5,2,1:1:0:0:
194,124,181059,1,2,0:1:0:0:
211,129,181133,1,2,2:1:0:0:
397,64,181280,2,0,B|352:20|281:62|287:120|287:120|294:179|229:201,1,239.999992675781,2|2,1:2|2:3,0:0:0:0:
256,198,181721,6,0,B|281:194|293:210|293:210|274:204|261:212,1,59.9999981689454,2|0,1:2|0:0,0:0:0:0:
187,243,181868,2,0,B|162:239|150:255|150:255|169:249|182:257,1,59.9999981689454,2|0,2:2|0:0,0:0:0:0:
313,280,182015,2,0,B|338:276|350:292|350:292|331:286|318:294,1,59.9999981689454,10|0,2:1|0:0,0:0:0:0:
146,329,182162,2,0,B|121:325|109:341|109:341|128:335|141:343,1,59.9999981689454,2|0,1:2|0:0,0:0:0:0:
225,384,182309,1,0,2:1:0:0:
256,198,182456,2,0,P|260:277|262:334,1,119.999996337891,2|8,1:1|2:1,0:0:0:0:
308,138,182750,6,0,P|344:96|415:89,1,119.999996337891,2|0,2:1|1:1,0:0:0:0:
204,138,183045,2,0,P|168:96|97:89,1,119.999996337891,2|8,2:1|2:1,0:0:0:0:
23,211,183339,2,0,B|70:216|91:188|67:191|108:156|148:168,1,119.999996337891,2|0,1:2|2:1,0:0:0:0:
489,211,183633,2,0,B|442:216|421:188|445:191|403:156|364:168,1,119.999996337891,2|8,1:2|2:1,0:0:0:0:
201,51,183927,6,0,P|256:71|310:50,2,119.999996337891,2|4|0,2:3|1:1|0:1,0:0:0:0:
128,165,184368,1,10,2:1:0:0:
26,22,184515,1,0,1:1:0:0:
134,89,184662,1,0,2:1:0:0:
76,228,184809,2,0,P|47:158|82:106,1,119.999996337891,2|8,1:1|2:1,0:0:0:0:
201,51,185103,6,0,B|249:39|289:71|253:65|295:111|363:89,1,139.999995727539,2|0,2:1|1:1,0:0:0:0:
126,283,185397,2,0,B|78:271|38:303|74:297|32:343|-36:321,1,139.999995727539,2|8,2:1|2:1,0:0:0:0:
219,122,185692,1,2,1:2:0:0:
219,122,185839,2,0,P|194:198|181:283,1,119.999996337891,2|0,2:1|1:1,0:0:0:0:
198,316,186133,2,0,P|259:348|315:322,1,119.999996337891,10|0,2:1|2:1,0:0:0:0:
186,237,186427,5,2,1:1:0:0:
109,359,186574,1,0,0:0:0:0:
11,315,186721,1,8,2:1:0:0:
261,268,186868,2,0,B|296:236|296:236|280:127,1,119.999996337891,2|0,1:1|2:1,0:0:0:0:
219,122,187162,1,2,1:1:0:0:
198,316,187309,1,8,2:1:0:0:
221,43,187456,5,8,2:1:0:0:
239,39,187529,1,8,2:1:0:0:
257,35,187603,1,4,1:1:0:0:
150,82,187750,5,8,2:1:0:0:
132,78,187823,1,8,2:1:0:0:
114,74,187897,1,8,2:1:0:0:
219,122,188045,5,0,1:3:0:0:
226,132,188118,1,0,1:3:0:0:
233,156,188192,1,8,2:1:0:0:
217,200,188265,1,8,2:1:0:0:
169,223,188339,1,0,1:1:0:0:
149,263,188412,1,0,1:1:0:0:
156,291,188486,1,8,2:1:0:0:
260,381,188633,6,0,P|170:366|119:364,2,139.999995727539,6|0|0,2:3|1:1|0:0,0:0:0:0:
375,244,189074,1,10,2:1:0:0:
237,280,189221,1,0,1:1:0:0:
278,383,189368,1,0,2:1:0:0:
407,169,189515,2,0,P|365:162|302:212,1,119.999996337891,2|8,1:1|2:1,0:0:0:0:
375,244,189809,6,0,P|388:311|396:363,1,119.999996337891,2|0,2:1|1:1,0:0:0:0:
407,169,190103,2,0,P|415:124|431:42,1,119.999996337891,0|2,2:1|0:0,0:0:0:0:
500,19,190397,1,2,1:1:0:0:
301,169,190545,1,2,2:1:0:0:
453,238,190692,2,0,P|487:305|457:365,1,119.999996337891,2|8,1:2|2:1,0:0:0:0:
303,326,190986,6,0,B|349:287|349:287|418:304,1,119.999996337891,2|0,2:3|1:1,0:0:0:0:
475,344,191280,1,0,2:1:0:0:
297,315,191427,1,10,2:1:0:0:
375,244,191574,1,0,1:1:0:0:
370,375,191721,1,2,2:1:0:0:
378,365,191795,1,2,0:1:0:0:
376,353,191868,1,2,1:1:0:0:
301,169,192015,1,8,2:1:0:0:
93,187,192162,6,0,L|234:165,1,119.999996337891,2|0,2:1|1:1,0:0:0:0:
419,187,192456,2,0,L|278:165,1,119.999996337891,2|8,2:1|2:1,0:0:0:0:
75,112,192750,2,0,P|24:150|20:212,1,119.999996337891,2|0,1:2|2:1,0:0:0:0:
437,112,193045,2,0,P|488:150|492:212,1,119.999996337891,2|8,1:2|2:1,0:0:0:0:
311,333,193339,6,0,P|256:313|202:334,2,119.999996337891,4|0|0,1:1|1:1|0:0,0:0:0:0:
379,384,193780,1,10,2:1:0:0:
325,252,193927,1,0,1:1:0:0:
208,348,194074,1,2,2:1:0:0:
340,172,194221,1,0,1:1:0:0:
385,372,194368,1,10,2:1:0:0:
355,89,194515,6,0,B|318:86|318:86|269:29|269:29|201:21,1,139.999995727539,2|0,2:1|1:1,0:0:0:0:
27,226,194809,2,0,B|64:223|64:223|113:166|113:166|181:158,1,139.999995727539,2|8,2:1|2:1,0:0:0:0:
364,306,195103,1,2,1:2:0:0:
364,306,195250,2,0,B|256:286|256:286|224:315,1,139.999995727539,2|0,2:1|1:1,0:0:0:0:
178,367,195545,2,0,P|189:283|139:230,1,139.999995727539,10|0,2:1|2:1,0:0:0:0:
27,146,195839,5,12,1:1:0:0:
187,330,195986,1,8,2:1:0:0:
184,344,196059,1,8,2:1:0:0:
181,359,196133,1,8,2:1:0:0:
29,289,196280,5,8,2:3:0:0:
292,176,196427,1,8,2:3:0:0:
301,163,196500,1,8,2:3:0:0:
310,151,196574,1,0,1:1:0:0:
138,27,196721,5,0,3:3:0:0:
267,293,196868,1,0,3:3:0:0:
478,99,197015,6,0,P|430:106|395:130,1,79.9999975585938,10|0,1:1|0:0,0:0:0:0:
160,66,197211,6,0,P|185:110|181:157,1,79.9999975585938,10|0,1:1|0:0,0:0:0:0:
288,204,197407,6,0,P|280:251|294:300,1,79.9999975585938,10|0,1:1|0:0,0:0:0:0:
256,354,197603,5,14,1:1:0:0:
