osu file format v14

[General]
AudioFilename: audio.mp3
AudioLeadIn: 0
PreviewTime: 74394
Countdown: 0
SampleSet: Soft
StackLeniency: 0.2
Mode: 0
LetterboxInBreaks: 0
WidescreenStoryboard: 1

[Editor]
DistanceSpacing: 1.3
BeatDivisor: 4
GridSize: 4
TimelineZoom: 1.7

[Metadata]
Title:Suigetsukyouka no Connotation
TitleUnicode:水月鏡花のコノテーション
Artist:Hinatabi Bitter Sweets
ArtistUnicode:日向美ビタースイーツ♪ ‎
Creator:Lunala
Version:Paradise Seeker
Source:jubeat prop
Tags:japanese pop video game ひなビタ hinabita pop'n music ラピストリア REFLEC BEAT groovin'!! Upper GITADORA Tri-Boost SOUND VOLTEX III GRAVITY WARS TOMOSUKE CUTEG 霜月凛 Shimotsuki Rin 水原 薫 Mizuhara Kaoru 山形まり花 Yamagata Marika 日高 里菜 Hidaka Rina papple104
BeatmapID:2499393
BeatmapSetID:1155621

[Difficulty]
HPDrainRate:6
CircleSize:4.2
OverallDifficulty:8
ApproachRate:9.1
SliderMultiplier:1.6
SliderTickRate:1

[Events]
//Background and Video events
0,0,"bg.jpg",0,0
//Break Periods
//Storyboard Layer 0 (Background)
//Storyboard Layer 1 (Fail)
//Storyboard Layer 2 (Pass)
//Storyboard Layer 3 (Foreground)
//Storyboard Layer 4 (Overlay)
//Storyboard Sound Samples

[TimingPoints]
1840,324.324324324324,4,2,1,30,1,0
1840,-125,4,2,1,30,0,0
4434,-142.857142857143,4,2,1,30,0,0
8812,-142.857142857143,4,2,1,5,0,0
8975,-142.857142857143,4,2,1,30,0,0
9461,-142.857142857143,4,2,1,5,0,0
9623,-142.857142857143,4,2,1,30,0,0
12542,-125,4,2,1,35,0,0
14164,-125,4,2,1,40,0,0
14812,-142.857142857143,4,2,1,40,0,0
17407,-142.857142857143,4,2,1,45,0,0
22272,-83.3333333333333,4,2,1,55,0,0
32002,-100,4,2,1,50,0,0
32975,-100,4,2,1,45,0,0
40758,-100,4,2,1,50,0,0
45867,-100,4,2,1,5,0,0
45948,-100,4,2,1,50,0,0
53570,-90.9090909090909,4,2,1,55,0,0
71245,-90.9090909090909,4,2,1,65,0,0
74488,-76.9230769230769,4,2,1,75,0,1
84867,-90.9090909090909,4,2,1,75,0,1
95245,-100,4,2,1,55,0,0
105623,-100,4,2,1,60,0,0

[Colours]
Combo1 : 179,109,255
Combo2 : 81,255,239
SliderBorder : 255,255,248

[HitObjects]
163,96,2164,6,0,L|144:161,1,64,2|0,0:2|0:2,0:0:0:0:
269,261,2488,2,0,P|268:192|206:145,1,128,0|0,1:3|0:2,0:0:0:0:
189,224,2975,2,0,B|286:227|286:227|394:134,1,192,2|0,0:2|0:2,0:0:0:0:
87,244,3785,2,0,L|120:382,1,128,0|0,1:3|0:2,0:0:0:0:
242,293,4434,6,0,P|164:264|-15:282,1,223.999993164063,2|0,0:2|1:3,0:0:0:0:
298,370,5407,2,0,P|408:316|394:219,1,223.999993164063,2|0,0:2|0:2,0:0:0:0:
298,370,6380,5,2,0:0:0:0:
380,365,6542,1,0,0:2:0:0:
446,316,6704,1,0,0:2:0:0:
473,238,6867,1,0,0:2:0:0:
409,152,7029,6,0,B|328:131|355:203|289:189|231:176|231:176|278:149,1,223.999993164063,2|0,0:2|1:3,0:0:0:0:
268,157,8002,1,2,0:2:0:0:
393,71,8164,2,0,P|465:98|451:225,1,223.999993164063,2|0,0:2|0:2,0:0:0:0:
392,303,8975,2,0,B|371:191|371:191|424:133,1,167.999994873047,0|0,1:3|0:2,0:0:0:0:
284,118,9623,2,0,L|300:183,1,55.9999982910157,2|0,0:2|0:2,0:0:0:0:
251,233,9948,2,0,B|215:203|192:166|189:91|211:51|253:8|294:5|333:7|333:7|340:47|334:81|301:113|271:123,1,447.999986328125,2|0,0:2|0:2,0:0:0:0:
141,371,12542,6,0,L|122:306,1,64,2|0,0:2|0:2,0:0:0:0:
232,183,12866,2,0,P|242:251|190:308,1,128,0|0,1:3|0:2,0:0:0:0:
159,230,13353,2,0,B|246:219|255:252|265:293|356:263,1,192,2|0,0:2|0:2,0:0:0:0:
456,118,14164,2,0,P|363:180|339:154,1,128,0|0,1:3|0:2,0:0:0:0:
202,101,14812,6,0,P|195:300|210:330,1,223.999993164063,0|0,3:2|1:3,0:0:0:0:
295,230,15785,2,0,P|141:282|98:372,1,223.999993164063,2|0,0:2|0:3,0:0:0:0:
295,230,16758,5,2,0:2:0:0:
213,225,16921,1,0,0:2:0:0:
136,253,17083,1,0,0:2:0:0:
77,307,17245,1,0,0:2:0:0:
41,379,17407,6,0,P|88:211|72:139,1,223.999993164063,6|0,0:2|1:3,0:0:0:0:
62,169,18380,1,0,0:2:0:0:
88,27,18542,2,0,P|71:101|194:198,1,223.999993164063,2|0,0:2|0:2,0:0:0:0:
284,274,19353,2,0,P|316:157|302:114,1,167.999994873047,0|0,3:2|0:2,0:0:0:0:
184,321,20002,2,0,L|175:388,1,55.9999982910157,0|0,3:2|0:2,0:0:0:0:
70,298,20326,2,0,B|87:221|27:97|27:97|91:248|232:224,1,447.999986328125,2|0,0:2|0:2,0:0:0:0:
159,12,22110,5,8,0:2:0:0:
250,51,22272,2,0,P|211:104|112:89,1,143.999995605469,8|0,0:2|0:2,0:0:0:0:
122,97,22596,5,14,0:2:0:0:
170,191,22758,2,0,L|164:302,1,95.9999970703126,10|0,0:2|0:2,0:0:0:0:
292,367,23083,5,10,0:2:0:0:
290,332,23164,1,8,0:2:0:0:
285,296,23245,1,10,0:2:0:0:
276,256,23326,1,8,0:2:0:0:
400,138,23569,5,10,0:2:0:0:
398,173,23650,1,8,0:3:0:0:
393,209,23731,1,10,0:2:0:0:
384,249,23812,1,8,0:2:0:0:
167,161,24056,5,10,0:2:0:0:
194,130,24137,1,8,0:3:0:0:
234,122,24218,1,10,0:2:0:0:
274,136,24299,1,8,0:3:0:0:
300,160,24380,2,2,L|280:208,3,47.9999985351563,8|8|8|8,0:3|0:3|0:3|0:3,0:0:0:0:
362,76,24704,2,2,L|336:19,3,47.9999985351563,8|8|8|8,0:3|0:3|0:3|0:3,0:0:0:0:
437,114,25029,1,8,0:3:0:0:
441,141,25110,1,8,0:3:0:0:
450,173,25191,5,14,0:2:0:0:
507,269,25353,2,0,P|419:279|412:356,1,95.9999970703126,10|0,0:2|0:2,0:0:0:0:
300,369,25677,5,10,0:2:0:0:
298,334,25758,1,8,0:3:0:0:
293,298,25839,1,10,0:2:0:0:
284,258,25920,1,8,0:3:0:0:
174,112,26163,5,10,0:2:0:0:
172,147,26244,1,8,0:3:0:0:
167,183,26325,1,10,0:2:0:0:
161,221,26406,1,8,0:3:0:0:
28,304,26650,5,10,0:2:0:0:
31,265,26731,1,0,0:2:0:0:
35,221,26812,2,0,L|84:261,1,47.9999985351563,10|0,0:2|0:2,0:0:0:0:
134,333,26975,2,0,P|125:375|113:422,1,47.9999985351563,8|0,0:3|0:2,0:0:0:0:
232,272,27137,2,0,P|278:218|374:232,1,143.999995605469,8|0,0:2|0:2,0:0:0:0:
403,271,27461,5,8,0:3:0:0:
400,300,27542,1,8,0:3:0:0:
467,383,27785,5,14,0:2:0:0:
512,260,27948,2,0,P|494:163|476:136,1,95.9999970703126,10|0,0:2|0:2,0:0:0:0:
369,94,28272,5,10,0:2:0:0:
371,129,28353,1,8,0:3:0:0:
376,165,28434,1,10,0:2:0:0:
385,205,28515,1,8,0:3:0:0:
245,319,28758,5,10,0:2:0:0:
247,284,28839,1,8,0:3:0:0:
252,248,28920,1,10,0:2:0:0:
260,209,29001,1,8,0:3:0:0:
134,133,29245,5,14,0:2:0:0:
111,160,29326,1,8,0:3:0:0:
72,175,29407,1,10,0:2:0:0:
32,171,29488,1,8,0:3:0:0:
2,141,29569,6,2,L|14:90,3,47.9999985351563,8|8|8|8,0:3|0:3|0:3|0:3,0:0:0:0:
92,5,29894,2,2,L|105:66,3,47.9999985351563,8|8|8|8,0:3|0:3|0:3|0:3,0:0:0:0:
213,82,30218,1,8,0:3:0:0:
209,115,30299,1,8,0:3:0:0:
205,145,30380,5,14,0:2:0:0:
326,257,30542,2,0,P|346:168|343:151,1,95.9999970703126,10|0,0:2|0:2,0:0:0:0:
461,50,30867,5,10,0:2:0:0:
444,74,30948,1,8,0:3:0:0:
436,100,31029,1,10,0:2:0:0:
431,128,31110,2,2,L|443:182,2,47.9999985351563,8|8|8,0:3|0:3|0:3,0:0:0:0:
503,275,31353,5,10,0:2:0:0:
503,275,31515,1,10,0:2:0:0:
289,344,31839,6,0,L|211:322,1,47.9999985351563,14|0,0:2|0:2,0:0:0:0:
137,328,32002,2,0,P|241:306|253:111,1,320,10|0,0:2|0:2,0:0:0:0:
62,51,32975,5,8,0:2:0:0:
62,51,33137,2,0,L|78:161,1,80,8|0,0:2|0:2,0:0:0:0:
169,171,33461,1,8,0:2:0:0:
169,171,33623,2,0,L|153:262,1,80,10|0,0:2|0:2,0:0:0:0:
81,366,33948,1,10,0:2:0:0:
81,366,34110,2,0,P|141:348|290:339,1,160,10|0,0:2|0:2,0:0:0:0:
403,283,34596,2,0,P|258:259|181:226,1,160,8|0,0:2|0:2,0:0:0:0:
139,151,35569,5,10,0:2:0:0:
139,151,35731,2,0,P|173:49|191:31,1,80,8|0,0:2|0:2,0:0:0:0:
249,11,36056,1,8,0:2:0:0:
249,11,36218,2,0,P|279:94|276:133,1,80,10|0,0:2|0:2,0:0:0:0:
344,185,36542,1,10,0:2:0:0:
344,185,36704,2,0,P|408:89|508:113,1,160,10|8,0:2|0:2,0:0:0:0:
408,259,37191,2,0,P|276:248|250:153,1,240,8|0,0:2|0:2,0:0:0:0:
75,68,38164,5,10,0:2:0:0:
75,68,38326,2,0,L|191:91,1,80,8|0,0:2|0:2,0:0:0:0:
272,90,38650,1,8,0:2:0:0:
272,90,38812,2,0,P|248:137|239:165,1,80,10|0,0:2|0:2,0:0:0:0:
221,288,39137,1,10,0:2:0:0:
221,288,39299,2,0,P|162:236|37:264,1,160,10|8,0:2|0:2,0:0:0:0:
4,153,39785,2,0,L|219:92,1,160,10|0,0:2|0:2,0:0:0:0:
272,118,40597,5,10,0:3:0:0:
272,118,40678,1,8,0:3:0:0:
272,118,40758,2,0,P|280:160|262:214,1,80,4|0,3:2|0:2,0:0:0:0:
156,271,41083,2,0,P|148:229|166:175,1,80,8|0,0:2|0:2,0:0:0:0:
335,265,41408,1,8,0:2:0:0:
238,354,41570,1,8,0:3:0:0:
238,354,41651,1,8,0:3:0:0:
238,354,41732,1,8,0:3:0:0:
335,265,41894,6,0,B|428:237|411:311|513:263,1,160,4|0,3:2|0:2,0:0:0:0:
443,173,42381,1,8,0:3:0:0:
443,173,42462,1,8,0:3:0:0:
443,173,42543,1,8,0:3:0:0:
388,347,42705,1,8,0:2:0:0:
335,265,42867,1,8,0:2:0:0:
147,42,43354,6,0,L|131:129,1,80,4|0,3:2|0:2,0:0:0:0:
65,212,43678,1,10,0:2:0:0:
37,131,43840,1,0,0:2:0:0:
153,198,44002,2,0,B|252:164|226:242|330:203,1,160,2|8,3:2|0:2,0:0:0:0:
399,44,44488,2,0,P|314:92|347:148,1,160,2|0,3:2|0:2,0:0:0:0:
494,195,44975,2,0,L|394:173,1,80,8|0,0:2|0:2,0:0:0:0:
353,302,45299,2,0,L|455:286,1,80,2|0,3:2|0:2,0:0:0:0:
297,378,45623,2,0,P|259:323|274:249,1,120,10|0,0:0|0:2,0:0:0:0:
289,205,45948,6,0,P|231:258|153:253,1,160,2|8,3:2|0:2,0:0:0:0:
47,311,46434,1,0,0:2:0:0:
36,199,46596,2,0,L|12:95,1,80,2|0,3:2|0:2,0:0:0:0:
128,344,46921,1,8,0:2:0:0:
158,206,47083,2,0,P|177:121|180:22,1,160,2|0,3:2|0:2,0:0:0:0:
303,6,47569,2,0,P|337:86|443:96,1,160,8|0,0:2|3:2,0:0:0:0:
511,119,48056,1,0,0:2:0:0:
438,218,48218,6,0,L|419:314,1,80,10|0,0:2|0:2,0:0:0:0:
262,384,48542,1,0,3:2:0:0:
222,316,48704,1,0,0:2:0:0:
274,255,48867,1,8,0:2:0:0:
347,285,49029,1,0,0:0:0:0:
222,316,49191,2,0,L|47:350,1,160,0|10,3:2|0:2,0:0:0:0:
0,254,49677,5,0,0:2:0:0:
68,96,49839,2,0,P|94:166|96:194,1,80,0|0,3:2|0:2,0:0:0:0:
255,157,50164,2,0,P|163:255|163:296,1,160,8|0,0:2|0:2,0:0:0:0:
247,360,50650,1,0,0:2:0:0:
410,299,50812,2,0,L|297:273,1,80,10|0,0:2|0:2,0:0:0:0:
129,173,51137,5,10,0:3:0:0:
137,201,51218,1,8,0:3:0:0:
146,231,51299,1,8,0:3:0:0:
255,303,51461,1,0,3:2:0:0:
290,213,51623,1,4,0:2:0:0:
77,277,51785,6,0,L|-21:254,1,80,2|2,3:2|3:3,0:0:0:0:
156,359,52110,1,8,0:2:0:0:
211,200,52272,2,0,P|274:136|355:166,1,160,6|0,3:2|0:2,0:0:0:0:
441,210,52759,5,8,0:3:0:0:
423,245,52840,1,8,0:3:0:0:
388,261,52921,1,8,0:3:0:0:
347,255,53002,1,8,0:3:0:0:
320,223,53083,1,8,0:3:0:0:
218,143,53246,5,8,0:3:0:0:
222,164,53327,1,8,0:3:0:0:
225,186,53408,1,8,0:3:0:0:
162,296,53570,6,0,P|247:293|290:391,1,176.000005371094,6|0,3:2|0:2,0:0:0:0:
395,329,54056,2,0,L|406:239,1,88.000002685547,8|0,0:2|0:2,0:0:0:0:
458,87,54380,1,0,3:0:0:0:
381,66,54543,1,0,3:2:0:0:
330,218,54705,1,10,0:2:0:0:
415,158,54867,6,0,B|312:131|312:131|243:182,1,176.000005371094,0|0,3:3|0:3,0:3:0:0:
108,215,55354,2,0,L|207:239,1,88.000002685547,8|0,0:2|0:2,0:0:0:0:
344,287,55677,5,2,3:2:0:0:
286,219,55839,1,2,3:2:0:0:
209,345,56001,1,10,0:2:0:0:
299,365,56163,1,0,0:2:0:0:
201,255,56326,6,0,L|85:286,1,88.000002685547,0|0,3:2|0:2,0:0:0:0:
46,358,56651,2,0,B|88:326|88:326|68:200,1,176.000005371094,8|0,0:2|3:2,0:0:0:0:
47,120,57137,1,0,3:2:0:0:
0,243,57300,1,10,0:2:0:0:
138,137,57462,6,0,B|240:106|210:187|319:143,1,176.000005371094,2|0,3:2|0:2,0:0:0:0:
355,2,57948,2,0,P|347:57|373:99,1,88.000002685547,10|0,0:2|0:2,0:0:0:0:
465,219,58273,2,0,P|472:163|446:121,1,88.000002685547,2|0,3:2|0:2,0:0:0:0:
309,220,58597,1,10,0:2:0:0:
386,267,58759,1,0,0:2:0:0:
330,129,58921,6,0,L|225:151,1,88.000002685547,2|0,3:2|0:2,0:0:0:0:
106,111,59245,2,0,L|106:228,1,88.000002685547,8|0,0:2|0:2,0:0:0:0:
71,352,59569,1,0,3:0:0:0:
156,368,59732,1,0,3:2:0:0:
201,214,59894,1,10,0:2:0:0:
118,280,60056,6,0,B|220:306|220:306|289:256,1,176.000005371094,0|0,3:2|0:2,0:0:0:0:
444,245,60543,2,0,L|350:225,1,88.000002685547,8|0,0:2|0:2,0:0:0:0:
239,110,60867,5,2,3:2:0:0:
301,47,61029,1,2,0:2:0:0:
378,71,61191,1,10,0:2:0:0:
396,154,61354,1,2,0:2:0:0:
239,110,61516,6,0,L|78:107,1,88.000002685547,2|0,3:2|0:2,0:0:0:0:
41,166,61840,2,0,P|133:100|110:23,1,176.000005371094,8|0,0:2|3:2,0:0:0:0:
0,87,62327,1,0,3:2:0:0:
41,166,62489,1,2,0:2:0:0:
127,49,62651,6,0,L|341:52,1,176.000005371094,6|0,3:2|0:2,0:0:0:0:
418,98,63137,1,10,0:2:0:0:
307,231,63300,1,8,0:3:0:0:
303,204,63381,1,8,0:3:0:0:
299,178,63462,1,10,0:3:0:0:
446,251,63624,1,8,0:3:0:0:
398,326,63786,1,8,0:3:0:0:
386,180,63948,1,8,0:3:0:0:
308,335,64110,6,0,B|243:361|243:361|123:302,1,176.000005371094,6|0,3:2|0:2,0:0:0:0:
3,249,64597,2,0,L|117:227,1,88.000002685547,2|0,3:2|0:2,0:0:0:0:
223,206,64921,1,2,0:2:0:0:
90,148,65083,1,10,0:2:0:0:
177,60,65246,6,0,B|203:116|203:116|170:255,1,176.000005371094,6|0,3:2|0:2,0:0:0:0:
257,342,65732,2,0,L|286:226,1,88.000002685547,8|0,0:2|0:2,0:0:0:0:
383,222,66056,1,0,0:2:0:0:
356,307,66218,1,0,0:2:0:0:
237,365,66381,2,0,L|263:249,1,88.000002685547,8|0,0:2|0:2,0:0:0:0:
383,222,66705,6,0,P|438:244|520:165,1,176.000005371094,6|0,3:2|0:2,0:0:0:0:
437,58,67191,2,0,L|432:180,1,88.000002685547,2|0,3:2|0:2,0:0:0:0:
442,283,67516,1,0,0:2:0:0:
512,160,67678,1,10,0:2:0:0:
383,222,67840,6,0,B|285:213|320:298|191:263,1,176.000005371094,2|0,3:2|0:2,0:0:0:0:
119,377,68327,2,0,L|134:266,1,88.000002685547,0|0,0:2|0:2,0:0:0:0:
37,177,68651,2,0,B|33:231|33:231|51:265,1,88.000002685547,8|0,0:2|0:2,0:0:0:0:
221,269,68975,2,0,B|237:232|237:232|230:178,1,88.000002685547,2|0,0:2|0:2,0:0:0:0:
292,22,69299,6,0,L|331:203,1,176.000005371094,2|0,3:2|0:2,0:0:0:0:
446,244,69785,2,0,P|453:186|440:147,1,88.000002685547,2|0,3:2|0:2,0:0:0:0:
361,266,70110,1,0,0:2:0:0:
476,336,70272,1,10,0:2:0:0:
367,382,70435,2,0,B|288:365|288:365|255:376|255:376|177:359,1,176.000005371094,4|0,3:2|0:2,0:0:0:0:
174,261,70921,5,8,0:3:0:0:
197,226,71002,1,8,0:3:0:0:
235,213,71083,1,8,0:3:0:0:
275,219,71164,1,8,0:3:0:0:
300,247,71246,6,0,L|284:113,1,132.00000402832,2|0,3:2|0:2,0:0:0:0:
310,40,71570,2,0,P|264:92|179:76,1,132.00000402832,2|0,3:2|0:2,0:0:0:0:
126,48,71894,5,10,0:2:0:0:
32,163,72056,1,8,0:3:0:0:
25,135,72137,1,8,0:3:0:0:
18,107,72218,1,8,0:3:0:0:
126,48,72381,5,10,0:2:0:0:
188,149,72543,1,8,0:3:0:0:
181,177,72624,1,8,0:3:0:0:
174,205,72705,1,8,0:3:0:0:
117,321,72867,5,8,0:3:0:0:
152,298,72948,1,8,0:3:0:0:
195,295,73029,1,8,0:3:0:0:
233,314,73110,1,8,0:3:0:0:
249,355,73191,1,8,0:3:0:0:
353,380,73354,5,8,0:3:0:0:
359,366,73435,1,8,0:3:0:0:
366,351,73516,2,0,L|378:205,1,132.00000402832,8|0,3:3|0:2,0:0:0:0:
450,183,73840,5,8,0:3:0:0:
420,151,73921,1,8,0:3:0:0:
376,138,74002,1,8,0:3:0:0:
331,152,74083,1,8,0:3:0:0:
308,188,74164,1,8,0:3:0:0:
277,219,74246,1,8,0:3:0:0:
238,230,74327,1,8,0:3:0:0:
197,216,74408,1,8,0:3:0:0:
166,186,74489,6,0,P|253:232|232:347,1,207.999990478516,6|8,3:2|0:2,0:0:0:0:
113,342,74975,1,0,0:2:0:0:
6,202,75137,2,0,P|11:151|15:88,1,103.999995239258,0|0,3:2|0:2,0:0:0:0:
179,34,75462,1,10,0:2:0:0:
109,229,75624,2,0,B|104:144|103:41|102:2,1,207.999990478516,2|0,3:2|0:2,0:0:0:0:
283,93,76110,6,0,P|263:220|257:244,1,103.999995239258,10|0,0:2|0:2,0:0:0:0:
379,332,76435,2,0,P|464:260|410:177,1,207.999990478516,2|8,3:2|0:2,0:0:0:0:
313,159,76921,1,2,0:2:0:0:
188,278,77083,6,0,L|200:381,1,103.999995239258,0|0,3:2|0:2,0:0:0:0:
444,268,77408,2,0,P|329:256|298:324,1,155.999992858887,10|0,0:2|0:2,0:0:0:0:
379,332,77731,1,2,3:2:0:0:
379,332,77894,1,0,3:2:0:0:
333,171,78056,2,0,P|337:84|336:0,1,155.999992858887,10|0,0:2|0:2,0:0:0:0:
247,23,78381,5,2,3:2:0:0:
223,115,78543,1,0,0:2:0:0:
207,214,78705,1,8,0:2:0:0:
247,23,78867,2,0,B|159:15|132:88|132:88|122:16,1,207.999990478516,2|0,3:2|0:2,0:0:0:0:
0,150,79354,2,0,P|13:221|17:266,1,103.999995239258,10|0,0:2|0:2,0:0:0:0:
87,378,79678,6,0,P|149:236|219:224,1,207.999990478516,2|8,3:2|0:2,0:0:0:0:
315,202,80164,1,0,0:2:0:0:
435,283,80327,2,0,P|418:335|406:386,1,103.999995239258,0|0,3:2|0:2,0:0:0:0:
314,335,80651,1,10,0:2:0:0:
184,144,80813,2,0,P|220:375|221:396,1,207.999990478516,2|0,3:2|0:2,0:0:0:0:
8,319,81300,6,0,L|135:295,1,103.999995239258,10|0,0:2|0:2,0:0:0:0:
259,109,81624,2,0,P|230:223|138:228,1,207.999990478516,2|8,3:2|0:2,0:0:0:0:
70,179,82110,1,2,0:2:0:0:
152,48,82273,6,0,P|183:113|178:173,1,103.999995239258,0|0,3:2|0:2,0:0:0:0:
116,353,82597,2,0,P|85:288|90:228,1,103.999995239258,10|0,0:2|0:2,0:0:0:0:
295,210,82921,2,0,P|259:243|176:242,1,103.999995239258,2|0,3:2|0:2,0:0:0:0:
0,180,83246,2,0,P|36:147|119:148,1,103.999995239258,10|0,0:2|0:2,0:0:0:0:
240,89,83570,5,2,3:2:0:0:
161,207,83732,1,0,3:2:0:0:
145,29,83894,1,8,0:2:0:0:
295,163,84056,2,0,P|290:252|278:388,1,207.999990478516,2|0,3:2|0:2,0:0:0:0:
419,341,84543,1,10,0:0:0:0:
452,243,84705,1,2,0:0:0:0:
391,158,84867,5,4,3:2:0:0:
419,341,85029,1,2,0:0:0:0:
452,243,85191,1,10,0:0:0:0:
391,158,85354,1,2,0:0:0:0:
285,264,85516,2,0,B|211:284|211:284|88:255,1,176.000005371094,0|8,3:2|0:2,0:0:0:0:
21,186,86002,1,2,0:2:0:0:
108,112,86164,5,0,3:2:0:0:
30,292,86327,1,2,0:2:0:0:
21,186,86489,1,10,0:2:0:0:
108,112,86651,1,2,0:2:0:0:
212,201,86813,2,0,P|209:246|206:291,1,88.000002685547,0|0,3:2|0:2,0:0:0:0:
289,87,87137,2,0,P|291:33|288:-8,1,88.000002685547,10|0,0:2|0:2,0:0:0:0:
426,105,87462,6,0,L|409:251,1,132.00000402832,6|0,3:2|0:2,0:0:0:0:
343,310,87785,2,0,P|385:269|474:296,1,132.00000402832,10|0,0:2|0:2,0:0:0:0:
477,292,88110,1,2,3:2:0:0:
415,365,88273,1,0,3:2:0:0:
266,384,88434,2,0,B|235:344|235:344|259:208,1,176.000005371094,10|0,0:2|3:2,0:0:0:0:
313,80,88921,5,0,3:2:0:0:
422,151,89083,1,8,0:2:0:0:
325,240,89246,1,8,0:3:0:0:
330,216,89327,1,8,0:3:0:0:
335,191,89408,1,8,0:3:0:0:
433,247,89570,1,2,0:2:0:0:
356,374,89732,5,8,0:3:0:0:
338,344,89813,1,8,0:3:0:0:
299,325,89894,1,8,0:3:0:0:
259,322,89975,1,8,0:3:0:0:
227,340,90056,1,4,3:2:0:0:
84,295,90218,5,2,0:2:0:0:
167,229,90381,1,10,0:2:0:0:
256,261,90543,1,2,0:2:0:0:
84,295,90705,6,0,P|74:232|51:100,1,176.000005371094,2|8,3:2|0:2,0:0:0:0:
204,0,91191,2,0,L|190:194,1,176.000005371094,2|0,3:2|0:2,0:0:0:0:
201,334,91678,1,10,0:2:0:0:
395,287,91840,2,0,P|351:230|267:269,1,176.000005371094,2|0,3:2|0:2,0:0:0:0:
191,175,92326,2,0,L|212:51,1,88.000002685547,10|0,0:2|0:2,0:0:0:0:
377,29,92650,6,0,P|380:150|384:177,1,132.00000402832,6|0,3:2|0:2,0:0:0:0:
433,246,92975,2,0,P|376:188|305:215,1,132.00000402832,10|0,0:2|0:2,0:0:0:0:
311,206,93299,1,2,3:2:0:0:
275,317,93461,1,0,3:2:0:0:
129,277,93623,2,0,P|167:213|226:215,1,132.00000402832,10|0,0:2|0:2,0:0:0:0:
228,216,93948,6,0,L|110:199,1,88.000002685547,2|0,3:2|0:2,0:0:0:0:
36,112,94272,1,8,0:2:0:0:
126,22,94434,1,10,0:3:0:0:
130,46,94515,1,8,0:3:0:0:
135,73,94596,1,8,0:3:0:0:
217,154,94758,1,8,0:3:0:0:
311,93,94921,1,8,0:3:0:0:
253,1,95083,1,8,0:3:0:0:
217,154,95245,6,0,P|236:242|244:339,1,160,6|0,3:2|0:2,0:0:0:0:
332,382,95731,2,0,P|243:336|193:371,1,160,10|0,0:2|0:2,0:0:0:0:
89,352,96218,2,0,L|102:257,1,80,2|0,3:2|0:2,0:0:0:0:
19,202,96542,1,0,0:2:0:0:
186,233,96704,2,0,P|178:114|160:46,1,160,10|0,0:2|0:2,0:0:0:0:
287,0,97191,6,0,L|284:88,1,80,2|0,3:2|0:2,0:0:0:0:
381,116,97515,2,0,P|361:204|358:227,1,80,10|0,0:2|0:2,0:0:0:0:
424,275,97839,6,0,P|360:223|271:267,1,160,0|0,3:2|0:2,0:0:0:0:
194,326,98326,2,0,B|305:339|305:339|365:300,1,160,10|0,0:2|0:2,0:0:0:0:
240,231,98812,1,2,3:2:0:0:
112,296,98975,2,0,L|108:395,1,80,8|0,0:2|0:2,0:0:0:0:
0,189,99299,2,0,P|16:265|25:360,1,160,10|0,0:2|0:2,0:0:0:0:
144,143,99785,6,0,P|124:63|103:46,1,80,2|0,3:2|0:2,0:0:0:0:
91,233,100110,1,8,0:3:0:0:
100,258,100191,1,8,0:3:0:0:
107,280,100272,1,8,0:3:0:0:
258,319,100434,6,0,B|363:292|363:292|441:317,1,160,6|0,3:2|0:2,0:0:0:0:
512,347,100921,2,0,P|434:237|447:223,1,160,10|0,0:2|0:2,0:0:0:0:
494,170,101407,1,2,3:2:0:0:
407,95,101569,2,0,L|317:115,1,80,8|0,0:2|0:2,0:0:0:0:
223,218,101894,2,0,L|426:170,1,160,10|0,0:2|0:2,0:0:0:0:
441,76,102380,6,0,L|338:99,1,80,2|0,3:2|0:2,0:0:0:0:
425,241,102704,2,0,L|531:215,1,80,10|0,0:2|0:2,0:0:0:0:
344,332,103029,6,0,B|318:238|318:238|360:144,1,160,6|0,3:2|0:2,0:0:0:0:
253,64,103515,2,0,L|232:226,1,160,10|0,0:2|0:2,0:0:0:0:
183,352,104002,1,10,0:2:0:0:
85,229,104164,2,0,L|80:114,1,80,8|0,0:2|0:2,0:0:0:0:
166,254,104488,2,0,P|111:307|8:273,1,160,10|0,0:2|0:2,0:0:0:0:
75,171,104975,5,8,0:3:0:0:
166,254,105137,1,8,0:3:0:0:
164,277,105218,1,8,0:3:0:0:
162,300,105299,1,10,0:3:0:0:
238,379,105461,1,8,0:3:0:0:
342,299,105623,6,0,L|331:205,1,80,6|0,3:2|0:2,0:0:0:0:
281,130,105948,1,8,0:2:0:0:
428,253,106110,2,0,L|411:80,1,160,2|0,3:2|0:2,0:0:0:0:
170,121,106596,5,8,0:2:0:0:
87,217,106758,2,0,L|192:190,1,80,8|0,0:2|0:2,0:0:0:0:
323,301,107083,1,10,0:2:0:0:
262,359,107245,2,0,L|158:341,1,80,8|0,0:2|0:2,0:0:0:0:
403,269,107569,6,0,L|378:157,1,80,10|0,0:2|0:2,0:0:0:0:
482,69,107894,1,8,0:3:0:0:
482,95,107975,1,8,0:3:0:0:
480,119,108056,1,8,0:3:0:0:
263,187,108218,6,0,L|273:77,1,80,6|0,3:2|0:2,0:0:0:0:
367,107,108542,1,8,0:2:0:0:
181,188,108704,2,0,L|22:212,1,160,2|0,3:2|0:2,0:0:0:0:
175,86,109191,5,10,0:2:0:0:
277,37,109353,2,0,L|262:121,1,80,4|0,0:2|0:2,0:0:0:0:
156,285,109677,1,2,0:2:0:0:
84,234,109839,2,0,L|99:150,1,80,8|0,0:2|0:2,0:0:0:0:
233,247,110164,6,0,L|327:224,1,80,10|0,0:2|0:2,0:0:0:0:
445,166,110488,1,8,0:3:0:0:
422,160,110569,1,8,0:3:0:0:
398,153,110650,1,8,0:3:0:0:
274,36,110812,6,0,P|282:88|286:131,1,80,6|0,3:2|0:2,0:0:0:0:
279,223,111137,1,8,0:2:0:0:
177,0,111299,2,0,P|177:73|166:189,1,160,6|0,3:2|0:2,0:0:0:0:
24,215,111785,1,10,0:2:0:0:
91,280,111948,2,0,L|203:248,1,80,6|0,0:2|0:2,0:0:0:0:
343,189,112272,1,10,0:3:0:0:
273,125,112434,2,0,L|168:115,1,80,8|0,0:2|0:2,0:0:0:0:
412,100,112758,6,0,P|404:21|393:-5,1,80,10|0,0:2|0:2,0:0:0:0:
343,189,113083,1,8,0:3:0:0:
351,213,113164,1,8,0:3:0:0:
359,236,113245,1,8,0:3:0:0:
189,337,113407,6,0,L|269:309,1,80,6|0,3:2|0:2,0:0:0:0:
352,349,113731,1,8,0:2:0:0:
73,227,113894,2,0,L|247:225,1,160,6|0,3:2|0:2,0:0:0:0:
363,185,114380,1,10,0:2:0:0:
432,273,114542,2,0,L|411:359,1,80,2|0,0:2|0:2,0:0:0:0:
295,272,114867,1,2,0:2:0:0:
156,151,115029,6,0,P|182:217|204:335,1,160,8|8,0:2|0:3,0:0:0:0:
16,372,115515,5,8,0:3:0:0:
57,371,115596,1,8,0:3:0:0:
95,347,115677,1,8,0:3:0:0:
108,307,115758,1,8,0:3:0:0:
103,268,115839,1,8,0:3:0:0:
81,236,115921,1,8,0:3:0:0:
45,220,116002,1,4,0:0:0:0:
