osu file format v14

[General]
AudioFilename: audio.mp3
AudioLeadIn: 0
PreviewTime: -1
Countdown: 1
SampleSet: None
StackLeniency: 0.3
Mode: 0
LetterboxInBreaks: 0
WidescreenStoryboard: 1

[Editor]
Bookmarks: 1484,5901,17680,29459,41238,53018,54490,57435,61852,73631,85410,97189,108969,120748,132527,144306,145778
DistanceSpacing: 0.9
BeatDivisor: 4
GridSize: 4
TimelineZoom: 1.8

[Metadata]
Title:Rin to Shite Saku Hana no Gotoku ~Hinabita edtion~
TitleUnicode:凛として咲く花の如く~ひなビタ♪ edition~
Artist:Hinatabi Bitter Sweets
ArtistUnicode:日向美ビタースイーツ♪
Creator:-Nanako-
Version:ar0
Source:ひなビタ♪
Tags:
BeatmapID:1989028
BeatmapSetID:952559

[Difficulty]
HPDrainRate:4
CircleSize:5.5
OverallDifficulty:6
ApproachRate:0
SliderMultiplier:2
SliderTickRate:1

[Events]
//Background and Video events
//Break Periods
2,73463,83242
//Storyboard Layer 0 (Background)
//Storyboard Layer 1 (Fail)
//Storyboard Layer 2 (Pass)
//Storyboard Layer 3 (Foreground)
//Storyboard Sound Samples

[TimingPoints]
12,368.098159509202,4,2,1,50,1,0
5717,-100,4,2,1,5,0,0
5901,-100,4,2,1,60,0,0
16944,-125,4,2,1,60,0,0
17680,-166.666666666667,4,2,1,30,0,0
29459,-125,4,2,1,50,0,0
39950,-125,4,2,1,40,0,0
40042,-125,4,2,1,45,0,0
40134,-125,4,2,1,50,0,0
40226,-125,4,2,1,55,0,0
40318,-125,4,2,1,60,0,0
40410,-125,4,2,1,65,0,0
40502,-1000,4,2,1,70,0,0
41146,-1000,4,2,1,5,0,0
41238,-83.3333333333333,4,2,1,70,0,0
41238,-83.3333333333333,4,2,1,70,0,0
54490,-166.666666666667,4,2,1,30,0,0
56238,-166.666666666667,4,2,1,40,0,0
57067,-166.666666666667,4,2,1,30,0,0
57159,-166.666666666667,4,2,1,35,0,0
57251,-166.666666666667,4,2,1,40,0,0
57343,-166.666666666667,4,2,1,45,0,0
57435,-125,4,2,1,50,0,0
61668,-125,4,2,1,5,0,0
61852,-100,4,2,1,50,0,0
85042,-166.666666666667,4,2,1,20,0,0
97189,-125,4,2,1,50,0,0
107680,-125,4,2,1,40,0,0
107772,-125,4,2,1,45,0,0
107864,-125,4,2,1,50,0,0
107956,-125,4,2,1,55,0,0
108048,-125,4,2,1,60,0,0
108140,-125,4,2,1,65,0,0
108232,-1000,4,2,1,70,0,0
108877,-1000,4,2,1,5,0,0
108969,-83.3333333333333,4,2,1,70,0,0
120011,-250,4,2,1,60,0,0
120748,-83.3333333333333,4,2,1,80,0,0
131791,-500,4,2,1,60,0,0
132527,-500,4,2,1,80,0,0
138416,-100,4,2,1,80,0,0
145410,-66.6666666666667,4,2,1,80,0,0

[HitObjects]
110,158,1484,5,6,3:2:0:0:
172,217,1668,1,0,0:0:0:0:
172,217,1760,1,0,0:0:0:0:
172,217,1852,1,8,3:2:0:0:
194,133,2036,1,0,0:0:0:0:
88,242,2220,5,2,3:2:0:0:
256,192,2404,1,0,0:0:0:0:
256,192,2496,1,0,0:0:0:0:
256,192,2588,1,8,3:2:0:0:
132,74,2772,1,0,0:0:0:0:
172,217,2956,5,2,3:2:0:0:
194,133,3140,1,0,0:0:0:0:
132,74,3324,1,8,3:2:0:0:
132,74,3508,1,0,0:0:0:0:
110,158,3692,1,2,3:2:0:0:
172,217,3877,1,0,0:0:0:0:
256,192,4061,1,8,3:2:0:0:
256,192,4153,12,0,5717,0:0:0:0:
256,192,5902,5,6,3:2:0:0:
385,178,6085,2,0,L|335:183,1,50
242,62,6270,5,8,3:2:0:0:
256,192,6453,2,0,L|251:142,1,50
372,49,6638,5,8,3:2:0:0:
242,62,6821,2,0,L|292:57,1,50
385,178,7006,5,8,3:2:0:0:
339,249,7189,1,0,0:0:0:0:
399,306,7373,6,0,P|379:321|353:329,1,50,2|0,3:2|0:0,0:0:0:0:
251,289,7558,1,0,0:0:0:0:
386,357,7742,6,0,P|361:363|334:362,1,50,10|0,3:2|0:0,0:0:0:0:
251,289,7926,1,0,0:0:0:0:
159,354,8110,6,0,P|101:358|53:327,2,100,2|0|8,3:2|0:0|3:2,0:0:0:0:
251,289,8662,1,0,0:0:0:0:
142,142,8847,5,2,3:2:0:0:
123,270,9030,2,0,L|130:220,1,50
270,161,9214,5,8,3:2:0:0:
142,142,9398,2,0,L|191:149,1,50
251,289,9583,5,8,3:2:0:0:
270,161,9766,2,0,L|262:210,1,50
123,270,9951,5,8,3:2:0:0:
59,197,10134,1,0,0:0:0:0:
142,142,10318,6,0,L|191:149,1,50,2|0,3:2|0:0,0:0:0:0:
317,282,10502,1,0,0:0:0:0:
317,282,10594,1,0,0:0:0:0:
317,282,10686,2,0,L|298:236,1,50,10|0,3:2|0:0,0:0:0:0:
320,98,10870,1,0,0:0:0:0:
320,98,10962,1,0,0:0:0:0:
320,98,11054,6,0,L|351:60,1,50,10|0,3:2|0:0,0:0:0:0:
191,149,11238,2,0,L|142:142,1,50,8|0,0:0|0:0,0:0:0:0:
298,236,11423,2,0,L|317:282,1,50,8|0,3:2|0:0,0:0:0:0:
270,161,11607,1,0,0:0:0:0:
72,237,11792,5,6,3:2:0:0:
226,219,11975,2,0,L|194:257,1,50
150,142,12160,5,8,3:2:0:0:
211,304,12343,2,0,L|193:257,1,50
270,161,12528,5,10,3:2:0:0:
144,249,12711,2,0,L|193:257,1,50
315,276,12896,5,8,3:2:0:0:
371,205,13079,1,0,0:0:0:0:
454,241,13263,6,0,P|461:205|457:179,1,50,2|0,3:2|0:0,0:0:0:0:
344,118,13447,1,0,0:0:0:0:
499,205,13631,6,0,P|493:168|481:146,1,50,10|0,3:2|0:0,0:0:0:0:
344,118,13815,1,0,0:0:0:0:
391,287,13999,6,0,P|434:319|485:314,2,100,2|0|8,3:2|0:0|3:2,0:0:0:0:
344,118,14551,1,0,0:0:0:0:
301,331,14736,5,2,3:2:0:0:
177,237,14919,2,0,L|184:285,1,50
279,208,15105,5,8,3:2:0:0:
145,318,15288,2,0,L|182:285,1,50
162,165,15472,5,8,3:2:0:0:
231,304,15656,2,0,L|183:285,1,50
69,242,15840,5,8,3:2:0:0:
162,165,16024,1,0,0:0:0:0:
51,112,16208,6,0,L|104:117,1,50,2|0,3:2|0:0,0:0:0:0:
226,216,16392,1,0,0:0:0:0:
226,216,16484,1,0,0:0:0:0:
226,216,16576,2,0,L|279:210,1,50,8|0,3:2|0:0,0:0:0:0:
411,112,16760,1,0,0:0:0:0:
411,112,16852,1,0,0:0:0:0:
411,112,16944,6,0,B|434:150|434:150|420:258,1,120,10|0,3:2|0:0,0:0:0:0:
399,308,17312,1,0,0:0:0:0:
399,308,17496,1,0,0:0:0:0:
310,296,17680,6,0,P|317:266|334:243,1,59.9999981689454,0|0,3:2|0:0,0:0:0:0:
424,224,18048,1,0,0:0:0:0:
424,224,18232,1,0,0:0:0:0:
298,163,18416,2,0,P|325:154|355:156,1,59.9999981689454,8|0,3:2|0:0,0:0:0:0:
424,224,18785,1,0,0:0:0:0:
424,224,18968,1,0,0:0:0:0:
414,85,19153,6,0,P|434:104|447:131,1,59.9999981689454,0|0,3:2|0:0,0:0:0:0:
322,71,19521,2,0,P|327:41|345:16,1,59.9999981689454,0|0,3:2|0:0,0:0:0:0:
357,157,19889,2,0,P|327:164|299:161,1,59.9999981689454,8|0,3:2|0:0,0:0:0:0:
249,85,20257,1,0,0:0:0:0:
176,138,20441,1,0,0:0:0:0:
113,72,20625,6,0,B|87:105|87:105|94:187,1,119.999996337891,0|0,3:2|0:0,0:0:0:0:
104,272,21177,1,0,0:0:0:0:
175,225,21361,2,0,P|204:226|231:238,1,59.9999981689454,8|0,3:2|0:0,0:0:0:0:
114,344,21729,2,0,P|84:342|57:330,1,59.9999981689454,0|0,3:2|0:0,0:0:0:0:
187,300,22097,2,0,B|202:348|202:348|180:398,2,89.9999972534181,0|0|0,3:2|0:0|0:0,0:0:0:0:
57,330,22834,1,8,3:2:0:0:
266,283,23202,1,0,0:0:0:0:
327,348,23386,1,0,0:0:0:0:
411,317,23570,6,0,P|416:283|411:247,1,59.9999981689454,0|0,3:2|0:0,0:0:0:0:
356,192,23938,1,0,0:0:0:0:
356,192,24122,1,0,0:0:0:0:
439,91,24306,1,8,3:2:0:0:
435,171,24490,1,0,0:0:0:0:
313,123,24674,1,0,0:0:0:0:
365,62,24858,1,0,0:0:0:0:
356,192,25042,6,0,P|327:205|290:202,1,59.9999981689454,0|0,3:2|0:0,0:0:0:0:
273,80,25410,2,0,P|298:98|314:132,1,59.9999981689454,0|0,3:2|0:0,0:0:0:0:
218,208,25778,2,0,P|221:176|242:145,1,59.9999981689454,8|0,3:2|0:0,0:0:0:0:
299,204,26146,1,0,0:0:0:0:
113,88,26515,6,0,P|146:80|178:88,1,59.9999981689454,0|0,3:2|0:0,0:0:0:0:
70,154,26883,1,0,0:0:0:0:
48,43,27067,1,0,0:0:0:0:
145,160,27251,2,0,L|139:238,1,59.9999981689454,8|0,3:2|0:0,0:0:0:0:
20,273,27619,2,0,L|26:195,1,59.9999981689454,0|0,3:2|0:0,0:0:0:0:
192,285,27987,6,0,P|157:301|120:300,1,59.9999981689454,0|0,3:2|0:0,0:0:0:0:
91,258,28263,1,0,0:0:0:0:
91,258,28355,1,0,0:0:0:0:
218,208,28539,1,0,0:0:0:0:
261,338,28723,2,0,L|273:378,2,29.9999990844727,8|0|0,0:0|0:0|0:0,0:0:0:0:
218,208,29091,1,0,0:0:0:0:
218,208,29459,5,6,3:2:0:0:
435,172,29643,1,0,0:0:0:0:
435,172,29735,1,0,0:0:0:0:
435,172,29827,2,0,P|419:195|400:215,1,40,8|0,3:2|0:0,0:0:0:0:
337,250,30011,2,0,P|312:253|279:246,1,40,0|0,3:2|0:0,0:0:0:0:
304,78,30196,2,2,P|310:99|309:118,1,40,0|2,3:2|0:0,0:0:0:0:
218,208,30380,2,0,P|218:182|230:160,1,40
343,182,30564,1,8,3:2:0:0:
343,182,30932,5,2,3:2:0:0:
132,83,31116,1,0,0:0:0:0:
132,83,31208,1,0,0:0:0:0:
132,83,31300,2,0,L|137:149,1,40,8|0,3:2|0:0,0:0:0:0:
143,208,31484,2,0,L|148:274,1,40,0|0,3:2|0:0,0:0:0:0:
323,267,31668,2,0,P|301:257|271:252,1,40,2|0,3:2|0:0,0:0:0:0:
136,327,31852,2,0,P|163:327|187:316,1,40
218,208,32036,1,8,3:2:0:0:
218,208,32404,6,0,L|211:118,1,80,2|0,3:2|0:0,0:0:0:0:
132,83,32772,1,8,3:2:0:0:
132,83,32956,1,0,0:0:0:0:
303,149,33140,2,0,L|296:59,1,80,0|0,3:2|0:0,0:0:0:0:
218,208,33508,1,8,3:2:0:0:
357,237,33692,1,0,0:0:0:0:
238,133,33877,6,0,P|191:135|154:162,1,80,0|0,3:2|0:0,0:0:0:0:
198,279,34245,2,0,P|245:277|282:250,1,80,8|0,3:2|0:0,0:0:0:0:
142,227,34613,1,0,3:2:0:0:
265,361,34797,1,8,0:0:0:0:
265,361,34889,1,8,0:0:0:0:
265,361,34981,1,8,3:2:0:0:
295,188,35165,1,0,3:2:0:0:
425,290,35349,6,0,B|433:332|433:332|418:374,1,80,2|0,3:2|0:0,0:0:0:0:
357,237,35717,2,0,B|389:209|389:209|433:201,1,80,8|0,3:2|0:0,0:0:0:0:
346,323,36085,2,0,B|305:308|305:308|276:274,1,80,0|0,3:2|0:0,0:0:0:0:
368,143,36453,1,8,3:2:0:0:
368,143,36637,1,8,0:0:0:0:
217,147,36821,6,0,P|251:119|304:116,1,80,2|0,3:2|0:0,0:0:0:0:
202,235,37189,2,0,P|160:219|131:175,1,80,8|0,3:2|0:0,0:0:0:0:
286,204,37558,2,0,P|293:247|269:294,1,80,0|0,3:2|0:0,0:0:0:0:
179,342,37926,1,8,3:2:0:0:
179,342,38110,1,8,0:0:0:0:
51,310,38294,6,0,P|91:287|140:295,1,80,2|0,3:2|0:0,0:0:0:0:
254,337,38662,2,0,P|220:350|178:342,1,80,8|0,3:2|0:0,0:0:0:0:
90,186,39030,1,0,3:2:0:0:
105,357,39214,1,8,0:0:0:0:
105,357,39306,1,8,0:0:0:0:
105,357,39398,1,8,3:2:0:0:
211,273,39582,1,8,3:2:0:0:
86,107,39766,5,0,3:2:0:0:
64,255,39950,1,8,0:0:0:0:
104,252,40042,1,8,0:0:0:0:
139,232,40134,1,8,3:2:0:0:
166,202,40226,1,8,0:0:0:0:
203,187,40318,1,8,0:0:0:0:
242,190,40410,1,8,0:0:0:0:
274,212,40502,2,0,L|272:249,1,35,8|0,0:0|0:0,0:0:0:0:
266,348,41238,6,0,P|300:328|341:330,1,59.9999981689454,6|0,3:2|0:0,0:0:0:0:
442,373,41423,1,0,0:0:0:0:
442,373,41515,1,0,0:0:0:0:
442,373,41607,2,0,L|435:287,1,59.9999981689454,8|0,3:2|0:0,0:0:0:0:
363,201,41791,2,0,L|370:287,1,59.9999981689454,0|0,3:2|0:0,0:0:0:0:
481,167,41975,6,0,P|438:151|400:152,1,59.9999981689454,2|0,3:2|0:0,0:0:0:0:
294,242,42159,1,0,0:0:0:0:
294,242,42251,1,0,0:0:0:0:
294,242,42343,2,0,L|287:156,1,59.9999981689454,8|0,3:2|0:0,0:0:0:0:
352,67,42527,2,0,L|347:126,1,59.9999981689454,0|0,3:2|0:0,0:0:0:0:
215,209,42711,6,0,L|208:123,1,59.9999981689454,2|0,3:2|0:0,0:0:0:0:
282,33,42895,1,0,0:0:0:0:
282,33,42987,1,0,0:0:0:0:
282,33,43079,2,0,P|254:51|206:55,1,59.9999981689454,8|0,3:2|0:0,0:0:0:0:
99,67,43263,2,0,P|128:73|152:90,1,59.9999981689454,0|0,3:2|0:0,0:0:0:0:
46,170,43447,6,0,L|39:84,1,59.9999981689454,2|0,3:2|0:0,0:0:0:0:
145,191,43631,1,0,0:0:0:0:
145,191,43723,1,0,0:0:0:0:
145,191,43815,2,0,L|140:250,1,59.9999981689454,8|0,3:2|0:0,0:0:0:0:
54,362,43999,2,0,L|47:276,1,59.9999981689454,0|0,3:2|0:0,0:0:0:0:
198,301,44183,6,0,P|166:321|140:326,1,59.9999981689454,2|0,3:2|0:0,0:0:0:0:
16,236,44367,1,0,0:0:0:0:
16,236,44459,1,0,0:0:0:0:
16,236,44551,2,0,P|49:229|94:243,1,59.9999981689454,8|0,3:2|0:0,0:0:0:0:
198,301,44735,2,0,L|202:241,1,59.9999981689454,0|0,3:2|0:0,0:0:0:0:
140,131,44919,6,0,L|144:190,1,59.9999981689454,2|0,3:2|0:0,0:0:0:0:
277,187,45104,1,0,0:0:0:0:
277,187,45196,1,0,0:0:0:0:
277,187,45288,2,0,P|244:169|204:170,1,59.9999981689454,8|0,3:2|0:0,0:0:0:0:
281,272,45472,2,0,P|318:270|359:251,1,59.9999981689454,0|0,3:2|0:0,0:0:0:0:
404,154,45656,6,0,L|399:213,1,59.9999981689454,2|0,3:2|0:0,0:0:0:0:
345,336,45840,1,0,0:0:0:0:
345,336,45932,1,0,0:0:0:0:
345,336,46024,2,0,L|340:276,1,59.9999981689454,8|0,3:2|0:0,0:0:0:0:
465,201,46208,2,0,L|460:260,1,59.9999981689454,0|0,3:2|0:0,0:0:0:0:
337,167,46392,5,10,3:2:0:0:
337,137,46484,1,8,0:0:0:0:
350,110,46576,1,8,0:0:0:0:
373,91,46668,1,8,0:0:0:0:
402,84,46760,1,8,3:2:0:0:
378,102,46852,1,8,0:0:0:0:
349,110,46944,1,8,0:0:0:0:
320,108,47036,1,8,0:0:0:0:
293,95,47128,6,0,P|265:82|225:82,1,59.9999981689454,6|0,3:2|0:0,0:0:0:0:
114,140,47312,1,0,0:0:0:0:
114,140,47404,1,0,0:0:0:0:
114,140,47496,2,0,L|109:80,1,59.9999981689454,8|0,3:2|0:0,0:0:0:0:
245,156,47680,2,0,L|240:216,1,59.9999981689454,0|0,3:2|0:0,0:0:0:0:
116,273,47864,6,0,L|111:213,1,59.9999981689454,2|0,3:2|0:0,0:0:0:0:
183,129,48048,1,0,0:0:0:0:
183,129,48140,1,0,0:0:0:0:
183,129,48232,2,0,L|178:189,1,59.9999981689454,8|0,3:2|0:0,0:0:0:0:
47,309,48416,2,0,L|52:249,1,59.9999981689454,0|0,3:2|0:0,0:0:0:0:
199,334,48600,6,0,P|168:350|126:353,1,59.9999981689454,2|0,3:2|0:0,0:0:0:0:
116,273,48785,2,0,P|146:256|188:253,1,59.9999981689454,0|0,3:2|0:0,0:0:0:0:
259,281,48969,2,0,P|291:297|330:299,1,59.9999981689454,8|0,3:2|0:0,0:0:0:0:
342,215,49153,2,0,P|310:199|271:197,1,59.9999981689454,0|0,3:2|0:0,0:0:0:0:
144,175,49337,5,10,3:2:0:0:
103,166,49429,1,8,0:0:0:0:
72,139,49521,1,8,0:0:0:0:
59,99,49613,1,8,0:0:0:0:
69,59,49705,1,8,3:2:0:0:
98,29,49797,1,8,0:0:0:0:
138,18,49889,1,8,0:0:0:0:
178,29,49981,1,8,0:0:0:0:
204,62,50073,6,0,P|238:76|281:73,1,59.9999981689454,2|0,3:2|0:0,0:0:0:0:
383,0,50257,1,0,0:0:0:0:
383,0,50349,1,0,0:0:0:0:
383,0,50441,2,0,L|378:60,1,59.9999981689454,8|0,3:2|0:0,0:0:0:0:
318,181,50625,2,0,L|323:121,1,59.9999981689454,0|0,3:2|0:0,0:0:0:0:
453,111,50809,6,0,P|424:129|379:131,1,59.9999981689454,2|0,3:2|0:0,0:0:0:0:
260,77,50993,1,0,0:0:0:0:
260,77,51085,1,0,0:0:0:0:
260,77,51177,2,0,L|255:137,1,59.9999981689454,8|0,3:2|0:0,0:0:0:0:
322,240,51361,2,0,L|317:180,1,59.9999981689454,0|0,3:2|0:0,0:0:0:0:
246,284,51545,6,0,P|270:313|301:326,1,59.9999981689454,2|0,3:2|0:0,0:0:0:0:
399,284,51729,1,0,0:0:0:0:
399,284,51821,1,0,0:0:0:0:
399,284,51913,2,0,P|412:248|407:215,1,59.9999981689454,8|0,3:2|0:0,0:0:0:0:
322,153,52097,2,0,P|284:159|258:179,1,59.9999981689454,0|0,3:2|0:0,0:0:0:0:
187,252,52281,6,0,P|149:248|121:231,1,59.9999981689454,2|0,3:2|0:0,0:0:0:0:
99,126,52465,1,0,0:0:0:0:
99,126,52557,1,0,0:0:0:0:
99,126,52650,2,0,P|120:95|150:79,1,59.9999981689454,8|0,3:2|0:0,0:0:0:0:
250,114,52834,2,0,P|266:148|264:181,1,59.9999981689454,0|0,3:2|0:0,0:0:0:0:
136,310,53018,5,10,3:2:0:0:
100,330,53110,1,8,0:0:0:0:
60,322,53202,1,8,0:0:0:0:
36,289,53294,1,8,0:0:0:0:
41,248,53386,1,8,3:2:0:0:
72,221,53478,1,8,0:0:0:0:
120,222,53570,1,8,0:0:0:0:
146,262,53662,1,8,0:0:0:0:
186,287,53754,5,10,3:2:0:0:
233,294,53846,1,8,0:0:0:0:
278,279,53938,1,8,0:0:0:0:
314,248,54030,1,8,0:0:0:0:
336,205,54122,2,0,L|340:270,1,59.9999981689454,8|0,3:2|0:0,0:0:0:0:
228,177,54306,2,0,L|233:111,1,59.9999981689454,0|0,3:2|0:0,0:0:0:0:
385,44,54490,5,2,3:2:0:0:
302,150,54858,2,0,L|305:115,1,29.9999990844727
240,28,55226,1,0,0:0:0:0:
164,115,55410,1,0,0:0:0:0:
164,100,55502,1,0,0:0:0:0:
165,85,55594,1,0,0:0:0:0:
166,69,55686,1,0,0:0:0:0:
166,54,55778,2,0,L|168:21,2,29.9999990844727
104,145,56238,6,0,P|68:135|52:111,1,59.9999981689454
164,115,56515,2,0,B|191:188|132:165|164:242,1,119.999996337891
116,319,57067,1,0,0:0:0:0:
132,306,57159,1,0,0:0:0:0:
152,300,57251,1,0,0:0:0:0:
173,302,57343,1,0,0:0:0:0:
192,311,57435,6,0,P|226:333|270:331,1,80,0|0,3:2|0:0,0:0:0:0:
398,235,57803,2,0,P|359:240|322:266,1,80,8|0,3:2|0:0,0:0:0:0:
314,384,58171,1,0,3:2:0:0:
248,251,58355,1,0,0:0:0:0:
248,251,58447,1,0,0:0:0:0:
248,251,58539,1,8,3:2:0:0:
388,320,58723,1,0,0:0:0:0:
451,177,58907,6,0,P|447:129|422:85,1,80,0|0,3:2|0:0,0:0:0:0:
314,133,59275,2,0,P|318:181|343:225,1,80,8|0,3:2|0:0,0:0:0:0:
454,248,59643,1,0,3:2:0:0:
363,71,59827,1,0,3:2:0:0:
256,192,60011,1,8,3:2:0:0:
256,192,60104,12,0,61668,0:0:0:0:
256,192,61852,5,6,3:2:0:0:
127,178,62036,2,0,L|177:183,1,50
270,62,62220,5,8,3:2:0:0:
256,192,62404,2,0,L|261:142,1,50
140,49,62588,5,10,3:2:0:0:
270,62,62772,2,0,L|220:57,1,50
127,178,62956,5,8,3:2:0:0:
173,249,63140,1,0,0:0:0:0:
113,306,63324,6,0,P|133:321|159:329,1,50,2|0,3:2|0:0,0:0:0:0:
261,289,63509,1,0,0:0:0:0:
126,357,63693,6,0,P|151:363|178:362,1,50,10|0,3:2|0:0,0:0:0:0:
261,289,63877,1,0,0:0:0:0:
353,354,64061,6,0,P|411:358|459:327,2,100,2|0|8,3:2|0:0|3:2,0:0:0:0:
261,289,64613,1,0,0:0:0:0:
370,142,64797,5,2,3:2:0:0:
389,270,64981,2,0,L|382:220,1,50
242,161,65165,5,8,3:2:0:0:
370,142,65349,2,0,L|321:149,1,50
261,289,65533,5,10,3:2:0:0:
242,161,65717,2,0,L|250:210,1,50
389,270,65901,5,8,3:2:0:0:
453,197,66085,1,0,0:0:0:0:
370,142,66269,6,0,L|321:149,1,50,2|0,3:2|0:0,0:0:0:0:
195,282,66453,1,0,0:0:0:0:
195,282,66545,1,0,0:0:0:0:
195,282,66637,2,0,L|214:236,1,50,10|0,3:2|0:0,0:0:0:0:
192,98,66821,1,0,0:0:0:0:
192,98,66913,1,0,0:0:0:0:
192,98,67005,6,0,L|161:60,1,50,2|0,3:2|0:0,0:0:0:0:
440,237,67373,1,8,3:2:0:0:
440,237,67742,5,6,3:2:0:0:
286,219,67926,2,0,L|318:257,1,50
362,142,68110,5,8,3:2:0:0:
301,304,68294,2,0,L|319:257,1,50
242,161,68478,5,10,3:2:0:0:
368,249,68662,2,0,L|319:257,1,50
197,276,68846,5,8,3:2:0:0:
141,205,69030,1,0,0:0:0:0:
58,241,69214,6,0,P|51:205|55:179,1,50,2|0,3:2|0:0,0:0:0:0:
168,118,69398,1,0,0:0:0:0:
13,205,69582,6,0,P|19:168|31:146,1,50,10|0,3:2|0:0,0:0:0:0:
168,118,69766,1,0,0:0:0:0:
121,287,69950,6,0,P|78:319|27:314,2,100,2|0|8,3:2|0:0|3:2,0:0:0:0:
168,118,70502,1,0,0:0:0:0:
211,331,70686,5,2,3:2:0:0:
335,237,70870,2,0,L|328:285,1,50
233,208,71055,5,8,3:2:0:0:
367,318,71239,2,0,L|330:285,1,50
350,165,71423,5,10,3:2:0:0:
281,304,71607,2,0,L|329:285,1,50
443,242,71791,5,8,3:2:0:0:
350,165,71975,1,0,0:0:0:0:
461,112,72159,6,0,L|408:117,1,50,2|0,3:2|0:0,0:0:0:0:
286,216,72343,1,0,0:0:0:0:
286,216,72435,1,0,0:0:0:0:
286,216,72527,2,0,L|233:210,1,50,10|0,3:2|0:0,0:0:0:0:
124,111,72711,1,0,0:0:0:0:
124,111,72803,1,0,0:0:0:0:
124,111,72895,6,0,P|86:174|170:150,1,200,10|0,3:2|0:0,0:0:0:0:
71,209,85042,6,0,P|60:176|68:139,1,59.9999981689454,0|0,3:2|0:0,0:0:0:0:
135,245,85410,1,0,3:2:0:0:
135,245,85778,6,0,P|111:271|75:282,1,59.9999981689454,0|0,3:2|0:0,0:0:0:0:
135,171,86146,1,0,3:2:0:0:
135,171,86515,6,0,P|169:177|197:203,1,59.9999981689454,0|0,3:2|0:0,0:0:0:0:
71,209,86883,2,0,P|63:144|102:103,2,119.999996337891,0|0|0,3:2|3:2|3:2,0:0:0:0:
171,109,87987,5,0,3:2:0:0:
299,185,88355,1,0,3:2:0:0:
299,185,88723,6,0,P|333:178|361:152,1,59.9999981689454,0|0,3:2|0:0,0:0:0:0:
235,147,89091,1,0,3:2:0:0:
235,147,89459,6,0,P|224:180|232:217,1,59.9999981689454,0|0,3:2|0:0,0:0:0:0:
299,110,89827,2,0,P|246:73|193:89,2,119.999996337891,0|0|0,3:2|3:2|3:2,0:0:0:0:
280,253,90932,5,0,3:2:0:0:
413,199,91300,1,0,3:2:0:0:
413,199,91668,6,0,P|406:164|380:136,1,59.9999981689454,0|0,3:2|0:0,0:0:0:0:
375,263,92036,1,0,3:2:0:0:
375,263,92404,6,0,P|407:274|444:266,1,59.9999981689454,0|0,3:2|0:0,0:0:0:0:
338,199,92772,2,0,P|301:252|317:305,2,119.999996337891,0|0|0,3:2|3:2|3:2,0:0:0:0:
378,335,93877,5,0,3:2:0:0:
237,304,94245,1,0,3:2:0:0:
237,304,94613,6,0,L|232:366,1,59.9999981689454,0|0,3:2|0:0,0:0:0:0:
144,227,94981,1,0,3:2:0:0:
144,227,95349,6,0,L|148:290,1,59.9999981689454,0|0,3:2|0:0,0:0:0:0:
256,192,95717,2,0,B|269:154|269:154|251:68,2,119.999996337891,0|0|0,3:2|3:2|3:2,0:0:0:0:
256,192,97189,5,0,3:2:0:0:
256,192,98662,5,0,3:2:0:0:
256,192,100134,6,0,P|245:149|271:100,1,80,2|0,3:2|0:0,0:0:0:0:
384,117,100502,2,0,P|352:148|296:150,1,80,8|0,3:2|0:0,0:0:0:0:
256,44,100870,2,0,P|298:55|328:102,1,80,0|0,3:2|0:0,0:0:0:0:
176,153,101238,1,8,3:2:0:0:
187,2,101423,1,0,3:2:0:0:
223,209,101607,6,0,P|180:226|143:220,1,80,2|0,3:2|0:0,0:0:0:0:
124,97,101975,2,0,P|167:80|204:86,1,80,8|0,3:2|0:0,0:0:0:0:
85,273,102343,1,0,3:2:0:0:
47,117,102527,1,8,0:0:0:0:
47,117,102619,1,8,0:0:0:0:
47,117,102711,1,8,3:2:0:0:
176,153,102895,1,0,3:2:0:0:
85,273,103079,6,0,P|66:232|72:190,1,80,2|0,3:2|0:0,0:0:0:0:
161,300,103447,2,0,P|134:336|95:352,1,80,8|0,3:2|0:0,0:0:0:0:
147,221,103815,2,0,P|192:225|225:251,1,80,0|0,3:2|0:0,0:0:0:0:
253,377,104183,1,8,3:2:0:0:
253,377,104367,1,8,0:0:0:0:
355,264,104551,6,0,P|358:309|338:346,1,80,2|0,3:2|0:0,0:0:0:0:
294,212,104919,2,0,P|331:186|373:184,1,80,8|0,3:2|0:0,0:0:0:0:
280,291,105288,2,0,P|239:271|216:235,1,80,0|0,3:2|0:0,0:0:0:0:
311,94,105656,1,8,3:2:0:0:
311,94,105840,1,8,0:0:0:0:
222,167,106024,6,0,P|188:189|144:189,1,80,2|0,3:2|0:0,0:0:0:0:
22,114,106392,2,0,P|70:120|101:147,1,80,8|0,3:2|0:0,0:0:0:0:
126,263,106760,1,0,3:2:0:0:
164,114,106944,1,8,0:0:0:0:
164,114,107036,1,8,0:0:0:0:
164,114,107128,1,8,3:2:0:0:
38,186,107312,1,8,0:0:0:0:
218,288,107496,5,2,3:2:0:0:
92,360,107680,1,8,0:0:0:0:
53,352,107772,1,8,0:0:0:0:
28,322,107864,1,8,3:2:0:0:
27,283,107956,1,8,0:0:0:0:
52,252,108048,1,8,0:0:0:0:
90,244,108140,1,8,0:0:0:0:
125,262,108232,2,0,L|123:301,1,35,8|0,0:0|0:0,0:0:0:0:
160,376,108969,6,0,P|192:358|223:355,1,59.9999981689454,6|0,3:2|0:0,0:0:0:0:
346,384,109153,1,0,0:0:0:0:
346,384,109245,1,0,0:0:0:0:
346,384,109337,2,0,L|339:298,1,59.9999981689454,8|0,3:2|0:0,0:0:0:0:
263,238,109521,2,0,L|270:324,1,59.9999981689454,0|0,3:2|0:0,0:0:0:0:
392,274,109705,6,0,P|366:257|319:255,1,59.9999981689454,0|0,3:2|0:0,0:0:0:0:
195,281,109889,1,0,0:0:0:0:
195,281,109981,1,0,0:0:0:0:
195,281,110073,2,0,L|188:195,1,59.9999981689454,8|0,3:2|0:0,0:0:0:0:
252,104,110257,2,0,L|247:163,1,59.9999981689454,0|0,3:2|0:0,0:0:0:0:
120,167,110441,6,0,P|156:150|191:151,1,59.9999981689454,2|0,3:2|0:0,0:0:0:0:
263,238,110625,1,0,0:0:0:0:
263,238,110717,1,0,0:0:0:0:
263,238,110809,2,0,P|232:238|204:227,1,59.9999981689454,8|0,3:2|0:0,0:0:0:0:
252,104,110993,2,0,P|283:104|311:115,1,59.9999981689454,0|0,3:2|0:0,0:0:0:0:
399,207,111177,6,0,L|404:148,1,59.9999981689454,2|0,3:2|0:0,0:0:0:0:
365,22,111361,1,0,0:0:0:0:
365,22,111453,1,0,0:0:0:0:
365,22,111545,2,0,L|372:108,1,59.9999981689454,8|0,3:2|0:0,0:0:0:0:
495,111,111729,2,0,P|471:93|442:86,1,59.9999981689454,0|0,3:2|0:0,0:0:0:0:
330,174,111913,6,0,L|337:260,1,59.9999981689454,2|0,3:2|0:0,0:0:0:0:
436,320,112097,1,0,0:0:0:0:
436,320,112189,1,0,0:0:0:0:
436,320,112281,2,0,P|402:301|359:299,1,59.9999981689454,8|0,3:2|0:0,0:0:0:0:
249,324,112465,2,0,P|280:321|325:290,1,59.9999981689454,0|0,3:2|0:0,0:0:0:0:
330,174,112650,6,0,P|299:177|254:208,1,59.9999981689454,2|0,3:2|0:0,0:0:0:0:
195,265,112834,1,0,0:0:0:0:
195,265,112926,1,0,0:0:0:0:
195,265,113018,2,0,L|200:206,1,59.9999981689454,8|0,3:2|0:0,0:0:0:0:
258,60,113202,2,0,L|263:119,1,59.9999981689454,0|0,3:2|0:0,0:0:0:0:
135,221,113386,6,0,L|140:162,1,59.9999981689454,2|0,3:2|0:0,0:0:0:0:
194,51,113570,1,0,0:0:0:0:
194,51,113662,1,0,0:0:0:0:
194,51,113754,2,0,P|169:68|130:78,1,59.9999981689454,8|0,3:2|0:0,0:0:0:0:
23,106,113938,2,0,P|67:112|99:139,1,59.9999981689454,0|0,3:2|0:0,0:0:0:0:
200,205,114122,6,0,L|205:146,1,59.9999981689454,2|0,3:2|0:0,0:0:0:0:
64,192,114306,1,0,0:0:0:0:
64,192,114398,1,0,0:0:0:0:
64,192,114490,2,0,L|69:251,1,59.9999981689454,8|0,3:2|0:0,0:0:0:0:
144,373,114674,2,0,L|149:314,1,59.9999981689454,0|0,3:2|0:0,0:0:0:0:
22,310,114858,6,0,P|54:326|85:324,1,59.9999981689454,6|0,3:2|0:0,0:0:0:0:
213,279,115042,1,0,0:0:0:0:
213,279,115134,1,0,0:0:0:0:
213,279,115226,2,0,L|208:338,1,59.9999981689454,8|0,3:2|0:0,0:0:0:0:
135,221,115410,2,0,L|140:162,1,59.9999981689454,0|0,3:2|0:0,0:0:0:0:
254,197,115594,6,0,P|215:214|180:211,1,59.9999981689454,2|0,3:2|0:0,0:0:0:0:
203,80,115778,1,0,0:0:0:0:
203,80,115870,1,0,0:0:0:0:
203,80,115962,2,0,L|208:139,1,59.9999981689454,8|0,3:2|0:0,0:0:0:0:
69,191,116146,2,0,L|74:132,1,59.9999981689454,0|0,3:2|0:0,0:0:0:0:
274,74,116331,6,0,L|279:133,1,59.9999981689454,2|0,3:2|0:0,0:0:0:0:
135,221,116515,2,0,L|140:162,1,59.9999981689454,0|0,3:2|0:0,0:0:0:0:
323,189,116699,2,0,L|328:248,1,59.9999981689454,8|0,3:2|0:0,0:0:0:0:
201,239,116883,2,0,L|206:180,1,59.9999981689454,0|0,3:2|0:0,0:0:0:0:
386,100,117067,5,10,3:2:0:0:
426,106,117159,1,8,0:0:0:0:
457,134,117251,1,8,0:0:0:0:
468,174,117343,1,8,0:0:0:0:
455,213,117435,1,8,3:2:0:0:
423,240,117527,1,8,0:0:0:0:
382,244,117619,1,8,0:0:0:0:
345,226,117711,1,8,0:0:0:0:
323,189,117803,6,0,P|291:171|260:168,1,59.9999981689454,2|0,3:2|0:0,0:0:0:0:
133,184,117987,1,0,0:0:0:0:
133,184,118079,1,0,0:0:0:0:
133,184,118171,2,0,L|126:98,1,59.9999981689454,8|0,3:2|0:0,0:0:0:0:
204,217,118355,2,0,L|197:303,1,59.9999981689454,0|0,3:2|0:0,0:0:0:0:
81,280,118539,6,0,P|108:257|142:253,1,59.9999981689454,2|0,3:2|0:0,0:0:0:0:
265,301,118723,1,0,0:0:0:0:
265,301,118815,1,0,0:0:0:0:
265,301,118907,2,0,L|272:215,1,59.9999981689454,8|0,3:2|0:0,0:0:0:0:
198,157,119091,2,0,L|203:216,1,59.9999981689454,0|0,3:2|0:0,0:0:0:0:
329,354,119275,5,10,0:0:0:0:
370,345,119367,1,8,0:0:0:0:
401,318,119459,1,8,0:0:0:0:
414,278,119551,1,8,0:0:0:0:
404,238,119643,1,8,0:0:0:0:
375,208,119735,1,8,0:0:0:0:
335,197,119827,1,8,0:0:0:0:
295,208,119919,1,8,0:0:0:0:
269,241,120011,6,0,L|264:300,1,59.9999981689454,8|0,3:2|0:0,0:0:0:0:
339,334,120380,2,0,L|334:275,1,59.9999981689454,0|0,3:2|0:0,0:0:0:0:
213,344,120748,6,0,P|249:365|285:362,1,59.9999981689454,6|0,3:2|0:0,0:0:0:0:
404,296,120932,1,0,0:0:0:0:
404,296,121024,1,0,0:0:0:0:
404,296,121116,2,0,L|409:355,1,59.9999981689454,8|0,3:2|0:0,0:0:0:0:
264,300,121300,2,0,L|269:241,1,59.9999981689454,0|0,3:2|0:0,0:0:0:0:
396,209,121484,6,0,P|360:230|324:227,1,59.9999981689454,2|0,3:2|0:0,0:0:0:0:
205,187,121668,1,0,0:0:0:0:
205,187,121760,1,0,0:0:0:0:
205,187,121852,2,0,L|200:246,1,59.9999981689454,8|0,3:2|0:0,0:0:0:0:
344,161,122036,2,0,L|339:102,1,59.9999981689454,0|0,3:2|0:0,0:0:0:0:
207,21,122220,6,0,L|202:80,1,59.9999981689454,2|0,3:2|0:0,0:0:0:0:
269,240,122404,1,0,0:0:0:0:
269,240,122496,1,0,0:0:0:0:
269,240,122588,2,0,L|274:181,1,59.9999981689454,8|0,3:2|0:0,0:0:0:0:
134,75,122772,2,0,L|139:134,1,59.9999981689454,0|0,3:2|0:0,0:0:0:0:
309,118,122956,6,0,P|277:110|230:125,1,59.9999981689454,2|0,3:2|0:0,0:0:0:0:
142,215,123140,1,0,0:0:0:0:
142,215,123232,1,0,0:0:0:0:
142,215,123324,2,0,P|172:208|195:191,1,59.9999981689454,8|0,3:2|0:0,0:0:0:0:
59,106,123508,2,0,L|64:165,1,59.9999981689454,0|0,3:2|0:0,0:0:0:0:
60,318,123692,6,0,P|88:295|122:287,1,59.9999981689454,2|0,3:2|0:0,0:0:0:0:
265,297,123877,1,0,0:0:0:0:
265,297,123969,1,0,0:0:0:0:
265,297,124061,2,0,L|270:238,1,59.9999981689454,8|0,3:2|0:0,0:0:0:0:
134,75,124245,2,0,L|139:134,1,59.9999981689454,0|0,3:2|0:0,0:0:0:0:
340,261,124429,6,0,L|345:202,1,59.9999981689454,2|0,3:2|0:0,0:0:0:0:
220,78,124613,1,0,0:0:0:0:
220,78,124705,1,0,0:0:0:0:
220,78,124797,2,0,P|251:101|288:106,1,59.9999981689454,8|0,3:2|0:0,0:0:0:0:
438,63,124981,2,0,P|409:70|373:97,1,59.9999981689454,0|0,3:2|0:0,0:0:0:0:
423,230,125165,6,0,L|428:171,1,59.9999981689454,2|0,3:2|0:0,0:0:0:0:
271,106,125349,1,0,0:0:0:0:
271,106,125441,1,0,0:0:0:0:
271,106,125533,2,0,L|276:165,1,59.9999981689454,8|0,3:2|0:0,0:0:0:0:
334,320,125717,2,0,L|339:261,1,59.9999981689454,0|0,3:2|0:0,0:0:0:0:
191,75,125901,5,10,3:2:0:0:
183,110,125993,1,8,0:0:0:0:
183,146,126085,1,8,0:0:0:0:
192,180,126177,1,8,0:0:0:0:
214,209,126269,1,8,3:2:0:0:
242,238,126361,1,8,0:0:0:0:
249,279,126453,1,8,0:0:0:0:
231,316,126545,1,8,0:0:0:0:
194,335,126637,6,0,P|161:351|128:351,1,59.9999981689454,6|0,3:2|0:0,0:0:0:0:
16,291,126821,1,0,0:0:0:0:
16,291,126913,1,0,0:0:0:0:
16,291,127005,2,0,L|11:350,1,59.9999981689454,8|0,3:2|0:0,0:0:0:0:
146,282,127189,2,0,L|141:223,1,59.9999981689454,0|0,3:2|0:0,0:0:0:0:
43,86,127373,6,0,L|48:145,1,59.9999981689454,2|0,3:2|0:0,0:0:0:0:
190,158,127558,1,0,0:0:0:0:
190,158,127650,1,0,0:0:0:0:
190,158,127742,2,0,P|155:143|113:148,1,59.9999981689454,8|0,3:2|0:0,0:0:0:0:
21,216,127926,2,0,P|52:219|80:208,1,59.9999981689454,0|0,3:2|0:0,0:0:0:0:
104,26,128110,6,0,L|109:85,1,59.9999981689454,2|0,3:2|0:0,0:0:0:0:
146,282,128294,2,0,L|141:223,1,59.9999981689454,0|0,3:2|0:0,0:0:0:0:
43,86,128478,2,0,L|48:145,1,59.9999981689454,8|0,3:2|0:0,0:0:0:0:
219,225,128662,2,0,L|214:166,1,59.9999981689454,0|0,3:2|0:0,0:0:0:0:
81,326,128846,5,10,3:2:0:0:
116,357,128938,1,8,0:0:0:0:
163,362,129030,1,8,0:0:0:0:
204,339,129122,1,8,0:0:0:0:
232,300,129214,1,8,3:2:0:0:
273,276,129306,1,8,0:0:0:0:
319,281,129398,1,8,0:0:0:0:
355,313,129490,1,8,0:0:0:0:
376,355,129582,6,0,L|371:296,1,59.9999981689454,2|0,3:2|0:0,0:0:0:0:
279,182,129766,1,0,0:0:0:0:
279,182,129858,1,0,0:0:0:0:
279,182,129950,2,0,L|332:207,1,59.9999981689454,8|0,3:2|0:0,0:0:0:0:
477,184,130134,2,0,L|428:217,1,59.9999981689454,0|0,3:2|0:0,0:0:0:0:
363,357,130318,6,0,L|363:298,1,59.9999981689454,2|0,3:2|0:0,0:0:0:0:
282,176,130502,1,0,0:0:0:0:
282,176,130594,1,0,0:0:0:0:
282,176,130686,2,0,L|333:206,1,59.9999981689454,8|0,3:2|0:0,0:0:0:0:
479,196,130870,2,0,L|427:225,1,59.9999981689454,0|0,3:2|0:0,0:0:0:0:
335,36,131054,5,10,3:2:0:0:
384,4,131146,1,8,0:0:0:0:
441,17,131238,1,8,0:0:0:0:
472,67,131330,1,8,0:0:0:0:
458,123,131422,1,8,3:2:0:0:
408,154,131514,1,8,0:0:0:0:
352,139,131606,1,8,0:0:0:0:
314,95,131699,1,8,0:0:0:0:
277,47,131791,6,0,L|242:49,1,30,8|0,3:2|0:0,0:0:0:0:
183,89,132159,2,0,L|148:87,1,30,0|0,3:2|0:0,0:0:0:0:
185,20,132527,5,6,3:2:0:0:
327,364,132895,1,8,3:2:0:0:
84,120,133263,5,2,3:2:0:0:
427,263,133631,1,8,3:2:0:0:
84,263,133999,5,2,3:2:0:0:
428,121,134367,1,8,3:2:0:0:
184,363,134735,5,2,3:2:0:0:
327,20,135103,1,8,3:2:0:0:
327,20,135472,5,6,3:2:0:0:
184,363,135840,1,8,3:2:0:0:
428,121,136208,5,2,3:2:0:0:
84,263,136576,1,8,3:2:0:0:
427,263,136944,5,2,3:2:0:0:
84,120,137312,1,8,3:2:0:0:
327,364,137680,5,2,3:2:0:0:
185,20,138048,1,8,3:2:0:0:
185,20,138416,5,6,3:2:0:0:
256,192,138600,1,0,3:2:0:0:
256,192,138693,1,0,3:2:0:0:
256,192,138785,1,8,3:2:0:0:
84,120,138968,1,0,3:2:0:0:
256,49,139153,5,2,3:2:0:0:
184,220,139337,1,8,3:2:0:0:
184,220,139429,1,8,3:2:0:0:
184,220,139521,1,8,3:2:0:0:
113,49,139705,1,0,3:2:0:0:
284,120,139889,5,6,3:2:0:0:
113,190,140074,1,0,3:2:0:0:
325,226,140257,1,8,3:2:0:0:
113,190,140441,1,0,3:2:0:0:
397,138,140625,6,0,B|417:167|417:167|408:237,1,100,2|0,3:2|0:0,0:0:0:0:
284,120,140993,1,8,3:2:0:0:
439,79,141177,1,0,3:2:0:0:
325,226,141361,5,6,3:2:0:0:
256,49,141545,1,0,3:2:0:0:
256,49,141637,1,0,3:2:0:0:
256,49,141729,1,8,3:2:0:0:
397,138,141913,1,0,3:2:0:0:
278,284,142097,5,2,3:2:0:0:
284,120,142281,1,0,3:2:0:0:
284,120,142373,1,0,3:2:0:0:
284,120,142465,1,8,3:2:0:0:
408,231,142650,1,0,3:2:0:0:
222,229,142834,5,6,3:2:0:0:
397,138,143018,1,0,3:2:0:0:
336,340,143202,1,8,3:2:0:0:
171,173,143386,1,0,3:2:0:0:
408,231,143570,5,10,3:2:0:0:
203,302,143754,1,8,3:2:0:0:
408,231,143938,1,8,3:2:0:0:
171,173,144122,1,8,3:2:0:0:
404,307,144306,5,14,3:2:0:0:
451,293,144398,1,8,0:0:0:0:
480,254,144490,1,8,0:0:0:0:
479,205,144582,1,8,0:0:0:0:
448,167,144674,5,8,3:2:0:0:
400,156,144766,1,8,0:0:0:0:
355,176,144858,1,8,0:0:0:0:
328,218,144950,1,8,0:0:0:0:
284,241,145042,5,10,3:2:0:0:
228,224,145134,1,8,0:0:0:0:
203,171,145226,1,8,0:0:0:0:
225,117,145318,1,8,0:0:0:0:
280,98,145410,6,0,P|285:148|276:170,1,75.0000028610231,14|0,0:0|0:0,0:0:0:0:
169,303,145594,2,0,P|208:287|258:285,1,75.0000028610231,10|0,0:0|0:0,0:0:0:0:
404,307,145778,5,14,0:0:0:0:
