osu file format v14

[General]
AudioFilename: choco.mp3
AudioLeadIn: 0
PreviewTime: 84383
Countdown: 0
SampleSet: Soft
StackLeniency: 0.5
Mode: 0
LetterboxInBreaks: 0
WidescreenStoryboard: 1

[Editor]
DistanceSpacing: 1.1
BeatDivisor: 4
GridSize: 4
TimelineZoom: 2.5

[Metadata]
Title:Chocolate Smile
TitleUnicode:チョコレートスマイル
Artist:Hinatabi Bitter Sweets & Coconatsu
ArtistUnicode:日向美ビタースイーツ♪ & ここなつ
Creator:Lunala
Version:Sweet Paradise
Source:pop'n music ラピストリア
Tags:Konami Bemani TOMOSUKE crimm くりむ VJ GYO with centralVillage CUTEG ひなビタ hinabita 山形 まり花 日高里菜 和泉一舞 津田美波 芽兎 めう 五十嵐裕美 春日咲子 山口爱 霜月凛 水原薫 东云夏阳 日南结里 东云心菜 小泽亚李 ノスタルジア FORTE GITADORA DanceDanceRevolution jubeat prop REFLEC BEAT groovin'!! Upper DanceEvolution ARCADE BeatStream Japanese Video Games
BeatmapID:2280879
BeatmapSetID:1091000

[Difficulty]
HPDrainRate:6
CircleSize:4
OverallDifficulty:8
ApproachRate:9.1
SliderMultiplier:1.6
SliderTickRate:1

[Events]
//Background and Video events
0,0,"bg.jpg",0,0
//Break Periods
//Storyboard Layer 0 (Background)
//Storyboard Layer 1 (Fail)
//Storyboard Layer 2 (Pass)
//Storyboard Layer 3 (Foreground)
//Storyboard Layer 4 (Overlay)
//Storyboard Sound Samples

[TimingPoints]
36667,306.122448979592,4,2,1,75,1,0
36667,-83.3333333333333,4,2,1,75,0,0
38198,-100,4,2,1,75,0,0
38656,-74.0740740740741,4,2,1,75,0,0
39116,-83.3333333333333,4,2,1,75,0,0
39881,-100,4,2,1,75,0,0
40187,-83.3333333333333,4,2,1,75,0,0
42330,-133.333333333333,4,2,1,75,0,0
42636,-83.3333333333333,4,2,1,75,0,0
43860,-83.3333333333333,4,2,1,65,0,0
44320,-133.333333333333,4,2,1,50,0,0
45391,-66.6666666666667,4,2,1,75,0,0
45621,-66.6666666666667,4,2,1,5,0,0
45697,-133.333333333333,4,2,1,65,0,0
46386,-133.333333333333,4,2,1,5,0,0
46462,-100,4,2,1,60,0,0
60238,-71.4285714285714,4,2,1,75,0,0
60545,-100,4,2,1,60,0,0
60850,-66.6666666666667,4,2,1,75,0,0
61156,-100,4,2,1,60,0,0
64830,-100,4,2,1,65,0,0
66666,-133.333333333333,4,2,1,60,0,0
66820,-133.333333333333,4,2,1,45,0,0
67279,-100,4,2,1,60,0,0
76769,-75.187969924812,4,2,1,75,0,0
77075,-90.9090909090909,4,2,1,60,0,0
79524,-80,4,2,1,75,0,0
83044,-133.333333333333,4,2,1,75,0,0
83351,-133.333333333333,4,2,1,5,0,0
83810,-133.333333333333,4,2,1,75,0,0
83963,-133.333333333333,4,2,1,65,0,0
84422,-76.9230769230769,4,2,1,85,0,1
92075,-66.6666666666667,4,2,1,85,0,1
92381,-83.3333333333333,4,2,1,85,0,1
92993,-133.333333333333,4,2,1,85,0,1
94218,-76.9230769230769,4,2,1,85,0,1
98197,-66.6666666666667,4,2,1,85,0,1
98504,-133.333333333333,4,2,1,85,0,1
98809,-66.6666666666667,4,2,1,85,0,1
99115,-76.9230769230769,4,2,1,85,0,1
104013,-100,4,2,1,75,0,0
111360,-133.333333333333,4,2,1,75,0,0
112279,-133.333333333333,4,2,1,75,0,0
112432,-100,4,2,1,75,0,0
113809,-100,4,2,1,60,0,0
118707,-100,4,2,1,70,0,0
119932,-133.333333333333,4,2,1,55,0,0
127126,-111.111111111111,4,2,1,70,0,0
128503,-111.111111111111,4,2,1,80,0,0
129269,-111.111111111111,4,2,1,55,0,0
129422,-153.846153846154,4,2,1,65,0,0
129728,-76.9230769230769,4,2,1,85,0,1
133707,-66.6666666666667,4,2,1,85,0,1
134626,-76.9230769230769,4,2,1,85,0,1
139524,-100,4,2,1,75,0,0
146871,-117.647058823529,4,2,1,75,0,0
148095,-100,4,2,1,75,0,0
150085,-83.3333333333333,4,2,1,75,0,0
151309,-74.0740740740741,4,2,1,75,0,0
151769,-83.3333333333333,4,2,1,75,0,0
154983,-100,4,2,1,75,0,0
155289,-83.3333333333333,4,2,1,75,0,0
156973,-133.333333333333,4,2,1,50,0,0
158044,-66.6666666666667,4,2,1,75,0,0
158503,-62.5,4,2,1,75,0,0
158733,-76.9230769230769,4,2,1,5,0,0

[Colours]
Combo1 : 255,176,216
Combo2 : 188,120,120
Combo3 : 128,128,255
Combo4 : 192,192,192
Combo5 : 255,210,74

[HitObjects]
129,91,36666,5,10,0:0:0:0:
129,91,36972,5,10,0:0:0:0:
129,91,37278,5,10,0:0:0:0:
190,172,37432,2,0,L|179:271,1,95.9999970703126,10|0,0:0|0:0,0:0:0:0:
174,311,37661,1,0,0:0:0:0:
174,311,37738,2,0,P|224:265|327:287,1,143.999995605469,14|0,0:0|0:0,0:0:0:0:
370,295,38044,2,0,L|383:373,4,47.9999985351563,0|0|0|0|0,3:0|3:0|3:0|3:0|3:0,0:0:0:0:
426,187,38503,1,8,0:0:0:0:
470,246,38656,6,0,P|467:119|416:37,1,216.000000823975,12|0,0:0|0:0,0:0:0:0:
313,63,39115,5,10,0:0:0:0:
313,63,39421,5,10,0:0:0:0:
313,63,39727,5,10,0:0:0:0:
216,147,39881,2,0,B|146:137|171:182|87:166,1,120,10|0,0:0|0:0,0:0:0:0:
25,214,40187,2,0,B|4:164|4:164|35:105,1,95.9999970703126,10|0,0:0|0:0,0:0:0:0:
120,0,40493,2,0,B|141:50|141:50|110:109,1,95.9999970703126,14|0,0:0|0:0,0:0:0:0:
216,147,40799,2,0,P|308:105|376:132,1,143.999995605469,10|0,0:0|0:0,0:0:0:0:
371,209,41104,1,0,0:0:0:0:
512,215,41258,2,0,B|533:122|533:122|512:140|470:148,1,143.999995605469,8|0,0:3|0:0,0:0:0:0:
431,59,41564,5,10,0:0:0:0:
431,59,41870,5,10,0:0:0:0:
431,59,42176,5,10,0:0:0:0:
325,129,42330,2,0,P|277:136|241:178,1,90.0000034332277,10|0,0:0|0:0,0:0:0:0:
185,37,42636,6,0,P|253:127|360:109,1,191.999994140625,14|0,0:0|0:0,0:0:0:0:
487,189,43095,2,0,P|432:194|399:294,1,143.999995605469,10|0,0:0|0:0,0:0:0:0:
471,266,43401,1,10,0:0:0:0:
381,344,43554,1,8,0:0:0:0:
381,344,43630,1,8,0:0:0:0:
381,344,43707,2,0,L|318:326,1,47.9999985351563,8|0,0:0|0:0,0:0:0:0:
464,345,43860,6,0,L|264:375,1,191.999994140625,4|0,0:0|0:0,0:0:0:0:
165,312,44319,1,0,0:0:0:0:
171,285,44472,1,0,0:0:0:0:
236,207,44625,1,0,3:0:0:0:
232,190,44702,1,0,3:0:0:0:
229,173,44778,1,0,3:0:0:0:
155,82,44931,1,0,0:0:0:0:
133,100,45084,2,0,L|220:88,1,60.0000022888184,0|0,0:0|0:0,0:0:0:0:
389,47,45391,6,0,P|311:56|300:147,1,180.000006866455,10|0,0:0|0:0,0:0:0:0:
357,109,45697,1,10,0:0:0:0:
389,47,45850,6,0,P|319:45|323:172,1,210.000008010865,10|0,0:0|0:0,0:0:0:0:
364,225,46462,6,0,L|345:407,2,160,0|0|0,3:0|0:0|3:0,0:0:0:0:
252,109,47380,2,0,L|236:19,1,80,8|0,0:0|0:0,0:0:0:0:
148,22,47686,2,0,P|114:84|13:80,1,160,0|8,3:0|0:0,0:0:0:0:
66,16,48146,1,0,3:0:0:0:
1,164,48299,2,0,L|18:273,1,80,0|0,3:0|0:0,0:0:0:0:
130,306,48605,2,0,L|116:193,1,80,8|0,0:0|0:0,0:0:0:0:
238,253,48911,6,0,P|286:292|385:247,1,160,0|8,3:0|0:0,0:0:0:0:
326,79,49523,1,0,3:0:0:0:
326,79,49676,1,0,3:0:0:0:
404,151,49829,2,0,L|516:139,1,80,8|0,0:0|0:0,0:0:0:0:
270,142,50135,2,0,P|244:48|307:-10,2,160,0|8|0,3:0|0:0|3:0,0:0:0:0:
364,217,50901,1,0,3:0:0:0:
255,290,51054,2,0,L|130:307,1,120,8|0,0:0|0:0,0:0:0:0:
79,236,51360,6,0,L|260:213,1,160,0|8,3:0|0:0,0:0:0:0:
447,335,51972,2,0,L|429:234,1,80,0|0,3:0|0:0,0:0:0:0:
346,159,52278,2,0,L|361:55,1,80,8|0,0:0|0:0,0:0:0:0:
425,184,52584,2,0,P|391:230|277:203,1,160,0|8,3:0|0:0,0:0:0:0:
109,104,53197,2,0,L|198:123,2,80,0|0|8,3:0|0:0|0:0,0:0:0:0:
32,188,53656,1,0,0:0:0:0:
207,197,53809,6,0,P|261:134|227:49,1,160,0|8,3:0|0:0,0:0:0:0:
113,269,54421,1,0,3:0:0:0:
113,269,54574,1,0,3:0:0:0:
211,334,54727,2,0,L|328:313,1,80,8|0,0:0|0:0,0:0:0:0:
447,271,55033,6,0,P|350:245|332:202,1,120,0|0,3:0|0:0,0:0:0:0:
319,162,55339,2,0,P|341:196|337:251,1,80,8|0,0:0|0:0,0:0:0:0:
274,69,55646,2,0,P|292:32|342:8,1,80,8|0,0:0|0:0,0:0:0:0:
187,168,55952,1,8,0:0:0:0:
186,142,56028,1,8,0:0:0:0:
216,131,56105,1,8,0:0:0:0:
230,157,56181,1,8,0:0:0:0:
212,177,56258,6,0,P|160:156|42:207,2,160,4|8|0,3:2|0:0|0:0,0:0:0:0:
270,274,57023,1,0,3:0:0:0:
345,189,57176,2,0,L|326:95,1,80,8|0,0:0|0:0,0:0:0:0:
415,22,57482,2,0,L|449:200,1,160,0|8,3:0|0:0,0:0:0:0:
483,280,57941,1,0,0:0:0:0:
415,363,58095,2,0,P|391:306|305:288,1,120,0|0,3:0|0:0,0:0:0:0:
310,283,58401,2,0,P|289:330|236:336,1,80,8|0,0:0|0:0,0:0:0:0:
123,315,58707,6,0,P|122:216|122:213,1,80,0|0,3:0|0:0,0:0:0:0:
236,169,59013,2,0,P|224:103|222:61,1,80,8|0,0:0|0:0,0:0:0:0:
112,20,59319,2,0,P|83:85|0:89,1,160,0|8,3:0|0:0,0:0:0:0:
37,23,59778,1,0,0:0:0:0:
135,140,59931,2,0,L|269:119,1,120,0|0,3:0|0:0,0:0:0:0:
348,184,60238,6,0,P|284:147|318:59,1,167.999994873047,12|0,0:0|0:0,0:0:0:0:
427,105,60544,5,0,3:0:0:0:
427,105,60697,1,0,3:0:0:0:
311,55,60850,6,0,P|274:132|373:182,1,180.000006866455,12|0,0:0|0:0,0:0:0:0:
429,204,61156,6,0,P|360:227|358:316,1,160,0|8,3:0|0:0,0:0:0:0:
440,383,61615,1,0,0:0:0:0:
417,276,61768,1,0,3:0:0:0:
417,276,61921,1,0,3:0:0:0:
282,340,62074,2,0,L|181:367,1,80,8|0,0:0|0:0,0:0:0:0:
340,215,62380,2,0,P|356:147|300:70,2,160,0|8|0,3:0|0:0|3:0,0:0:0:0:
216,236,63146,1,0,3:0:0:0:
128,147,63299,2,0,L|143:32,1,80,8|0,0:0|0:0,0:0:0:0:
281,20,63605,6,0,P|286:70|250:114,1,80,0|0,3:0|0:0,0:0:0:0:
395,161,63911,2,0,P|348:182|295:161,1,80,8|0,0:0|0:0,0:0:0:0:
299,316,64217,2,0,P|264:278|268:221,1,80,0|0,3:0|0:0,0:0:0:0:
120,270,64523,2,0,P|145:225|200:211,1,80,8|0,0:0|0:0,0:0:0:0:
94,79,64829,6,0,P|147:90|182:142,1,80,10|0,0:0|0:0,0:0:0:0:
105,279,65135,2,0,P|132:229|193:214,1,80,2|0,0:0|0:0,0:0:0:0:
302,330,65441,2,0,P|263:288|267:225,1,80,2|0,0:0|0:0,0:0:0:0:
408,159,65748,2,0,P|356:182|298:159,1,80,2|0,0:0|0:0,0:0:0:0:
238,109,66054,5,0,3:0:0:0:
131,21,66207,5,10,0:0:0:0:
129,43,66360,5,10,0:0:0:0:
127,63,66513,5,10,0:0:0:0:
117,191,66666,6,0,L|109:246,1,30.0000011444092,10|0,0:0|0:0,0:0:0:0:
104,261,66819,2,0,P|127:226|240:226,1,150.000005722046,8|0,0:0|0:0,0:0:0:0:
294,163,67279,6,0,P|224:165|208:266,1,160,4|0,3:2|0:0,0:0:0:0:
283,312,67737,1,0,0:0:0:0:
380,205,67890,2,0,P|382:125|367:103,2,80,0|0|0,3:0|0:0|0:0,0:0:0:0:
377,324,68350,2,0,L|475:303,1,80,0|0,0:0|3:0,0:0:0:0:
290,238,68656,1,0,0:0:0:0:
290,238,68809,1,0,0:0:0:0:
205,284,68962,2,0,P|194:206|237:162,1,120,0|0,3:0|0:0,0:0:0:0:
307,134,69268,6,0,L|304:84,1,40,10|0,0:0|0:0,0:0:0:0:
299,29,69421,2,0,B|332:84|332:84|295:157,1,120,10|0,0:0|0:0,0:0:0:0:
363,224,69727,6,0,P|411:184|501:218,1,160,0|0,3:0|0:0,0:0:0:0:
441,278,70186,1,0,0:0:0:0:
360,351,70339,2,0,L|274:335,1,80,0|0,3:0|0:0,0:0:0:0:
181,255,70646,2,0,L|73:235,1,80,10|0,0:0|0:0,0:0:0:0:
4,300,70952,1,0,3:0:0:0:
0,127,71105,6,0,B|64:152|64:152|127:117,1,120,0|0,0:0|0:0,0:0:0:0:
175,160,71411,2,0,P|174:90|114:55,1,120,0|0,0:0|0:0,0:0:0:0:
54,19,71717,6,0,L|65:90,1,40,2|0,0:0|0:0,0:0:0:0:
108,127,71870,2,0,L|86:257,1,120,2|0,0:0|0:0,0:0:0:0:
35,325,72176,6,0,P|85:278|181:322,1,160,4|0,3:2|0:0,0:0:0:0:
107,373,72635,1,0,0:0:0:0:
249,334,72788,2,0,L|272:222,2,80,0|0|10,3:0|0:0|0:0,0:0:0:0:
377,214,73248,6,0,L|356:312,1,80,0|0,0:0|3:0,0:0:0:0:
418,141,73554,2,0,L|398:231,1,80,0|0,0:0|0:0,0:0:0:0:
457,61,73860,2,0,L|437:151,1,80,0|0,3:0|0:0,0:0:0:0:
235,185,74166,6,0,L|252:117,1,40,8|0,0:0|0:0,0:0:0:0:
306,92,74319,2,0,B|257:115|257:115|172:75,1,120,8|0,0:0|0:0,0:0:0:0:
162,9,74625,6,0,P|117:56|140:136,1,120,0|0,3:0|0:0,0:0:0:0:
155,187,74931,2,0,P|129:136|41:146,1,120,0|0,0:0|0:0,0:0:0:0:
75,212,75237,2,0,L|82:313,2,80,0|0|10,3:0|0:0|0:0,0:0:0:0:
174,281,75697,1,0,0:0:0:0:
279,328,75850,2,0,P|342:255|426:275,2,160,0|0|0,3:0|3:0|3:0,0:0:0:0:
122,297,76615,6,0,L|118:231,1,40,10|0,0:0|0:0,0:0:0:0:
57,186,76769,2,0,L|56:130,1,53.1999978082276,10|0,0:0|0:0,0:0:0:0:
168,65,77075,6,0,P|216:130|324:92,1,176.000005371094,0|0,3:0|0:0,0:0:0:0:
387,47,77533,1,0,0:0:0:0:
456,133,77686,2,0,L|441:250,1,88.000002685547,0|0,3:0|0:0,0:0:0:0:
394,320,77993,1,2,0:0:0:0:
316,213,78146,2,0,L|303:314,1,88.000002685547,0|0,0:0|3:0,0:0:0:0:
190,269,78452,2,0,L|170:383,2,88.000002685547,0|0|0,0:0|0:0|0:0,0:0:0:0:
239,132,78911,6,0,P|253:86|240:42,2,88.000002685547,0|2|2,3:0|0:0|0:0,0:0:0:0:
106,216,79370,1,0,0:0:0:0:
269,276,79524,6,0,B|453:259,1,150,10|0,0:0|0:0,0:0:0:0:
454,87,79829,2,0,P|381:128|407:192,1,150,10|0,0:0|0:0,0:0:0:0:
478,234,80135,1,10,0:0:0:0:
367,365,80289,2,0,P|305:279|269:275,1,150,10|0,0:0|0:0,0:0:0:0:
194,317,80595,5,0,0:0:0:0:
194,317,80671,1,0,0:0:0:0:
194,317,80748,2,0,P|277:258|269:205,1,150,10|0,0:0|0:0,0:0:0:0:
185,94,81054,2,0,B|158:147|158:147|199:244,1,150,10|0,0:0|0:0,0:0:0:0:
275,220,81360,1,10,0:0:0:0:
119,255,81513,2,0,P|61:209|29:283,1,150,10|0,0:0|0:0,0:0:0:0:
194,317,81819,6,0,B|310:294|277:370|400:343,1,200,10|0,0:0|0:0,0:0:0:0:
512,220,82279,1,10,0:0:0:0:
340,254,82432,1,10,0:0:0:0:
484,301,82586,1,10,0:0:0:0:
366,172,82738,1,10,0:0:0:0:
399,321,82891,1,10,0:0:0:0:
451,151,83045,6,0,B|471:92|471:92|426:20,1,120.000004577637,8|0,0:0|0:0,0:0:0:0:
128,53,83809,6,0,L|132:-4,1,30.0000011444092,0|0,0:0|0:0,0:0:0:0:
270,85,83962,1,8,0:0:0:0:
276,101,84038,1,8,0:0:0:0:
278,123,84115,1,8,0:0:0:0:
269,142,84191,1,8,0:0:0:0:
243,159,84268,1,8,0:0:0:0:
213,157,84345,1,8,0:0:0:0:
183,138,84422,6,0,P|246:209|227:271,1,155.999992858887,0|0,3:0|0:0,0:0:0:0:
134,290,84727,2,0,P|190:227|263:237,1,155.999992858887,10|0,0:0|0:0,0:0:0:0:
366,345,85033,2,0,B|302:310|302:310|205:321,1,155.999992858887,0|0,3:0|0:0,0:0:0:0:
145,370,85339,1,10,0:0:0:0:
30,276,85493,5,0,0:0:0:0:
30,276,85569,1,0,0:0:0:0:
30,276,85646,2,0,P|19:189|93:199,1,155.999992858887,0|0,3:0|0:0,0:0:0:0:
149,43,85952,2,0,B|192:82|192:82|158:134,1,103.999995239258,10|0,0:0|0:0,0:0:0:0:
141,263,86258,1,0,0:0:0:0:
263,191,86411,2,0,B|402:160,1,103.999995239258,0|10,0:0|0:0,0:0:0:0:
441,45,86717,5,0,0:0:0:0:
441,45,86794,1,0,0:0:0:0:
441,45,86870,2,0,P|429:117|489:174,1,155.999992858887,0|0,3:0|0:0,0:0:0:0:
419,249,87176,2,0,P|471:152|525:161,1,155.999992858887,10|0,0:0|0:0,0:0:0:0:
509,293,87482,2,0,L|348:253,1,155.999992858887,0|0,3:0|0:0,0:0:0:0:
271,225,87788,1,10,0:0:0:0:
208,323,87941,1,0,0:0:0:0:
92,220,88095,5,0,3:0:0:0:
92,220,88248,1,0,0:0:0:0:
193,90,88401,2,0,P|211:181|148:230,1,155.999992858887,10|0,0:0|0:0,0:0:0:0:
61,299,88707,1,0,3:0:0:0:
61,299,88860,1,0,0:0:0:0:
196,357,89013,2,0,P|245:274|339:294,1,155.999992858887,10|0,0:0|0:0,0:0:0:0:
299,188,89319,6,0,L|272:366,1,155.999992858887,0|0,3:0|0:0,0:0:0:0:
406,384,89625,2,0,P|430:308|366:260,1,155.999992858887,10|0,0:0|0:0,0:0:0:0:
277,294,89931,1,0,3:0:0:0:
380,189,90084,1,0,0:0:0:0:
357,331,90237,1,10,0:0:0:0:
212,177,90390,5,0,0:0:0:0:
212,177,90467,1,0,0:0:0:0:
212,177,90544,2,0,B|186:107|209:33|209:33|236:70|287:90,1,207.999990478516,0|10,3:0|0:0,0:0:0:0:
390,182,91003,1,0,0:0:0:0:
435,80,91156,1,0,3:0:0:0:
309,184,91309,2,0,P|329:241|400:262,1,103.999995239258,0|10,0:0|0:0,0:0:0:0:
501,156,91615,1,0,0:0:0:0:
273,107,91768,6,0,P|225:189|267:261,1,155.999992858887,0|0,3:0|0:0,0:0:0:0:
262,337,92075,2,0,B|305:285|305:285|149:275,1,180.000006866455,14|0,0:0|0:0,0:0:0:0:
66,321,92381,2,0,P|126:380|177:339,1,143.999995605469,0|0,3:0|0:0,0:0:0:0:
192,277,92687,2,0,P|132:218|81:259,1,143.999995605469,10|0,0:0|0:0,0:0:0:0:
60,350,92993,6,0,L|70:295,1,30.0000011444092
97,211,93146,2,0,L|84:266,1,30.0000011444092,10|0,0:0|0:0,0:0:0:0:
42,365,93299,6,0,L|55:321,1,30.0000011444092,0|0,0:0|0:0,0:0:0:0:
112,174,93452,2,0,B|127:226|127:226|86:275,1,90.0000034332277,10|0,0:0|0:0,0:0:0:0:
180,336,93758,1,0,0:0:0:0:
191,327,93834,1,0,0:0:0:0:
223,321,93911,5,0,3:0:0:0:
256,335,93987,1,0,3:0:0:0:
288,348,94064,1,0,3:0:0:0:
330,343,94140,1,0,3:0:0:0:
361,325,94218,6,0,P|406:240|348:168,1,155.999992858887,4|0,3:2|0:0,0:0:0:0:
314,242,94524,2,0,P|406:218|416:153,1,155.999992858887,10|0,0:0|0:0,0:0:0:0:
340,41,94829,2,0,B|294:23|294:23|336:164,1,155.999992858887,0|0,3:0|0:0,0:0:0:0:
434,150,95135,1,8,0:0:0:0:
314,242,95288,5,0,0:0:0:0:
314,242,95365,1,0,0:0:0:0:
314,242,95442,2,0,P|239:189|167:240,1,155.999992858887,0|0,3:0|0:0,0:0:0:0:
155,384,95748,2,0,L|140:246,1,103.999995239258,10|0,0:0|0:0,0:0:0:0:
136,154,96054,1,0,3:0:0:0:
0,153,96207,2,0,P|35:215|97:208,1,103.999995239258,0|10,0:0|0:0,0:0:0:0:
211,106,96513,5,0,0:0:0:0:
211,106,96589,1,0,0:0:0:0:
211,106,96666,2,0,B|218:49|187:25|187:25|151:29|99:91,1,155.999992858887,0|0,3:0|0:0,0:0:0:0:
229,265,96972,2,0,B|285:272|309:241|309:241|305:205|243:153,1,155.999992858887,10|0,0:0|0:0,0:0:0:0:
67,281,97278,2,0,B|59:337|90:361|90:361|126:357|178:295,1,155.999992858887,0|0,3:0|0:0,0:0:0:0:
55,118,97584,2,0,B|-1:110|-25:141|-25:141|-21:177|40:229,1,155.999992858887,10|0,0:0|0:0,0:0:0:0:
134,186,97890,5,0,3:0:0:0:
134,186,98044,1,0,0:0:0:0:
274,239,98197,2,0,B|291:120|291:120|262:152|218:173,1,180.000006866455,14|0,0:0|0:0,0:0:0:0:
181,287,98503,1,0,3:0:0:0:
181,287,98656,1,0,0:0:0:0:
47,343,98809,2,0,B|30:224|30:224|59:256|103:277,1,180.000006866455,14|0,0:0|0:0,0:0:0:0:
232,370,99115,6,0,P|266:308|378:320,1,155.999992858887,0|0,3:0|0:0,0:0:0:0:
373,214,99421,2,0,P|315:334|345:360,1,155.999992858887,10|0,0:0|0:0,0:0:0:0:
464,327,99727,1,0,3:0:0:0:
330,272,99880,1,0,0:0:0:0:
391,383,100033,1,10,0:0:0:0:
492,229,100186,5,0,0:0:0:0:
492,229,100263,1,0,0:0:0:0:
492,229,100339,2,0,B|512:173|507:97|507:97|485:133|439:148,1,207.999990478516,0|10,3:0|0:0,0:0:0:0:
329,194,100799,1,0,0:0:0:0:
383,92,100952,1,0,3:0:0:0:
333,272,101105,2,0,P|280:259|256:185,1,103.999995239258,0|10,0:0|0:0,0:0:0:0:
289,69,101411,1,0,0:0:0:0:
414,207,101564,6,0,B|430:262|430:262|393:382,1,155.999992858887,0|0,3:0|0:0,0:0:0:0:
292,378,101870,2,0,P|408:366|432:434,1,155.999992858887,10|0,0:0|0:0,0:0:0:0:
221,283,102176,2,0,B|198:245|225:207|225:207|271:212|288:267,1,155.999992858887,0|0,3:0|0:0,0:0:0:0:
151,369,102482,2,0,P|94:360|55:305,1,103.999995239258,10|0,0:0|0:0,0:0:0:0:
106,174,102788,5,2,0:0:0:0:
135,292,102941,1,2,0:0:0:0:
20,247,103095,1,10,0:0:0:0:
191,217,103248,2,0,B|321:189|256:270|417:224,1,207.999990478516,2|0,0:0|0:0,0:0:0:0:
476,163,103707,1,10,0:0:0:0:
468,153,103860,1,0,0:0:0:0:
398,74,104012,5,10,0:0:0:0:
314,116,104319,1,10,0:0:0:0:
234,67,104625,1,10,0:0:0:0:
153,143,104778,5,0,0:0:0:0:
164,160,104931,1,10,0:0:0:0:
176,139,105084,1,0,0:0:0:0:
101,72,105237,5,10,0:0:0:0:
26,135,105544,1,10,0:0:0:0:
84,214,105850,1,10,0:0:0:0:
47,310,106003,5,0,0:0:0:0:
33,288,106156,1,10,0:0:0:0:
22,314,106309,1,0,0:0:0:0:
102,378,106462,5,10,0:0:0:0:
171,306,106768,1,10,0:0:0:0:
267,342,107074,1,10,0:0:0:0:
355,282,107227,5,0,0:0:0:0:
347,255,107380,1,10,0:0:0:0:
327,271,107533,1,0,0:0:0:0:
405,360,107686,5,10,0:0:0:0:
474,278,107993,1,10,0:0:0:0:
417,190,108299,1,10,0:0:0:0:
314,224,108452,5,0,0:0:0:0:
329,242,108605,1,10,0:0:0:0:
338,221,108758,1,0,0:0:0:0:
299,120,108911,5,10,0:0:0:0:
198,165,109217,1,10,0:0:0:0:
119,89,109523,1,10,0:0:0:0:
229,37,109676,5,0,0:0:0:0:
224,62,109829,1,10,0:0:0:0:
199,50,109982,1,0,0:0:0:0:
332,18,110135,5,10,0:0:0:0:
315,125,110441,1,10,0:0:0:0:
206,166,110748,1,10,0:0:0:0:
99,107,110901,1,0,0:0:0:0:
99,107,110977,1,0,0:0:0:0:
99,107,111054,1,10,0:0:0:0:
211,72,111207,1,0,0:0:0:0:
249,226,111360,6,0,P|195:243|142:204,1,120.000004577637,4|0,0:0|0:0,0:0:0:0:
321,173,111819,2,0,B|343:214|343:214|314:303,1,120.000004577637,0|0,0:0|0:0,0:0:0:0:
270,364,112278,1,0,0:0:0:0:
249,226,112431,1,4,3:2:0:0:
387,336,112584,6,0,L|208:311,1,160,0|8,0:0|0:0,0:0:0:0:
48,274,113044,2,0,B|23:239|23:239|168:248,1,160,0|0,0:0|0:0,0:0:0:0:
227,228,113426,1,8,0:0:0:0:
227,228,113503,1,8,0:0:0:0:
217,131,113656,1,0,0:0:0:0:
87,168,113809,5,4,3:2:0:0:
308,281,114268,1,0,3:0:0:0:
402,245,114421,2,0,P|413:282|393:341,2,80,0|0|10,0:0|0:0|0:0,0:0:0:0:
322,163,114880,1,0,0:0:0:0:
240,80,115033,2,0,L|246:-20,2,80,0|0|0,3:0|0:0|0:0,0:0:0:0:
165,196,115493,6,0,P|116:126|51:117,1,120,0|0,3:0|0:0,0:0:0:0:
132,241,115799,2,0,P|104:128|86:123,1,120,0|0,3:0|0:0,0:0:0:0:
89,273,116105,2,0,P|125:233|123:199,1,80,0|0,3:0|0:0,0:0:0:0:
1,272,116411,1,8,0:0:0:0:
0,384,116564,1,10,0:0:0:0:
120,357,116717,2,0,B|214:339|175:407|299:378,1,160,4|0,3:2|0:0,0:0:0:0:
345,265,117099,1,0,0:0:0:0:
345,265,117176,2,0,P|284:253|252:306,1,120,10|0,0:0|0:0,0:0:0:0:
387,351,117482,6,0,L|502:330,2,80,0|8|10,3:0|0:0|0:0,0:0:0:0:
252,294,117941,1,8,0:0:0:0:
252,294,118094,1,0,0:0:0:0:
184,169,118247,1,0,0:0:0:0:
184,169,118324,1,0,0:0:0:0:
184,169,118401,2,0,B|164:125|164:125|200:28,1,120,10|0,0:0|0:0,0:0:0:0:
286,4,118707,6,0,L|294:57,1,40,8|0,0:0|0:0,0:0:0:0:
363,94,118860,2,0,L|370:140,1,40,8|0,0:0|0:0,0:0:0:0:
389,216,119013,1,10,0:0:0:0:
389,216,119089,1,0,0:0:0:0:
389,216,119166,2,0,L|273:185,1,120,12|0,0:0|0:0,0:0:0:0:
90,142,119472,2,0,L|268:102,1,160,8|0,0:0|0:0,0:0:0:0:
287,101,119855,5,0,3:0:0:0:
287,101,119932,2,0,P|239:22|173:118,2,240.000009155274,0|0|0,3:0|0:0|0:0,0:0:0:0:
132,343,122380,2,0,P|37:301|123:234,1,240.000009155274,2|0,0:0|0:0,0:0:0:0:
388,269,123605,2,0,P|438:294|417:365,1,120.000004577637,2|0,0:0|0:0,0:0:0:0:
296,178,124217,2,0,P|293:116|361:98,1,120.000004577637,2|0,0:0|0:0,0:0:0:0:
266,302,124829,6,0,B|160:276|151:320|142:364|28:334,2,240.000009155274,2|0|2,0:0|0:0|0:0,0:0:0:0:
372,125,127125,5,0,0:0:0:0:
251,50,127278,2,0,L|271:161,1,107.999996704102,4|0,3:2|0:0,0:0:0:0:
280,201,127584,2,0,P|256:170|218:156,1,71.9999978027344,0|0,0:0|0:0,0:0:0:0:
103,207,127890,5,0,0:0:0:0:
85,306,128043,1,8,0:0:0:0:
163,372,128196,1,8,0:0:0:0:
260,337,128349,1,8,0:0:0:0:
199,170,128502,5,0,3:0:0:0:
85,306,128656,1,12,0:0:0:0:
260,337,128809,1,0,3:0:0:0:
103,207,128962,1,12,0:0:0:0:
217,42,129268,5,8,0:0:0:0:
217,42,129344,1,8,0:0:0:0:
217,42,129422,2,0,P|249:60|249:116,1,77.9999964294435,8|0,0:0|0:0,0:0:0:0:
202,145,129728,6,0,P|257:87|177:49,1,155.999992858887,0|0,3:0|0:0,0:0:0:0:
178,243,130033,2,0,P|200:320|273:270,1,155.999992858887,10|0,0:0|0:0,0:0:0:0:
109,172,130340,2,0,P|30:152|37:240,1,155.999992858887,0|0,3:0|0:0,0:0:0:0:
96,284,130645,1,10,0:0:0:0:
202,145,130798,5,0,0:0:0:0:
202,145,130875,1,0,0:0:0:0:
202,145,130952,2,0,B|234:95|234:95|195:-28,1,155.999992858887,0|0,3:0|0:0,0:0:0:0:
311,14,131258,2,0,P|342:65|417:79,1,103.999995239258,10|0,0:0|0:0,0:0:0:0:
512,56,131564,1,0,0:0:0:0:
397,167,131717,2,0,P|340:204|353:269,1,103.999995239258,0|10,3:0|0:0,0:0:0:0:
420,330,132023,5,0,0:0:0:0:
420,330,132099,1,0,0:0:0:0:
420,330,132176,2,0,L|222:313,1,155.999992858887,0|0,3:0|0:0,0:0:0:0:
192,230,132482,2,0,L|370:244,1,155.999992858887,10|0,0:0|0:0,0:0:0:0:
397,167,132789,2,0,P|317:103|325:54,1,155.999992858887,0|0,3:0|0:0,0:0:0:0:
401,23,133095,2,0,P|365:69|251:62,1,155.999992858887,10|0,0:0|0:0,0:0:0:0:
178,29,133400,5,0,3:0:0:0:
178,29,133554,1,0,0:0:0:0:
59,114,133707,2,0,B|41:158|72:203|72:203|119:200|151:154,1,180.000006866455,10|0,0:0|0:0,0:0:0:0:
255,133,134013,1,0,3:0:0:0:
255,133,134166,1,0,0:0:0:0:
373,240,134319,2,0,B|391:284|360:329|360:329|313:326|281:280,1,180.000006866455,10|0,0:0|0:0,0:0:0:0:
181,126,134626,6,0,P|213:73|314:80,1,155.999992858887,0|0,3:0|0:0,0:0:0:0:
360,14,134931,2,0,P|293:118|305:133,1,155.999992858887,10|0,0:0|0:0,0:0:0:0:
376,190,135237,1,0,3:0:0:0:
369,87,135390,1,0,0:0:0:0:
272,208,135543,1,10,0:0:0:0:
386,323,135696,5,0,0:0:0:0:
386,323,135773,1,0,0:0:0:0:
386,323,135849,2,0,B|406:267|401:191|401:191|379:227|333:242,1,207.999990478516,0|10,3:0|0:0,0:0:0:0:
222,311,136309,1,0,0:0:0:0:
272,208,136462,1,0,0:0:0:0:
230,383,136615,2,0,P|177:370|153:296,1,103.999995239258,0|10,3:0|0:0,0:0:0:0:
132,211,136921,5,0,0:0:0:0:
242,156,137074,2,0,B|281:160|302:189|302:189|297:226|246:248,1,155.999992858887,0|0,3:0|0:0,0:0:0:0:
83,113,137380,2,0,B|87:72|115:51|115:51|153:56|174:107,1,155.999992858887,10|0,0:0|0:0,0:0:0:0:
35,267,137687,2,0,B|-5:261|-26:233|-26:233|-21:195|29:174,1,155.999992858887,0|0,3:0|0:0,0:0:0:0:
191,315,137993,2,0,B|185:355|157:376|157:376|119:371|98:320,1,155.999992858887,10|0,0:0|0:0,0:0:0:0:
132,211,138298,5,2,0:0:0:0:
227,172,138451,1,2,0:0:0:0:
266,269,138605,1,10,0:0:0:0:
38,176,138758,2,0,B|17:115|20:41|20:41|53:82|98:95,1,207.999990478516,2|0,0:0|0:0,0:0:0:0:
171,152,139217,1,10,0:0:0:0:
185,160,139370,1,0,0:0:0:0:
279,88,139523,5,14,0:0:0:0:
342,16,139829,1,10,0:0:0:0:
434,45,140135,1,10,0:0:0:0:
424,141,140288,5,0,0:0:0:0:
403,149,140441,1,10,0:0:0:0:
406,127,140594,1,0,0:0:0:0:
498,192,140747,5,10,0:0:0:0:
423,263,141054,1,10,0:0:0:0:
487,343,141360,1,10,0:0:0:0:
378,382,141513,5,0,0:0:0:0:
378,356,141666,1,10,0:0:0:0:
399,373,141819,1,0,0:0:0:0:
283,348,141972,5,10,0:0:0:0:
205,283,142278,1,10,0:0:0:0:
115,326,142584,1,10,0:0:0:0:
23,259,142737,5,0,0:0:0:0:
48,248,142890,1,10,0:0:0:0:
46,270,143043,1,0,0:0:0:0:
0,171,143196,5,10,0:0:0:0:
21,77,143502,1,10,0:0:0:0:
115,44,143809,1,10,0:0:0:0:
196,109,143962,5,0,0:0:0:0:
198,136,144115,1,10,0:0:0:0:
174,127,144268,1,0,0:0:0:0:
247,29,144421,5,14,0:0:0:0:
337,90,144727,1,10,0:0:0:0:
310,183,145033,1,10,0:0:0:0:
403,245,145186,5,0,0:0:0:0:
431,239,145339,1,10,0:0:0:0:
414,217,145492,1,0,0:0:0:0:
321,280,145645,5,10,0:0:0:0:
247,351,145951,1,10,0:0:0:0:
155,317,146258,1,10,0:0:0:0:
141,222,146411,1,8,0:0:0:0:
141,222,146487,1,10,0:0:0:0:
141,222,146564,1,8,0:0:0:0:
55,284,146717,1,0,0:0:0:0:
178,129,146871,6,0,P|241:198|222:261,1,136.000002593994,4|0,3:2|0:0,0:0:0:0:
200,361,147329,2,0,P|246:280|305:287,1,136.000002593994,0|0,0:0|0:0,0:0:0:0:
288,355,147788,1,0,0:0:0:0:
232,198,147941,1,4,3:2:0:0:
123,311,148095,6,0,L|280:277,1,160
379,131,148554,2,0,B|346:91|346:91|330:208,1,160,0|0,0:0|0:0,0:0:0:0:
400,268,148936,1,8,0:0:0:0:
400,268,149013,1,8,0:0:0:0:
474,203,149166,1,0,0:0:0:0:
437,72,149319,5,14,0:0:0:0:
437,72,149625,5,14,0:0:0:0:
437,72,149931,5,10,0:0:0:0:
306,141,150085,2,0,P|250:141|212:119,1,95.9999970703126,10|0,0:0|0:0,0:0:0:0:
184,105,150314,1,0,0:0:0:0:
184,105,150390,2,0,P|232:143|181:258,1,191.999994140625,14|0,0:0|3:0,0:0:0:0:
129,322,150773,2,0,L|150:396,3,47.9999985351563,0|0|0|0,3:0|3:0|3:0|3:0,0:0:0:0:
54,214,151156,1,8,0:0:0:0:
11,278,151309,6,0,P|14:151|65:69,1,216.000000823975,12|0,0:0|0:0,0:0:0:0:
170,92,151768,5,14,0:0:0:0:
170,92,152074,5,14,0:0:0:0:
287,218,152380,5,8,0:0:0:0:
287,218,152457,1,8,0:0:0:0:
287,218,152533,2,0,P|349:198|360:114,1,143.999995605469,8|0,0:0|0:0,0:0:0:0:
327,36,152840,2,0,P|362:105|461:105,1,143.999995605469,10|0,0:0|0:0,0:0:0:0:
512,203,153145,2,0,P|450:233|459:290,1,95.9999970703126,14|0,0:0|0:0,0:0:0:0:
227,303,153452,6,0,P|296:284|367:347,1,143.999995605469,14|0,0:0|0:0,0:0:0:0:
281,382,153757,1,8,0:3:0:0:
145,264,153911,2,0,B|135:169|135:169|158:197|194:215,1,143.999995605469,8|0,0:3|0:0,0:0:0:0:
257,253,154217,5,10,0:0:0:0:
257,253,154523,5,10,0:0:0:0:
257,253,154829,5,10,0:0:0:0:
350,143,154983,2,0,P|349:69|325:38,1,80,10|0,0:0|0:0,0:0:0:0:
433,5,155289,6,0,P|354:49|350:143,1,191.999994140625,14|0,0:0|0:0,0:0:0:0:
201,180,155748,2,0,P|256:185|289:285,1,143.999995605469,10|0,0:0|0:0,0:0:0:0:
217,257,156053,1,10,0:0:0:0:
113,305,156206,1,8,0:0:0:0:
113,305,156284,1,8,0:0:0:0:
113,305,156360,2,0,L|117:248,1,47.9999985351563,8|0,0:0|0:0,0:0:0:0:
93,374,156513,6,0,L|89:172,1,191.999994140625,14|0,0:0|0:0,0:0:0:0:
183,95,156973,1,0,0:0:0:0:
189,122,157126,1,0,0:0:0:0:
256,209,157279,1,0,3:0:0:0:
252,226,157354,1,0,3:0:0:0:
249,243,157432,1,0,3:0:0:0:
181,345,157585,1,0,0:0:0:0:
159,327,157737,2,0,L|246:339,1,60.0000022888184,0|0,0:0|0:0,0:0:0:0:
438,351,158044,6,0,P|409:271|319:255,1,180.000006866455,14|0,0:0|0:0,0:0:0:0:
333,357,158349,1,10,0:0:0:0:
438,351,158503,6,0,P|406:261|295:256,1,192,14|0,0:0|0:0,0:0:0:0:
