osu file format v14

[General]
AudioFilename: audio.mp3
AudioLeadIn: 0
PreviewTime: 84368
Countdown: 0
SampleSet: Soft
StackLeniency: 0.5
Mode: 0
LetterboxInBreaks: 0
WidescreenStoryboard: 0

[Editor]
DistanceSpacing: 1.6
BeatDivisor: 4
GridSize: 4
TimelineZoom: 2.3

[Metadata]
Title:Chocolate Smile
TitleUnicode:チョコレートスマイル
Artist:Hinatabi Bitter Sweets & Coconatsu
ArtistUnicode:日向美ビタースイーツ♪ & ここなつ
Creator:Hakurei Yoru
Version:Misure's Hard
Source:pop'n music ラピストリア
Tags:japanese pop jpop j-pop video game nostalgia Misure Ancul Otosaka-Yu Bemani CUTEG ひなビタ hinabita 山形 まり花 日高里菜 和泉 一舞 津田美波 春日 咲子 山口愛 芽兎 めう 五十嵐裕美 霜月 凛 水原薫 東雲 夏陽 日南結里 東雲 心菜 小澤亜李 Marika Yamagata Rina Hidaka Sakiko Kasuga Megumi Yamaguchi Ibuki Izumi Minami Tsuda Meu Meu Hiromi Igarashi Rin Shimotsuki Kaoru Mizuhara Natsuhi Shinonome Yuri Hinami Cocona Shinonome Ari Ozawa Kokona ノスタルジア FORTE GITADORA DanceDanceRevolution jubeat prop REFLEC BEAT groovin'!! Upper DanceEvolution ARCADE BeatStream
BeatmapID:1813571
BeatmapSetID:648659

[Difficulty]
HPDrainRate:5.2
CircleSize:3.8
OverallDifficulty:6
ApproachRate:8
SliderMultiplier:1.4
SliderTickRate:1

[Events]
//Background and Video events
0,0,"bg.jpg",0,0
//Break Periods
2,191099,199945
2,211915,218312
//Storyboard Layer 0 (Background)
//Storyboard Layer 1 (Fail)
//Storyboard Layer 2 (Pass)
//Storyboard Layer 3 (Foreground)
//Storyboard Layer 4 (Overlay)
//Storyboard Sound Samples

[TimingPoints]
35389,306.122448979592,4,2,1,30,1,0
35695,-100,4,2,1,40,0,0
36001,-100,4,2,1,50,0,0
36307,-100,4,2,1,60,0,0
36613,-100,4,2,1,75,0,0
37914,-100,4,2,1,60,0,0
38603,-100,4,2,1,75,0,0
43807,-111.111111111111,4,2,1,65,0,0
46409,-111.111111111111,4,2,1,55,0,0
64776,-111.111111111111,4,2,1,65,0,0
66154,-111.111111111111,4,2,1,70,0,0
66766,-111.111111111111,4,2,1,60,0,0
67225,-125,4,2,1,55,0,0
79470,-100,4,2,1,70,0,0
83756,-100,4,2,1,65,0,0
84368,-100,4,2,1,80,0,1
93399,-100,4,2,1,70,0,0
94164,-100,4,2,1,80,0,1
103960,-111.111111111111,4,2,1,70,0,0
111307,-111.111111111111,4,2,1,60,0,0
112378,-111.111111111111,4,2,1,70,0,0
113756,-100,4,2,1,75,0,0
115057,-100,4,2,1,60,0,0
115746,-100,4,2,1,75,0,0
120950,-111.111111111111,4,2,1,65,0,0
123552,-111.111111111111,4,2,1,55,0,0
141919,-111.111111111111,4,2,1,65,0,0
143297,-111.111111111111,4,2,1,70,0,0
143909,-111.111111111111,4,2,1,60,0,0
144368,-125,4,2,1,55,0,0
156613,-100,4,2,1,70,0,0
160899,-100,4,2,1,65,0,0
161511,-100,4,2,1,80,0,1
170542,-100,4,2,1,70,0,0
171307,-100,4,2,1,80,0,1
181103,-111.111111111111,4,2,1,70,0,0
188450,-111.111111111111,4,2,1,60,0,0
189521,-111.111111111111,4,2,1,70,0,0
190899,-100,4,2,1,55,0,0
207889,-100,4,2,1,60,0,0
209266,-100,4,2,1,65,0,0
210491,-100,4,2,1,75,0,0
211715,-100,4,2,1,55,0,0
219062,-111.111111111111,4,2,1,60,0,0
219980,-100,4,2,1,60,0,0
220286,-100,4,2,1,70,0,0
221511,-100,4,2,1,80,0,1
231307,-100,4,2,1,85,0,1
238654,-111.111111111111,4,2,1,70,0,0
239725,-100,4,2,1,75,0,0
241103,-100,4,2,1,75,0,1
242404,-100,4,2,1,60,0,1
243093,-100,4,2,1,75,0,1
248297,-100,4,2,1,65,0,0
249827,-100,4,2,1,75,0,0

[Colours]
Combo1 : 255,176,216
Combo2 : 188,120,120
Combo3 : 128,128,255
Combo4 : 192,192,192
Combo5 : 255,210,74

[HitObjects]
44,35,35388,6,0,P|39:51|39:69,3,35,2|0|2|0,0:0|0:0|0:0|0:0,0:0:0:0:
7,106,35695,2,0,P|10:122|19:137,3,35,2|0|2|0,0:0|0:0|0:0|0:0,0:0:0:0:
11,185,36001,2,0,P|23:197|37:205,3,35,2|0|2|0,0:0|0:0|0:0|0:0,0:0:0:0:
54,252,36307,2,0,P|70:256|88:256,3,35,2|0|2|0,0:0|0:0|0:0|0:0,0:0:0:0:
132,231,36613,6,0,L|152:299,1,70,4|0,1:2|0:0,0:0:0:0:
237,252,36919,2,0,L|253:182,1,70,4|0,1:2|0:0,0:0:0:0:
313,329,37225,1,8,0:0:0:0:
313,329,37378,2,0,L|247:354,1,70,8|0,0:0|0:0,0:0:0:0:
420,358,37684,2,0,L|391:247,1,105,4|0,1:2|0:0,0:0:0:0:
420,222,37991,6,0,L|449:241,3,35,0|0|0|0,3:0|3:0|3:0|3:0,0:0:0:0:
488,226,38297,2,0,L|500:157,1,70,0|8,3:0|0:0,0:0:0:0:
512,64,38603,6,0,P|449:119|368:98,1,175,4|0,1:2|0:0,0:0:0:0:
368,55,39062,6,0,L|301:78,1,70,4|0,1:2|0:0,0:0:0:0:
177,130,39368,2,0,L|243:156,1,70,4|0,1:2|0:0,0:0:0:0:
125,49,39674,1,8,0:0:0:0:
125,49,39751,1,8,0:0:0:0:
125,49,39827,2,0,L|111:16,2,35,8|0|0,0:0|0:0|0:0,0:0:0:0:
54,117,40133,6,0,P|39:148|39:183,1,70,4|0,1:2|0:0,0:0:0:0:
87,293,40440,2,0,L|20:270,1,70,4|0,1:2|0:0,0:0:0:0:
138,214,40746,2,0,P|205:212|242:156,1,140,4|8,1:2|3:0,0:0:0:0:
334,190,41205,2,0,L|364:206,2,35,8|0|0,3:0|3:0|3:0,0:0:0:0:
335,92,41511,6,0,L|356:25,1,70,4|0,1:2|0:0,0:0:0:0:
240,63,41817,2,0,L|172:43,1,70,4|0,1:2|0:0,0:0:0:0:
174,173,42123,1,8,0:0:0:0:
174,173,42276,2,0,L|242:155,1,70,8|0,0:0|0:0,0:0:0:0:
333,189,42582,6,0,P|292:243|224:254,1,140,4|0,1:2|0:0,0:0:0:0:
126,270,43042,2,0,L|144:338,1,70,4|0,1:2|0:0,0:0:0:0:
230,382,43348,1,8,1:2:0:0:
311,327,43501,2,0,L|317:292,2,35,0|0|0,3:0|3:0|3:0,0:0:0:0:
401,349,43807,6,0,P|462:352|503:306,1,125.999996154785,4|2,0:0|3:2,0:0:0:0:
441,234,44266,2,0,L|424:172,1,62.9999980773926,0|2,0:0|3:2,0:0:0:0:
470,90,44572,2,0,L|477:59,2,31.4999990386963,0|0|0,1:0|3:0|3:0,0:0:0:0:
424,173,44878,1,0,1:0:0:0:
424,173,45031,2,0,P|392:170|366:154,1,62.9999980773926,2|0,3:2|1:0,0:0:0:0:
301,85,45337,5,4,1:2:0:0:
329,285,45644,1,8,0:0:0:0:
329,285,45797,1,8,0:0:0:0:
263,208,46409,6,0,L|139:181,2,125.999996154785,4|0|0,1:0|1:0|3:0,0:0:0:0:
320,120,47174,1,0,3:0:0:0:
320,120,47327,2,0,P|316:89|309:59,1,62.9999980773926,0|0,1:0|0:0,0:0:0:0:
173,49,47633,5,0,3:0:0:0:
173,49,47786,1,0,0:0:0:0:
173,49,47940,2,0,P|166:79|162:111,1,62.9999980773926,0|0,1:0|0:0,0:0:0:0:
233,173,48246,2,0,P|262:164|292:151,1,62.9999980773926,0|0,3:0|3:0,0:0:0:0:
309,59,48552,2,0,P|285:38|260:20,1,62.9999980773926,0|0,1:0|0:0,0:0:0:0:
173,49,48858,6,0,P|122:82|60:81,1,125.999996154785,0|0,3:0|1:0,0:0:0:0:
18,166,49317,1,0,0:0:0:0:
18,166,49470,2,0,P|22:197|32:226,1,62.9999980773926,0|0,3:0|3:0,0:0:0:0:
114,274,49776,1,0,1:0:0:0:
114,274,49929,1,0,0:0:0:0:
160,191,50082,6,0,P|189:181|221:178,1,62.9999980773926,2|0,3:2|0:0,0:0:0:0:
346,120,50388,2,0,P|316:110|285:107,1,62.9999980773926,0|0,1:0|0:0,0:0:0:0:
221,177,50695,2,0,P|227:207|240:236,1,62.9999980773926,2|0,3:2|3:0,0:0:0:0:
332,257,51002,2,0,P|355:235|374:210,1,62.9999980773926,0|0,1:0|0:0,0:0:0:0:
240,236,51307,6,0,L|118:208,2,125.999996154785,0|0|0,3:0|1:0|3:0,0:0:0:0:
210,325,52072,1,0,0:0:0:0:
210,325,52225,2,0,P|185:344|155:352,1,62.9999980773926,0|0,1:0|0:0,0:0:0:0:
63,336,52531,6,0,P|51:306|47:275,1,62.9999980773926,0|0,3:0|0:0,0:0:0:0:
117,207,52837,2,0,P|128:177|132:146,1,62.9999980773926,0|0,1:0|0:0,0:0:0:0:
30,101,53144,1,0,3:0:0:0:
30,101,53297,1,0,3:0:0:0:
56,192,53450,2,0,P|85:203|116:207,1,62.9999980773926,0|0,1:0|0:0,0:0:0:0:
185,142,53756,6,0,L|159:18,2,125.999996154785,4|0|2,1:2|1:0|3:2,0:0:0:0:
268,185,54521,1,0,3:0:0:0:
268,185,54674,2,0,L|325:159,1,62.9999980773926,0|0,1:0|0:0,0:0:0:0:
386,87,54980,6,0,P|396:56|399:25,2,62.9999980773926,4|0|0,1:2|0:0|1:0,0:0:0:0:
325,159,55440,1,0,0:0:0:0:
325,159,55593,2,0,P|327:190|338:219,1,62.9999980773926,0|0,1:0|0:0,0:0:0:0:
416,272,55899,2,0,L|445:283,3,31.4999990386963,0|0|0|0,1:0|3:0|3:0|3:0,0:0:0:0:
484,302,56205,6,0,L|361:332,1,125.999996154785,4|0,3:2|1:0,0:0:0:0:
282,383,56664,1,0,0:0:0:0:
282,383,56817,2,0,P|266:355|260:325,1,62.9999980773926,0|0,3:0|3:0,0:0:0:0:
313,243,57123,1,0,1:0:0:0:
313,243,57276,1,0,0:0:0:0:
286,151,57429,6,0,P|256:141|224:138,1,62.9999980773926,0|0,3:0|0:0,0:0:0:0:
137,174,57735,2,0,P|115:197|99:224,1,62.9999980773926,0|0,1:0|0:0,0:0:0:0:
134,311,58042,1,0,3:0:0:0:
134,311,58195,1,0,3:0:0:0:
46,343,58348,2,0,P|22:321|4:296,1,62.9999980773926,0|0,1:0|0:0,0:0:0:0:
39,207,58654,6,0,P|67:219|98:223,1,62.9999980773926,2|0,3:2|0:0,0:0:0:0:
154,146,58960,2,0,P|183:132|214:129,1,62.9999980773926,0|0,1:0|0:0,0:0:0:0:
282,195,59266,2,0,P|310:207|341:211,1,62.9999980773926,2|0,3:2|0:0,0:0:0:0:
418,158,59572,1,0,1:0:0:0:
418,158,59725,1,2,0:0:0:0:
418,158,59878,6,0,P|414:126|402:97,1,62.9999980773926,0|0,3:0|0:0,0:0:0:0:
285,38,60184,2,0,P|316:33|345:22,1,62.9999980773926,4|0,1:2|0:0,0:0:0:0:
298,134,60491,2,0,P|294:165|282:195,1,62.9999980773926,0|0,1:0|0:0,0:0:0:0:
225,21,60797,2,0,P|256:25|286:38,1,62.9999980773926,4|0,1:2|0:0,0:0:0:0:
402,97,61103,6,0,P|463:88|498:37,1,125.999996154785,4|0,1:2|1:0,0:0:0:0:
489,132,61562,1,0,0:0:0:0:
489,132,61715,2,0,L|507:192,2,62.9999980773926,0|0|0,3:0|3:0|1:0,0:0:0:0:
402,97,62174,1,0,0:0:0:0:
334,163,62327,6,0,P|303:156|278:136,1,62.9999980773926,0|0,3:0|0:0,0:0:0:0:
225,59,62633,2,0,L|105:97,1,125.999996154785,0|0,1:0|3:0,0:0:0:0:
24,148,63093,1,0,3:0:0:0:
24,148,63246,2,0,P|11:119|9:88,1,62.9999980773926,0|0,1:0|0:0,0:0:0:0:
110,196,63552,5,2,3:2:0:0:
110,196,63705,1,0,0:0:0:0:
74,283,63858,1,0,1:0:0:0:
74,283,64011,1,0,0:0:0:0:
125,362,64164,2,0,L|186:347,1,62.9999980773926,2|0,3:2|3:0,0:0:0:0:
341,338,64470,2,0,L|280:324,1,62.9999980773926,0|0,1:0|0:0,0:0:0:0:
213,250,64776,6,0,L|197:188,2,62.9999980773926,6|0|6,1:2|0:0|1:2,0:0:0:0:
299,201,65235,1,0,3:0:0:0:
299,201,65388,2,0,L|312:139,1,62.9999980773926,6|0,1:2|2:0,0:0:0:0:
262,56,65695,1,6,1:2:0:0:
188,114,65848,1,0,1:0:0:0:
188,114,66154,5,4,1:2:0:0:
137,43,66307,1,0,1:2:0:0:
53,70,66460,1,4,1:2:0:0:
53,158,66613,1,0,1:0:0:0:
137,186,66766,2,0,B|149:234|133:278|133:278|109:254|105:220,1,157.499995193482,0|0,3:0|0:0,0:0:0:0:
87,240,67225,6,0,B|197:224,1,112,4|8,3:2|3:2,0:0:0:0:
275,273,67684,1,8,3:2:0:0:
275,273,67837,2,0,P|286:247|290:219,2,56,0|0|0,3:2|3:2|3:2,0:0:0:0:
193,320,68297,5,0,3:2:0:0:
235,146,68603,1,0,3:2:0:0:
364,269,68909,1,0,3:2:0:0:
193,320,69215,1,8,3:2:0:0:
193,320,69368,2,0,L|134:312,1,56,8|0,3:2|3:0,0:0:0:0:
74,256,69674,6,0,P|127:236|183:237,1,112,0|8,3:2|3:2,0:0:0:0:
247,176,70133,2,0,P|248:203|257:230,1,56,8|0,3:2|3:2,0:0:0:0:
342,259,70440,2,0,P|364:244|383:223,1,56,0|2,3:2|3:2,0:0:0:0:
339,145,70746,1,0,3:2:0:0:
339,145,71052,6,0,L|351:199,1,56,6|0,3:2|3:2,0:0:0:0:
261,83,71358,2,0,L|249:137,1,56,6|0,3:2|3:2,0:0:0:0:
169,194,71664,1,10,3:2:0:0:
109,126,71817,1,8,3:2:0:0:
24,312,72123,6,0,L|131:281,1,112,4|8,3:2|3:2,0:0:0:0:
222,273,72582,1,8,3:2:0:0:
222,273,72735,2,0,P|219:300|209:326,2,56,0|0|2,3:2|3:2|3:2,0:0:0:0:
169,194,73195,5,0,3:2:0:0:
336,130,73501,1,8,3:2:0:0:
197,16,73807,1,0,3:2:0:0:
169,194,74113,1,8,3:2:0:0:
169,194,74266,2,0,L|240:176,1,56,8|0,3:2|3:0,0:0:0:0:
283,246,74572,6,0,P|338:245|391:264,1,112,0|8,3:2|3:2,0:0:0:0:
480,258,75031,1,8,3:2:0:0:
480,258,75184,2,0,L|467:312,2,56,0|0|0,3:2|3:2|3:2,0:0:0:0:
427,184,75644,5,2,3:2:0:0:
427,184,75797,2,0,L|413:129,1,56,0|2,3:0|0:0,0:0:0:0:
394,42,76103,1,0,3:0:0:0:
394,42,76256,2,0,L|342:61,1,56,2|0,0:0|3:0,0:0:0:0:
259,96,76562,1,8,3:2:0:0:
215,17,76715,1,8,3:2:0:0:
243,193,77021,6,0,L|274:300,1,112,4|0,3:2|0:0,0:0:0:0:
208,361,77480,2,0,P|180:366|158:382,1,56,2|2,3:2|3:2,0:0:0:0:
91,328,77786,1,0,3:2:0:0:
91,328,77940,2,0,P|89:299|99:273,1,56,0|2,3:2|3:2,0:0:0:0:
61,191,78246,5,0,3:2:0:0:
61,191,78399,2,0,P|114:181|164:210,1,112,2|2,3:2|3:2,0:0:0:0:
226,137,78858,2,0,L|217:81,2,56,2|0|10,3:2|3:2|3:2,0:0:0:0:
162,208,79317,5,8,3:2:0:0:
162,208,79470,2,0,L|94:191,1,70,4|0,1:2|0:0,0:0:0:0:
277,280,79776,2,0,L|209:296,1,70,0|0,1:2|0:0,0:0:0:0:
370,198,80082,1,4,1:2:0:0:
370,198,80235,2,0,L|302:181,1,70,8|0,1:2|0:0,0:0:0:0:
374,290,80542,6,0,L|390:357,1,70,4|0,1:2|1:0,0:0:0:0:
472,182,80848,1,0,0:0:0:0:
472,182,81001,2,0,L|455:249,1,70,0|0,1:0|0:0,0:0:0:0:
353,129,81307,1,4,1:2:0:0:
353,129,81460,2,0,L|369:197,1,70,8|0,1:2|0:0,0:0:0:0:
387,36,81766,6,0,P|343:88|275:88,1,140,4|2,1:2|3:2,0:0:0:0:
225,15,82225,1,8,1:2:0:0:
225,15,82378,1,8,1:2:0:0:
225,15,82531,5,8,1:2:0:0:
138,41,82684,1,8,1:2:0:0:
135,131,82837,1,8,1:2:0:0:
220,161,82990,1,8,1:2:0:0:
18,341,83756,5,2,0:0:0:0:
70,265,83909,1,0,3:2:0:0:
70,265,83985,1,0,3:2:0:0:
70,265,84062,2,0,L|58:231,3,35,8|8|8|8,3:2|3:2|3:2|3:2,0:0:0:0:
102,278,84368,6,0,L|116:138,1,140,4|8,1:2|0:0,0:0:0:0:
184,69,84827,1,0,0:0:0:0:
229,155,84980,2,0,P|214:186|188:210,1,70,2|0,1:2|0:0,0:0:0:0:
116,139,85286,1,8,0:0:0:0:
116,139,85440,1,2,0:0:0:0:
54,52,85593,6,0,B|122:85|122:85|184:69,1,140,0|8,1:0|0:0,0:0:0:0:
258,3,86052,1,2,0:0:0:0:
313,83,86205,2,0,L|299:151,2,70,0|2|8,1:0|0:0|0:0,0:0:0:0:
379,10,86664,1,0,1:0:0:0:
448,80,86817,6,0,P|478:63|512:54,1,70,2|0,1:2|0:0,0:0:0:0:
471,192,87123,2,0,P|437:182|406:166,1,70,10|0,0:0|0:0,0:0:0:0:
349,247,87429,1,2,1:2:0:0:
349,247,87582,1,0,0:0:0:0:
412,322,87735,2,0,P|442:305|476:296,1,70,10|0,0:0|0:0,0:0:0:0:
318,342,88042,5,4,1:2:0:0:
318,342,88195,1,2,0:0:0:0:
256,268,88348,1,12,1:2:0:0:
256,268,88501,1,2,0:0:0:0:
173,318,88654,2,0,P|176:352|190:384,1,70,4|2,1:2|0:0,0:0:0:0:
81,358,88960,2,0,P|49:343|14:340,1,70,12|2,1:2|0:0,0:0:0:0:
95,256,89266,6,0,L|60:120,2,140,4|8|2,1:2|0:0|1:2,0:0:0:0:
173,318,90031,1,0,0:0:0:0:
238,245,90184,2,0,B|253:211|253:211|248:178,1,70,8|0,0:0|0:0,0:0:0:0:
172,114,90491,5,2,1:2:0:0:
172,114,90644,1,0,0:0:0:0:
202,20,90797,2,0,P|229:41|262:49,1,70,8|2,0:0|0:0,0:0:0:0:
351,6,91103,1,0,1:2:0:0:
431,62,91256,2,0,L|444:130,2,70,2|8|0,0:0|0:0|0:0,0:0:0:0:
342,111,91715,6,0,P|317:175|331:242,1,140,4|12,1:2|1:2,0:0:0:0:
428,258,92174,1,0,0:0:0:0:
387,347,92327,2,0,L|321:372,1,70,0|0,3:0|3:0,0:0:0:0:
253,301,92633,2,0,L|220:289,2,35,8|0|0,1:2|1:0|1:0,0:0:0:0:
331,242,92940,5,4,1:0:0:0:
298,160,93093,1,8,0:0:0:0:
226,109,93246,1,0,1:0:0:0:
137,114,93399,1,8,0:0:0:0:
111,300,93705,1,0,1:0:0:0:
111,300,93781,1,0,1:0:0:0:
111,300,93858,2,0,L|98:267,3,35,0|0|0|0,3:0|3:0|3:0|3:0,0:0:0:0:
130,223,94164,6,0,P|71:259|2:252,2,140,4|8|2,1:2|0:0|1:2,0:0:0:0:
34,98,94929,1,0,0:0:0:0:
34,98,95082,2,0,L|51:165,1,70,8|2,0:0|0:0,0:0:0:0:
142,129,95388,6,0,P|176:123|208:108,1,70,0|0,1:0|0:0,0:0:0:0:
304,33,95695,2,0,P|273:17|239:14,1,70,8|2,0:0|0:0,0:0:0:0:
366,110,96001,1,0,1:0:0:0:
366,110,96154,1,2,0:0:0:0:
455,71,96307,2,0,P|472:40|473:6,1,70,8|0,0:0|1:0,0:0:0:0:
366,110,96613,6,0,L|384:177,1,70,0|0,1:0|0:0,0:0:0:0:
487,289,96919,2,0,L|421:268,1,70,10|0,0:0|0:0,0:0:0:0:
330,340,97225,2,0,L|397:363,1,70,2|0,1:2|0:0,0:0:0:0:
311,243,97531,2,0,L|244:265,1,70,10|0,0:0|0:0,0:0:0:0:
71,310,97837,5,4,1:2:0:0:
71,310,97991,1,2,0:0:0:0:
142,376,98144,2,0,P|161:347|168:313,1,70,12|2,1:2|0:0,0:0:0:0:
188,166,98450,1,4,1:2:0:0:
188,166,98604,1,2,0:0:0:0:
90,169,98757,2,0,P|96:203|116:231,1,70,12|2,1:2|0:0,0:0:0:0:
207,340,99062,6,0,L|71:310,2,140,6|8|2,1:2|0:0|1:2,0:0:0:0:
272,266,99828,1,0,0:0:0:0:
272,266,99981,2,0,B|276:229|276:229|259:200,1,70,8|0,0:0|0:0,0:0:0:0:
187,134,100286,6,0,L|52:171,1,140,2|8,1:2|0:0,0:0:0:0:
13,51,100745,1,2,0:0:0:0:
13,51,100898,2,0,L|80:70,1,70,0|2,1:0|0:0,0:0:0:0:
156,9,101204,1,8,0:0:0:0:
242,57,101358,1,0,0:0:0:0:
346,24,101511,6,0,P|342:58|331:92,1,70,4|0,1:2|0:0,0:0:0:0:
241,201,101817,2,0,P|276:196|310:186,1,70,12|0,1:2|0:0,0:0:0:0:
415,135,102123,1,2,1:2:0:0:
415,135,102276,1,0,0:0:0:0:
433,231,102429,2,0,P|409:256|381:277,1,70,10|0,0:0|0:0,0:0:0:0:
337,365,102735,6,0,L|271:340,2,70,4|0|12,1:2|0:0|1:2,0:0:0:0:
380,277,103195,2,0,L|446:255,1,70,0|4,0:2|1:2,0:0:0:0:
502,186,103501,1,0,0:0:0:0:
478,101,103654,1,12,1:2:0:0:
393,77,103807,1,0,0:0:0:0:
316,125,103960,6,0,P|312:155|319:186,1,62.9999980773926,4|2,1:2|0:0,0:0:0:0:
257,258,104266,2,0,P|224:254|193:261,1,62.9999980773926,0|2,1:0|0:0,0:0:0:0:
122,200,104572,2,0,P|123:167|116:136,1,62.9999980773926,0|2,1:0|0:0,0:0:0:0:
176,64,104878,2,0,P|206:65|237:58,1,62.9999980773926,0|2,1:0|0:0,0:0:0:0:
361,6,105184,6,0,L|377:67,1,62.9999980773926,0|2,1:0|0:0,0:0:0:0:
471,73,105491,2,0,L|452:133,1,62.9999980773926,0|2,1:0|0:0,0:0:0:0:
374,187,105797,2,0,L|392:247,1,62.9999980773926,0|2,1:0|0:0,0:0:0:0:
484,268,106104,2,0,L|461:326,1,62.9999980773926,0|2,1:0|0:0,0:0:0:0:
375,376,106409,6,0,P|346:363|320:344,1,62.9999980773926,0|2,1:0|0:0,0:0:0:0:
226,343,106715,2,0,P|207:317|194:289,1,62.9999980773926,0|2,1:0|0:0,0:0:0:0:
113,239,107021,2,0,P|109:207|112:176,1,62.9999980773926,0|2,1:0|0:0,0:0:0:0:
67,93,107327,2,0,P|79:64|98:38,1,62.9999980773926,0|2,1:0|0:0,0:0:0:0:
249,75,107633,6,0,P|219:86|189:92,1,62.9999980773926,0|2,1:0|0:0,0:0:0:0:
112,176,107940,2,0,P|142:181|171:193,1,62.9999980773926,0|2,1:0|0:0,0:0:0:0:
68,265,108246,2,0,P|38:276|8:282,1,62.9999980773926,0|2,1:0|0:0,0:0:0:0:
122,350,108553,2,0,P|152:355|181:367,1,62.9999980773926,0|2,1:0|0:0,0:0:0:0:
264,268,108858,6,0,L|254:205,1,62.9999980773926,4|2,1:2|0:0,0:0:0:0:
368,144,109164,2,0,L|358:206,1,62.9999980773926,0|2,1:0|0:0,0:0:0:0:
255,331,109470,2,0,L|264:268,1,62.9999980773926,0|2,1:0|0:0,0:0:0:0:
358,206,109776,2,0,L|367:268,1,62.9999980773926,0|2,1:0|0:0,0:0:0:0:
436,356,110082,6,0,P|450:328|472:305,1,62.9999980773926,0|2,1:0|0:0,0:0:0:0:
497,215,110388,2,0,P|482:187|460:164,1,62.9999980773926,0|2,1:0|0:0,0:0:0:0:
408,84,110695,2,0,P|422:56|444:33,1,62.9999980773926,0|2,1:0|0:0,0:0:0:0:
443,33,110924,1,0,0:0:0:0:
444,33,111001,1,0,1:0:0:0:
502,107,111154,1,2,0:0:0:0:
435,174,111307,5,4,3:2:0:0:
435,174,112378,6,0,P|370:138|388:210,1,188.999994232178,4|0,1:2|1:0,0:0:0:0:
409,303,112991,2,0,L|351:328,1,62.9999980773926,0|0,1:0|1:0,0:0:0:0:
263,363,113297,2,0,L|234:349,2,31.4999990386963,8|8|8,0:0|0:0|0:0,0:0:0:0:
178,274,113603,1,0,1:0:0:0:
90,318,113756,6,0,L|112:384,1,70,4|0,1:2|0:0,0:0:0:0:
178,274,114062,2,0,L|196:206,1,70,4|0,1:2|0:0,0:0:0:0:
26,201,114368,1,8,0:0:0:0:
26,201,114521,2,0,L|91:227,1,70,8|0,0:0|0:0,0:0:0:0:
185,105,114827,2,0,B|144:133|144:133|88:134,1,105,4|0,1:2|0:0,0:0:0:0:
47,123,115133,6,0,L|37:89,3,35,0|0|0|0,3:0|3:0|3:0|0:0,0:0:0:0:
0,68,115439,2,0,L|15:0,1,70,0|8,3:0|3:2,0:0:0:0:
112,15,115745,6,0,P|170:75|254:63,1,175,4|0,1:2|0:0,0:0:0:0:
266,22,116205,6,0,L|332:43,1,70,4|0,1:2|0:0,0:0:0:0:
336,141,116511,2,0,L|269:161,1,70,4|0,1:2|0:0,0:0:0:0:
423,184,116817,1,0,3:0:0:0:
423,184,116894,1,0,3:0:0:0:
423,184,116970,2,0,L|434:144,2,35,8|8|8,3:2|3:2|3:2,0:0:0:0:
477,265,117276,6,0,P|446:280|411:279,1,70,4|0,1:2|0:0,0:0:0:0:
326,346,117582,2,0,L|391:374,1,70,4|0,1:2|0:0,0:0:0:0:
316,251,117889,2,0,P|248:253|201:205,1,140,0|8,1:0|0:0,0:0:0:0:
137,128,118348,2,0,L|128:94,2,35,8|0|0,3:2|3:0|3:0,0:0:0:0:
92,216,118654,6,0,L|23:203,1,70,4|0,1:2|0:0,0:0:0:0:
27,320,118960,2,0,L|95:307,1,70,4|0,1:2|0:0,0:0:0:0:
205,257,119266,1,8,0:0:0:0:
205,257,119419,2,0,L|189:325,1,70,8|0,0:0|0:0,0:0:0:0:
274,371,119725,6,0,P|330:333|397:348,1,140,4|0,1:2|0:0,0:0:0:0:
490,318,120184,2,0,L|474:250,1,70,4|0,1:2|0:0,0:0:0:0:
444,155,120491,1,0,1:0:0:0:
368,217,120644,2,0,L|360:261,2,35,8|8|8,0:0|0:0|0:0,0:0:0:0:
300,150,120950,6,0,P|260:196|200:188,1,125.999996154785,4|2,1:2|3:2,0:0:0:0:
106,205,121409,2,0,L|127:269,1,62.9999980773926,0|2,0:0|3:2,0:0:0:0:
199,325,121715,2,0,L|190:355,2,31.4999990386963,0|0|0,1:0|1:0|3:0,0:0:0:0:
126,265,122021,1,0,1:0:0:0:
125,265,122174,2,0,P|95:272|68:287,1,62.9999980773926,0|0,3:0|1:0,0:0:0:0:
95,379,122480,5,4,1:2:0:0:
289,327,122787,1,8,0:0:0:0:
289,327,122940,1,8,0:0:0:0:
193,135,123552,6,0,L|316:108,1,125.999996154785,4|0,1:0|1:0,0:0:0:0:
342,199,124011,1,0,0:0:0:0:
301,284,124164,2,0,P|270:279|242:264,1,62.9999980773926,0|0,3:0|3:0,0:0:0:0:
148,252,124470,2,0,P|136:281|132:312,1,62.9999980773926,0|0,1:0|0:0,0:0:0:0:
52,363,124776,6,0,L|19:241,1,125.999996154785,0|0,3:0|1:0,0:0:0:0:
90,179,125235,1,0,0:0:0:0:
59,89,125388,2,0,L|0:108,1,62.9999980773926,0|0,3:0|3:0,0:0:0:0:
114,11,125695,1,0,1:0:0:0:
114,11,125848,1,0,0:0:0:0:
181,76,126001,6,0,P|242:69|281:22,2,125.999996154785,0|0|0,3:0|1:0|3:0,0:0:0:0:
128,155,126766,1,0,3:0:0:0:
128,155,126919,2,0,L|145:216,1,62.9999980773926,0|0,1:0|0:0,0:0:0:0:
232,183,127225,6,0,P|256:163|286:153,1,62.9999980773926,2|0,3:2|0:0,0:0:0:0:
358,211,127531,2,0,P|361:242|354:271,1,62.9999980773926,0|0,1:0|0:0,0:0:0:0:
268,305,127837,2,0,P|238:292|215:271,1,62.9999980773926,2|0,3:2|3:0,0:0:0:0:
145,216,128144,2,0,P|115:226|90:245,1,62.9999980773926,0|0,1:0|0:0,0:0:0:0:
23,316,128450,6,0,L|142:356,1,125.999996154785,0|0,3:2|1:0,0:0:0:0:
231,332,128909,1,0,0:0:0:0:
231,332,129062,2,0,P|218:292|215:270,1,62.9999980773926,0|0,3:0|0:0,0:0:0:0:
289,212,129368,1,0,1:0:0:0:
289,212,129521,1,0,0:0:0:0:
357,275,129673,6,0,P|353:306|342:335,1,62.9999980773926,0|0,3:0|0:0,0:0:0:0:
426,379,129980,2,0,P|454:366|485:361,1,62.9999980773926,0|0,1:0|0:0,0:0:0:0:
512,272,130286,1,0,3:0:0:0:
512,272,130440,1,0,3:0:0:0:
512,272,130593,2,0,P|486:253|466:229,1,62.9999980773926,0|0,1:0|0:0,0:0:0:0:
363,198,130899,6,0,P|364:229|376:258,1,62.9999980773926,4|0,1:2|0:0,0:0:0:0:
438,141,131205,2,0,P|450:112|451:80,1,62.9999980773926,0|0,1:0|0:0,0:0:0:0:
381,18,131511,2,0,P|350:24|324:41,1,62.9999980773926,2|0,3:2|3:0,0:0:0:0:
271,120,131817,2,0,P|240:113|214:96,1,62.9999980773926,0|0,1:0|0:0,0:0:0:0:
167,14,132123,6,0,L|152:144,1,125.999996154785,4|0,1:2|1:0,0:0:0:0:
62,162,132582,1,0,0:0:0:0:
94,251,132735,2,0,P|122:238|153:232,1,62.9999980773926,0|0,1:0|0:0,0:0:0:0:
232,286,133042,2,0,L|223:316,3,31.4999990386963,0|0|0|0,1:0|3:0|3:0|3:0,0:0:0:0:
239,360,133348,6,0,P|210:347|179:341,1,62.9999980773926,6|0,3:2|0:0,0:0:0:0:
85,346,133654,2,0,P|56:358|25:364,1,62.9999980773926,0|0,1:0|0:0,0:0:0:0:
94,251,133960,1,0,3:0:0:0:
94,251,134113,1,0,3:0:0:0:
185,278,134266,2,0,P|185:310|179:341,1,62.9999980773926,0|0,1:0|0:0,0:0:0:0:
267,371,134572,6,0,L|388:337,2,125.999996154785,0|0|0,3:0|1:0|3:0,0:0:0:0:
284,278,135337,1,0,3:0:0:0:
284,278,135491,2,0,P|274:247|272:216,1,62.9999980773926,0|0,1:0|0:0,0:0:0:0:
332,143,135796,6,0,P|360:156|391:161,1,62.9999980773926,2|0,3:2|0:0,0:0:0:0:
288,60,136103,2,0,P|257:65|228:77,1,62.9999980773926,0|0,1:0|0:0,0:0:0:0:
147,125,136408,2,0,P|146:156|137:186,2,62.9999980773926,2|0|0,3:2|3:0|1:0,0:0:0:0:
76,64,136868,1,2,0:0:0:0:
8,128,137020,6,0,P|7:158|19:189,1,62.9999980773926,0|0,3:0|0:0,0:0:0:0:
68,325,137327,2,0,L|80:264,1,62.9999980773926,4|0,1:2|0:0,0:0:0:0:
138,186,137633,2,0,P|169:186|198:196,1,62.9999980773926,0|0,1:0|0:0,0:0:0:0:
297,272,137940,2,0,L|236:284,1,62.9999980773926,4|0,1:2|0:0,0:0:0:0:
281,152,138246,6,0,P|337:173|386:138,1,125.999996154785,4|0,1:2|1:0,0:0:0:0:
467,185,138705,1,0,0:0:0:0:
467,185,138858,2,0,L|453:246,1,62.9999980773926,0|0,3:0|3:0,0:0:0:0:
439,339,139164,1,0,1:0:0:0:
439,339,139317,1,0,0:0:0:0:
366,278,139470,6,0,P|334:279|307:295,1,62.9999980773926,0|0,3:0|0:0,0:0:0:0:
247,367,139776,2,0,L|124:335,1,125.999996154785,0|0,1:0|3:0,0:0:0:0:
162,249,140235,1,0,3:0:0:0:
162,249,140389,2,0,P|168:218|163:187,1,62.9999980773926,0|0,1:0|0:0,0:0:0:0:
70,213,140695,5,2,3:2:0:0:
70,213,140848,1,0,0:0:0:0:
24,131,141001,1,0,1:0:0:0:
24,131,141154,1,0,0:0:0:0:
74,51,141307,2,0,P|101:36|132:35,1,62.9999980773926,2|0,3:2|3:0,0:0:0:0:
201,101,141613,2,0,P|233:101|260:115,1,62.9999980773926,0|0,1:0|0:0,0:0:0:0:
349,84,141919,5,6,1:2:0:0:
349,84,142072,2,0,P|380:80|408:67,1,62.9999980773926,0|6,0:0|1:2,0:0:0:0:
469,139,142378,1,0,3:0:0:0:
469,139,142531,2,0,P|466:170|453:198,1,62.9999980773926,6|0,1:2|2:0,0:0:0:0:
398,274,142837,1,6,1:2:0:0:
477,315,142991,1,0,1:0:0:0:
477,315,143297,5,4,1:2:0:0:
406,262,143450,1,0,1:2:0:0:
318,273,143603,1,4,1:2:0:0:
266,344,143756,1,0,1:0:0:0:
182,315,143909,2,0,B|174:243|174:243|166:231|166:231|158:160,1,157.499995193482,0|0,3:0|0:0,0:0:0:0:
145,179,144368,6,0,P|198:173|217:123,1,112,4|8,3:2|3:2,0:0:0:0:
184,38,144827,2,0,P|160:24|134:15,1,56,8|0,3:2|3:2,0:0:0:0:
61,69,145134,2,0,P|64:96|74:123,1,56,0|0,3:2|3:2,0:0:0:0:
145,179,145440,5,0,3:2:0:0:
18,307,145746,1,0,3:2:0:0:
193,352,146052,1,0,3:2:0:0:
145,179,146358,1,8,3:2:0:0:
145,179,146511,2,0,L|149:239,1,56,8|0,3:2|3:2,0:0:0:0:
226,279,146817,6,0,P|237:253|236:225,2,56,0|0|8,3:2|3:2|3:2,0:0:0:0:
243,366,147276,2,0,P|269:359|291:342,1,56,8|0,3:2|3:2,0:0:0:0:
325,258,147582,2,0,L|333:201,1,56,0|0,3:2|3:2,0:0:0:0:
347,114,147889,1,0,3:2:0:0:
347,114,148195,6,0,P|319:113|292:122,1,56,4|0,3:2|3:2,0:0:0:0:
234,53,148501,2,0,P|206:53|179:44,1,56,4|0,3:2|3:2,0:0:0:0:
93,18,148807,1,8,3:2:0:0:
115,104,148960,1,8,3:2:0:0:
56,284,149266,6,0,L|3:304,2,56,4|0|8,3:2|3:2|3:2,0:0:0:0:
124,224,149725,1,8,3:2:0:0:
196,276,149878,2,0,P|195:303|187:330,1,56,0|0,3:2|3:2,0:0:0:0:
104,360,150184,1,0,3:2:0:0:
56,284,150337,5,0,3:2:0:0:
144,128,150644,1,0,3:2:0:0:
235,282,150951,1,0,3:2:0:0:
56,284,151256,1,8,3:2:0:0:
56,284,151409,2,0,L|119:269,1,56,8|0,3:2|3:0,0:0:0:0:
197,251,151715,6,0,L|164:123,1,112,0|0,3:2|3:2,0:0:0:0:
143,56,152174,1,0,3:2:0:0:
229,80,152327,2,0,P|254:67|280:58,2,56,8|8|0,3:2|3:2|0:0,0:0:0:0:
169,142,152786,5,2,3:2:0:0:
107,208,152940,2,0,P|110:235|119:262,1,56,8|10,3:0|0:0,0:0:0:0:
180,328,153246,1,0,3:0:0:0:
180,328,153399,2,0,P|201:316|231:306,1,56,2|0,0:0|3:0,0:0:0:0:
313,341,153705,1,8,1:2:0:0:
393,302,153858,1,8,3:2:0:0:
403,59,154164,6,0,L|385:169,1,112,4|2,3:2|3:2,0:0:0:0:
297,151,154623,2,0,L|282:97,1,56,0|2,3:2|3:2,0:0:0:0:
223,29,154929,1,0,3:2:0:0:
186,110,155082,2,0,L|133:128,1,56,2|2,3:2|3:2,0:0:0:0:
223,29,155389,5,0,3:2:0:0:
223,29,155542,2,0,B|253:62|253:62|319:73,1,112,2|2,3:2|3:2,0:0:0:0:
412,67,156001,2,0,P|423:41|426:14,2,56,0|8|8,3:2|3:2|3:2,0:0:0:0:
383,151,156460,5,0,3:2:0:0:
383,151,156613,2,0,L|399:219,1,70,4|0,1:2|0:0,0:0:0:0:
476,314,156919,2,0,L|493:246,1,70,0|0,1:0|0:0,0:0:0:0:
313,342,157225,1,4,1:2:0:0:
313,342,157378,2,0,L|379:319,1,70,8|0,1:2|0:0,0:0:0:0:
248,264,157684,6,0,L|180:248,1,70,4|0,1:2|1:0,0:0:0:0:
18,219,157991,1,0,0:0:0:0:
18,219,158144,2,0,L|86:203,1,70,0|0,1:0|0:0,0:0:0:0:
192,179,158450,1,4,1:2:0:0:
192,179,158603,2,0,L|180:248,1,70,8|0,1:2|0:0,0:0:0:0:
120,328,158909,6,0,P|185:349|247:321,1,140,4|8,1:2|1:2,0:0:0:0:
312,248,159368,2,0,L|300:178,1,70,8|8,1:2|1:2,0:0:0:0:
246,101,159674,5,8,1:2:0:0:
300,27,159827,1,8,1:2:0:0:
387,55,159980,1,8,1:2:0:0:
387,146,160133,1,8,1:2:0:0:
114,187,160899,5,2,0:0:0:0:
149,99,161052,1,0,3:2:0:0:
149,99,161128,1,0,3:2:0:0:
149,99,161205,2,0,L|115:87,3,35,8|8|8|8,3:2|3:2|3:2|3:2,0:0:0:0:
85,52,161511,6,0,B|137:56|137:56|221:32,1,140,4|8,1:2|0:0,0:0:0:0:
314,63,161970,1,0,0:0:0:0:
248,135,162123,2,0,L|237:204,1,70,2|0,1:2|0:0,0:0:0:0:
309,270,162429,1,8,0:0:0:0:
309,270,162583,1,2,0:0:0:0:
368,193,162735,6,0,P|400:180|435:181,1,70,0|0,1:0|0:0,0:0:0:0:
511,290,163042,2,0,P|476:290|444:279,1,70,8|2,0:0|0:0,0:0:0:0:
368,193,163348,1,0,1:0:0:0:
309,270,163501,2,0,L|329:336,1,70,2|8,0:0|0:0,0:0:0:0:
244,384,163807,1,0,1:0:0:0:
187,304,163960,6,0,P|152:309|121:326,1,70,2|0,1:2|0:0,0:0:0:0:
0,222,164266,2,0,P|29:239|64:245,1,70,10|0,0:2|0:0,0:0:0:0:
182,185,164572,2,0,P|152:169|118:163,1,70,2|0,1:2|0:0,0:0:0:0:
0,104,164878,2,0,P|32:98|62:82,1,70,8|0,0:0|0:0,0:0:0:0:
118,0,165184,5,4,1:2:0:0:
118,0,165337,1,2,0:0:0:0:
65,81,165490,2,0,L|84:148,1,70,12|2,1:2|0:0,0:0:0:0:
118,296,165797,1,4,1:2:0:0:
118,296,165950,1,2,0:0:0:0:
65,215,166103,2,0,L|84:147,1,70,12|2,1:2|0:0,0:0:0:0:
169,97,166409,6,0,P|236:93|279:40,2,140,6|8|2,1:2|0:0|1:2,0:0:0:0:
163,194,167174,1,0,0:0:0:0:
260,195,167327,2,0,L|244:263,1,70,8|0,0:0|0:0,0:0:0:0:
151,296,167634,6,0,B|245:306|245:306|285:326,1,140,2|8,1:2|0:0,0:0:0:0:
364,384,168093,1,2,0:0:0:0:
445,330,168246,1,0,1:0:0:0:
445,330,168399,2,0,B|442:291|442:291|425:264,1,70,2|8,0:0|0:0,0:0:0:0:
331,237,168705,1,0,0:0:0:0:
379,151,168858,6,0,P|413:146|443:129,1,70,4|0,1:2|0:0,0:0:0:0:
441,30,169164,2,0,P|410:13|376:8,1,70,12|0,1:2|0:0,0:0:0:0:
314,84,169470,1,0,3:0:0:0:
226,40,169623,1,0,3:0:0:0:
226,40,169700,1,0,3:0:0:0:
226,40,169776,2,0,L|213:7,2,35,8|0|0,1:2|0:0|1:0,0:0:0:0:
236,140,170083,5,0,1:0:0:0:
149,148,170235,1,8,0:0:0:0:
62,156,170389,1,0,1:0:0:0:
149,164,170542,1,8,0:0:0:0:
16,320,170848,1,0,1:0:0:0:
16,320,170924,1,0,1:0:0:0:
16,320,171001,2,0,L|30:353,3,35,0|0|0|0,3:0|3:0|3:0|3:0,0:0:0:0:
60,380,171307,6,0,L|81:242,1,140,4|8,1:2|0:0,0:0:0:0:
149,164,171766,1,0,0:0:0:0:
209,241,171919,2,0,L|220:310,1,70,2|0,1:2|0:0,0:0:0:0:
311,343,172225,2,0,L|326:275,1,70,8|2,0:0|0:0,0:0:0:0:
409,350,172531,6,0,P|439:334|474:329,1,70,0|0,1:0|0:0,0:0:0:0:
511,238,172837,2,0,P|477:226|449:205,1,70,8|2,0:0|0:0,0:0:0:0:
376,140,173144,1,0,1:0:0:0:
376,140,173297,1,2,0:0:0:0:
307,209,173450,2,0,P|309:244|326:275,1,70,8|0,0:0|1:0,0:0:0:0:
265,117,173756,6,0,L|197:133,1,70,2|0,1:2|0:0,0:0:0:0:
147,218,174062,2,0,L|78:202,1,70,10|0,0:0|0:0,0:0:0:0:
35,114,174368,2,0,L|102:96,1,70,2|0,1:2|0:0,0:0:0:0:
176,31,174674,1,8,0:0:0:0:
176,31,174828,1,0,0:0:0:0:
245,182,174981,6,0,P|216:163|197:134,1,70,4|2,1:2|0:0,0:0:0:0:
294,95,175287,2,0,P|307:62|310:28,1,70,12|2,1:2|0:0,0:0:0:0:
439,143,175593,2,0,P|404:145|373:161,1,70,4|2,1:2|0:0,0:0:0:0:
469,274,175899,2,0,P|434:267|405:249,1,70,12|2,1:2|0:0,0:0:0:0:
320,301,176205,6,0,P|263:261|195:263,2,140,6|8|2,1:2|0:0|1:2,0:0:0:0:
257,377,176971,1,0,0:0:0:0:
161,354,177124,2,0,P|130:337|108:310,1,70,8|0,0:0|0:0,0:0:0:0:
195,263,177429,6,0,L|218:124,1,140,2|8,1:2|0:0,0:0:0:0:
151,53,177888,1,2,0:0:0:0:
75,115,178041,2,0,L|95:181,1,70,0|2,1:0|0:2,0:0:0:0:
20,244,178347,1,8,0:0:0:0:
20,244,178500,1,0,0:0:0:0:
47,343,178654,6,0,P|76:322|109:310,1,70,4|0,1:2|0:0,0:0:0:0:
199,277,178960,2,0,P|231:289|260:309,1,70,12|0,0:0|0:0,0:0:0:0:
299,206,179266,1,0,1:0:0:0:
299,206,179419,1,2,0:0:0:0:
371,275,179572,2,0,P|401:257|434:248,1,70,8|2,0:0|0:0,0:0:0:0:
508,313,179878,6,0,L|493:381,2,70,4|0|12,1:2|0:0|1:2,0:0:0:0:
435,249,180337,2,0,L|423:179,1,70,0|4,0:0|1:2,0:0:0:0:
472,107,180643,1,0,0:0:0:0:
421,35,180796,1,12,1:2:0:0:
338,62,180949,1,0,0:0:0:0:
339,152,181103,6,0,P|311:166|280:171,1,62.9999980773926,4|2,1:2|0:0,0:0:0:0:
159,78,181409,2,0,P|189:83|218:98,1,62.9999980773926,0|2,1:0|0:0,0:0:0:0:
216,241,181715,2,0,P|188:255|157:260,1,62.9999980773926,0|2,1:0|0:0,0:0:0:0:
41,164,182021,2,0,P|72:169|100:184,1,62.9999980773926,0|2,1:0|0:0,0:0:0:0:
159,78,182327,6,0,L|172:16,1,62.9999980773926,0|2,1:0|0:0,0:0:0:0:
265,54,182633,2,0,L|278:115,1,62.9999980773926,0|2,1:0|0:0,0:0:0:0:
366,76,182940,2,0,L|379:14,1,62.9999980773926,0|2,1:0|0:0,0:0:0:0:
470,52,183246,2,0,L|483:113,1,62.9999980773926,0|2,1:0|0:0,0:0:0:0:
421,201,183552,6,0,P|390:194|359:198,1,62.9999980773926,0|2,1:0|0:0,0:0:0:0:
275,154,183858,2,0,P|245:163|220:182,1,62.9999980773926,0|2,1:0|0:0,0:0:0:0:
125,184,184164,2,0,P|104:207|91:236,1,62.9999980773926,0|2,1:0|0:0,0:0:0:0:
10,286,184470,2,0,P|3:316|7:347,1,62.9999980773926,0|2,1:0|0:0,0:0:0:0:
112,362,184776,6,0,L|172:380,1,62.9999980773926,0|2,1:0|0:0,0:0:0:0:
247,321,185082,2,0,L|236:258,1,62.9999980773926,0|2,1:0|0:0,0:0:0:0:
101,299,185389,2,0,L|111:361,1,62.9999980773926,0|2,1:0|0:0,0:0:0:0:
236,259,185695,2,0,L|175:240,1,62.9999980773926,0|2,1:0|0:0,0:0:0:0:
175,138,186001,6,0,P|204:126|235:124,1,62.9999980773926,4|2,1:2|0:0,0:0:0:0:
370,198,186307,2,0,P|339:195|310:184,1,62.9999980773926,0|2,1:0|0:0,0:0:0:0:
415,62,186613,2,0,P|426:91|428:122,1,62.9999980773926,0|2,1:0|0:0,0:0:0:0:
357,258,186919,2,0,P|359:227|370:198,1,62.9999980773926,0|2,1:0|0:0,0:0:0:0:
512,247,187225,6,0,L|451:263,1,62.9999980773926,0|2,1:0|0:0,0:0:0:0:
422,358,187531,2,0,L|483:373,1,62.9999980773926,0|2,1:0|0:0,0:0:0:0:
357,258,187837,2,0,L|349:288,2,31.4999990386963,8|8|8,3:0|3:0|3:0,0:0:0:0:
256,308,188144,2,0,L|268:336,2,31.4999990386963,0|0|0,1:0|3:0|1:0,0:0:0:0:
163,284,188450,5,4,1:2:0:0:
163,284,189521,6,0,P|208:202|204:109,1,188.999994232178,4|0,1:2|1:0,0:0:0:0:
102,24,190133,2,0,P|105:55|119:84,1,62.9999980773926,0|0,1:0|1:0,0:0:0:0:
204,109,190439,1,8,0:0:0:0:
261,41,190593,2,0,L|290:29,3,31.4999990386963,8|0|0|0,0:0|3:0|1:0|3:0,0:0:0:0:
326,55,190899,5,2,3:2:0:0:
232,100,200695,6,0,P|197:98|165:83,1,70,2|2,3:2|3:2,0:0:0:0:
99,20,201001,1,10,3:2:0:0:
99,20,201154,2,0,L|120:158,1,140,2|2,3:2|3:2,0:0:0:0:
47,212,201613,1,8,3:2:0:0:
75,299,201766,6,0,B|208:256,1,140,2|0,3:2|3:2,0:0:0:0:
260,332,202225,1,10,3:2:0:0:
260,332,202378,2,0,L|273:192,1,140,2|0,3:2|3:2,0:0:0:0:
212,128,202837,1,8,3:2:0:0:
264,52,202991,6,0,P|310:101|378:105,1,140,4|2,3:2|3:2,0:0:0:0:
451,48,203450,1,8,3:2:0:0:
499,125,203603,2,0,L|482:192,1,70,4|0,3:2|0:0,0:0:0:0:
407,265,203909,1,0,3:2:0:0:
407,265,203985,1,0,3:2:0:0:
407,265,204062,2,0,L|386:198,1,70,8|0,3:2|3:2,0:0:0:0:
287,168,204368,5,2,3:2:0:0:
233,241,204521,2,0,P|262:259|297:262,1,70,0|8,3:2|3:2,0:0:0:0:
287,168,204827,2,0,B|152:205,1,140,4|0,3:2|3:2,0:0:0:0:
65,231,205286,1,8,3:2:0:0:
61,20,205593,6,0,P|44:85|83:141,1,140,2|8,3:2|3:2,0:0:0:0:
65,231,206052,1,2,3:2:0:0:
65,231,206205,2,0,L|52:300,1,70,0|2,3:2|3:2,0:0:0:0:
123,355,206511,1,8,3:2:0:0:
123,355,206664,6,0,P|181:318|248:331,1,140,2|0,3:2|3:2,0:0:0:0:
334,302,207123,1,8,3:2:0:0:
334,302,207276,2,0,L|318:233,2,70,2|0|2,3:2|3:2|3:2,0:0:0:0:
409,353,207735,1,8,3:2:0:0:
486,303,207889,6,0,L|509:164,1,140,6|8,3:2|3:2,0:0:0:0:
443,101,208348,1,8,3:2:0:0:
379,165,208501,2,0,P|380:199|393:232,1,70,4|0,3:2|0:0,0:0:0:0:
394,322,208807,1,0,3:2:0:0:
394,322,208883,1,0,3:2:0:0:
394,322,208960,2,0,P|360:319|332:299,1,70,8|0,3:2|3:2,0:0:0:0:
289,217,209266,5,6,3:2:0:0:
221,278,209419,2,0,L|241:345,1,70,0|8,3:2|3:2,0:0:0:0:
289,217,209725,2,0,L|302:148,1,70,6|2,3:2|3:2,0:0:0:0:
187,92,210031,1,2,3:2:0:0:
187,92,210108,1,0,3:2:0:0:
187,92,210184,2,0,L|201:161,1,70,8|2,3:2|3:2,0:0:0:0:
153,265,210491,5,12,3:2:0:0:
96,187,210644,2,0,L|28:204,1,70,8|0,3:2|3:0,0:0:0:0:
153,265,210950,2,0,L|221:278,1,70,12|0,3:2|3:0,0:0:0:0:
127,360,211256,2,0,P|62:381|2:348,1,140,12|0,3:2|3:2,0:0:0:0:
69,290,211715,5,6,0:0:0:0:
403,154,219062,6,0,P|464:147|490:93,2,125.999996154785,4|0|0,3:2|3:0|1:0,0:0:0:0:
344,84,219827,1,0,1:0:0:0:
284,152,219980,2,0,L|295:185,2,35,8|0|8,1:2|0:0|1:2,0:0:0:0:
212,100,220286,5,0,1:0:0:0:
144,160,220440,1,8,1:2:0:0:
188,240,220594,1,0,3:0:0:0:
97,294,220746,2,0,L|71:228,1,70,4|0,1:2|0:0,0:0:0:0:
33,142,221052,2,0,L|0:130,2,35,0|0|8,3:0|3:0|0:0,0:0:0:0:
68,55,221358,1,0,3:0:0:0:
68,55,221434,1,0,3:0:0:0:
68,55,221511,6,0,B|108:43|108:43|204:67,1,140,4|8,1:2|0:0,0:0:0:0:
274,135,221970,1,0,0:0:0:0:
336,59,222123,2,0,L|404:43,1,70,2|0,1:2|0:0,0:0:0:0:
447,130,222429,1,8,0:0:0:0:
447,130,222582,1,2,0:0:0:0:
435,227,222735,6,0,P|367:239|309:203,1,140,0|8,1:0|0:0,0:0:0:0:
236,136,223195,1,2,0:0:0:0:
164,203,223348,2,0,L|185:269,2,70,0|2|8,1:0|0:0|0:0,0:0:0:0:
91,136,223807,1,0,0:0:0:0:
21,204,223960,6,0,P|11:237|15:272,1,70,2|0,1:2|0:0,0:0:0:0:
121,344,224266,2,0,P|89:358|54:361,1,70,10|0,0:0|0:0,0:0:0:0:
185,269,224572,2,0,P|213:288|247:296,1,70,2|0,1:2|0:2,0:0:0:0:
345,290,224878,2,0,P|354:323|350:358,1,70,8|0,0:2|0:2,0:0:0:0:
255,195,225184,5,4,1:2:0:0:
255,195,225337,1,2,0:0:0:0:
314,116,225491,2,0,L|299:47,1,70,4|2,1:2|0:0,0:0:0:0:
495,80,225797,1,4,1:2:0:0:
495,80,225950,1,2,0:0:0:0:
413,135,226104,2,0,L|398:204,1,70,4|2,1:2|0:2,0:0:0:0:
347,286,226409,6,0,P|278:276|220:313,2,140,6|8|2,1:2|0:0|1:2,0:0:0:0:
418,352,227174,1,0,0:0:0:0:
418,352,227327,2,0,B|447:373|447:373|481:374,1,70,8|0,2:0|2:0,0:0:0:0:
478,276,227633,6,0,B|506:139,1,140,2|8,1:2|0:0,0:0:0:0:
434,72,228093,1,2,0:0:0:0:
356,132,228246,2,0,P|359:165|375:197,1,70,0|2,1:0|0:0,0:0:0:0:
345,290,228552,1,8,0:0:0:0:
270,226,228705,1,0,0:0:0:0:
203,302,228858,6,0,P|168:309|136:322,1,70,4|2,1:2|0:2,0:0:0:0:
52,372,229164,2,0,P|30:344|4:321,1,70,4|2,1:2|0:0,0:0:0:0:
176,216,229470,1,4,1:2:0:0:
176,216,229623,1,2,0:0:0:0:
69,248,229776,2,0,P|74:213|84:180,1,70,4|2,1:2|0:0,0:0:0:0:
164,126,230082,6,0,P|95:126|44:81,2,140,4|4|4,1:2|1:2|1:2,0:0:0:0:
188,37,230848,1,2,0:0:0:0:
276,16,231001,1,4,1:2:0:0:
332,86,231154,1,2,0:0:0:0:
308,175,231307,6,0,L|325:242,1,70,4|2,1:2|0:0,0:0:0:0:
228,238,231613,2,0,L|210:305,1,70,8|2,1:2|0:0,0:0:0:0:
49,255,231919,2,0,L|116:272,1,70,8|2,1:2|0:0,0:0:0:0:
105,167,232225,2,0,L|172:149,1,70,8|2,1:2|0:0,0:0:0:0:
296,243,232531,6,0,P|261:247|228:238,1,70,4|2,1:2|0:0,0:0:0:0:
256,73,232837,2,0,L|267:143,1,70,8|2,1:2|0:0,0:0:0:0:
383,319,233144,2,0,L|394:250,1,70,8|2,1:2|0:0,0:0:0:0:
435,159,233450,2,0,P|401:150|366:154,1,70,8|2,1:2|0:0,0:0:0:0:
238,205,233756,6,0,P|264:228|296:243,1,70,4|2,1:2|0:0,0:0:0:0:
299,340,234062,2,0,P|333:346|368:342,1,70,8|2,1:2|0:0,0:0:0:0:
238,205,234368,2,0,P|203:201|168:208,1,70,8|2,1:2|0:0,0:0:0:0:
170,303,234674,2,0,P|136:316|109:340,1,70,8|2,1:2|0:0,0:0:0:0:
28,275,234980,6,0,P|19:241|6:208,1,70,4|2,1:2|0:0,0:0:0:0:
105,83,235286,2,0,P|92:115|84:149,1,70,8|2,1:2|0:0,0:0:0:0:
169,207,235593,2,0,P|201:194|235:186,1,70,8|2,1:2|0:0,0:0:0:0:
363,127,235899,2,0,P|329:118|296:105,1,70,8|2,1:2|0:0,0:0:0:0:
187,22,236205,6,0,P|196:55|200:90,1,70,4|2,1:2|0:0,0:0:0:0:
235,185,236511,2,0,P|224:220|221:253,1,70,8|2,1:2|0:0,0:0:0:0:
134,361,236817,2,0,P|168:351|203:348,1,70,8|2,1:2|0:0,0:0:0:0:
294,311,237123,2,0,P|326:322|362:324,1,70,8|2,1:2|0:0,0:0:0:0:
452,364,237429,6,0,P|464:331|471:297,1,70,4|2,1:2|0:0,0:0:0:0:
419,215,237735,2,0,P|384:220|351:231,1,70,8|2,1:2|0:0,0:0:0:0:
294,311,238042,2,0,P|259:305|226:294,1,70,8|2,2:2|2:0,0:0:0:0:
226,294,238271,1,0,3:3:0:0:
226,294,238348,1,0,3:3:0:0:
158,221,238501,1,2,3:2:0:0:
58,234,238654,6,0,B|170:307|245:163|191:231|266:95|396:171,1,377.999988464356,4|0,1:0|1:0,0:0:0:0:
368,65,239725,6,0,P|313:104|250:81,1,140,4|2,3:2|3:2,0:0:0:0:
183,9,240184,1,0,1:0:0:0:
111,75,240337,2,0,L|137:141,1,70,0|0,1:0|1:0,0:0:0:0:
67,209,240644,2,0,L|54:241,2,35,8|8|8,0:0|0:0|0:0,0:0:0:0:
159,241,240950,1,0,1:0:0:0:
173,343,241103,6,0,L|105:322,1,70,4|0,1:2|0:0,0:0:0:0:
286,371,241409,2,0,L|268:303,1,70,4|0,1:2|0:0,0:0:0:0:
442,330,241715,1,8,0:0:0:0:
442,330,241868,2,0,L|374:349,1,70,8|0,0:0|0:0,0:0:0:0:
354,218,242174,2,0,L|455:248,1,105,4|0,1:2|0:0,0:0:0:0:
487,220,242480,6,0,L|477:186,3,35,0|0|0|0,3:0|3:0|3:0|0:0,0:0:0:0:
458,148,242786,2,0,L|477:80,1,70,0|8,3:0|0:0,0:0:0:0:
408,9,243093,6,0,P|346:69|261:80,1,175,4|0,1:2|0:0,0:0:0:0:
254,122,243552,6,0,L|188:97,1,70,4|0,1:2|0:0,0:0:0:0:
69,205,243858,2,0,L|134:179,1,70,4|0,1:2|0:0,0:0:0:0:
94,89,244164,1,8,0:0:0:0:
94,89,244241,1,8,0:0:0:0:
94,89,244317,2,0,L|81:56,2,35,8|0|0,1:2|0:0|0:0,0:0:0:0:
188,97,244623,6,0,P|225:98|256:83,1,70,6|0,1:2|0:0,0:0:0:0:
327,19,244929,2,0,P|361:23|390:42,1,70,6|0,1:2|0:0,0:0:0:0:
415,136,245235,2,0,B|401:224|401:224|351:234,1,140,6|0,1:2|3:0,0:0:0:0:
272,293,245695,2,0,L|284:325,2,35,8|8|8,3:2|3:2|3:2,0:0:0:0:
376,334,246001,6,0,L|443:353,1,70,4|0,1:2|0:0,0:0:0:0:
498,230,246307,2,0,L|430:248,1,70,4|0,1:2|0:0,0:0:0:0:
320,148,246613,1,8,0:0:0:0:
320,148,246766,2,0,L|387:166,1,70,8|0,3:0|0:0,0:0:0:0:
453,25,247072,6,0,B|420:52|420:52|323:56,1,140,4|0,1:2|1:0,0:0:0:0:
230,30,247531,2,0,P|226:64|236:98,1,70,4|0,1:2|0:0,0:0:0:0:
320,148,247837,1,4,1:2:0:0:
249,216,247991,2,0,L|242:255,2,35,0|0|0,3:0|3:0|3:0,0:0:0:0:
164,162,248297,6,0,P|97:150|33:178,1,140,4|2,1:2|3:2,0:0:0:0:
72,265,248756,2,0,P|106:272|139:263,1,70,0|2,0:0|3:2,0:0:0:0:
230,295,249062,2,0,L|223:329,2,35,0|0|0,1:0|1:0|3:0,0:0:0:0:
323,272,249368,1,0,1:0:0:0:
323,272,249521,2,0,L|337:341,1,70,2|0,3:2|1:0,0:0:0:0:
426,380,249827,5,4,1:2:0:0:
482,175,250133,1,8,1:2:0:0:
482,175,250286,1,12,1:2:0:0:
