osu file format v14

[General]
AudioFilename: audio.mp3
AudioLeadIn: 0
PreviewTime: 84368
Countdown: 0
SampleSet: Soft
StackLeniency: 0.7
Mode: 0
LetterboxInBreaks: 0
WidescreenStoryboard: 0

[Editor]
Bookmarks: 36613,46409,108858,123552,159980,170848,190899,211715,219062,221511,231307,233450,250899
DistanceSpacing: 0.8
BeatDivisor: 4
GridSize: 16
TimelineZoom: 2.5

[Metadata]
Title:Chocolate Smile
TitleUnicode:チョコレートスマイル
Artist:Hinatabi Bitter Sweets & Coconatsu
ArtistUnicode:日向美ビタースイーツ♪ & ここなつ
Creator:Hakurei Yoru
Version:Love
Source:pop'n music ラピストリア
Tags:japanese pop jpop j-pop video game nostalgia Misure Ancul Otosaka-Yu Bemani CUTEG ひなビタ hinabita 山形 まり花 日高里菜 和泉 一舞 津田美波 春日 咲子 山口愛 芽兎 めう 五十嵐裕美 霜月 凛 水原薫 東雲 夏陽 日南結里 東雲 心菜 小澤亜李 Marika Yamagata Rina Hidaka Sakiko Kasuga Megumi Yamaguchi Ibuki Izumi Minami Tsuda Meu Meu Hiromi Igarashi Rin Shimotsuki Kaoru Mizuhara Natsuhi Shinonome Yuri Hinami Cocona Shinonome Ari Ozawa Kokona ノスタルジア FORTE GITADORA DanceDanceRevolution jubeat prop REFLEC BEAT groovin'!! Upper DanceEvolution ARCADE BeatStream
BeatmapID:1374121
BeatmapSetID:648659

[Difficulty]
HPDrainRate:6
CircleSize:4
OverallDifficulty:8.5
ApproachRate:9.3
SliderMultiplier:1.8
SliderTickRate:1

[Events]
//Background and Video events
0,0,"bg.jpg",0,0
//Break Periods
//Storyboard Layer 0 (Background)
//Storyboard Layer 1 (Fail)
//Storyboard Layer 2 (Pass)
//Storyboard Layer 3 (Foreground)
//Storyboard Layer 4 (Overlay)
//Storyboard Sound Samples

[TimingPoints]
35389,306.122448979592,4,2,1,15,1,0
35695,-100,4,2,1,25,0,0
36001,-100,4,2,1,35,0,0
36307,-100,4,2,1,45,0,0
36613,-100,4,2,1,65,0,0
41052,-80,4,2,1,65,0,0
41205,-100,4,2,1,65,0,0
42582,-83.3333333333333,4,2,1,65,0,0
43042,-100,4,2,1,65,0,0
43807,-83.3333333333333,4,2,1,65,0,0
44113,-133.333333333333,4,2,1,65,0,0
44419,-105.263157894737,4,2,1,65,0,0
46409,-117.64705882353,4,2,1,65,0,0
65848,-90.9090909090909,4,2,1,65,0,0
66690,-90.9090909090909,4,2,1,35,0,0
66919,-90.9090909090909,4,2,1,25,0,0
67225,-111.111111111111,4,2,1,65,0,0
69292,-111.111111111111,4,2,1,25,0,0
69368,-111.111111111111,4,2,1,65,0,0
71741,-111.111111111111,4,2,1,25,0,0
71817,-111.111111111111,4,2,1,65,0,0
74190,-111.111111111111,4,2,1,25,0,0
74266,-111.111111111111,4,2,1,65,0,0
79470,-100,4,2,1,65,0,0
80235,-76.9230769230769,4,2,1,65,0,0
80695,-100,4,2,1,65,0,0
81460,-76.9230769230769,4,2,1,65,0,0
81766,-100,4,2,1,65,0,0
83909,-100,4,2,1,35,0,0
84368,-90.9090909090909,4,2,1,85,0,1
103960,-90.9090909090909,4,2,1,75,0,0
111307,-100,4,2,1,75,0,0
111613,-90.9090909090909,4,2,1,5,0,0
112225,-90.9090909090909,4,2,1,75,0,0
113756,-100,4,2,1,65,0,0
121562,-105.263157894737,4,2,1,65,0,0
123552,-117.64705882353,4,2,1,65,0,0
142991,-90.9090909090909,4,2,1,65,0,0
143756,-90.9090909090909,4,2,1,35,0,0
144062,-90.9090909090909,4,2,1,25,0,0
144368,-111.111111111111,4,2,1,65,0,0
146434,-111.111111111111,4,2,1,25,0,0
146511,-111.111111111111,4,2,1,65,0,0
148883,-111.111111111111,4,2,1,25,0,0
148960,-111.111111111111,4,2,1,65,0,0
151332,-111.111111111111,4,2,1,25,0,0
151409,-111.111111111111,4,2,1,65,0,0
153781,-111.111111111111,4,2,1,25,0,0
153858,-111.111111111111,4,2,1,65,0,0
156613,-100,4,2,1,65,0,0
157378,-76.9230769230769,4,2,1,65,0,0
157837,-100,4,2,1,65,0,0
158603,-76.9230769230769,4,2,1,65,0,0
158909,-100,4,2,1,65,0,0
161511,-90.9090909090909,4,2,1,85,0,1
170159,-90.9090909090909,4,2,1,25,0,1
170235,-90.9090909090909,4,2,1,85,0,1
170312,-90.9090909090909,4,2,1,25,0,1
170389,-90.9090909090909,4,2,1,85,0,1
170465,-90.9090909090909,4,2,1,25,0,1
170542,-90.9090909090909,4,2,1,85,0,1
181103,-90.9090909090909,4,2,1,65,0,0
188450,-100,4,2,1,65,0,0
188756,-90.9090909090909,4,2,1,5,0,0
189368,-90.9090909090909,4,2,1,65,0,0
191511,-111.111111111111,4,2,1,45,0,0
211715,-133.333333333333,4,2,1,55,0,0
216613,-153.846153846153,4,2,1,55,0,0
219062,-133.333333333333,4,2,1,35,0,0
219674,-105.263157894737,4,2,1,65,0,0
220286,-105.263157894737,4,2,1,85,0,0
220746,-83.3333333333333,4,2,1,85,0,0
221511,-90.9090909090909,4,2,1,85,0,1
238654,-100,4,2,1,85,0,1
238960,-90.9090909090909,4,2,1,5,0,0
239572,-90.9090909090909,4,2,1,35,0,0
239725,-90.9090909090909,4,2,1,75,0,0
241103,-75.187969924812,4,2,1,75,0,1
247072,-66.6666666666667,4,2,1,75,0,1
247532,-75.187969924812,4,2,1,75,0,1
248603,-75.187969924812,4,2,1,55,0,0
249827,-75.187969924812,4,2,1,75,0,0
250440,-75.187969924812,4,2,1,5,0,0

[Colours]
Combo1 : 255,176,216
Combo2 : 188,120,120
Combo3 : 128,128,255
Combo4 : 192,192,192
Combo5 : 255,210,74

[HitObjects]
263,384,35388,6,0,L|254:321,3,45,2|0|2|0,0:0|0:0|0:0|0:0,0:0:0:0:
359,271,35695,6,0,L|352:315,3,45,2|0|0|0,0:0|0:0|0:0|0:0,0:0:0:0:
329,317,36001,5,2,0:0:0:0:
326,334,36077,1,0,0:0:0:0:
332,350,36154,1,0,0:0:0:0:
345,361,36230,1,0,0:0:0:0:
362,365,36307,5,2,0:0:0:0:
401,356,36383,1,0,0:0:0:0:
425,323,36460,1,2,0:0:0:0:
424,282,36536,1,0,0:0:0:0:
392,256,36613,6,0,L|270:268,1,90,4|0,1:2|0:0,0:0:0:0:
61,87,36919,2,0,L|183:99,1,90,4|0,1:2|0:0,0:0:0:0:
330,107,37225,1,8,0:0:0:0:
170,99,37378,2,0,L|156:256,1,135,8|0,0:0|0:0,0:0:0:0:
201,384,37684,6,0,P|242:329|213:254,1,135,4|0,1:2|0:0,0:0:0:0:
157,233,37991,1,0,3:0:0:0:
149,272,38067,1,0,3:0:0:0:
159,311,38144,1,0,3:0:0:0:
345,310,38297,1,0,3:0:0:0:
332,95,38450,1,8,0:0:0:0:
197,155,38603,6,0,B|246:137|285:152|285:152|324:189|403:145,1,180,4|0,1:2|0:0,0:0:0:0:
430,89,39062,6,0,L|423:-5,1,90,4|0,1:2|0:0,0:0:0:0:
237,223,39368,2,0,P|219:268|252:325,1,90,4|0,1:2|0:0,0:0:0:0:
322,373,39674,1,8,0:0:0:0:
275,127,39827,2,0,L|152:135,1,90,8|0,0:0|0:0,0:0:0:0:
67,86,40133,5,4,1:2:0:0:
128,210,40286,1,0,0:0:0:0:
154,57,40440,5,4,1:2:0:0:
49,244,40593,1,0,0:0:0:0:
260,179,40746,6,0,P|274:125|247:65,1,90,4|0,1:2|0:0,0:0:0:0:
47,94,41052,2,0,P|73:103|137:87,1,56.25,8|0,3:0|3:0,3:0:0:0:
257,20,41205,6,0,P|204:46|218:144,1,135,8|0,3:0|0:0,0:0:0:0:
260,179,41511,6,0,L|366:172,1,90,4|0,1:2|0:0,0:0:0:0:
157,304,41817,2,0,L|67:298,1,90,4|0,1:2|0:0,0:0:0:0:
252,313,42123,1,8,0:0:0:0:
343,257,42276,2,0,P|413:289|484:243,1,135,8|0,0:0|0:0,0:0:0:0:
480,237,42582,6,0,P|419:257|434:393,1,215.999993408203,4|0,1:2|0:0,0:0:0:0:
490,152,43042,2,0,P|487:107|463:70,1,90,4|0,1:2|0:0,0:0:0:0:
394,18,43348,1,8,1:2:0:0:
313,64,43501,1,0,3:0:0:0:
313,64,43577,1,0,3:0:0:0:
313,64,43654,1,0,3:0:0:0:
348,148,43807,6,0,B|278:186|278:186|170:138,1,161.999995056153,4|0,0:0|0:0,0:0:0:0:
202,152,44113,6,0,L|207:79,1,67.5000025749208,2|0,3:2|0:0,0:0:0:0:
142,295,44419,6,0,L|135:205,1,85.4999977169037,2|0,3:2|1:0,0:0:0:0:
63,186,44649,1,0,3:0:0:0:
63,186,44725,5,0,3:0:0:0:
207,85,44878,1,0,1:0:0:0:
142,295,45031,5,2,3:2:0:0:
247,191,45184,1,0,1:0:0:0:
323,287,45337,6,0,L|448:274,1,85.4999977169037,4|0,1:2|0:0,0:0:0:0:
352,199,45644,5,8,0:0:0:0:
237,332,45797,5,8,0:0:0:0:
178,18,46409,6,0,P|154:48|144:84,1,76.5000014591217,4|0,1:0|0:0,0:0:0:0:
215,276,46715,2,0,P|247:296|284:302,1,76.5000014591217,0|0,1:0|0:0,0:0:0:0:
33,91,47021,2,0,P|46:127|71:156,1,76.5000014591217,0|0,3:0|3:0,0:0:0:0:
272,191,47327,2,0,P|307:175|332:147,1,76.5000014591217,0|0,1:0|0:0,0:0:0:0:
362,31,47633,5,0,3:0:0:0:
245,58,47786,1,0,0:0:0:0:
332,147,47940,5,0,1:0:0:0:
449,174,48093,1,0,0:0:0:0:
429,85,48246,5,0,3:0:0:0:
375,223,48399,1,0,3:0:0:0:
489,365,48552,2,0,P|500:323|486:280,1,76.5000014591217,0|0,1:0|0:0,0:0:0:0:
375,223,48858,6,0,L|275:234,1,76.5000014591217,0|0,3:0|0:0,0:0:0:0:
190,312,49164,2,0,L|206:390,1,76.5000014591217,0|0,1:0|0:0,0:0:0:0:
324,148,49470,2,0,L|224:159,1,76.5000014591217,0|0,3:0|3:0,0:0:0:0:
123,61,49776,1,0,1:0:0:0:
230,158,49929,1,0,0:0:0:0:
96,308,50082,6,0,P|86:253|108:208,1,76.5000014591217,2|0,3:2|0:0,0:0:0:0:
402,119,50388,2,0,P|408:156|397:192,1,76.5000014591217,0|0,1:0|0:0,0:0:0:0:
249,276,50695,2,0,L|153:265,1,76.5000014591217,2|0,3:2|3:0,0:0:0:0:
353,49,51001,2,0,P|400:35|455:46,1,76.5000014591217,0|0,1:0|0:0,0:0:0:0:
488,95,51230,1,0,1:0:0:0:
488,95,51307,6,0,L|478:191,1,76.5000014591217,0|0,3:0|0:0,0:0:0:0:
380,384,51613,2,0,L|372:307,1,76.5000014591217,0|0,1:0|0:0,0:0:0:0:
218,190,51919,2,0,L|386:206,1,153.000002918243,0|0,3:0|1:0,0:0:0:0:
227,329,52378,1,0,0:0:0:0:
194,175,52531,6,0,L|188:85,1,76.5000014591217,0|0,3:0|0:0,0:0:0:0:
97,275,52837,2,0,L|103:199,1,76.5000014591217,0|0,1:0|0:0,0:0:0:0:
221,340,53144,1,0,3:0:0:0:
215,263,53297,1,0,3:0:0:0:
326,220,53450,1,0,1:0:0:0:
320,297,53603,1,0,0:0:0:0:
407,341,53756,6,0,L|244:350,1,153.000002918243,4|0,1:2|1:0,0:0:0:0:
135,356,54215,1,0,0:0:0:0:
188,180,54368,5,2,3:2:0:0:
254,349,54521,1,0,3:0:0:0:
327,233,54674,5,0,1:0:0:0:
96,231,54827,1,0,0:0:0:0:
266,47,54980,6,0,P|285:101|264:149,1,76.5000014591217,0|0,1:0|0:0,0:0:0:0:
32,182,55286,2,0,P|13:215|13:253,1,76.5000014591217,0|0,1:0|0:0,0:0:0:0:
265,384,55593,2,0,L|248:274,1,76.5000014591217,0|0,1:0|0:0,0:0:0:0:
265,27,55899,1,0,1:0:0:0:
303,3,55975,1,0,3:0:0:0:
349,5,56052,1,0,3:0:0:0:
385,33,56128,1,0,3:0:0:0:
402,69,56205,6,0,P|410:107|404:144,1,76.5000014591217,4|0,3:2|0:0,0:0:0:0:
256,285,56511,2,0,P|218:289|182:278,1,76.5000014591217,0|0,1:0|0:0,0:0:0:0:
500,198,56817,2,0,P|473:225|438:240,1,76.5000014591217,0|0,3:0|3:0,0:0:0:0:
242,184,57123,2,0,P|217:154|207:118,1,76.5000014591217,0|0,1:0|0:0,0:0:0:0:
266,7,57429,5,0,3:0:0:0:
99,85,57582,1,0,0:0:0:0:
67,6,57736,5,0,1:0:0:0:
207,118,57889,1,0,0:0:0:0:
289,85,58042,5,0,3:0:0:0:
199,151,58195,1,0,3:0:0:0:
299,304,58348,2,0,L|290:212,1,76.5000014591217,0|0,1:0|0:0,0:0:0:0:
90,166,58654,6,0,P|125:218|163:231,1,76.5000014591217,2|0,3:2|0:0,0:0:0:0:
317,61,58960,2,0,P|253:65|223:91,1,76.5000014591217,0|0,1:0|0:0,0:0:0:0:
289,305,59266,2,0,P|316:247|309:208,1,76.5000014591217,2|0,3:2|0:0,0:0:0:0:
313,82,59572,1,0,1:0:0:0:
247,168,59725,2,0,B|319:187|319:187|402:161,1,153.000002918243,2|0,0:0|0:0,0:0:0:0:
480,132,60184,6,0,P|491:95|485:58,1,76.5000014591217,4|0,1:2|0:0,0:0:0:0:
393,16,60491,2,0,L|297:5,1,76.5000014591217,0|0,1:0|0:0,0:0:0:0:
155,276,60797,6,0,P|143:239|149:202,1,76.5000014591217,4|0,1:2|0:0,0:0:0:0:
236,134,61103,2,0,B|292:123|292:123|334:134|334:134|409:118,2,153.000002918243,0|0|0,1:0|1:0|3:0,0:0:0:0:
198,233,61868,1,0,3:0:0:0:
217,367,62021,1,0,1:0:0:0:
288,205,62174,1,0,0:0:0:0:
119,205,62327,6,0,P|113:239|124:281,1,76.5000014591217,0|0,3:0|0:0,0:0:0:0:
457,158,62633,2,0,P|463:124|451:81,1,76.5000014591217,0|0,1:0|0:0,0:0:0:0:
384,34,62940,1,0,3:0:0:0:
409,247,63093,2,0,L|514:239,1,76.5000014591217,0|0,3:0|1:0,0:0:0:0:
450,337,63399,1,0,0:0:0:0:
351,163,63552,5,2,3:2:0:0:
166,107,63705,1,0,0:0:0:0:
282,59,63858,1,0,1:0:0:0:
311,291,64011,1,0,0:0:0:0:
188,339,64164,6,0,L|195:262,1,76.5000014591217,2|0,3:2|3:0,0:0:0:0:
282,59,64470,2,0,L|289:135,1,76.5000014591217,0|0,1:0|0:0,0:0:0:0:
134,106,64776,5,6,1:2:0:0:
337,259,64929,1,0,0:0:0:0:
312,80,65082,1,6,1:2:0:0:
159,284,65235,1,0,0:0:0:0:
221,44,65388,5,6,1:2:0:0:
256,324,65541,1,0,2:0:0:0:
386,163,65695,1,6,1:2:0:0:
102,197,65848,2,0,B|176:174|176:174|280:196,1,148.50000453186,0|0,1:0|0:0,0:0:0:0:
268,192,66154,5,4,1:2:0:0:
183,285,66307,5,0,1:2:0:0:
211,34,66460,5,4,1:2:0:0:
413,146,66613,6,0,L|400:205,3,49.5000015106202,0|0|0|0,1:0|0:0|0:0|0:0,0:0:0:0:
397,87,66919,6,2,L|400:111,7,24.7500007553101
397,68,67225,6,0,L|488:64,1,80.9999975280763,4|0,3:2|3:2,3:2:0:0:
234,145,67531,1,8,3:2:0:0:
234,145,67684,1,8,3:2:0:0:
234,145,67837,2,0,L|325:141,1,80.9999975280763,0|0,3:2|3:2,3:2:0:0:
286,46,68144,1,0,3:2:0:0:
101,55,68297,6,0,B|130:104|130:104|105:223,1,161.999995056153,0|0,3:2|3:2,3:2:0:0:
89,321,68756,1,0,3:2:0:0:
20,275,68909,2,0,P|68:245|160:277,1,121.499996292114,0|0,3:2|3:2,3:2:0:0:
172,314,69215,6,0,L|231:318,1,40.4999987640381,8|0,3:2|0:0,0:0:0:0:
432,347,69368,6,0,L|330:355,1,80.9999975280763,8|0,3:2|3:2,3:2:0:0:
288,265,69674,6,0,P|269:202|288:160,1,80.9999975280763,0|0,3:2|3:2,3:2:0:0:
466,165,69980,1,8,3:2:0:0:
466,165,70133,1,8,3:2:0:0:
466,165,70286,2,0,P|485:102|466:60,1,80.9999975280763,0|0,3:2|3:2,3:2:0:0:
423,25,70593,1,2,3:2:0:0:
285,96,70746,2,0,L|143:89,1,121.499996292114,0|0,3:2|3:2,3:2:0:0:
145,86,71052,6,0,L|105:4,1,80.9999975280763,6|0,3:2|3:2,3:2:0:0:
202,214,71358,2,0,L|151:288,1,80.9999975280763,6|0,3:2|3:2,3:2:0:0:
285,96,71664,6,0,L|351:100,1,40.4999987640381,10|0,3:2|0:2,3:2:0:0:
512,156,71817,6,0,L|382:168,1,121.499996292114,8|0,3:2|3:2,3:2:0:0:
391,167,72123,6,0,P|400:216|379:255,1,80.9999975280763,4|0,3:2|3:2,3:2:0:0:
288,372,72429,1,8,3:2:0:0:
288,372,72582,1,8,3:2:0:0:
288,372,72735,2,0,P|275:334|285:295,1,80.9999975280763,0|0,3:2|3:2,3:2:0:0:
350,172,73042,1,2,3:2:0:0:
409,259,73195,6,0,P|358:274|257:212,1,161.999995056153,0|8,3:2|3:2,3:2:0:0:
22,259,73654,1,0,3:2:0:0:
22,259,73807,2,0,L|125:250,1,80.9999975280763,0|0,3:2|3:2,3:2:0:0:
221,322,74113,6,0,L|152:313,1,40.4999987640381,8|0,3:2|0:0,0:0:0:0:
54,146,74266,6,0,L|45:55,1,80.9999975280763,8|0,3:2|3:2,3:2:0:0:
216,118,74572,6,0,L|313:131,2,80.9999975280763,0|0|8,3:2|3:2|3:2,3:2:0:0:
159,22,75031,1,8,3:2:0:0:
363,184,75184,2,0,P|383:132|359:84,1,80.9999975280763,0|0,3:2|3:2,3:2:0:0:
469,165,75491,1,0,3:2:0:0:
294,135,75644,5,2,0:0:0:0:
402,266,75797,1,0,0:0:0:0:
394,189,75950,5,2,0:0:0:0:
286,320,76103,1,0,0:0:0:0:
266,232,76256,5,2,0:0:0:0:
374,363,76409,1,0,0:0:0:0:
402,266,76562,5,8,3:2:0:0:
164,355,76715,2,0,P|159:292|184:251,1,80.9999975280763,8|0,3:2|3:2,3:2:0:0:
236,218,77021,5,4,3:2:0:0:
236,218,77480,1,2,3:2:0:0:
77,201,77633,1,2,3:2:0:0:
244,233,77786,2,0,L|342:225,1,80.9999975280763,0|0,3:2|3:2,3:2:0:0:
470,126,78093,6,0,P|472:178|511:220,1,80.9999975280763,2|0,3:2|3:2,3:2:0:0:
400,270,78399,2,0,P|406:309|392:347,1,80.9999975280763,2|0,3:2|3:2,3:2:0:0:
244,233,78705,1,2,3:2:0:0:
72,278,78858,5,2,3:2:0:0:
88,147,79011,1,0,3:2:0:0:
160,265,79164,5,10,3:2:0:0:
0,205,79317,1,8,3:2:0:0:
6,336,79470,6,0,P|64:366|149:318,1,135,4|0,1:2|0:0,0:0:0:0:
160,265,79776,2,0,L|249:261,1,90,0|0,1:2|0:0,0:0:0:0:
359,149,80082,5,4,1:2:0:0:
504,384,80235,2,0,P|444:324|328:345,1,175.499991966248,8|0,1:2|0:0,0:0:0:0:
252,343,80542,1,8,0:0:0:0:
245,352,80618,1,8,0:0:0:0:
237,361,80695,6,0,L|258:185,1,135,4|0,1:2|0:0,0:0:0:0:
207,130,81001,2,0,P|153:110|94:133,1,90,0|0,1:0|0:0,0:0:0:0:
151,191,81307,5,4,1:2:0:0:
299,60,81460,2,0,B|382:27|382:27|468:58,1,175.499991966248,8|0,1:2|0:0,0:0:0:0:
463,57,81766,6,0,L|458:146,1,90,4|0,1:2|0:0,0:0:0:0:
452,236,82072,5,2,3:2:0:0:
319,133,82225,1,8,1:2:0:0:
463,57,82378,1,8,1:2:0:0:
426,321,82531,5,8,1:2:0:0:
294,49,82684,1,8,1:2:0:0:
504,123,82837,5,8,1:2:0:0:
231,246,82991,1,8,1:2:0:0:
406,213,83756,5,2,0:0:0:0:
494,245,83909,1,0,3:2:0:0:
462,282,83985,1,0,3:2:0:0:
415,299,84062,1,8,3:2:0:0:
366,295,84138,1,8,3:2:0:0:
329,260,84215,1,8,3:2:0:0:
282,241,84292,1,8,3:2:0:0:
234,252,84368,6,0,B|218:298|218:298|252:380,1,99.0000030212403,4|0,1:2|0:0,0:0:0:0:
301,140,84674,2,0,L|192:129,1,99.0000030212403,8|0,0:0|0:0,0:0:0:0:
137,229,84980,1,2,1:2:0:0:
73,64,85133,1,0,0:0:0:0:
6,171,85286,1,8,0:0:0:0:
88,55,85440,1,2,0:0:0:0:
187,291,85593,6,0,P|139:308|76:282,1,99.0000030212403,0|0,1:0|0:0,0:0:0:0:
273,211,85899,1,8,0:0:0:0:
324,298,86052,1,2,0:0:0:0:
343,159,86205,1,0,1:0:0:0:
462,242,86358,1,2,0:0:0:0:
273,211,86511,2,0,B|257:163|257:163|274:91,1,99.0000030212403,8|0,0:0|1:0,0:0:0:0:
292,42,86741,1,0,1:0:0:0:
292,42,86817,6,0,L|410:38,1,99.0000030212403,2|0,1:2|0:0,0:0:0:0:
186,201,87123,2,0,L|87:197,1,99.0000030212403,10|0,0:0|0:0,0:0:0:0:
171,14,87429,2,0,P|183:82|157:126,1,99.0000030212403,2|0,1:2|0:0,0:0:0:0:
0,134,87735,1,10,0:0:0:0:
98,63,87888,1,0,0:0:0:0:
66,326,88042,5,4,1:2:0:0:
3,122,88195,1,2,0:0:0:0:
145,304,88348,5,12,1:2:0:0:
139,130,88501,1,2,0:0:0:0:
227,309,88654,5,4,1:2:0:0:
265,166,88807,1,2,0:0:0:0:
296,348,88960,5,12,1:2:0:0:
363,245,89113,1,2,0:0:0:0:
494,360,89266,6,0,L|389:353,1,99.0000030212403,4|0,1:2|0:0,0:0:0:0:
265,166,89572,1,8,0:0:0:0:
111,169,89725,1,0,0:0:0:0:
49,306,89878,6,0,P|108:305|150:275,1,99.0000030212403,2|0,1:2|0:0,0:0:0:0:
233,75,90184,1,8,0:0:0:0:
391,73,90337,1,0,0:0:0:0:
485,208,90491,6,0,P|433:202|369:171,1,99.0000030212403,2|0,1:2|0:0,0:0:0:0:
0,69,90797,2,0,P|45:50|94:46,1,99.0000030212403,8|2,0:0|0:0,0:0:0:0:
201,154,91103,1,0,1:2:0:0:
83,261,91256,2,0,L|94:146,1,99.0000030212403,2|8,0:0|0:0,0:0:0:0:
227,68,91562,1,0,0:0:0:0:
434,149,91715,6,0,L|313:137,1,99.0000030212403,4|0,1:2|0:0,0:0:0:0:
83,261,92021,2,0,L|181:251,1,99.0000030212403,12|0,1:2|0:0,0:0:0:0:
142,56,92327,5,0,3:0:0:0:
115,43,92404,1,0,3:0:0:0:
85,41,92480,1,0,3:0:0:0:
56,48,92557,1,0,3:0:0:0:
32,65,92633,5,8,1:2:0:0:
8,114,92710,1,0,1:0:0:0:
28,164,92786,1,0,1:0:0:0:
77,186,92863,1,0,1:0:0:0:
128,168,92940,5,4,1:2:0:0:
293,101,93093,5,8,1:2:0:0:
311,324,93246,5,0,1:0:0:0:
470,284,93399,6,0,B|430:280|399:300|399:300|391:253|317:221,1,148.50000453186,8|0,1:2|0:0,0:0:0:0:
363,178,93705,6,0,P|367:222|355:246,1,49.5000015106202,0|0,1:0|1:0,1:0:0:0:
282,207,93858,1,0,3:0:0:0:
251,168,93934,1,0,3:0:0:0:
254,118,94011,1,0,3:0:0:0:
279,76,94087,1,0,3:0:0:0:
326,61,94164,6,0,L|451:58,1,99.0000030212403,4|0,1:2|0:0,0:0:0:0:
168,167,94470,2,0,P|129:173|57:147,1,99.0000030212403,8|0,0:0|0:0,0:0:0:0:
45,35,94776,1,2,1:2:0:0:
108,252,94929,1,0,0:0:0:0:
5,197,95082,1,8,0:0:0:0:
240,106,95235,1,2,0:0:0:0:
112,348,95388,6,0,B|97:291|97:291|116:226,1,99.0000030212403,0|0,1:0|0:0,0:0:0:0:
199,291,95695,1,8,0:0:0:0:
214,28,95848,1,2,0:0:0:0:
172,172,96001,1,0,1:0:0:0:
325,129,96154,1,2,0:0:0:0:
41,95,96307,2,0,L|157:87,1,99.0000030212403,8|0,0:0|1:0,0:0:0:0:
214,28,96536,1,0,1:0:0:0:
214,28,96613,6,0,P|283:28|328:54,1,99.0000030212403,0|0,1:0|0:0,0:0:0:0:
466,238,96919,2,0,P|419:254|370:249,1,99.0000030212403,10|0,0:0|0:0,0:0:0:0:
475,19,97225,2,0,L|486:122,1,99.0000030212403,2|0,1:2|0:0,0:0:0:0:
234,331,97531,2,0,L|244:232,1,99.0000030212403,10|0,0:0|0:0,0:0:0:0:
298,140,97837,5,4,1:2:0:0:
337,284,97991,1,2,0:0:0:0:
197,175,98144,5,12,1:2:0:0:
420,191,98297,1,2,0:0:0:0:
268,320,98450,5,4,1:2:0:0:
394,65,98603,1,2,0:0:0:0:
439,279,98756,5,12,1:2:0:0:
197,175,98909,1,2,0:0:0:0:
394,65,99062,6,0,L|520:75,1,99.0000030212403,2|0,1:2|0:0,0:0:0:0:
197,175,99368,1,8,0:0:0:0:
197,175,99521,1,0,0:0:0:0:
197,175,99674,6,0,L|71:185,1,99.0000030212403,2|0,1:2|0:0,0:0:0:0:
396,307,99980,1,8,0:0:0:0:
396,307,100133,1,0,0:0:0:0:
396,307,100286,6,0,P|420:244|408:202,1,99.0000030212403,2|0,1:2|0:0,0:0:0:0:
197,175,100593,2,0,P|174:131|178:82,1,99.0000030212403,8|2,0:0|0:0,0:0:0:0:
292,43,100899,1,0,1:0:0:0:
221,249,101052,2,0,P|148:244|112:200,1,99.0000030212403,2|8,0:0|0:0,0:0:0:0:
82,146,101358,1,0,0:0:0:0:
154,291,101511,6,0,L|134:406,1,99.0000030212403,4|0,1:2|0:0,0:0:0:0:
310,169,101817,2,0,P|320:114|283:58,1,99.0000030212403,12|0,1:2|0:0,0:0:0:0:
103,46,102123,1,2,1:2:0:0:
235,129,102276,1,0,0:0:0:0:
374,30,102429,1,10,0:0:0:0:
235,129,102582,1,0,0:0:0:0:
303,232,102735,5,4,1:2:0:0:
435,167,102888,1,0,0:0:0:0:
368,296,103042,5,12,1:2:0:0:
341,123,103195,1,0,0:2:0:0:
216,265,103348,5,4,1:2:0:0:
470,157,103501,1,0,0:0:0:0:
468,321,103654,5,12,1:2:0:0:
291,93,103807,1,0,0:0:0:0:
162,353,103960,6,0,P|209:365|258:355,1,99.0000030212403,4|2,1:2|0:0,0:0:0:0:
233,215,104266,2,0,P|187:200|152:166,1,99.0000030212403,0|2,1:0|0:0,0:0:0:0:
265,23,104572,2,0,P|278:70|312:107,1,99.0000030212403,0|2,1:0|0:0,0:3:0:0:
452,100,104878,2,0,P|441:52|454:5,1,99.0000030212403,0|2,1:0|0:0,0:3:0:0:
428,306,105184,6,0,P|379:286|294:298,1,99.0000030212403,0|2,1:0|0:0,0:0:0:0:
65,285,105491,2,0,P|116:294|181:351,1,99.0000030212403,0|2,1:0|0:0,0:0:0:0:
268,214,105797,2,0,P|287:168|321:133,1,99.0000030212403,0|2,1:0|0:0,0:0:0:0:
160,9,106103,2,0,P|182:53|186:102,1,99.0000030212403,0|2,1:0|0:0,0:0:0:0:
50,185,106409,6,0,P|54:135|75:91,1,99.0000030212403,0|2,1:0|0:0,0:0:0:0:
332,278,106715,2,0,P|289:302|240:310,1,99.0000030212403,0|2,1:0|0:0,0:0:0:0:
404,136,107021,2,0,P|434:174|477:198,1,99.0000030212403,0|2,1:0|0:0,0:0:0:0:
300,5,107327,2,0,P|300:54|283:100,1,99.0000030212403,0|2,1:0|0:0,0:0:0:0:
203,372,107633,6,0,P|186:320|190:266,1,99.0000030212403,0|2,1:0|0:0,0:0:0:0:
291,314,107940,2,0,P|308:262|304:208,1,99.0000030212403,0|2,1:0|0:0,0:0:0:0:
102,227,108246,2,0,P|67:184|51:132,1,99.0000030212403,0|2,1:0|0:0,0:0:0:0:
403,139,108552,2,0,P|437:96|453:44,1,99.0000030212403,0|2,1:0|0:0,0:0:0:0:
159,46,108858,6,0,P|148:100|166:146,1,99.0000030212403,4|2,1:2|0:0,0:0:0:0:
353,338,109164,2,0,P|364:284|346:238,1,99.0000030212403,0|2,1:0|0:0,0:0:0:0:
83,156,109470,6,0,P|109:198|152:221,1,99.0000030212403,0|2,1:0|0:0,0:0:0:0:
427,226,109776,2,0,P|401:184|358:161,1,99.0000030212403,0|2,1:0|0:0,0:0:0:0:
204,285,110082,6,0,P|157:300|110:289,1,99.0000030212403,0|2,1:0|0:0,0:0:0:0:
307,98,110388,2,0,P|354:83|402:94,1,99.0000030212403,0|2,1:0|0:0,0:0:0:0:
220,363,110695,6,0,P|262:337|285:294,1,99.0000030212403,0|2,1:0|0:0,0:3:0:0:
290,19,111001,2,0,P|248:45|225:88,1,99.0000030212403,0|2,1:0|0:0,0:3:0:0:
234,137,111230,1,0,3:0:0:0:
271,169,111307,6,0,L|470:156,1,180,4|0,3:2|0:0,0:0:0:0:
81,296,112225,5,0,3:0:0:0:
261,324,112378,6,0,P|180:278|63:310,1,198.000006042481,4|0,1:2|0:0,0:0:0:0:
144,190,112837,1,0,1:0:0:0:
144,190,112991,2,0,P|169:148|169:93,1,99.0000030212403,0|0,1:0|1:0,1:0:0:0:
95,17,113297,1,8,0:0:0:0:
95,17,113373,1,8,0:0:0:0:
95,17,113450,1,8,0:0:0:0:
288,172,113603,1,0,1:0:0:0:
484,71,113756,6,0,L|395:57,1,90,4|0,1:2|0:0,0:0:0:0:
95,107,114062,2,0,L|184:93,1,90,4|0,1:2|0:0,0:0:0:0:
375,52,114368,1,8,0:0:0:0:
196,90,114521,2,0,L|183:265,1,135,8|0,0:0|0:0,0:0:0:0:
139,308,114827,6,0,P|204:266|289:291,1,135,4|0,1:2|0:0,0:0:0:0:
328,323,115133,2,0,L|315:384,2,45,0|0|0,3:0|3:0|3:0,3:0:0:0:
312,169,115440,1,0,3:0:0:0:
430,296,115593,1,8,3:2:0:0:
361,102,115746,6,0,B|312:84|273:99|273:99|234:136|155:92,1,180,4|0,1:2|0:0,0:0:0:0:
136,24,116205,6,0,P|188:11|252:34,1,90,4|0,1:2|0:0,0:0:0:0:
106,230,116511,2,0,L|8:222,1,90,4|0,1:2|0:0,0:0:0:0:
175,167,116817,1,0,3:0:0:0:
219,158,116894,1,0,3:0:0:0:
259,176,116970,1,8,3:2:0:0:
287,210,117047,1,8,3:2:0:0:
329,224,117123,1,8,3:2:0:0:
373,215,117200,1,8,3:2:0:0:
411,192,117276,6,0,L|426:87,1,90,4|0,1:2|0:0,0:0:0:0:
205,250,117582,2,0,L|217:339,1,90,4|0,1:2|0:0,0:0:0:0:
55,113,117888,2,0,L|228:98,1,135,0|0,1:0|0:0,0:0:0:0:
206,99,118195,1,8,0:0:0:0:
395,26,118348,2,0,L|332:18,3,45,8|0|0|0,3:2|3:0|3:0|3:0,3:0:0:0:
410,27,118654,6,0,P|424:77|393:135,1,90,4|0,1:2|0:0,0:0:0:0:
336,337,118960,2,0,L|326:230,1,90,4|0,1:2|0:0,0:0:0:0:
430,281,119266,1,8,0:0:0:0:
242,303,119419,2,0,L|85:308,1,135,8|0,0:0|0:0,0:0:0:0:
1,216,119725,6,0,B|55:236|55:236|5:282|33:348,1,180,4|0,1:2|0:0,0:0:0:0:
31,127,120184,2,0,B|28:38,1,90,4|0,1:2|0:0,0:0:0:0:
148,233,120491,1,0,1:0:0:0:
205,98,120644,1,8,0:0:0:0:
205,98,120720,1,8,0:0:0:0:
205,98,120797,1,8,0:0:0:0:
321,202,120950,6,0,B|414:175|414:175|482:200,1,135,4|0,1:2|0:0,0:0:0:0:
449,188,121256,5,2,3:2:0:0:
408,256,121409,1,0,0:0:0:0:
302,309,121562,5,2,3:2:0:0:
221,194,121715,1,0,1:0:0:0:
221,194,121792,1,0,1:0:0:0:
221,194,121868,1,0,3:0:0:0:
248,90,122021,5,0,1:0:0:0:
54,187,122174,1,0,3:0:0:0:
232,301,122327,1,0,1:0:0:0:
188,230,122480,6,0,P|253:219|294:248,1,85.4999977169037,4|0,1:2|0:0,0:0:0:0:
351,148,122786,1,8,0:0:0:0:
351,148,122940,5,8,0:0:0:0:
142,252,123552,6,0,L|126:360,1,76.5000014591217,4|0,1:0|0:0,0:0:0:0:
58,111,123858,2,0,L|74:219,1,76.5000014591217,0|0,1:0|0:0,0:0:0:0:
219,357,124164,2,0,L|231:282,1,76.5000014591217,0|0,3:0|3:0,0:0:0:0:
66,33,124470,2,0,L|155:44,1,76.5000014591217,0|0,1:0|0:0,0:0:0:0:
190,131,124776,5,0,3:0:0:0:
248,38,124929,1,0,0:0:0:0:
290,140,125083,5,0,1:0:0:0:
141,42,125236,1,0,0:0:0:0:
202,153,125389,5,0,3:0:0:0:
244,11,125542,1,0,3:0:0:0:
105,126,125695,2,0,P|97:163|108:199,1,76.5000014591217,0|0,1:0|0:0,0:0:0:0:
279,289,126001,6,0,L|356:298,1,76.5000014591217,0|0,3:0|0:0,0:0:0:0:
449,181,126307,2,0,L|372:189,1,76.5000014591217,0|0,1:0|0:0,0:0:0:0:
203,100,126613,2,0,L|279:91,1,76.5000014591217,0|0,3:0|3:0,0:0:0:0:
438,71,126919,1,0,1:0:0:0:
372,190,127072,1,0,0:0:0:0:
438,71,127225,6,0,B|448:107|448:107|439:146,1,76.5000014591217,2|0,3:2|0:0,0:0:0:0:
273,252,127531,2,0,L|176:242,1,76.5000014591217,0|0,1:0|0:0,0:0:0:0:
340,370,127837,2,0,B|330:334|330:334|339:295,1,76.5000014591217,2|0,3:2|3:0,0:0:0:0:
473,111,128144,2,0,L|463:189,1,76.5000014591217,0|0,1:0|0:0,0:0:0:0:
378,222,128373,1,0,1:0:0:0:
378,222,128450,6,0,L|301:214,1,76.5000014591217,0|0,3:0|0:0,0:0:0:0:
94,106,128756,2,0,L|170:98,1,76.5000014591217,0|0,1:0|0:0,0:0:0:0:
194,328,129062,2,0,P|143:282|39:303,1,153.000002918243,0|0,3:0|1:0,0:0:0:0:
0,355,129521,1,0,0:0:0:0:
189,209,129674,6,0,P|195:158|183:119,1,76.5000014591217,0|0,3:0|0:0,0:0:0:0:
96,1,129980,2,0,P|89:51|102:91,1,76.5000014591217,0|0,1:0|0:0,0:0:0:0:
189,134,130287,1,0,3:0:0:0:
290,84,130440,1,0,3:0:0:0:
214,44,130593,1,0,1:0:0:0:
289,171,130746,1,0,0:0:0:0:
512,63,130899,6,0,P|446:36|349:54,1,153.000002918243,4|0,1:2|1:0,0:0:0:0:
289,171,131358,1,0,0:0:0:0:
430,238,131511,5,2,3:2:0:0:
397,137,131664,1,0,3:0:0:0:
316,295,131817,5,0,1:0:0:0:
487,144,131970,1,0,0:0:0:0:
489,301,132123,6,0,P|435:320|387:299,1,76.5000014591217,0|0,1:0|0:0,0:0:0:0:
298,93,132429,2,0,P|260:97|229:119,1,76.5000014591217,0|0,1:0|0:0,0:0:0:0:
149,304,132736,2,0,L|73:292,1,76.5000014591217,0|0,1:0|0:0,0:0:0:0:
38,56,133042,1,0,1:0:0:0:
24,91,133118,1,0,3:0:0:0:
28,129,133195,1,0,3:0:0:0:
44,163,133271,1,0,3:0:0:0:
78,180,133348,6,0,L|186:173,1,76.5000014591217,2|0,3:2|0:0,0:0:0:0:
214,102,133654,2,0,L|290:108,1,76.5000014591217,0|0,1:0|0:0,0:0:0:0:
215,257,133960,2,0,L|138:261,1,76.5000014591217,0|0,3:0|3:0,0:0:0:0:
311,310,134266,2,0,L|303:220,1,76.5000014591217,0|0,1:0|0:0,0:0:0:0:
298,80,134572,5,0,3:0:0:0:
435,233,134725,1,0,0:0:0:0:
305,234,134879,5,0,1:0:0:0:
389,73,135032,1,0,0:0:0:0:
416,282,135185,5,0,3:0:0:0:
381,162,135338,1,0,3:0:0:0:
500,252,135491,2,0,P|505:294|492:328,1,76.5000014591217,0|0,1:0|0:0,0:0:0:0:
363,376,135797,6,0,L|264:365,1,76.5000014591217,2|0,3:2|0:0,0:0:0:0:
63,146,136103,2,0,P|111:134|166:133,1,76.5000014591217,0|0,1:0|0:0,0:0:0:0:
276,323,136409,2,0,L|190:322,1,76.5000014591217,2|0,3:2|3:0,0:3:0:0:
244,195,136715,1,0,1:0:0:0:
114,384,136868,2,0,P|99:310|135:244,1,153.000002918243,2|0,0:0|0:0,0:0:0:0:
64,147,137327,6,0,P|59:110|70:74,1,76.5000014591217,4|0,1:2|0:0,0:0:0:0:
155,21,137634,2,0,L|251:10,1,76.5000014591217,0|0,1:0|0:0,0:0:0:0:
448,289,137940,6,0,P|453:251|442:216,1,76.5000014591217,4|0,1:2|0:0,0:0:0:0:
361,255,138246,2,0,B|285:231|285:231|213:247,2,153.000002918243,0|0|0,1:0|1:0|3:0,0:0:0:0:
386,150,139011,1,0,3:0:0:0:
448,289,139164,1,0,1:0:0:0:
280,314,139317,1,0,0:0:0:0:
393,162,139470,6,0,L|499:169,1,76.5000014591217,0|0,3:0|0:0,0:0:0:0:
324,379,139776,2,0,P|287:389|249:383,1,76.5000014591217,0|0,1:0|0:0,0:0:0:0:
138,171,140083,1,0,3:0:0:0:
89,275,140236,2,0,L|94:351,1,76.5000014591217,0|0,3:0|1:0,0:0:0:0:
235,258,140542,1,0,0:0:0:0:
293,145,140695,6,0,P|290:106|277:70,1,76.5000014591217,2|0,3:2|0:0,0:0:0:0:
148,18,141001,1,0,1:0:0:0:
208,181,141154,1,0,0:0:0:0:
361,271,141307,6,0,P|363:232|376:196,1,76.5000014591217,2|0,3:2|3:0,0:0:0:0:
430,25,141613,2,0,P|442:61|445:99,1,76.5000014591217,0|0,1:0|0:0,0:0:0:0:
503,194,141919,5,6,1:2:0:0:
239,120,142072,1,0,0:0:0:0:
133,228,142225,5,6,1:2:0:0:
377,158,142378,1,0,0:0:0:0:
512,293,142531,5,6,1:2:0:0:
243,211,142684,1,0,2:0:0:0:
161,345,142838,5,6,1:2:0:0:
370,325,142991,2,0,B|240:305,1,99.0000030212403,0|0,1:0|0:0,0:0:0:0:
161,345,143297,5,4,1:2:0:0:
254,107,143450,1,0,1:2:0:0:
278,229,143603,1,4,1:2:0:0:
146,75,143756,2,0,L|134:17,3,49.5000015106202,0|0|0|0,1:0|0:0|0:0|0:0,0:0:0:0:
110,180,144062,6,2,L|113:156,7,24.7500007553101
115,210,144368,6,0,L|195:213,1,80.9999975280763,4|0,3:2|3:2,3:2:0:0:
290,222,144674,1,8,3:2:0:0:
181,84,144827,1,8,3:2:0:0:
85,88,144980,2,0,L|-6:92,2,80.9999975280763,0|0|0,3:2|3:2|3:2,3:2:0:0:
289,73,145440,5,0,3:2:0:0:
147,234,145593,1,2,3:2:0:0:
358,189,145746,1,0,3:2:0:0:
160,102,145899,1,2,3:2:0:0:
270,289,146052,2,0,L|362:284,1,80.9999975280763,0|0,3:2|3:2,3:2:0:0:
456,289,146358,6,0,L|456:229,1,40.4999987640381,8|0,3:2|0:0,0:0:0:0:
196,333,146511,6,0,L|115:328,1,80.9999975280763,8|0,3:2|3:2,3:2:0:0:
46,238,146817,6,0,P|38:183|62:136,1,80.9999975280763,0|0,3:2|3:2,3:2:0:0:
160,66,147123,1,8,3:2:0:0:
235,220,147276,1,8,3:2:0:0:
197,147,147429,2,0,P|236:138|275:147,1,80.9999975280763,0|0,3:2|3:2,3:2:0:0:
335,276,147735,1,0,3:2:0:0:
335,276,147889,2,0,P|374:284|413:275,1,80.9999975280763,0|0,3:2|3:2,3:2:0:0:
497,103,148195,6,0,L|480:199,1,80.9999975280763,4|0,3:2|3:2,3:2:0:0:
349,355,148501,2,0,L|334:275,1,80.9999975280763,4|0,3:2|3:2,3:2:0:0:
304,64,148807,6,0,L|296:127,1,40.4999987640381,8|0,3:2|0:0,0:0:0:0:
273,364,148960,6,0,L|245:216,1,121.499996292114,8|0,3:2|0:0,0:0:0:0:
250,244,149266,6,0,P|197:251|147:223,1,80.9999975280763,4|0,3:2|3:2,3:2:0:0:
90,100,149572,1,8,3:2:0:0:
38,280,149725,1,8,3:2:0:0:
0,208,149878,2,0,P|38:198|78:206,1,80.9999975280763,0|0,3:2|3:2,3:2:0:0:
248,134,150184,1,0,3:2:0:0:
235,231,150337,1,0,3:2:0:0:
235,231,150491,6,0,L|219:349,1,80.9999975280763,2|0,3:2|3:2,3:2:0:0:
358,373,150797,1,2,3:2:0:0:
358,373,150950,2,0,L|348:293,1,80.9999975280763,0|0,3:2|3:2,3:2:0:0:
321,122,151256,6,0,L|329:179,1,40.4999987640381,8|0,3:2|0:0,0:0:0:0:
447,307,151409,6,0,L|436:226,1,80.9999975280763,8|0,3:2|3:2,3:2:0:0:
508,120,151715,6,0,P|466:109|418:116,1,80.9999975280763,0|0,3:2|3:2,3:2:0:0:
282,313,152021,2,0,P|241:316|202:305,1,80.9999975280763,0|0,3:2|3:2,3:2:0:0:
110,81,152327,1,8,3:2:0:0:
178,125,152480,2,0,P|129:156|58:143,1,121.499996292114,8|0,3:2|3:2,3:2:0:0:
68,148,152786,6,0,P|101:183|106:237,1,80.9999975280763,2|0,3:2|3:2,3:2:0:0:
152,365,153093,2,0,P|165:319|209:288,1,80.9999975280763,2|0,3:2|3:2,3:2:0:0:
303,193,153399,2,0,P|257:204|207:181,1,80.9999975280763,2|0,3:2|3:2,3:2:0:0:
181,98,153705,6,0,P|207:95|236:95,1,40.4999987640381,8|0,3:2|0:0,0:0:0:0:
378,260,153858,6,0,L|369:352,1,80.9999975280763,8|0,3:2|3:2,3:2:0:0:
466,175,154164,5,4,3:2:0:0:
466,175,154470,1,2,3:2:0:0:
405,58,154623,1,0,3:2:0:0:
466,175,154776,1,2,3:2:0:0:
308,103,154929,1,0,3:2:0:0:
466,175,155082,1,2,3:2:0:0:
214,152,155235,6,0,L|120:142,1,80.9999975280763,2|0,3:2|3:2,3:2:0:0:
33,75,155542,2,0,L|114:66,1,80.9999975280763,2|0,3:2|3:2,3:2:0:0:
158,235,155848,2,0,L|77:226,1,80.9999975280763,2|0,3:2|3:2,3:2:0:0:
255,225,156154,1,8,3:2:0:0:
208,307,156307,2,0,P|272:317|308:299,1,80.9999975280763,8|0,3:2|3:2,3:2:0:0:
505,95,156613,6,0,P|452:71|369:90,1,135,4|0,1:2|0:0,0:0:0:0:
378,84,156919,2,0,L|393:192,1,90,0|0,1:0|0:0,0:0:0:0:
470,282,157225,5,4,1:2:0:0:
285,312,157378,2,0,P|200:327|123:286,1,175.499991966248,8|0,1:2|0:0,0:0:0:0:
68,221,157684,1,8,0:0:0:0:
61,211,157761,1,8,0:0:0:0:
56,204,157837,6,0,L|70:82,1,90,4|0,1:2|0:0,0:0:0:0:
265,32,158144,2,0,P|296:102|283:135,1,90,0|0,1:0|0:0,0:0:0:0:
215,102,158450,5,4,1:2:0:0:
253,380,158603,2,0,P|228:286|296:190,1,175.499991966248,8|0,1:2|0:0,0:0:0:0:
284,202,158909,6,0,L|393:195,1,90,4|0,1:2|0:0,0:0:0:0:
453,121,159215,1,8,1:2:0:0:
453,121,159292,1,8,1:2:0:0:
453,121,159368,5,8,1:2:0:0:
215,111,159521,1,8,1:2:0:0:
328,15,159674,5,8,1:2:0:0:
184,369,159827,1,8,1:2:0:0:
79,120,159980,5,8,1:2:0:0:
433,264,160133,1,8,1:2:0:0:
108,206,160899,5,2,0:0:0:0:
29,245,161052,1,0,3:2:0:0:
50,282,161128,1,0,3:2:0:0:
97,299,161205,1,8,3:2:0:0:
146,295,161281,1,8,3:2:0:0:
183,260,161358,1,8,3:2:0:0:
230,241,161435,1,8,3:2:0:0:
278,252,161511,6,0,B|294:298|294:298|260:380,1,99.0000030212403,4|0,1:2|0:0,0:0:0:0:
204,137,161817,2,0,L|313:126,1,99.0000030212403,8|0,0:0|0:0,0:0:0:0:
428,115,162123,1,2,1:2:0:0:
367,268,162276,1,0,0:0:0:0:
428,115,162429,1,8,0:0:0:0:
466,327,162582,1,2,0:0:0:0:
247,283,162736,6,0,L|136:274,1,99.0000030212403,0|0,1:0|0:0,0:0:0:0:
40,264,163042,1,8,0:0:0:0:
20,121,163195,1,2,0:0:0:0:
40,264,163348,1,0,1:0:0:0:
175,105,163501,1,2,0:0:0:0:
333,245,163654,2,0,B|356:293|314:361,1,99.0000030212403,8|0,0:0|1:0,0:0:0:0:
255,371,163884,1,0,1:0:0:0:
255,371,163960,6,0,L|137:367,1,99.0000030212403,2|0,1:2|0:0,0:0:0:0:
333,245,164266,2,0,L|432:241,1,99.0000030212403,10|0,0:2|0:0,0:0:0:0:
226,27,164572,2,0,P|214:95|240:139,1,99.0000030212403,2|0,1:2|0:0,0:0:0:0:
345,246,164878,1,8,0:0:0:0:
404,83,165031,1,0,0:0:0:0:
226,27,165185,5,4,1:2:0:0:
105,128,165338,1,2,0:0:0:0:
226,27,165491,5,12,1:2:0:0:
346,210,165644,1,2,0:0:0:0:
226,27,165797,5,4,1:2:0:0:
164,247,165950,1,2,0:0:0:0:
226,27,166103,5,12,1:2:0:0:
279,307,166256,1,2,0:0:0:0:
39,50,166409,6,0,L|144:57,1,99.0000030212403,6|0,1:2|0:0,0:0:0:0:
323,151,166715,1,8,0:0:0:0:
329,19,166868,1,0,0:0:0:0:
235,130,167021,6,0,P|236:189|266:231,1,99.0000030212403,2|0,1:2|0:0,0:0:0:0:
398,276,167327,1,8,0:0:0:0:
323,151,167480,1,0,0:0:0:0:
156,218,167634,6,0,P|137:263|132:313,1,99.0000030212403,2|0,1:2|0:0,0:0:0:0:
335,384,167940,2,0,P|331:334|312:289,1,99.0000030212403,8|2,0:0|0:0,0:0:0:0:
156,218,168246,1,0,1:0:0:0:
346,201,168399,2,0,L|444:191,1,99.0000030212403,2|8,0:0|0:0,0:0:0:0:
411,294,168705,1,0,0:0:0:0:
284,136,168858,6,0,L|163:124,1,99.0000030212403,4|0,1:2|0:0,0:0:0:0:
18,35,169164,2,0,P|65:24|112:37,1,99.0000030212403,12|0,1:2|0:0,0:0:0:0:
120,176,169470,1,0,3:0:0:0:
145,218,169547,1,0,3:0:0:0:
138,266,169623,1,0,3:0:0:0:
105,303,169700,1,0,3:0:0:0:
58,317,169776,6,0,L|-20:304,1,49.5000015106202,8|0,1:2|0:0,0:0:0:0:
8,222,169929,2,0,L|71:235,1,49.5000015106202,0|0,1:0|1:0,1:0:0:0:
146,335,170083,6,0,L|235:318,1,49.5000015106202,4|0,1:2|0:0,0:0:0:0:
177,244,170235,6,0,L|225:234,1,49.5000015106202,8|0,1:2|0:0,0:0:0:0:
334,236,170389,6,0,P|359:237|382:245,1,49.5000015106202,0|0,1:2|0:0,0:0:0:0:
298,364,170542,6,0,B|308:326|346:312|346:312|388:329|420:309,1,148.50000453186,8|0,1:2|0:0,0:0:0:0:
452,204,170848,6,0,P|476:203|500:196,1,49.5000015106202,0|0,1:2|0:0,0:0:0:0:
463,132,171001,1,0,3:0:0:0:
417,113,171077,1,0,3:0:0:0:
365,116,171154,1,0,3:0:0:0:
321,139,171230,1,0,3:0:0:0:
292,179,171307,6,0,L|167:176,1,99.0000030212403,4|0,1:2|0:0,0:0:0:0:
23,54,171613,2,0,P|62:48|134:74,1,99.0000030212403,8|0,0:0|0:0,0:0:0:0:
193,176,171919,1,2,1:2:0:0:
48,207,172072,1,0,0:0:0:0:
185,280,172225,1,8,0:0:0:0:
200,86,172378,1,2,0:0:0:0:
48,207,172531,6,0,B|28:259|49:305,1,99.0000030212403,0|0,1:0|0:0,0:0:0:0:
147,376,172838,1,8,0:0:0:0:
311,260,172991,1,2,0:0:0:0:
147,376,173144,1,0,1:0:0:0:
226,165,173297,1,2,0:0:0:0:
381,338,173450,2,0,P|330:351|282:344,1,99.0000030212403,8|0,0:0|1:0,0:0:0:0:
251,274,173679,1,0,1:0:0:0:
251,274,173756,6,0,L|260:171,1,99.0000030212403,2|0,1:2|0:0,0:0:0:0:
367,19,174062,2,0,L|375:117,1,99.0000030212403,10|0,0:0|0:0,0:0:0:0:
165,205,174368,2,0,P|102:203|43:168,1,99.0000030212403,2|0,1:2|0:0,0:0:0:0:
375,117,174674,2,0,L|496:115,1,99.0000030212403,8|0,0:0|0:0,0:0:0:0:
495,27,174980,5,4,1:2:0:0:
464,211,175134,1,2,0:0:0:0:
266,88,175287,5,12,1:2:0:0:
464,211,175440,1,2,0:0:0:0:
397,87,175593,5,4,1:2:0:0:
295,293,175746,1,2,0:0:0:0:
397,87,175899,5,12,1:2:0:0:
417,361,176052,1,2,0:0:0:0:
242,208,176205,6,0,P|299:193|340:200,1,99.0000030212403,2|0,1:2|0:0,0:0:0:0:
417,361,176511,1,8,0:0:0:0:
295,293,176664,1,0,0:0:0:0:
147,310,176817,6,0,L|48:302,1,99.0000030212403,2|0,1:2|0:0,0:0:0:0:
130,104,177123,1,8,0:0:0:0:
124,20,177276,1,0,0:0:0:0:
52,70,177429,6,0,P|47:118|70:162,1,99.0000030212403,2|0,1:2|0:0,0:0:0:0:
351,221,177735,2,0,P|354:269|331:312,1,99.0000030212403,8|2,0:0|0:0,0:0:0:0:
199,276,178042,1,0,1:0:0:0:
286,151,178195,2,0,L|412:133,1,99.0000030212403,2|8,0:2|0:0,0:0:0:0:
489,115,178501,1,0,0:0:0:0:
221,80,178654,6,0,B|183:49|183:49|106:60,1,99.0000030212403,4|0,1:2|0:0,0:0:0:0:
24,339,178960,2,0,B|62:370|62:370|139:359,1,99.0000030212403,12|0,1:2|0:0,0:0:0:0:
102,258,179266,5,0,1:0:0:0:
95,131,179419,1,2,0:0:0:0:
102,258,179572,1,8,0:0:0:0:
257,117,179725,1,2,0:0:0:0:
388,194,179878,5,4,1:2:0:0:
257,117,180031,1,0,0:0:0:0:
286,224,180185,5,12,1:2:0:0:
363,90,180338,1,0,0:0:0:0:
357,284,180491,5,4,1:2:0:0:
290,23,180644,1,0,0:0:0:0:
465,121,180797,5,12,1:2:0:0:
182,196,180950,1,0,0:0:0:0:
78,72,181103,6,0,P|139:68|176:81,1,99.0000030212403,4|2,1:2|0:0,0:0:0:0:
434,129,181409,2,0,P|372:125|336:138,1,99.0000030212403,0|2,1:0|0:0,0:0:0:0:
117,153,181715,2,0,P|163:194|179:228,1,99.0000030212403,0|2,1:0|0:0,0:0:0:0:
391,212,182021,2,0,P|344:253|328:287,1,99.0000030212403,0|2,1:0|0:0,0:0:0:0:
142,315,182327,6,0,P|103:320|40:304,1,99.0000030212403,0|2,1:0|0:0,0:0:0:0:
377,361,182633,2,0,P|415:366|479:350,1,99.0000030212403,0|2,1:0|0:0,0:0:0:0:
104,229,182940,2,0,P|72:206|39:149,1,99.0000030212403,0|2,1:0|0:0,0:0:0:0:
416,275,183246,2,0,P|447:252|480:195,1,99.0000030212403,0|2,1:0|0:0,0:0:0:0:
399,0,183552,6,0,P|395:64|416:117,1,99.0000030212403,0|2,1:0|0:0,0:0:0:0:
181,269,183858,2,0,P|229:226|251:174,1,99.0000030212403,0|2,1:0|0:0,0:0:0:0:
246,56,184164,2,0,P|197:61|149:50,1,99.0000030212403,0|2,1:0|0:0,0:0:0:0:
344,271,184470,2,0,P|382:301|408:343,1,99.0000030212403,0|2,1:0|0:0,0:0:0:0:
103,325,184776,6,0,P|91:277|97:228,1,99.0000030212403,0|2,1:0|0:0,0:0:0:0:
66,31,185082,2,0,P|40:73|1:103,1,99.0000030212403,0|2,1:0|0:0,0:0:0:0:
192,274,185389,2,0,P|240:265|288:274,1,99.0000030212403,0|2,1:0|0:0,0:0:0:0:
490,345,185695,2,0,P|449:316|422:275,1,99.0000030212403,0|2,1:0|0:0,0:0:0:0:
402,95,186001,6,0,P|348:83|302:102,1,99.0000030212403,4|2,1:2|0:0,0:0:0:0:
110,289,186307,2,0,P|164:300|210:282,1,99.0000030212403,0|2,1:0|0:0,0:0:0:0:
291,20,186613,6,0,P|245:50|225:95,1,99.0000030212403,0|2,1:0|0:0,0:0:0:0:
222,363,186919,2,0,P|268:333|288:288,1,99.0000030212403,0|2,1:0|0:0,0:0:0:0:
162,140,187225,6,0,P|147:93|159:46,1,99.0000030212403,0|2,1:0|0:0,0:0:0:0:
349,243,187531,2,0,P|364:290|354:338,1,99.0000030212403,0|2,1:0|0:0,0:0:0:0:
111,218,187837,5,8,3:0:0:0:
124,170,187913,1,8,3:0:0:0:
162,140,187990,1,8,3:0:0:0:
211,137,188066,1,8,3:0:0:0:
253,163,188143,5,0,1:0:0:0:
271,207,188220,1,0,3:0:0:0:
261,255,188296,1,0,1:0:0:0:
225,288,188372,1,0,3:0:0:0:
176,293,188449,5,4,1:2:0:0:
297,93,189368,5,2,0:0:0:0:
364,206,189521,6,0,B|247:171|281:265|176:224,1,198.000006042481,4|0,1:2|0:0,0:0:0:0:
319,279,189980,1,0,1:0:0:0:
109,172,190134,2,0,P|89:222|123:297,1,99.0000030212403,0|0,1:0|1:0,1:0:0:0:
209,362,190440,1,8,0:0:0:0:
209,362,190516,1,8,0:0:0:0:
209,362,190593,1,8,0:0:0:0:
357,239,190746,1,0,1:0:0:0:
252,31,190899,5,2,3:2:0:0:
252,31,191358,1,2,3:2:0:0:
138,133,191511,2,0,P|165:137|235:103,1,80.9999975280763,0|0,3:2|3:2,3:2:0:0:
252,31,191817,1,8,3:2:0:0:
308,182,191970,2,0,P|348:179|385:193,1,80.9999975280763,2|0,3:2|3:2,3:2:0:0:
252,31,192276,1,0,3:2:0:0:
165,137,192429,1,8,3:2:0:0:
262,246,192582,6,0,P|292:219|308:182,1,80.9999975280763,2|0,3:2|3:2,3:2:0:0:
129,271,192889,2,0,P|136:310|160:342,1,80.9999975280763,2|8,3:2|3:2,3:2:0:0:
165,137,193195,2,0,P|127:123|87:128,1,80.9999975280763,2|0,3:2|3:2,3:2:0:0:
28,191,193501,1,8,3:2:0:0:
264,77,193654,1,8,3:2:0:0:
165,137,193807,6,0,B|138:214|138:214|197:303,1,161.999995056153,4|0,3:2|3:2,3:2:0:0:
237,346,194190,1,0,3:2:0:0:
237,346,194266,2,0,L|334:343,1,80.9999975280763,8|0,3:2|3:2,3:2:0:0:
437,340,194572,1,4,3:2:0:0:
332,343,194725,2,0,L|345:197,1,121.499996292114,0|0,3:2|3:2,3:2:0:0:
345,206,195031,2,0,L|432:207,1,80.9999975280763,4|0,3:2|3:2,3:2:0:0:
279,96,195337,1,0,3:2:0:0:
279,96,195491,2,0,L|192:97,1,80.9999975280763,8|0,3:2|3:2,3:2:0:0:
105,95,195797,5,2,3:2:0:0:
105,95,196103,1,8,3:2:0:0:
170,247,196256,2,0,L|182:148,1,80.9999975280763,2|0,3:2|3:2,3:2:0:0:
232,306,196562,2,0,L|220:207,1,80.9999975280763,2|8,3:2|3:2,3:2:0:0:
187,369,196868,2,0,L|199:270,1,80.9999975280763,2|0,3:2|3:2,3:2:0:0:
220,119,197174,1,0,3:2:0:0:
356,201,197327,1,8,3:2:0:0:
434,73,197480,6,0,P|394:81|362:104,1,80.9999975280763,2|0,3:2|3:2,3:2:0:0:
415,352,197786,2,0,P|427:313|423:273,1,80.9999975280763,2|8,3:2|3:2,3:2:0:0:
182,196,198093,2,0,P|208:226|245:242,1,80.9999975280763,6|0,3:2|3:2,3:2:0:0:
344,208,198399,1,2,3:2:0:0:
266,45,198552,1,8,3:2:0:0:
344,208,198705,6,0,P|416:180|494:210,1,161.999995056153,4|0,3:2|3:2,3:2:0:0:
417,275,199164,1,8,3:2:0:0:
183,354,199317,6,0,L|170:214,1,121.499996292114,4|0,3:2|3:2,3:2:0:0:
169,219,199623,2,0,P|140:186|129:141,1,80.9999975280763,2|8,3:2|3:2,3:2:0:0:
154,43,199929,1,4,3:2:0:0:
268,117,200082,1,0,3:2:0:0:
385,71,200235,1,4,3:2:0:0:
385,71,200312,1,0,3:2:0:0:
385,71,200389,1,8,3:2:0:0:
499,143,200542,1,0,3:2:0:0:
499,143,200618,1,0,3:2:0:0:
499,143,200695,5,2,3:2:0:0:
268,117,200848,2,0,L|166:121,1,80.9999975280763,2|10,3:2|3:2,3:2:0:0:
76,216,201154,2,0,P|66:258|80:300,1,80.9999975280763,2|0,3:2|3:2,3:2:0:0:
273,345,201460,2,0,P|283:303|269:261,1,80.9999975280763,2|8,3:2|3:2,3:2:0:0:
187,113,201766,2,0,L|289:117,1,80.9999975280763,2|0,3:2|3:2,3:2:0:0:
357,29,202072,1,0,3:2:0:0:
393,208,202225,1,10,3:2:0:0:
497,87,202378,6,0,P|454:82|406:98,1,80.9999975280763,2|0,3:2|3:2,3:2:0:0:
361,247,202684,1,0,3:2:0:0:
266,253,202837,1,8,3:2:0:0:
231,166,202991,2,0,P|274:161|322:177,1,80.9999975280763,4|0,3:2|3:2,3:2:0:0:
361,247,203297,2,0,L|348:340,1,80.9999975280763,2|8,3:2|3:2,3:2:0:0:
115,248,203603,6,0,B|83:179|83:179|129:73,1,161.999995056153,4|0,3:2|3:2,3:2:0:0:
165,36,203985,1,0,3:2:0:0:
165,36,204062,2,0,L|265:29,1,80.9999975280763,8|0,3:2|3:2,3:2:0:0:
363,217,204368,5,2,3:2:0:0:
220,142,204521,1,0,3:2:0:0:
361,53,204674,1,8,3:2:0:0:
363,217,204827,2,0,L|357:331,1,80.9999975280763,4|0,3:2|3:2,3:2:0:0:
259,377,205133,1,0,3:2:0:0:
259,377,205286,2,0,L|254:296,1,80.9999975280763,8|0,3:2|3:2,3:2:0:0:
286,204,205593,6,0,B|251:188|207:209|207:209|154:232|97:201,1,161.999995056153,2|8,3:2|3:2,3:2:0:0:
83,152,206052,2,0,L|88:58,1,80.9999975280763,2|0,3:2|3:2,3:2:0:0:
169,2,206358,2,0,L|173:82,1,80.9999975280763,2|8,3:2|3:2,3:2:0:0:
83,152,206664,2,0,P|22:158|-16:140,1,80.9999975280763,2|0,3:2|3:2,3:2:0:0:
46,76,206970,1,0,3:2:0:0:
108,311,207123,1,8,3:2:0:0:
161,237,207276,6,0,P|222:231|260:249,1,80.9999975280763,2|0,3:2|3:2,3:2:0:0:
335,205,207582,2,0,P|313:171|279:149,1,80.9999975280763,2|8,3:2|3:2,3:2:0:0:
426,162,207889,2,0,P|435:201|427:241,1,80.9999975280763,6|0,3:2|3:2,3:2:0:0:
342,285,208195,1,8,3:2:0:0:
416,367,208348,1,8,3:2:0:0:
503,281,208501,6,0,L|342:285,1,161.999995056153,4|0,3:2|3:2,3:2:0:0:
278,338,208883,1,0,3:2:0:0:
278,338,208960,2,0,L|187:328,1,80.9999975280763,8|0,3:2|3:2,3:2:0:0:
117,207,209266,5,2,3:2:0:0:
68,367,209419,1,0,3:2:0:0:
117,207,209572,1,8,3:2:0:0:
197,329,209725,5,2,3:2:0:0:
36,236,209878,1,2,3:2:0:0:
146,108,210031,1,2,3:2:0:0:
186,104,210108,1,0,3:2:0:0:
226,101,210184,1,8,3:2:0:0:
430,40,210337,1,2,3:2:0:0:
389,34,210414,1,0,3:2:0:0:
348,29,210491,5,8,3:2:0:0:
489,117,210644,2,0,L|496:210,1,80.9999975280763,8|8,3:2|3:2,3:2:0:0:
362,379,210950,2,0,P|343:304|360:271,1,80.9999975280763,4|0,3:2|3:2,3:2:0:0:
371,179,211256,2,0,B|318:200|318:200|189:155,1,161.999995056153,4|0,3:2|3:2,3:2:0:0:
219,166,211639,1,0,3:2:0:0:
219,166,211715,6,0,P|159:200|324:336,1,405.000015449525,4|2,0:0|0:0,0:0:0:0:
512,35,212940,6,0,B|485:5|465:13|435:4|409:33|401:33|391:66|386:97|387:108|424:131|431:130|473:126|469:167|465:185|443:213|446:226|406:244|377:242|333:210,1,405.000015449525,4|2,0:0|0:0,0:0:0:0:
0,195,214164,6,0,P|168:214|111:47,1,405.000015449525,4|2,0:0|0:0,0:0:0:0:
117,48,215389,6,0,P|161:92|249:93,1,135.000005149842,4|2,0:0|0:0,0:0:0:0:
346,381,216001,6,0,P|280:375|232:329,1,135.000005149842,4|2,0:0|0:0,0:0:0:0:
318,290,216613,6,0,B|338:248|415:233|415:233|509:218|555:105|454:28|373:75|373:75|321:-1|197:22|189:144|267:199|267:199|330:247|317:276,1,818.999962509157,6|2,0:2|0:0,0:0:0:0:
87,221,219062,6,0,P|115:302|53:242,1,236.250009012223,4|0,0:0|0:0,0:0:0:0:
90,262,219674,5,0,1:0:0:0:
167,90,219827,1,0,1:0:0:0:
342,158,219980,1,8,1:2:0:0:
273,333,220133,1,8,1:2:0:0:
193,181,220286,5,4,1:2:0:0:
439,103,220440,5,8,1:2:0:0:
414,335,220593,5,0,1:2:0:0:
375,56,220746,6,0,P|447:27|511:70,1,161.999995056153,8|0,1:2|3:0,3:0:0:0:
503,197,221052,5,0,1:0:0:0:
460,188,221128,1,0,1:0:0:0:
420,205,221205,2,0,L|354:196,1,53.9999983520508,8|0,1:2|0:0,0:0:0:0:
246,54,221358,2,0,L|307:46,1,53.9999983520508,0|0,3:2|3:0,0:0:0:0:
375,56,221511,6,0,L|501:67,1,99.0000030212403,4|0,1:2|0:0,0:0:0:0:
256,224,221817,2,0,B|205:239|205:239|150:227,1,99.0000030212403,8|0,0:0|0:0,0:0:0:0:
69,273,222123,1,2,1:2:0:0:
202,148,222276,1,0,0:0:0:0:
260,358,222429,1,8,0:0:0:0:
202,148,222582,1,2,0:0:0:0:
324,28,222735,5,0,1:0:0:0:
401,160,222889,1,2,0:0:0:0:
233,257,223042,1,8,0:0:0:0:
310,125,223196,1,2,0:0:0:0:
351,323,223348,5,0,1:0:0:0:
114,197,223501,1,2,0:0:0:0:
310,125,223654,2,0,L|412:129,1,99.0000030212403,8|0,0:0|0:0,0:0:0:0:
435,293,223960,6,0,P|440:352|414:389,1,99.0000030212403,2|0,1:2|0:0,0:0:0:0:
77,91,224266,2,0,P|72:32|98:-5,1,99.0000030212403,10|0,0:0|0:0,0:0:0:0:
193,335,224572,2,0,P|144:342|101:320,1,99.0000030212403,2|0,1:2|0:2,0:2:0:0:
319,49,224878,2,0,P|367:41|410:63,1,99.0000030212403,8|0,0:2|0:2,0:2:0:0:
495,191,225184,5,4,1:2:0:0:
255,77,225337,1,2,0:0:0:0:
448,28,225491,5,4,1:2:0:0:
326,250,225644,1,2,0:0:0:0:
15,191,225797,5,4,1:2:0:0:
255,77,225950,1,2,0:0:0:0:
184,250,226104,5,4,1:2:0:0:
62,28,226256,1,2,0:2:0:0:
448,157,226409,2,0,P|462:213|437:275,1,99.0000030212403,6|0,1:2|0:0,0:0:0:0:
322,272,226715,5,8,0:0:0:0:
255,77,226868,1,0,0:0:0:0:
82,145,227021,2,0,P|68:201|93:263,1,99.0000030212403,2|0,1:2|0:0,0:0:0:0:
155,309,227327,5,8,2:0:0:0:
268,68,227480,1,0,2:0:0:0:
506,159,227633,2,0,P|508:207|487:252,1,99.0000030212403,2|0,1:2|2:0,2:0:0:0:
335,303,227940,1,8,0:0:0:0:
169,210,228093,5,2,0:0:0:0:
155,309,228246,1,0,1:0:0:0:
251,261,228399,2,0,L|240:162,1,99.0000030212403,2|8,0:0|0:0,0:0:0:0:
231,68,228705,1,0,0:0:0:0:
64,16,228858,5,4,1:2:0:0:
124,240,229011,1,2,0:2:0:0:
51,363,229164,5,4,1:2:0:0:
84,96,229317,1,2,0:0:0:0:
321,274,229470,5,4,1:2:0:0:
7,218,229623,1,2,0:0:0:0:
153,42,229776,5,4,1:2:0:0:
293,353,229929,1,2,0:0:0:0:
475,46,230082,5,4,1:2:0:0:
290,98,230235,1,2,0:0:0:0:
293,353,230389,5,4,1:2:0:0:
506,250,230542,1,2,0:0:0:0:
155,228,230695,5,4,1:2:0:0:
438,368,230848,1,2,0:0:0:0:
246,59,231001,5,4,1:2:0:0:
97,366,231154,1,2,0:0:0:0:
438,368,231307,6,0,P|448:320|433:274,1,99.0000030212403,4|2,1:2|0:0,0:0:0:0:
200,80,231613,2,0,P|203:128|232:168,1,99.0000030212403,8|2,1:2|0:0,0:0:0:0:
396,75,231919,2,0,P|435:46|484:42,1,99.0000030212403,8|2,1:2|0:0,0:0:0:0:
232,287,232225,2,0,P|183:283|143:254,1,99.0000030212403,8|2,1:2|0:0,0:0:0:0:
319,22,232531,6,0,P|303:68|314:115,1,99.0000030212403,4|2,1:2|0:0,0:0:0:0:
272,376,232837,2,0,P|307:341|319:294,1,99.0000030212403,8|2,1:2|0:0,0:0:0:0:
188,47,233144,2,0,P|140:33|93:46,1,99.0000030212403,8|2,1:2|0:0,0:0:0:0:
407,329,233450,2,0,P|454:317|488:282,1,99.0000030212403,8|2,1:2|0:0,0:0:0:0:
74,368,233756,6,0,P|63:320|78:274,1,99.0000030212403,4|2,1:2|0:0,0:0:0:0:
312,80,234062,2,0,P|308:128|279:168,1,99.0000030212403,8|2,1:2|0:0,0:0:0:0:
116,75,234368,2,0,P|76:46|27:42,1,99.0000030212403,8|2,1:2|0:0,0:0:0:0:
280,287,234674,2,0,P|328:283|368:254,1,99.0000030212403,8|2,1:2|0:0,0:0:0:0:
193,22,234980,6,0,P|208:68|197:115,1,99.0000030212403,4|2,1:2|0:0,0:0:0:0:
240,376,235286,2,0,P|204:341|192:294,1,99.0000030212403,8|2,1:2|0:0,0:0:0:0:
324,47,235593,2,0,P|371:33|418:46,1,99.0000030212403,8|2,1:2|0:0,0:0:0:0:
105,329,235899,2,0,P|57:317|23:282,1,99.0000030212403,8|2,1:2|0:0,0:0:0:0:
366,335,236205,6,0,P|413:324|459:339,1,99.0000030212403,4|2,1:2|0:0,0:0:0:0:
299,83,236511,2,0,P|265:47|256:0,1,99.0000030212403,8|2,1:2|0:0,0:0:0:0:
100,249,236817,2,0,P|85:295|48:327,1,99.0000030212403,8|2,1:2|0:0,0:0:0:0:
450,277,237123,2,0,P|403:292|356:280,1,99.0000030212403,8|2,1:2|0:0,3:0:0:0:
93,135,237429,6,0,P|104:87|87:41,1,99.0000030212403,4|2,1:2|0:0,0:0:0:0:
296,334,237735,2,0,P|248:348|217:386,1,99.0000030212403,8|2,1:2|0:0,0:0:0:0:
392,61,238042,2,0,P|428:94|476:102,1,99.0000030212403,8|2,2:2|2:0,2:0:0:0:
510,82,238271,1,0,3:3:0:0:
510,82,238348,1,0,3:3:0:0:
366,228,238501,1,2,0:0:0:0:
431,319,238654,6,0,B|362:263|362:263|268:290,1,180,4|0,1:0|0:0,0:0:0:0:
282,108,239572,6,0,P|288:154|276:179,1,49.5000015106202,0|0,1:0|0:0,0:0:0:0:
193,314,239725,6,0,P|157:208|222:144,1,198.000006042481,4|2,0:0|3:2,0:0:0:0:
360,212,240184,1,0,1:0:0:0:
262,268,240338,2,0,P|278:316|244:383,1,99.0000030212403,0|0,1:0|1:0,1:0:0:0:
128,307,240644,1,8,0:0:0:0:
89,298,240720,1,8,0:0:0:0:
49,292,240797,1,8,0:0:0:0:
360,212,240950,1,0,1:0:0:0:
386,380,241103,6,0,L|517:365,1,119.699995068512,4|0,1:2|0:0,0:0:0:0:
261,129,241409,2,0,L|136:119,1,119.699995068512,4|0,1:2|0:0,0:0:0:0:
216,36,241715,1,8,0:0:0:0:
157,200,241868,2,0,P|79:220|21:131,1,179.549992602768,8|0,0:0|0:0,0:0:0:0:
33,317,242174,6,0,P|96:330|150:229,1,179.549992602768,4|0,1:2|0:0,0:0:0:0:
157,200,242481,1,0,3:0:0:0:
155,244,242557,1,0,3:0:0:0:
182,280,242634,1,0,3:0:0:0:
225,291,242710,1,0,0:0:0:0:
268,278,242787,1,0,3:0:0:0:
326,172,242940,1,8,0:0:0:0:
96,79,243093,6,0,P|8:107|87:34,1,239.399990137024,4|0,1:2|0:0,0:0:0:0:
96,79,243552,6,0,L|83:211,1,119.699995068512,4|0,1:2|0:0,0:0:0:0:
405,376,243858,2,0,P|412:313|390:246,1,119.699995068512,4|0,1:2|0:0,0:0:0:0:
314,109,244164,1,8,0:0:0:0:
279,383,244317,2,0,P|263:325|268:266,1,119.699995068512,8|0,1:2|0:0,0:0:0:0:
451,152,244623,5,6,1:2:0:0:
290,237,244776,1,0,0:0:0:0:
451,152,244929,5,6,1:2:0:0:
253,68,245083,1,0,0:0:0:0:
403,223,245236,6,0,P|457:237|531:183,1,119.699995068512,6|0,1:2|0:0,0:0:0:0:
478,78,245542,1,0,3:0:0:0:
437,59,245618,1,0,3:0:0:0:
391,60,245695,1,8,3:2:0:0:
354,85,245771,1,8,3:2:0:0:
334,125,245848,1,8,3:2:0:0:
400,338,246001,6,0,B|417:290|417:290|401:214,1,119.699995068512,4|0,1:2|0:0,0:0:0:0:
159,0,246307,2,0,L|176:158,1,119.699995068512,4|0,1:2|0:0,0:0:0:0:
184,334,246613,1,8,0:0:0:0:
112,177,246766,2,0,P|192:168|240:234,1,119.699995068512,8|0,3:0|3:0,3:0:0:0:
340,281,247072,6,0,P|227:227|186:338,1,270.000010299683,4|0,1:2|1:0,0:0:0:0:
297,178,247532,2,0,P|310:117|285:65,1,119.699995068512,4|0,1:2|0:0,0:0:0:0:
159,12,247838,1,4,1:2:0:0:
297,251,247991,1,0,3:0:0:0:
340,242,248067,1,0,3:0:0:0:
368,207,248144,1,0,3:0:0:0:
163,95,248297,6,0,P|82:109|95:209,1,179.549992602768,4|0,1:2|0:0,0:0:0:0:
90,200,248603,5,2,3:2:0:0:
168,172,248756,1,0,0:0:0:0:
158,67,248909,5,2,3:2:0:0:
169,260,249062,1,0,1:0:0:0:
179,280,249139,1,0,1:0:0:0:
188,300,249215,5,0,3:0:0:0:
384,338,249368,1,0,1:0:0:0:
492,162,249521,5,2,3:2:0:0:
343,235,249674,1,0,1:0:0:0:
461,343,249827,6,0,P|501:255|424:159,1,179.549992602768,4|0,1:2|0:0,0:0:0:0:
421,178,250133,1,8,1:2:0:0:
341,119,250286,6,0,L|350:-8,1,119.699995068512,12|0,1:2|0:0,0:0:0:0:
