osu file format v14

[General]
AudioFilename: audio.mp3
AudioLeadIn: 0
PreviewTime: 84368
Countdown: 0
SampleSet: Soft
StackLeniency: 0.5
Mode: 0
LetterboxInBreaks: 0
WidescreenStoryboard: 1

[Editor]
Bookmarks: 35388,46409,67225,84368,103960,113756,123552,144368,156613,161511,181103,190899,211715,221511,231307,241103
DistanceSpacing: 0.9
BeatDivisor: 4
GridSize: 32
TimelineZoom: 3.199999

[Metadata]
Title:Chocolate Smile
TitleUnicode:チョコレートスマイル
Artist:Hinatabi Bitter Sweets & Coconatsu
ArtistUnicode:日向美ビタースイーツ♪ & ここなつ
Creator:Hakurei Yoru
Version:AncuL's Insane
Source:pop'n music ラピストリア
Tags:japanese pop jpop j-pop video game nostalgia Misure Ancul Otosaka-Yu Bemani CUTEG ひなビタ hinabita 山形 まり花 日高里菜 和泉 一舞 津田美波 春日 咲子 山口愛 芽兎 めう 五十嵐裕美 霜月 凛 水原薫 東雲 夏陽 日南結里 東雲 心菜 小澤亜李 Marika Yamagata Rina Hidaka Sakiko Kasuga Megumi Yamaguchi Ibuki Izumi Minami Tsuda Meu Meu Hiromi Igarashi Rin Shimotsuki Kaoru Mizuhara Natsuhi Shinonome Yuri Hinami Cocona Shinonome Ari Ozawa Kokona ノスタルジア FORTE GITADORA DanceDanceRevolution jubeat prop REFLEC BEAT groovin'!! Upper DanceEvolution ARCADE BeatStream
BeatmapID:2278169
BeatmapSetID:648659

[Difficulty]
HPDrainRate:6
CircleSize:4
OverallDifficulty:8
ApproachRate:9
SliderMultiplier:1.6
SliderTickRate:1

[Events]
//Background and Video events
0,0,"bg.jpg",0,0
//Break Periods
2,191099,195197
//Storyboard Layer 0 (Background)
//Storyboard Layer 1 (Fail)
//Storyboard Layer 2 (Pass)
//Storyboard Layer 3 (Foreground)
//Storyboard Layer 4 (Overlay)
//Storyboard Sound Samples

[TimingPoints]
35389,306.122448979592,4,2,1,15,1,0
35695,-100,4,2,1,25,0,0
36001,-100,4,2,1,35,0,0
36307,-100,4,2,1,45,0,0
36613,-100,4,2,1,55,0,0
41052,-100,4,2,1,55,0,0
41205,-100,4,2,1,55,0,0
42582,-100,4,2,1,55,0,0
43042,-100,4,2,1,55,0,0
43807,-100,4,2,1,55,0,0
44113,-100,4,2,1,55,0,0
44419,-100,4,2,1,55,0,0
45031,-153.846153846154,4,2,1,55,0,0
46409,-100,4,2,1,55,0,0
60184,-76.9230769230769,4,2,1,55,0,0
60491,-100,4,2,1,55,0,0
60797,-76.9230769230769,4,2,1,55,0,0
61103,-100,4,2,1,55,0,0
65848,-100,4,2,1,55,0,0
66690,-100,4,2,1,35,0,0
66919,-100,4,2,1,25,0,0
67225,-117.647058823529,4,2,1,65,0,0
79470,-100,4,2,1,65,0,0
80235,-100,4,2,1,65,0,0
80695,-100,4,2,1,65,0,0
81460,-100,4,2,1,65,0,0
81766,-100,4,2,1,65,0,0
83909,-100,4,2,1,35,0,0
84368,-86.9565217391304,4,2,1,85,0,1
103960,-100,4,2,1,75,0,0
111307,-133.333333333333,4,2,1,75,0,0
113450,-100,4,2,1,75,0,0
113756,-100,4,2,1,55,0,0
121562,-100,4,2,1,55,0,0
122174,-153.846153846154,4,2,1,55,0,0
123552,-100,4,2,1,55,0,0
137327,-76.9230769230769,4,2,1,55,0,0
137633,-100,4,2,1,55,0,0
137940,-76.9230769230769,4,2,1,55,0,0
138246,-100,4,2,1,55,0,0
142991,-100,4,2,1,55,0,0
143756,-100,4,2,1,35,0,0
144062,-100,4,2,1,25,0,0
144368,-117.647058823529,4,2,1,55,0,0
156613,-100,4,2,1,55,0,0
157378,-100,4,2,1,55,0,0
157837,-100,4,2,1,55,0,0
158603,-100,4,2,1,55,0,0
158909,-100,4,2,1,55,0,0
161511,-86.9565217391304,4,2,1,85,0,1
181103,-100,4,2,1,65,0,0
188450,-133.333333333333,4,2,1,65,0,0
188756,-100,4,2,1,5,0,0
189368,-133.333333333333,4,2,1,65,0,0
190133,-100,4,2,1,65,0,0
191511,-100,4,2,1,45,0,0
211715,-153.846153846153,4,2,1,55,0,0
219062,-100,4,2,1,35,0,0
219674,-100,4,2,1,65,0,0
220746,-100,4,2,1,45,0,0
221511,-76.9230769230769,4,2,1,85,0,1
222123,-83.3333333333333,4,2,1,85,0,1
238960,-133.333333333333,4,2,1,5,0,0
239572,-100,4,2,1,35,0,0
239725,-100,4,2,1,75,0,0
240337,-100,4,2,1,75,0,0
241103,-86.9565217391304,4,2,1,75,0,1
248603,-100,4,2,1,55,0,0
249827,-117.647058823529,4,2,1,75,0,0
250440,-100,4,2,1,5,0,0

[Colours]
Combo1 : 255,176,216
Combo2 : 188,120,120
Combo3 : 128,128,255
Combo4 : 255,210,74

[HitObjects]
167,284,35388,6,0,P|154:268|145:249,3,40,0|0|0|0,0:0|0:0|0:0|0:0,0:0:0:0:
225,224,35695,2,0,P|232:204|244:187,3,40,2|0|0|0,0:0|0:0|0:0|0:0,0:0:0:0:
161,174,36001,2,0,L|122:163,3,40,2|0|0|0,0:0|0:0|0:0|0:0,0:0:0:0:
68,223,36307,1,2,0:0:0:0:
68,223,36383,1,0,0:0:0:0:
68,223,36460,1,2,0:0:0:0:
68,223,36536,1,0,0:0:0:0:
68,223,36613,6,0,P|41:194|37:150,1,80,4|0,1:2|0:0,0:0:0:0:
157,16,36919,2,0,P|183:44|187:88,1,80,4|0,1:2|0:0,0:0:0:0:
122,163,37225,1,8,0:0:0:0:
26,66,37378,2,0,L|104:81,1,80,8|0,0:0|0:0,0:0:0:0:
271,109,37684,1,4,1:2:0:0:
405,39,37991,5,0,3:0:0:0:
405,39,38067,1,0,3:0:0:0:
405,39,38144,2,0,L|412:-4,3,40,0|0|0|0,3:0|0:0|3:0|0:0,0:0:0:0:
393,115,38450,1,8,0:0:0:0:
512,98,38603,6,0,B|464:74|413:126|434:132|393:174|332:152,1,200,4|0,1:2|0:0,0:0:0:0:
335,153,39062,6,0,P|299:138|251:144,1,80,4|0,1:2|0:0,0:0:0:0:
177,296,39368,2,0,P|212:310|260:304,1,80,4|0,1:2|0:0,0:0:0:0:
325,245,39674,1,8,0:0:0:0:
230,229,39827,1,8,0:0:0:0:
230,229,39904,1,0,0:0:0:0:
230,229,39980,1,0,0:0:0:0:
335,341,40133,6,0,P|349:295|371:260,1,80,4|0,1:2|0:0,0:0:0:0:
509,356,40440,1,4,1:2:0:0:
427,331,40593,1,0,0:0:0:0:
489,272,40746,1,4,1:2:0:0:
489,272,41052,5,8,3:0:0:0:
359,380,41205,2,0,L|316:371,2,40,8|0|0,3:0|0:0|0:0,0:0:0:0:
427,331,41511,6,0,P|397:306|378:266,1,80,4|0,1:2|0:0,0:0:0:0:
206,366,41817,2,0,P|236:341|255:301,1,80,4|0,1:2|0:0,0:0:0:0:
255,162,42123,1,8,0:0:0:0:
404,191,42276,2,0,L|322:204,1,80,8|0,0:0|0:0,0:0:0:0:
123,259,42582,6,0,P|191:295|216:370,1,160,4|0,1:2|0:0,0:0:0:0:
20,370,43042,2,0,P|56:342|96:340,1,80,4|0,1:2|0:0,0:0:0:0:
218,374,43348,1,8,1:2:0:0:
101,350,43501,1,0,3:0:0:0:
101,350,43577,1,0,3:0:0:0:
101,350,43654,1,0,3:0:0:0:
273,317,43807,1,4,0:0:0:0:
273,317,44113,5,2,3:2:0:0:
322,257,44266,5,0,0:0:0:0:
301,183,44419,5,2,3:2:0:0:
229,155,44572,5,0,1:0:0:0:
157,201,44725,5,0,3:0:0:0:
63,203,44878,5,0,1:0:0:0:
6,134,45031,6,0,L|-1:81,1,51.999997619629,2|0,3:2|1:0,0:0:0:0:
190,13,45337,5,4,1:2:0:0:
237,174,45644,5,8,0:0:0:0:
188,11,45797,2,0,B|172:64|213:100|218:81|256:118|237:174,1,181.999991668702,8|0,0:0|0:0,0:0:0:0:
237,174,46409,6,0,P|203:157|150:163,1,80,4|0,1:0|0:0,0:0:0:0:
264,27,46715,2,0,P|298:44|351:38,1,80,0|0,1:0|0:0,0:0:0:0:
423,4,47021,2,0,L|442:84,1,80,0|0,3:0|3:0,0:0:0:0:
408,206,47327,1,0,1:0:0:0:
343,150,47480,2,0,P|395:121|485:243,1,240,2|0,0:0|1:0,0:0:0:0:
487,236,48246,1,0,3:0:0:0:
408,206,48399,1,0,3:0:0:0:
371,280,48552,2,0,P|381:319|385:362,1,80,0|0,1:0|0:0,0:0:0:0:
266,238,48858,6,0,P|306:202|409:207,2,160,2|0|0,3:2|1:0|3:0,0:0:0:0:
180,285,49623,1,0,3:0:0:0:
117,222,49776,2,0,P|79:210|35:207,1,80,0|0,1:0|0:0,0:0:0:0:
50,367,50082,6,0,P|98:364|116:335,1,80,2|0,3:2|0:0,0:0:0:0:
39,206,50388,2,0,L|50:295,1,80,0|0,1:0|0:0,0:0:0:0:
207,207,50695,6,0,P|181:178|143:181,1,80,2|0,3:2|3:0,0:0:0:0:
132,342,51001,2,0,L|143:253,1,80,0|0,1:0|0:0,0:0:0:0:
137,166,51307,6,0,P|85:152|30:106,1,120,2|0,3:2|0:0,0:0:0:0:
20,121,51613,2,0,P|10:90|38:46,1,80,0|0,1:0|0:0,0:0:0:0:
207,0,51919,2,0,P|217:31|189:75,1,80,0|0,3:0|0:0,0:0:0:0:
119,37,52225,1,0,1:0:0:0:
232,164,52378,6,0,P|286:144|343:49,1,160,2|0,0:0|0:0,0:0:0:0:
463,35,52837,2,0,P|473:74|499:107,1,80,0|0,1:0|0:0,0:0:0:0:
399,145,53144,1,0,3:0:0:0:
341,61,53297,2,0,L|258:50,1,80,0|0,3:0|1:0,0:0:0:0:
173,238,53603,6,0,P|142:205|240:148,1,200,2|0,0:0|0:0,0:0:0:0:
239,156,54062,2,0,P|277:158|319:138,1,80,0|0,1:0|0:0,0:0:0:0:
343,303,54368,2,0,P|326:267|287:242,1,80,2|0,3:2|3:0,0:0:0:0:
419,140,54674,2,0,P|396:172|394:218,1,80,0|0,1:0|0:0,0:0:0:0:
257,324,54980,6,0,L|129:304,1,120,0|0,1:0|0:0,0:0:0:0:
121,309,55286,2,0,P|106:349|136:380,1,80,0|0,1:0|0:0,0:0:0:0:
255,239,55593,1,0,1:0:0:0:
154,215,55746,1,0,0:0:0:0:
211,124,55899,1,0,1:0:0:0:
220,123,55975,1,0,3:0:0:0:
230,122,56052,1,0,3:0:0:0:
240,121,56128,1,0,3:0:0:0:
250,120,56205,6,0,B|317:127|286:171|358:177,1,120,4|0,3:2|0:0,0:0:0:0:
357,181,56511,2,0,P|383:151|422:133,1,80,0|0,1:0|0:0,0:0:0:0:
493,243,56817,2,0,P|467:273|428:291,1,80,0|0,3:0|3:0,0:0:0:0:
317,334,57123,1,0,1:0:0:0:
387,372,57276,2,0,P|360:265|252:282,1,240,2|0,0:0|1:0,0:0:0:0:
252,282,58042,1,0,3:0:0:0:
317,334,58195,1,0,3:0:0:0:
371,271,58348,2,0,P|381:213|393:187,1,80,0|0,1:0|0:0,0:0:0:0:
221,154,58654,6,0,P|256:187|286:191,1,80,2|0,3:2|0:0,0:0:0:0:
417,93,58960,2,0,P|382:60|352:56,1,80,0|0,1:0|0:0,0:0:0:0:
265,76,59266,2,0,P|240:22|222:0,1,80,2|0,3:2|0:0,0:0:0:0:
102,118,59572,1,0,1:0:0:0:
47,43,59725,2,0,P|123:33|182:84,1,160,2|0,0:0|0:0,0:0:0:0:
136,212,60184,6,0,B|115:229|115:229|21:208,1,103.999995239258,4|0,1:2|0:0,0:0:0:0:
249,358,60491,6,0,P|225:327|212:234,1,120,0|0,1:0|0:0,0:0:0:0:
223,248,60797,6,0,B|244:265|244:265|338:244,1,103.999995239258,4|0,1:2|0:0,0:0:0:0:
507,222,61103,6,0,P|453:228|418:287,1,120,0|0,1:0|0:0,0:0:0:0:
413,309,61409,2,0,L|289:337,1,120,2|0,1:2|0:0,0:0:0:0:
283,360,61715,2,0,P|253:340|206:338,1,80,0|0,3:0|3:0,0:0:0:0:
4,322,62021,1,0,1:0:0:0:
78,366,62174,6,0,B|127:339|127:339|110:219,1,160,2|0,0:0|0:0,0:0:0:0:
79,159,62633,2,0,P|49:167|32:211,1,80,0|0,1:0|0:0,0:0:0:0:
187,278,62940,1,0,3:0:0:0:
78,307,63093,2,0,P|89:271|118:230,1,80,0|0,3:0|1:0,0:0:0:0:
240,192,63399,1,0,0:0:0:0:
154,73,63552,5,2,3:2:0:0:
154,73,63705,1,0,0:0:0:0:
154,73,63858,2,0,P|115:88|66:82,1,80,0|0,1:0|0:0,0:0:0:0:
195,258,64164,2,0,P|227:284|246:329,1,80,2|0,3:2|3:0,0:0:0:0:
335,130,64470,2,0,P|341:88|371:49,1,80,0|0,1:0|0:0,0:0:0:0:
226,0,64776,5,6,1:2:0:0:
244,148,64929,1,0,0:0:0:0:
99,65,65082,2,0,L|177:81,1,80,6|0,1:2|0:0,0:0:0:0:
385,206,65388,2,0,L|306:222,1,80,6|0,1:2|2:0,0:0:0:0:
143,300,65695,2,0,P|132:258|111:222,2,80,6|0|0,1:2|1:0|0:0,0:0:0:0:
228,338,66154,5,4,1:2:0:0:
267,202,66307,1,0,1:2:0:0:
401,243,66460,1,4,1:2:0:0:
361,377,66613,1,0,1:0:0:0:
314,289,66766,6,0,B|355:258|367:209|367:209|397:250|452:262,1,200,8|2,0:0|0:0,0:0:0:0:
455,274,67225,6,0,P|388:257|312:243,1,136.000002593994,4|8,3:2|3:2,0:0:0:0:
227,230,67684,1,8,3:2:0:0:
227,229,67837,2,0,P|193:233|161:245,2,68.0000012969971,0|0|0,3:2|3:2|3:2,0:0:0:0:
293,165,68297,2,0,P|272:138|245:116,1,68.0000012969971,0|0,3:2|0:0,0:0:0:0:
363,0,68603,1,0,3:2:0:0:
308,63,68756,1,0,3:2:0:0:
383,107,68909,2,0,L|456:98,1,68.0000012969971,0|0,3:2|0:0,0:0:0:0:
508,160,69215,5,8,3:2:0:0:
363,0,69368,1,8,3:2:0:0:
195,145,69674,6,0,P|136:137|75:84,1,136.000002593994,0|8,3:2|3:2,0:0:0:0:
123,13,70133,1,8,3:2:0:0:
29,31,70286,1,0,3:2:0:0:
29,31,70440,2,0,P|-1:63|0:89,1,68.0000012969971,0|2,3:2|3:2,0:0:0:0:
43,181,70746,2,0,L|115:172,1,68.0000012969971,0|0,3:2|0:0,0:0:0:0:
173,350,71052,6,0,P|141:322|110:313,1,68.0000012969971,6|0,3:2|3:2,0:0:0:0:
298,294,71358,2,0,P|289:335|297:367,1,68.0000012969971,6|0,3:2|3:2,0:0:0:0:
188,214,71664,2,0,B|246:213|272:146|272:146|252:171|226:175,1,170.000003242493,10|0,3:2|3:2,0:0:0:0:
227,174,72123,6,0,P|264:218|295:296,1,136.000002593994,4|8,3:2|3:2,0:0:0:0:
224,368,72582,1,8,3:2:0:0:
131,278,72735,1,0,3:2:0:0:
131,278,72888,2,0,L|199:289,1,68.0000012969971,0|2,3:2|3:2,0:0:0:0:
334,375,73195,6,0,P|373:347|397:341,1,68.0000012969971,0|0,3:2|0:0,0:0:0:0:
512,287,73501,2,0,P|480:275|454:253,1,68.0000012969971,8|0,3:2|3:2,0:0:0:0:
328,188,73807,2,0,L|346:260,1,68.0000012969971,0|0,3:2|3:2,0:0:0:0:
391,341,74113,5,8,3:2:0:0:
418,152,74266,1,8,3:2:0:0:
313,376,74572,6,0,P|280:352|262:321,1,68.0000012969971,0|0,3:2|3:2,0:0:0:0:
116,343,74878,2,0,P|154:328|179:303,1,68.0000012969971,8|8,3:2|3:2,0:0:0:0:
270,232,75184,1,0,3:2:0:0:
180,185,75337,1,0,3:2:0:0:
110,248,75491,1,0,3:2:0:0:
12,208,75644,2,0,B|-15:166|26:111|97:117|132:189|115:263|52:265|21:305|35:366,1,340.000006484985,2|0,0:0|0:0,0:0:0:0:
126,339,76562,5,8,3:2:0:0:
10,215,76715,1,8,3:2:0:0:
209,240,77021,6,0,P|166:221|86:252,1,136.000002593994,4|0,3:2|0:0,0:0:0:0:
43,341,77480,1,2,3:2:0:0:
177,370,77633,1,2,3:2:0:0:
177,370,77786,2,0,P|169:329|155:305,1,68.0000012969971,0|0,3:2|3:2,0:0:0:0:
22,240,78093,2,0,P|52:253|86:251,1,68.0000012969971,2|0,3:2|3:2,0:0:0:0:
131,107,78399,2,0,P|134:140|153:168,1,68.0000012969971,2|0,3:2|3:2,0:0:0:0:
300,134,78705,2,0,P|272:154|258:184,1,68.0000012969971,2|2,3:2|3:2,0:0:0:0:
201,275,79011,1,0,3:2:0:0:
342,202,79164,1,10,3:2:0:0:
222,81,79317,1,8,3:2:0:0:
51,168,79470,6,0,P|90:171|129:182,1,80,4|0,1:2|0:0,0:0:0:0:
78,35,79776,2,0,P|38:31|-1:20,1,80,0|0,1:2|0:0,0:0:0:0:
179,96,80082,1,4,1:2:0:0:
264,0,80235,2,0,P|298:31|301:63,1,80,8|0,1:2|0:0,0:0:0:0:
237,209,80542,1,8,0:0:0:0:
328,173,80695,6,0,P|367:191|410:198,1,80,4|0,1:2|0:0,0:0:0:0:
507,63,81001,2,0,P|467:70|431:87,1,80,0|0,1:0|0:0,0:0:0:0:
403,197,81307,1,4,1:2:0:0:
512,284,81460,2,0,P|515:239|490:211,1,80,8|0,1:2|0:0,0:0:0:0:
420,359,81766,6,0,P|364:303|286:289,1,160,4|2,1:2|3:2,0:0:0:0:
101,347,82225,1,8,1:2:0:0:
215,384,82378,1,8,1:2:0:0:
215,190,82531,1,8,1:2:0:0:
101,227,82684,2,0,P|61:212|32:183,1,80,8|8,1:2|1:2,0:0:0:0:
221,184,82991,1,8,1:2:0:0:
0,280,83756,5,2,0:0:0:0:
125,236,83909,1,0,3:2:0:0:
125,236,83985,1,0,3:2:0:0:
125,236,84062,2,0,L|117:290,1,40,8|8,3:2|3:2,0:0:0:0:
71,349,84215,1,8,3:2:0:0:
71,349,84291,1,8,3:2:0:0:
71,349,84368,6,0,P|112:325|180:387,1,138.000002632141,4|0,1:2|0:0,0:0:0:0:
186,378,84674,2,0,P|228:376|272:336,1,92.0000017547608,8|0,0:0|0:0,0:0:0:0:
412,240,84980,2,0,P|457:243|492:271,1,92.0000017547608,2|0,1:2|0:0,0:0:0:0:
337,283,85286,1,8,0:0:0:0:
422,363,85440,2,0,P|456:222|512:104,1,276.000005264282,2|8,0:0|0:0,0:0:0:0:
423,15,86052,1,2,0:0:0:0:
354,104,86205,1,0,1:0:0:0:
268,20,86358,2,0,P|223:9|169:8,1,92.0000017547608,2|8,0:0|0:0,0:0:0:0:
122,139,86664,1,0,1:0:0:0:
43,92,86817,6,0,P|31:49|4:8,1,92.0000017547608,2|0,1:2|0:0,0:0:0:0:
242,112,87123,2,0,P|216:150|204:194,1,92.0000017547608,10|0,0:0|0:0,0:0:0:0:
36,197,87429,2,0,P|75:220|105:254,1,92.0000017547608,2|0,1:2|0:0,0:0:0:0:
199,351,87735,1,10,0:0:0:0:
313,261,87888,1,0,0:0:0:0:
468,303,88042,6,0,P|431:332|378:337,1,92.0000017547608,4|2,1:2|0:0,0:0:0:0:
313,261,88348,2,0,L|323:170,1,92.0000017547608,12|2,1:2|0:0,0:0:0:0:
96,139,88654,2,0,P|133:168|186:173,1,92.0000017547608,4|2,1:2|0:0,0:0:0:0:
251,97,88960,2,0,L|241:6,1,92.0000017547608,12|2,1:2|0:0,0:0:0:0:
411,27,89266,6,0,B|304:40|358:97|253:108,1,184.000003509522,4|8,1:2|0:0,0:0:0:0:
156,47,89725,1,0,0:0:0:0:
84,147,89878,2,0,P|45:120|-1:117,1,92.0000017547608,2|0,1:2|0:0,0:0:0:0:
181,207,90184,1,8,0:0:0:0:
96,283,90337,1,0,0:0:0:0:
15,212,90491,6,0,P|53:270|88:380,1,184.000003509522,2|8,1:2|0:0,0:0:0:0:
301,338,90950,1,2,0:0:0:0:
204,283,91103,1,0,1:2:0:0:
184,384,91256,2,0,P|203:349|215:294,1,92.0000017547608,2|8,0:0|0:0,0:0:0:0:
315,195,91562,1,0,0:0:0:0:
382,263,91715,6,0,P|424:273|471:307,1,92.0000017547608,4|0,1:2|0:0,0:0:0:0:
229,143,92021,2,0,P|191:168|146:179,1,92.0000017547608,12|0,1:2|0:0,0:0:0:0:
337,98,92327,1,0,3:0:0:0:
409,178,92480,1,0,3:0:0:0:
499,110,92633,2,0,L|515:56,2,46.0000008773804,8|0|0,1:2|1:0|1:0,0:0:0:0:
403,190,92940,5,4,1:0:0:0:
264,63,93093,2,0,P|303:24|341:20,1,92.0000017547608,8|0,0:0|1:0,0:0:0:0:
491,118,93399,1,8,0:0:0:0:
307,360,93705,6,0,L|294:303,1,46.0000008773804,0|0,1:0|1:0,0:0:0:0:
280,233,93858,1,0,3:0:0:0:
268,229,93934,1,0,3:0:0:0:
258,225,94011,1,0,3:0:0:0:
248,220,94087,1,0,3:0:0:0:
238,214,94164,6,0,B|162:205|178:249|101:243,1,138.000002632141,4|0,1:2|0:0,0:0:0:0:
92,235,94470,2,0,P|72:201|90:150,1,92.0000017547608,8|0,0:0|0:0,0:0:0:0:
242,40,94776,2,0,P|262:74|244:125,1,92.0000017547608,2|0,1:2|0:0,0:0:0:0:
13,62,95082,1,8,0:0:0:0:
102,1,95235,1,2,0:0:0:0:
174,85,95388,2,0,P|239:94|339:25,1,184.000003509522,0|8,1:0|0:0,0:0:0:0:
400,150,95848,1,2,0:0:0:0:
333,23,96001,1,0,1:0:0:0:
509,82,96154,2,0,P|461:76|418:59,1,92.0000017547608,2|8,0:0|0:0,0:0:0:0:
243,232,96460,6,0,P|305:170|388:196,1,184.000003509522,0|0,1:0|0:0,0:0:0:0:
512,254,96919,2,0,P|478:280|459:333,1,92.0000017547608,10|0,0:0|0:0,0:0:0:0:
313,330,97225,2,0,P|352:346|384:392,1,92.0000017547608,2|0,1:2|0:0,0:0:0:0:
380,228,97531,2,0,P|385:182|412:146,1,92.0000017547608,10|0,0:0|0:0,0:0:0:0:
219,63,97837,6,0,P|246:97|234:140,1,92.0000017547608,4|2,1:2|0:0,0:0:0:0:
164,213,98144,2,0,L|72:200,1,92.0000017547608,12|2,1:2|0:0,0:0:0:0:
20,339,98450,2,0,P|-7:305|5:262,1,92.0000017547608,4|2,1:2|0:0,0:0:0:0:
75,189,98757,2,0,L|167:202,1,92.0000017547608,12|0,1:2|0:0,0:0:0:0:
0,35,99062,6,0,P|31:82|163:78,1,184.000003509522,2|8,1:2|0:0,0:0:0:0:
275,37,99521,1,0,0:0:0:0:
347,136,99674,2,0,P|346:181|322:220,1,92.0000017547608,2|0,1:2|0:0,0:0:0:0:
215,373,99980,1,8,0:0:0:0:
179,276,100133,1,0,0:0:0:0:
288,339,100286,6,0,P|200:316|93:306,1,184.000003509522,2|8,1:2|0:0,0:0:0:0:
12,129,100746,1,2,0:0:0:0:
76,209,100899,1,0,1:0:0:0:
156,144,101052,2,0,P|178:95|207:58,1,92.0000017547608,2|8,0:0|0:0,0:0:0:0:
399,41,101358,1,0,0:0:0:0:
298,112,101511,6,0,P|288:163|297:204,1,92.0000017547608,4|0,1:2|0:0,0:0:0:0:
464,345,101817,2,0,P|474:294|465:253,1,92.0000017547608,12|0,1:2|0:0,0:0:0:0:
346,284,102123,2,0,P|293:290|254:320,1,92.0000017547608,2|0,1:2|0:0,0:0:0:0:
416,173,102429,2,0,P|469:167|508:137,1,92.0000017547608,10|0,0:0|0:0,0:0:0:0:
322,27,102735,6,0,P|310:97|213:80,1,184.000003509522,4|12,1:2|1:2,0:0:0:0:
95,12,103195,2,0,P|56:42|40:81,1,92.0000017547608,0|4,0:2|1:2,0:0:0:0:
57,235,103501,1,0,0:0:0:0:
168,188,103654,1,12,1:2:0:0:
72,153,103807,1,0,0:0:0:0:
208,262,103960,6,0,P|202:299|190:345,1,80,4|2,1:2|0:0,0:0:0:0:
347,367,104266,2,0,P|314:293|295:216,1,160,0|0,1:0|1:0,0:0:0:0:
247,63,104725,1,2,0:0:0:0:
358,129,104878,1,0,1:0:0:0:
211,189,105031,1,2,0:0:0:0:
125,144,105184,6,0,P|79:163|31:167,1,80,0|2,1:0|0:0,0:0:0:0:
124,339,105491,2,0,P|170:320|283:333,1,160,0|0,1:0|1:0,0:0:0:0:
420,281,105950,1,2,0:0:0:0:
455,378,106103,1,0,1:0:0:0:
283,336,106256,1,2,0:0:0:0:
335,234,106409,6,0,P|325:195|309:157,1,80,0|2,1:0|0:0,0:0:0:0:
502,55,106715,2,0,P|460:123|433:198,1,160,0|0,1:0|1:0,0:0:0:0:
279,77,107174,1,2,0:0:0:0:
380,31,107327,1,0,1:0:0:0:
188,1,107480,1,2,0:0:0:0:
280,85,107633,6,0,P|257:131|229:138,1,80,0|2,1:0|0:0,0:0:0:0:
59,72,107940,2,0,P|110:69|147:86,1,80,0|2,1:0|0:0,0:0:0:0:
125,285,108246,2,0,P|74:288|37:271,1,80,0|2,1:0|0:0,0:0:0:0:
91,180,108552,1,0,1:0:0:0:
210,268,108705,1,2,0:0:0:0:
107,363,108858,6,0,L|126:279,1,80,4|2,1:2|0:0,0:0:0:0:
228,111,109164,2,0,L|245:199,1,80,0|2,1:0|0:0,0:0:0:0:
315,90,109470,2,0,L|332:178,1,80,0|2,1:0|0:0,0:0:0:0:
430,286,109776,1,0,1:0:0:0:
304,247,109929,1,2,0:0:0:0:
473,121,110082,6,0,P|463:167|436:196,1,80,0|2,1:0|0:0,0:0:0:0:
287,362,110388,2,0,P|246:342|200:341,1,80,0|2,1:0|0:0,0:0:0:0:
363,325,110695,1,0,1:0:0:0:
213,260,110848,2,0,L|195:209,1,40,2|0,0:0|0:0,0:0:0:0:
235,190,111001,2,0,L|212:274,1,80,0|2,1:0|0:0,0:0:0:0:
78,140,111307,6,0,P|129:161|244:-3,1,300.000011444092,4|0,3:2|0:0,0:0:0:0:
448,75,112225,1,0,3:0:0:0:
356,34,112378,6,0,P|350:83|357:154,1,120.000004577637,4|0,1:2|0:0,0:0:0:0:
387,292,112837,1,0,1:0:0:0:
448,198,112991,1,0,1:0:0:0:
299,242,113297,1,8,0:0:0:0:
299,242,113373,1,8,0:0:0:0:
299,242,113450,2,0,L|212:228,1,80,8|0,0:0|1:0,0:0:0:0:
98,97,113756,6,0,P|135:110|158:141,1,80,4|0,1:2|0:0,0:0:0:0:
67,265,114062,2,0,P|29:251|6:220,1,80,4|0,1:2|0:0,0:0:0:0:
85,184,114368,1,8,0:0:0:0:
153,289,114521,2,0,L|135:375,1,80,8|0,0:0|0:0,0:0:0:0:
179,204,114827,1,4,1:2:0:0:
297,341,115133,5,0,3:0:0:0:
297,341,115210,1,0,3:0:0:0:
297,341,115286,2,0,L|305:384,3,40,0|0|0|0,3:0|0:0|3:0|0:0,0:0:0:0:
279,260,115593,1,8,3:2:0:0:
313,384,115746,6,0,B|341:338|293:282|285:303|247:258|274:199,1,200,4|0,1:2|0:0,0:0:0:0:
274,201,116205,2,0,P|302:227|348:233,1,80,4|0,1:2|0:0,0:0:0:0:
476,130,116511,2,0,P|448:104|402:98,1,80,4|0,1:2|0:0,0:0:0:0:
339,154,116817,1,0,3:0:0:0:
285,69,116970,1,8,3:2:0:0:
285,69,117047,1,8,3:2:0:0:
285,69,117123,1,8,3:2:0:0:
162,143,117276,6,0,L|147:224,1,80,4|0,1:2|0:0,0:0:0:0:
120,362,117582,1,4,1:2:0:0:
89,282,117735,1,0,0:0:0:0:
124,373,117888,1,0,1:0:0:0:
13,324,118195,5,8,0:0:0:0:
177,298,118348,2,0,L|224:308,2,40,8|0|0,3:2|3:0|3:0,0:0:0:0:
123,200,118654,6,0,P|109:236|83:266,1,80,4|0,1:2|0:0,0:0:0:0:
235,150,118960,2,0,P|249:186|275:216,1,80,4|0,1:2|0:0,0:0:0:0:
308,369,119266,1,8,0:0:0:0:
412,296,119419,2,0,L|319:284,1,80,8|0,0:0|0:0,0:0:0:0:
177,278,119725,6,0,P|148:213|158:125,1,160,4|0,1:2|0:0,0:0:0:0:
292,10,120184,2,0,P|318:40|316:83,1,80,4|0,1:2|0:0,0:0:0:0:
157,126,120491,1,0,1:0:0:0:
81,27,120644,1,8,0:0:0:0:
81,27,120720,1,8,0:0:0:0:
81,27,120797,1,8,0:0:0:0:
239,73,120950,5,4,1:2:0:0:
239,73,121256,5,2,3:2:0:0:
190,133,121409,5,0,0:0:0:0:
211,207,121562,5,2,3:2:0:0:
283,235,121715,5,0,1:0:0:0:
355,189,121868,5,0,3:0:0:0:
449,187,122021,5,0,1:0:0:0:
506,270,122174,6,0,L|513:323,1,51.999997619629,0|0,3:0|1:0,0:0:0:0:
322,377,122480,5,4,1:2:0:0:
368,208,122786,5,8,0:0:0:0:
321,376,122940,2,0,B|303:320|341:283|346:302|387:266|371:213,1,181.999991668702,8|0,0:0|0:0,0:0:0:0:
371,213,123552,6,0,P|326:216|295:198,1,80,4|0,1:0|0:0,0:0:0:0:
164,314,123858,2,0,P|209:317|240:299,1,80,0|0,1:0|0:0,0:0:0:0:
205,155,124164,2,0,L|189:234,1,80,0|0,3:0|3:0,0:0:0:0:
57,276,124470,1,0,1:0:0:0:
0,172,124623,2,0,P|40:172|133:20,1,240,2|0,0:0|1:0,0:0:0:0:
133,21,125388,1,0,3:0:0:0:
50,71,125542,1,0,3:0:0:0:
151,117,125695,2,0,P|198:94|217:66,1,80,0|0,1:0|0:0,0:0:0:0:
372,31,126001,6,0,P|337:66|345:180,2,160,2|0|0,3:2|1:0|3:0,0:0:0:0:
492,65,126766,1,0,3:0:0:0:
455,170,126919,2,0,P|425:150|418:94,1,80,0|0,1:0|0:0,0:0:0:0:
506,249,127225,6,0,L|483:334,1,80,2|0,3:2|0:0,0:0:0:0:
382,375,127531,2,0,P|399:331|385:291,1,80,0|0,1:0|0:0,0:0:0:0:
172,215,127837,6,0,L|195:300,1,80,2|0,3:2|3:0,0:0:0:0:
296,341,128143,2,0,P|279:297|293:257,1,80,0|0,1:0|0:0,0:0:0:0:
335,138,128450,6,0,P|295:136|251:73,1,120,2|0,3:2|0:0,0:0:0:0:
225,65,128756,2,0,P|241:110|245:148,1,80,0|0,1:0|0:0,0:0:0:0:
30,119,129062,2,0,P|35:79|49:42,1,80,0|0,3:0|0:0,0:0:0:0:
134,116,129368,1,0,1:0:0:0:
9,245,129521,2,0,P|66:222|170:204,1,160,2|0,0:0|0:0,0:0:0:0:
295,244,129980,2,0,P|310:280|294:320,1,80,0|0,1:0|0:0,0:0:0:0:
176,380,130286,1,0,3:0:0:0:
78,316,130440,2,0,P|116:294|161:293,1,80,0|0,3:0|1:0,0:0:0:0:
356,381,130746,6,0,B|400:345|438:331|438:331|406:313|381:260,1,160,2|0,0:0|0:0,0:0:0:0:
499,182,131205,2,0,P|470:237|472:258,1,80,0|0,1:0|0:0,0:0:0:0:
420,72,131511,2,0,P|482:69|499:57,1,80,2|0,3:2|3:0,0:0:0:0:
358,205,131817,2,0,P|324:152|305:143,1,80,0|0,1:0|0:0,0:0:0:0:
120,143,132123,6,0,P|179:131|221:78,1,120,2|0,1:2|0:0,0:0:0:0:
236,83,132429,2,0,B|253:49|253:49|224:14,1,80,0|0,1:0|0:0,0:0:0:0:
48,32,132735,1,0,1:0:0:0:
135,55,132889,1,0,0:0:0:0:
42,124,133042,1,0,1:0:0:0:
39,133,133118,1,0,3:0:0:0:
36,143,133195,1,0,3:0:0:0:
33,152,133271,1,0,3:0:0:0:
30,162,133348,6,0,P|52:205|96:267,1,120,2|0,3:2|0:0,0:0:0:0:
106,267,133654,2,0,P|74:302|66:344,1,80,0|0,1:0|0:0,0:0:0:0:
232,384,133960,2,0,P|200:349|192:307,1,80,0|0,3:0|3:0,0:0:0:0:
324,236,134266,1,0,1:0:0:0:
277,316,134419,2,0,P|381:352|428:253,1,240,2|0,0:0|1:0,0:0:0:0:
428,253,135184,1,0,3:0:0:0:
512,267,135337,1,0,3:0:0:0:
475,349,135491,2,0,P|408:359|392:371,1,80,0|0,1:0|0:0,0:0:0:0:
336,244,135797,6,0,P|351:195|377:84,1,160,2|0,3:2|1:0,0:0:0:0:
297,77,136256,1,0,0:0:0:0:
452,81,136409,2,0,P|439:44|408:21,1,80,2|0,3:2|3:0,0:0:0:0:
266,1,136715,1,0,1:0:0:0:
204,107,136868,2,0,B|127:131|130:62|47:87,1,160,2|0,0:0|0:0,0:0:0:0:
10,189,137327,6,0,B|45:189|80:173|80:173|80:193|91:208,1,103.999995239258,4|0,1:2|0:0,0:0:0:0:
190,290,137633,6,0,P|212:244|255:180,1,120,0|0,1:0|0:0,0:0:0:0:
253,204,137940,6,0,B|288:204|323:220|323:220|323:200|334:185,1,103.999995239258,4|0,1:2|0:0,0:0:0:0:
512,145,138246,6,0,P|472:132|443:61,1,120,0|0,1:0|0:0,0:0:0:0:
425,38,138552,2,0,P|403:74|327:86,1,120,2|0,1:2|0:0,0:0:0:0:
310,102,138858,2,0,P|270:80|234:76,1,80,0|0,3:0|3:0,0:0:0:0:
95,205,139164,1,0,1:0:0:0:
160,131,139317,6,0,B|213:167|213:167|171:254,1,160,2|0,0:0|0:0,0:0:0:0:
185,366,139776,2,0,P|203:329|241:306,1,80,0|0,1:0|0:0,0:0:0:0:
385,320,140082,1,0,3:0:0:0:
301,198,140235,2,0,L|316:291,1,80,0|0,3:0|1:0,0:0:0:0:
268,381,140542,1,0,0:0:0:0:
106,318,140695,5,2,3:2:0:0:
106,318,140848,1,0,0:0:0:0:
106,318,141001,2,0,P|58:333|30:317,1,80,0|0,1:0|0:0,0:0:0:0:
102,145,141307,2,0,P|113:95|140:79,1,80,2|0,3:2|3:0,0:0:0:0:
253,228,141613,2,0,P|289:262|290:294,1,80,0|0,1:0|0:0,0:0:0:0:
153,223,141919,5,6,1:2:0:0:
223,72,142072,1,0,0:0:0:0:
325,138,142225,2,0,L|246:149,1,80,6|0,1:2|0:0,0:0:0:0:
433,40,142531,2,0,L|512:51,1,80,6|0,1:2|2:0,0:0:0:0:
446,209,142837,2,0,P|432:244|424:294,2,80,6|0|0,1:2|1:0|0:0,0:0:0:0:
512,249,143297,5,4,1:2:0:0:
376,346,143450,1,0,1:2:0:0:
279,210,143603,1,4,1:2:0:0:
415,113,143756,1,0,1:0:0:0:
335,134,143909,6,0,B|291:153|251:107|280:99|247:45|174:54|165:110|209:121,1,200,0|2,0:0|0:0,0:0:0:0:
211,135,144368,6,0,P|193:69|184:-1,1,136.000002593994,4|8,3:2|3:2,0:0:0:0:
107,48,144827,1,8,3:2:0:0:
107,48,144980,2,0,P|81:82|50:99,2,68.0000012969971,0|0|0,3:2|3:2|3:2,0:0:0:0:
128,171,145440,2,0,P|88:187|53:186,1,68.0000012969971,0|2,3:2|3:2,0:0:0:0:
9,298,145746,1,0,3:2:0:0:
105,264,145899,1,2,3:2:0:0:
187,317,146052,2,0,L|195:386,1,68.0000012969971,0|0,3:2|3:2,0:0:0:0:
103,358,146358,5,8,3:2:0:0:
256,251,146511,1,8,3:2:0:0:
333,304,146664,6,0,P|371:300|463:237,1,136.000002593994,0|0,3:2|3:2,0:0:0:0:
512,191,147123,1,8,3:2:0:0:
512,191,147276,2,0,P|478:164|455:167,1,68.0000012969971,8|0,3:2|3:2,0:0:0:0:
335,144,147582,2,0,P|375:128|384:106,1,68.0000012969971,0|0,3:2|3:2,0:0:0:0:
474,21,147889,2,0,L|461:93,1,68.0000012969971,0|0,3:2|3:2,0:0:0:0:
314,72,148195,6,0,P|275:45|259:25,1,68.0000012969971,4|0,3:2|3:2,0:0:0:0:
212,232,148501,2,0,P|254:211|280:207,1,68.0000012969971,4|0,3:2|3:2,0:0:0:0:
124,63,148807,2,0,B|136:91|110:133|83:140|83:140|52:127|37:98|59:62,1,170.000003242493,8|0,3:2|0:0,0:0:0:0:
58,74,149266,6,0,P|77:148|82:222,1,136.000002593994,4|8,3:2|3:2,0:0:0:0:
69,328,149725,1,8,3:2:0:0:
12,258,149878,1,0,3:2:0:0:
139,276,150031,2,0,P|151:310|147:351,1,68.0000012969971,0|0,3:2|3:2,0:0:0:0:
264,368,150337,6,0,P|286:337|293:302,1,68.0000012969971,0|2,3:2|3:2,0:0:0:0:
225,225,150644,2,0,P|203:194|196:159,1,68.0000012969971,0|2,3:2|3:2,0:0:0:0:
293,111,150950,2,0,L|305:41,1,68.0000012969971,0|0,3:2|3:2,0:0:0:0:
223,7,151256,5,8,3:2:0:0:
313,201,151409,1,8,3:2:0:0:
512,107,151715,6,0,P|461:98|420:62,1,102.000001945496,0|0,3:2|0:0,0:0:0:0:
413,49,152021,2,0,B|395:66|395:66|414:114,1,68.0000012969971,0|0,3:2|3:2,0:0:0:0:
431,197,152327,1,8,3:2:0:0:
341,168,152480,1,8,3:2:0:0:
279,242,152633,1,0,0:0:0:0:
374,263,152786,6,0,B|422:284|470:224|424:158|354:139|264:200|270:290|332:330,1,340.000006484985,2|0,3:2|3:2,0:0:0:0:
190,205,153705,1,8,1:2:0:0:
256,381,153858,1,8,3:2:0:0:
137,278,154164,6,0,B|63:258|86:323|3:301,1,136.000002593994,4|2,3:2|3:2,0:0:0:0:
30,225,154623,1,0,3:2:0:0:
30,225,154776,1,2,3:2:0:0:
155,359,154929,1,0,3:2:0:0:
223,304,155082,2,0,P|257:309|287:336,2,68.0000012969971,2|2|0,3:2|3:2|3:2,0:0:0:0:
223,219,155542,2,0,P|254:207|275:181,1,68.0000012969971,2|0,3:2|3:2,0:0:0:0:
355,287,155848,1,2,3:2:0:0:
355,287,156001,2,0,P|342:255|350:215,1,68.0000012969971,0|8,3:2|3:2,0:0:0:0:
511,118,156307,1,8,3:2:0:0:
429,243,156460,1,0,3:2:0:0:
320,140,156613,6,0,P|380:149|393:162,1,80,4|0,1:2|0:0,0:0:0:0:
438,339,156919,2,0,P|476:340|509:317,1,80,0|0,1:0|0:0,0:0:0:0:
511,200,157225,1,4,1:2:0:0:
329,228,157378,2,0,P|342:268|349:316,1,80,8|0,1:2|0:0,0:0:0:0:
146,367,157684,1,8,0:0:0:0:
202,282,157837,6,0,P|241:299|263:328,1,80,4|0,1:2|0:0,0:0:0:0:
34,280,158144,2,0,P|58:248|95:233,1,80,0|0,1:0|0:0,0:0:0:0:
240,73,158450,1,4,1:2:0:0:
123,46,158603,2,0,P|136:88|138:130,1,80,8|0,1:2|0:0,0:0:0:0:
385,47,158909,6,0,P|332:111|301:186,1,160,4|8,1:2|1:2,0:0:0:0:
303,377,159368,1,8,1:2:0:0:
373,279,159521,1,8,1:2:0:0:
196,225,159674,1,8,1:2:0:0:
188,339,159827,1,8,1:2:0:0:
303,182,159980,1,8,1:2:0:0:
188,219,160133,1,8,1:2:0:0:
445,337,160899,5,2,0:0:0:0:
464,172,161052,1,0,3:2:0:0:
464,172,161128,1,0,3:2:0:0:
464,172,161205,2,0,L|457:126,1,40,8|8,3:2|3:2,0:0:0:0:
512,244,161358,1,8,3:2:0:0:
512,244,161434,1,8,3:2:0:0:
512,244,161511,6,0,P|459:192|399:207,1,138.000002632141,4|0,1:2|0:0,0:0:0:0:
391,213,161817,2,0,P|397:257|379:299,1,92.0000017547608,8|0,0:0|0:0,0:0:0:0:
252,336,162123,2,0,P|209:318|182:282,1,92.0000017547608,2|0,1:2|0:0,0:0:0:0:
319,171,162429,1,8,0:0:0:0:
172,288,162582,2,0,B|141:198|214:145|220:189|277:132|265:49,1,276.000005264282,2|8,0:0|0:0,0:0:0:0:
105,6,163195,1,2,0:0:0:0:
182,76,163348,1,0,1:0:0:0:
103,152,163501,2,0,P|55:149|15:123,2,92.0000017547608,2|8|0,0:0|0:0|1:0,0:0:0:0:
275,182,163960,6,0,P|206:170|166:268,1,184.000003509522,2|10,1:2|0:2,0:0:0:0:
241,290,164419,1,0,0:0:0:0:
241,290,164572,2,0,P|243:337|269:377,1,92.0000017547608,2|0,1:2|0:0,0:0:0:0:
375,353,164878,2,0,P|421:363|466:347,1,92.0000017547608,8|0,0:0|0:0,0:0:0:0:
512,197,165184,6,0,P|469:175|422:178,1,92.0000017547608,4|2,1:2|0:0,0:0:0:0:
325,179,165491,2,0,L|342:275,1,92.0000017547608,12|2,1:2|0:0,0:0:0:0:
204,41,165797,2,0,P|246:19|293:22,1,92.0000017547608,4|2,1:2|0:0,0:0:0:0:
391,23,166104,2,0,L|374:119,1,92.0000017547608,12|0,1:2|0:0,0:0:0:0:
246,202,166409,6,0,B|130:187|208:127|92:110,1,184.000003509522,6|8,1:2|0:0,0:0:0:0:
0,274,166868,1,0,0:0:0:0:
100,197,167021,2,0,P|115:240|122:285,1,92.0000017547608,2|0,1:2|0:0,0:0:0:0:
246,369,167327,2,0,P|252:323|268:280,1,92.0000017547608,8|0,0:0|0:0,0:0:0:0:
446,198,167633,6,0,B|460:262|489:307|489:307|459:298|425:298,1,184.000003509522,2|8,1:2|0:0,0:0:0:0:
263,190,168093,1,2,0:0:0:0:
383,142,168246,1,0,1:0:0:0:
240,87,168399,2,0,P|197:98|149:103,1,92.0000017547608,2|8,0:0|0:0,0:0:0:0:
155,212,168705,1,0,0:0:0:0:
29,207,168858,6,0,P|63:298|73:347,1,138.000002632141,4|0,1:2|0:0,0:0:0:0:
86,366,169164,2,0,P|109:324|153:311,1,92.0000017547608,12|0,1:2|0:0,0:0:0:0:
311,372,169470,1,0,3:0:0:0:
223,270,169623,1,0,3:0:0:0:
345,208,169776,2,0,L|399:218,2,46.0000008773804,8|0|0,1:2|0:0|1:0,0:0:0:0:
216,274,170082,1,0,1:0:0:0:
320,377,170235,2,0,P|362:359|372:313,1,92.0000017547608,0|0,0:0|1:0,0:0:0:0:
237,174,170542,1,8,0:0:0:0:
51,352,170848,6,0,L|5:360,1,46.0000008773804,0|0,1:0|1:0,0:0:0:0:
98,292,171001,1,0,3:0:0:0:
101,278,171077,1,0,3:0:0:0:
101,265,171154,1,0,3:0:0:0:
95,252,171230,1,0,3:0:0:0:
82,238,171307,6,0,B|59:235|50:210|50:210|70:162|128:163,1,138.000002632141,4|0,1:2|0:0,0:0:0:0:
134,168,171613,2,0,P|155:120|152:63,1,92.0000017547608,8|0,0:0|0:0,0:0:0:0:
335,24,171919,2,0,P|337:69|356:111,1,92.0000017547608,2|0,1:2|0:0,0:0:0:0:
243,46,172225,1,8,0:0:0:0:
243,46,172378,1,2,0:0:0:0:
361,123,172531,2,0,B|410:130|458:99|459:48|459:48|432:77|408:85,1,184.000003509522,0|8,1:0|0:0,0:0:0:0:
457,221,172991,1,2,0:0:0:0:
512,152,173144,1,0,1:0:0:0:
373,206,173297,2,0,P|376:257|401:288,1,92.0000017547608,2|8,0:0|0:0,0:0:0:0:
275,368,173603,6,0,P|267:263|217:202,1,184.000003509522,0|0,1:0|0:0,0:0:0:0:
67,303,174062,2,0,P|99:264|142:257,1,92.0000017547608,10|0,0:0|0:0,0:0:0:0:
87,88,174368,2,0,P|104:135|89:175,1,92.0000017547608,2|0,1:2|0:0,0:0:0:0:
263,212,174674,2,0,P|213:203|185:170,2,92.0000017547608,8|0|4,0:0|0:0|1:2,0:0:0:0:
407,88,175133,5,2,0:0:0:0:
308,43,175286,2,0,P|312:91|321:145,1,92.0000017547608,12|2,1:2|0:0,0:0:0:0:
210,91,175593,1,4,1:2:0:0:
210,91,175746,1,2,0:0:0:0:
309,136,175899,2,0,P|305:88|296:34,1,92.0000017547608,12|2,1:2|0:0,0:0:0:0:
129,0,176205,6,0,P|113:90|106:182,1,184.000003509522,2|8,1:2|0:0,0:0:0:0:
153,262,176664,1,0,0:0:0:0:
83,130,176817,2,0,P|35:130|0:165,1,92.0000017547608,2|0,1:2|0:0,0:0:0:0:
24,313,177123,2,0,P|58:341|103:340,1,92.0000017547608,8|0,0:0|0:0,0:0:0:0:
221,196,177429,2,0,L|416:163,1,184.000003509522,2|8,1:2|0:0,0:0:0:0:
484,284,177889,1,2,0:0:0:0:
361,254,178042,1,0,1:0:0:0:
421,363,178195,2,0,L|511:378,1,92.0000017547608,2|8,0:2|0:0,0:0:0:0:
423,201,178501,6,0,B|393:155|333:167|350:182|289:199|256:145,1,184.000003509522,0|0,0:0|0:0,0:0:0:0:
175,74,178960,2,0,P|199:35|232:2,1,92.0000017547608,12|0,1:2|0:0,0:0:0:0:
102,118,179266,2,0,P|56:116|11:104,1,92.0000017547608,0|2,1:0|0:0,0:0:0:0:
177,159,179572,2,0,P|198:199|209:244,1,92.0000017547608,8|2,0:0|0:0,0:0:0:0:
20,352,179878,2,0,B|-13:286|38:246|38:246|80:236|104:282,1,184.000003509522,4|12,1:2|1:2,0:0:0:0:
227,376,180337,2,0,L|132:363,1,92.0000017547608,0|4,0:0|1:2,0:0:0:0:
305,242,180644,1,0,0:0:0:0:
405,352,180797,1,12,1:2:0:0:
282,315,180950,1,0,0:0:0:0:
436,277,181103,6,0,P|449:243|459:201,1,80,4|2,1:2|0:0,0:0:0:0:
384,53,181409,2,0,P|422:106|515:105,1,160,0|0,1:0|1:0,0:0:0:0:
291,0,181868,1,2,0:0:0:0:
197,62,182021,2,0,L|185:142,1,80,0|2,1:0|0:0,0:0:0:0:
45,132,182327,6,0,L|33:52,1,80,0|2,1:0|0:0,0:0:0:0:
16,238,182633,2,0,P|74:217|125:292,1,160,0|0,1:0|1:0,0:0:0:0:
285,270,183093,1,2,0:0:0:0:
173,364,183246,1,0,1:0:0:0:
209,224,183399,1,2,0:0:0:0:
365,343,183552,6,0,L|286:357,1,80,0|2,1:0|0:0,0:0:0:0:
214,211,183858,2,0,L|57:181,1,160,0|0,1:0|1:0,0:0:0:0:
84,13,184317,1,2,0:0:0:0:
185,77,184470,1,0,1:0:0:0:
46,105,184623,1,2,0:0:0:0:
266,4,184776,6,0,B|283:48|259:31|279:86,1,80,0|2,1:0|0:0,0:0:0:0:
339,217,185082,2,0,B|368:179|365:208|403:164,1,80,0|2,1:0|0:0,0:0:0:0:
487,48,185389,2,0,B|439:41|466:29|409:18,1,80,0|2,1:0|0:0,0:0:0:0:
268,89,185695,1,0,1:0:0:0:
403,159,185848,1,2,0:0:0:0:
260,257,186001,6,0,B|241:226|241:226|260:177,1,80,4|2,1:2|0:0,0:0:0:0:
495,260,186307,2,0,P|489:301|480:340,1,80,0|2,1:0|0:0,0:0:0:0:
393,323,186613,2,0,P|399:282|408:243,1,80,0|2,1:0|0:0,0:0:0:0:
251,123,186919,1,0,1:0:0:0:
328,226,187072,1,2,0:0:0:0:
161,367,187225,6,0,P|143:328|139:291,1,80,0|2,1:0|0:0,0:0:0:0:
227,267,187531,2,0,P|245:306|249:343,1,80,0|2,1:0|0:0,0:0:0:0:
81,241,187837,1,8,3:0:0:0:
81,241,187914,1,8,3:0:0:0:
81,241,187991,2,0,L|89:196,1,40,8|0,3:0|0:0,0:0:0:0:
11,142,188144,2,0,P|49:130|83:111,1,80,0|0,1:0|0:0,0:0:0:0:
221,0,188450,6,0,P|198:94|343:26,1,360.000013732911,4|2,1:2|0:0,0:0:0:0:
294,249,189521,6,0,P|357:202|398:198,1,120.000004577637,4|0,1:2|0:0,0:0:0:0:
474,244,189980,1,0,1:0:0:0:
368,381,190133,2,0,B|345:346|345:346|365:313,1,80,0|0,1:0|1:0,0:0:0:0:
442,347,190440,1,8,0:0:0:0:
251,335,190593,2,0,L|200:329,3,40,8|0|0|0,0:0|0:0|1:0|0:0,0:0:0:0:
261,337,190899,1,2,3:2:0:0:
114,170,195797,6,0,P|110:138|205:128,1,160,2|8,3:2|3:2,0:0:0:0:
197,222,196256,2,0,P|165:269|166:306,1,80,2|0,3:2|3:2,0:0:0:0:
55,269,196562,2,0,P|65:324|92:350,1,80,2|8,3:2|3:2,0:0:0:0:
256,284,196868,2,0,B|348:302|294:352|384:369,1,160,2|0,3:2|3:2,0:0:0:0:
497,187,197327,1,8,3:2:0:0:
396,283,197480,2,0,L|389:237,1,40,2|0,3:2|0:0,0:0:0:0:
362,8,197786,2,0,L|368:47,1,40,2|0,3:2|0:0,0:0:0:0:
363,57,198093,6,0,B|293:92|209:16|285:-6|287:42,1,160,6|2,3:2|3:2,0:0:0:0:
338,173,198552,1,8,3:2:0:0:
293,37,198705,6,0,P|289:104|201:117,1,160,4|0,3:2|3:2,0:0:0:0:
85,18,199164,1,8,3:2:0:0:
204,124,199317,6,0,B|160:96|165:45|165:45|153:86|101:105,1,160,4|2,3:2|3:2,0:0:0:0:
42,209,199776,1,8,3:2:0:0:
118,100,199929,6,0,L|131:191,1,80,4|0,3:2|3:2,0:0:0:0:
149,311,200235,1,4,3:2:0:0:
149,311,200312,1,0,3:2:0:0:
149,311,200389,1,8,3:2:0:0:
353,227,200695,5,2,3:2:0:0:
210,213,200848,2,0,P|247:188|287:185,1,80,2|10,3:2|3:2,0:0:0:0:
448,187,201154,2,0,P|488:167|510:134,1,80,2|0,3:2|3:2,0:0:0:0:
369,137,201460,2,0,P|383:94|376:55,1,80,2|8,3:2|3:2,0:0:0:0:
215,16,201766,6,0,B|191:48|191:48|216:107|290:91,1,160,2|0,3:2|3:2,0:0:0:0:
134,108,202225,1,10,3:2:0:0:
299,91,202378,2,0,L|313:46,1,40,2|0,3:2|0:0,0:0:0:0:
36,152,202684,2,0,L|24:113,1,40,0|0,3:2|0:0,0:0:0:0:
17,213,202991,6,0,B|54:95|54:95|7:115,1,160,4|2,3:2|3:2,0:0:0:0:
124,212,203450,1,8,3:2:0:0:
16,115,203603,6,0,P|72:145|132:83,1,160,4|0,3:2|3:2,0:0:0:0:
130,78,203985,1,0,3:2:0:0:
128,74,204062,2,0,P|159:46|199:49,1,80,8|0,3:2|3:2,0:0:0:0:
267,184,204368,5,2,3:2:0:0:
267,184,204521,2,0,L|249:266,1,80,0|8,3:2|3:2,0:0:0:0:
318,342,204827,2,0,P|336:300|373:277,1,80,4|0,3:2|3:2,0:0:0:0:
216,374,205133,2,0,P|191:342|155:326,1,80,0|8,3:2|3:2,0:0:0:0:
511,280,205593,6,0,P|513:325|420:331,1,160,2|8,3:2|3:2,0:0:0:0:
295,297,206052,2,0,P|289:339|278:376,1,80,2|0,3:2|3:2,0:0:0:0:
424,325,206358,1,2,3:2:0:0:
381,244,206511,1,8,3:2:0:0:
505,173,206664,2,0,P|465:187|372:125,1,160,2|0,3:2|3:2,0:0:0:0:
372,254,207123,1,8,3:2:0:0:
378,123,207276,6,0,L|339:113,1,40,2|0,3:2|0:0,0:0:0:0:
150,202,207582,2,0,L|111:211,1,40,2|0,3:2|0:0,0:0:0:0:
298,238,207889,6,0,B|254:247|219:212|243:209|209:179|153:189,1,160,6|8,3:2|3:2,0:0:0:0:
46,249,208348,1,8,3:2:0:0:
149,187,208501,2,0,P|139:212|232:237,1,160,4|0,3:2|3:2,0:0:0:0:
234,237,208883,1,0,3:2:0:0:
237,232,208960,2,0,L|225:148,1,80,8|0,3:2|3:2,0:0:0:0:
281,345,209266,5,2,3:2:0:0:
387,295,209419,2,0,B|407:256|407:256|393:218,1,80,0|8,3:2|3:2,0:0:0:0:
285,34,209725,2,0,B|265:73|265:73|279:111,1,80,2|2,3:2|3:2,0:0:0:0:
341,168,210031,1,2,3:2:0:0:
341,168,210108,1,0,3:2:0:0:
341,168,210184,2,0,P|272:155|210:146,1,120,8|0,3:2|3:2,0:0:0:0:
213,151,210491,5,8,3:2:0:0:
132,45,210644,2,0,P|201:45|212:7,1,120,8|0,3:2|0:0,0:0:0:0:
208,0,210950,2,0,L|183:89,1,80,4|0,3:2|3:2,0:0:0:0:
25,244,211256,2,0,P|15:159|97:222,1,240,4|4,3:2|0:0,0:0:0:0:
278,90,212940,6,0,B|258:89|242:73|242:73|335:44|335:44|368:75|360:140|318:165|318:140|273:158|261:222|289:260|289:260|302:253|309:237,1,415.999980957032,4|2,0:0|0:0,0:0:0:0:
512,334,215389,2,0,B|489:377|430:373|429:373|424:333|451:337|459:348,1,103.999995239258,4|2,0:0|0:0,0:0:0:0:
381,122,216001,2,0,B|358:78|299:81|298:81|294:122|320:117|328:106,1,103.999995239258,4|2,0:0|0:0,0:0:0:0:
177,303,216613,6,0,B|176:344|208:365|254:355|276:313|260:257|203:234|203:255|169:215|161:163|189:128|226:113|226:113|229:160|266:178,1,415.999980957032,6|2,0:2|0:0,0:0:0:0:
97,46,218297,1,0,0:0:0:0:
97,46,218450,1,0,0:0:0:0:
97,46,218603,2,0,L|36:54,1,51.999997619629,0|2,0:0|0:0,0:0:0:0:
3,166,218909,1,0,0:0:0:0:
3,166,219062,6,0,B|33:91|121:51|218:72|218:72|189:95|186:143,1,320,4|0,0:0|1:0,0:0:0:0:
213,224,219827,1,0,1:0:0:0:
178,134,219980,2,0,L|162:82,2,40,8|0|8,1:2|0:0|1:2,0:0:0:0:
189,308,220286,5,0,1:0:0:0:
362,223,220440,2,0,P|332:197|293:190,1,80,8|0,1:2|0:0,0:0:0:0:
193,313,220746,1,4,1:2:0:0:
482,343,221052,6,0,L|473:384,1,40,0|0,3:0|3:0,0:0:0:0:
419,303,221205,1,8,3:2:0:0:
409,306,221281,1,0,3:0:0:0:
399,309,221358,1,0,3:0:0:0:
390,312,221434,1,0,3:0:0:0:
380,315,221511,6,0,B|324:317|297:291|321:285|283:242|229:255|229:255|250:283|244:329,1,207.999990478516,4|8,1:2|0:0,0:0:0:0:
147,315,221970,1,0,0:0:0:0:
249,291,222123,2,0,B|282:327|282:327|259:376,1,95.9999970703126,2|0,1:2|0:0,0:0:0:0:
44,336,222429,2,0,B|23:293|23:293|56:257,1,95.9999970703126,8|2,0:0|0:0,0:0:0:0:
137,144,222735,2,0,B|192:122|230:169|213:173|250:215|307:195,1,191.999994140625,2|8,1:2|0:0,0:0:0:0:
420,115,223195,1,2,0:0:0:0:
416,111,223348,1,0,1:0:0:0:
320,21,223501,2,0,P|325:71|337:119,1,95.9999970703126,2|8,0:0|0:0,0:0:0:0:
243,191,223807,2,0,P|233:91|192:2,1,191.999994140625,2|0,0:0|0:0,0:0:0:0:
14,66,224266,6,0,B|62:49|62:49|87:56|99:77,1,95.9999970703126,10|0,0:0|0:0,0:0:0:0:
34,223,224572,2,0,B|-4:189|-4:189|-11:164|1:143,1,95.9999970703126,2|0,1:2|0:2,0:0:0:0:
160,127,224878,2,0,B|150:177|150:177|132:195|107:195,1,95.9999970703126,8|0,0:2|0:2,0:0:0:0:
77,324,225184,5,4,1:2:0:0:
77,324,225337,1,2,0:0:0:0:
180,270,225491,2,0,L|195:369,1,95.9999970703126,4|2,1:2|0:0,0:0:0:0:
308,318,225797,1,4,1:2:0:0:
308,318,225950,1,2,0:0:0:0:
177,361,226103,2,0,L|192:267,1,95.9999970703126,4|2,1:2|0:2,0:0:0:0:
223,35,226409,6,0,B|203:90|235:121|256:109|291:147|273:206,1,191.999994140625,6|8,1:2|0:0,0:0:0:0:
116,289,226868,1,0,0:0:0:0:
76,195,227021,2,0,B|46:162|65:123|132:110|151:145|129:156|150:185|202:176,1,191.999994140625,2|8,1:2|2:0,0:0:0:0:
339,242,227480,1,0,2:0:0:0:
201,183,227633,2,0,P|275:163|393:160,1,191.999994140625,2|8,1:2|0:0,0:0:0:0:
465,107,228093,1,2,0:0:0:0:
465,107,228246,1,0,1:0:0:0:
342,0,228399,2,0,B|303:19|303:19|322:38|325:73,1,95.9999970703126,2|8,0:0|0:0,0:0:0:0:
489,26,228705,1,0,0:0:0:0:
319,71,228858,6,0,P|268:82|195:35,1,143.999995605469,4|0,1:2|0:0,0:0:0:0:
201,29,229164,1,4,1:2:0:0:
306,178,229317,1,2,0:0:0:0:
116,213,229470,1,4,1:2:0:0:
197,137,229623,1,2,0:0:0:0:
255,284,229776,2,0,P|241:330|229:382,1,95.9999970703126,4|2,1:2|0:0,0:0:0:0:
26,274,230082,6,0,B|85:292|123:257|111:236|142:204|197:224,1,191.999994140625,4|4,1:2|1:2,0:0:0:0:
335,267,230542,2,0,P|357:309|385:354,1,95.9999970703126,2|4,0:0|1:2,0:0:0:0:
230,376,230848,1,2,0:0:0:0:
230,376,230924,1,0,0:0:0:0:
230,376,231001,2,0,P|241:329|255:284,1,95.9999970703126,4|2,1:2|0:0,0:0:0:0:
391,204,231307,6,0,P|440:196|486:185,1,95.9999970703126,4|2,1:2|0:0,0:0:0:0:
349,27,231613,2,0,P|302:15|254:8,1,95.9999970703126,8|2,1:2|0:0,0:0:0:0:
91,113,231919,1,8,1:2:0:0:
206,69,232072,1,2,0:0:0:0:
90,35,232225,1,8,1:2:0:0:
216,146,232378,1,2,0:0:0:0:
35,182,232531,6,0,P|6:141|12:86,1,95.9999970703126,4|2,1:2|0:0,0:0:0:0:
183,254,232837,2,0,P|117:237|56:330,1,191.999994140625,8|8,1:2|1:2,0:0:0:0:
230,355,233297,1,2,0:0:0:0:
262,257,233450,1,8,1:2:0:0:
253,372,233603,1,2,0:0:0:0:
338,232,233756,6,0,L|438:215,1,95.9999970703126,4|2,1:2|0:0,0:0:0:0:
229,150,234062,2,0,L|129:133,1,95.9999970703126,8|2,1:2|0:0,0:0:0:0:
367,12,234368,1,8,1:2:0:0:
412,146,234521,1,2,0:0:0:0:
321,99,234674,1,8,1:2:0:0:
452,57,234827,1,2,0:0:0:0:
264,0,234980,6,0,P|235:38|246:86,1,95.9999970703126,4|2,1:2|0:0,0:0:0:0:
512,215,235286,2,0,P|520:169|491:132,1,95.9999970703126,8|2,1:2|0:0,0:0:0:0:
294,180,235593,1,8,1:2:0:0:
421,247,235746,1,2,0:0:0:0:
238,255,235899,2,0,L|218:359,1,95.9999970703126,8|2,1:2|0:0,0:0:0:0:
427,337,236205,6,0,B|506:314|506:314|481:308,1,95.9999970703126,4|2,1:2|0:0,0:0:0:0:
212,176,236511,2,0,B|159:173|173:193|113:191,1,95.9999970703126,8|2,1:2|0:0,0:0:0:0:
304,119,236817,2,0,B|333:74|308:76|340:25,1,95.9999970703126,8|2,1:2|0:0,0:0:0:0:
118,11,237123,1,8,1:2:0:0:
167,102,237276,1,2,0:0:0:0:
20,210,237429,6,0,P|16:170|48:126,1,95.9999970703126,4|2,1:2|0:0,0:0:0:0:
272,273,237735,2,0,P|276:313|244:357,1,95.9999970703126,8|2,1:2|0:0,0:0:0:0:
150,239,238042,1,8,2:2:0:0:
262,113,238195,1,2,2:0:0:0:
262,113,238271,1,0,3:3:0:0:
262,113,238348,2,0,L|362:100,1,95.9999970703126,0|2,3:3|0:0,0:0:0:0:
104,137,238654,1,4,1:0:0:0:
455,130,239572,5,0,1:0:0:0:
321,262,239725,2,0,B|379:222|375:158|375:158|401:217|475:225,1,240,4|0,0:0|1:0,0:0:0:0:
437,294,240337,2,0,L|453:372,1,80,0|0,1:0|1:0,0:0:0:0:
227,295,240644,1,8,0:0:0:0:
227,295,240720,1,8,0:0:0:0:
227,295,240797,2,0,L|243:217,1,80,8|0,0:0|1:0,0:0:0:0:
188,26,241103,6,0,B|140:8|140:8|101:33,1,92.0000017547608,4|0,1:2|0:0,0:0:0:0:
46,210,241409,2,0,B|94:228|94:228|133:203,1,92.0000017547608,4|0,1:2|0:0,0:0:0:0:
261,86,241715,1,8,0:0:0:0:
54,104,241868,2,0,L|152:122,1,92.0000017547608,8|0,0:0|0:0,0:0:0:0:
343,151,242174,1,4,1:2:0:0:
177,273,242480,5,0,3:0:0:0:
177,273,242557,1,0,3:0:0:0:
177,273,242633,2,0,L|172:221,3,46.0000008773804,0|0|0|0,3:0|0:0|3:0|0:0,0:0:0:0:
182,365,242940,1,8,0:0:0:0:
179,224,243093,6,0,B|150:216|123:200|123:200|165:282|177:361,1,230.000004386902,4|0,1:2|0:0,0:0:0:0:
254,371,243552,6,0,B|292:353|292:353|346:362,1,92.0000017547608,4|0,1:2|0:0,0:0:0:0:
293,138,243858,2,0,B|255:156|255:156|201:147,1,92.0000017547608,4|0,1:2|0:0,0:0:0:0:
399,283,244164,1,8,0:0:0:0:
399,283,244241,1,0,0:0:0:0:
399,283,244317,2,0,L|448:289,1,46.0000008773804,8|0,1:2|0:0,0:0:0:0:
319,272,244470,1,0,0:0:0:0:
508,233,244623,6,0,P|511:198|468:158,1,92.0000017547608,6|0,1:2|0:0,0:0:0:0:
390,22,244929,1,6,1:2:0:0:
314,122,245082,1,0,0:0:0:0:
464,70,245235,1,6,1:2:0:0:
198,1,245542,5,0,3:0:0:0:
167,70,245695,2,0,L|181:119,2,46.0000008773804,8|8|8,3:2|3:2|3:2,0:0:0:0:
36,28,246001,6,0,P|71:58|79:107,1,92.0000017547608,4|0,1:2|0:0,0:0:0:0:
313,129,246307,2,0,P|278:159|270:208,1,92.0000017547608,4|0,1:2|0:0,0:0:0:0:
228,356,246613,1,8,0:0:0:0:
173,171,246766,2,0,P|169:216|198:257,1,92.0000017547608,8|0,3:0|0:0,0:0:0:0:
87,331,247072,6,0,B|136:341|177:310|152:291|199:255|257:279,1,184.000003509522,4|0,1:2|1:0,0:0:0:0:
14,271,247531,2,0,P|11:311|0:361,1,92.0000017547608,4|0,1:2|0:0,0:0:0:0:
99,247,247837,1,4,1:2:0:0:
73,117,247991,1,0,3:0:0:0:
73,117,248067,1,0,3:0:0:0:
73,117,248144,1,0,3:0:0:0:
34,192,248297,1,4,1:2:0:0:
179,0,248603,5,2,3:2:0:0:
138,63,248756,5,0,0:0:0:0:
189,117,248909,5,2,3:2:0:0:
266,87,249062,5,0,1:0:0:0:
342,132,249215,5,0,3:0:0:0:
331,223,249368,5,0,1:0:0:0:
245,265,249521,6,0,P|227:307|228:344,1,80,2|0,3:2|1:0,0:0:0:0:
489,350,249827,5,4,1:2:0:0:
313,379,250133,5,8,1:2:0:0:
484,358,250286,2,0,B|415:343|382:272|382:272|381:347|322:385,1,272.000005187988,12|0,1:2|0:0,0:0:0:0:
