osu file format v14

[General]
AudioFilename: audio.ogg
AudioLeadIn: 0
PreviewTime: 75538
Countdown: 0
SampleSet: Soft
StackLeniency: 0.3
Mode: 0
LetterboxInBreaks: 0
WidescreenStoryboard: 1

[Editor]
Bookmarks: 1583,11173,15599,31337,47075,60845,68714,76583,83468,91336,103017
DistanceSpacing: 0.2
BeatDivisor: 4
GridSize: 8
TimelineZoom: 1.8

[Metadata]
Title:Two Blanc
TitleUnicode:Two Blanc
Artist:Hinano
ArtistUnicode:Hinano
Creator:pnky
Version:gazimal's Insane
Source:白昼夢の青写真 CASE-_ 誰が為のIHATOV
Tags:eringira gazimal pop jpop j-pop the girl who's whos called the world the girl who dreamed visual novel vn galgame eroge laplacian clammbon クラムボン bulukanilo ブルカニロ Into Gray japanese electronic theme song case-blanc tagatame no 緒乃ワサビ onoWasabi momo muudog takuya kiyohara yuki cyanotype daydream hakuchuumu no aojashin
BeatmapID:4248126
BeatmapSetID:2036469

[Difficulty]
HPDrainRate:5
CircleSize:4.4
OverallDifficulty:7.5
ApproachRate:9
SliderMultiplier:2
SliderTickRate:1

[Events]
//Background and Video events
Video,0,"video_1.mp4"
0,0,"main2.png",0,0
//Break Periods
//Storyboard Layer 0 (Background)
//Storyboard Layer 1 (Fail)
//Storyboard Layer 2 (Pass)
//Storyboard Layer 3 (Foreground)
//Storyboard Layer 4 (Overlay)
//Storyboard Sound Samples

[TimingPoints]
-143,491.803278688525,4,2,1,30,1,0
11168,-500,4,2,1,30,0,0
15594,-200,4,2,1,30,0,0
18299,-200,4,2,1,25,0,0
31332,-133.333333333333,4,2,1,30,0,0
32070,-133.333333333333,4,2,2,30,0,0
32316,-133.333333333333,4,2,1,30,0,0
33053,-133.333333333333,4,2,2,30,0,0
33299,-133.333333333333,4,2,1,30,0,0
34037,-133.333333333333,4,2,2,30,0,0
34283,-133.333333333333,4,2,1,30,0,0
35020,-133.333333333333,4,2,2,30,0,0
35266,-133.333333333333,4,2,1,30,0,0
36004,-133.333333333333,4,2,2,30,0,0
36250,-133.333333333333,4,2,1,30,0,0
36988,-133.333333333333,4,2,2,30,0,0
37234,-133.333333333333,4,2,1,30,0,0
37971,-133.333333333333,4,2,2,30,0,0
38217,-133.333333333333,4,2,1,30,0,0
38955,-133.333333333333,4,2,2,30,0,0
39201,-133.333333333333,4,2,1,30,0,0
40430,-133.333333333333,4,2,2,30,0,0
40676,-133.333333333333,4,2,1,30,0,0
41168,-333.333333333333,4,2,1,30,0,0
41660,-200,4,2,1,30,0,0
41906,-200,4,2,2,32,0,0
42152,-142.857142857143,4,2,2,32,0,0
42397,-142.857142857143,4,2,1,34,0,0
42643,-111.111111111111,4,2,1,34,0,0
42889,-111.111111111111,4,2,2,36,0,0
43135,-111.111111111111,4,2,1,39,0,0
43381,-111.111111111111,4,2,2,39,0,0
43504,-111.111111111111,4,2,1,39,0,0
43627,-111.111111111111,4,2,1,42,0,0
43873,-111.111111111111,4,2,2,42,0,0
43996,-111.111111111111,4,2,1,42,0,0
44119,-111.111111111111,4,2,1,45,0,0
44365,-111.111111111111,4,2,2,45,0,0
44488,-111.111111111111,4,2,1,45,0,0
44611,-111.111111111111,4,2,1,48,0,0
44857,-111.111111111111,4,2,2,48,0,0
44979,-111.111111111111,4,2,1,48,0,0
45102,-111.111111111111,4,2,1,51,0,0
45348,-111.111111111111,4,2,2,51,0,0
45471,-111.111111111111,4,2,1,51,0,0
45594,-111.111111111111,4,2,1,54,0,0
45840,-111.111111111111,4,2,2,54,0,0
45963,-111.111111111111,4,2,1,54,0,0
46086,-111.111111111111,4,2,1,50,0,0
46578,-66.6666666666667,4,2,1,30,0,0
47070,-66.6666666666667,4,2,1,55,0,0
47807,-100,4,2,1,55,0,0
48053,-100,4,2,2,55,0,0
48791,-100,4,2,1,55,0,0
49529,-133.333333333333,4,2,1,55,0,0
50020,-133.333333333333,4,2,2,55,0,0
50266,-500,4,2,1,55,0,0
51004,-133.333333333333,4,2,1,55,0,0
51988,-133.333333333333,4,2,2,55,0,0
52234,-500,4,2,2,55,0,0
52725,-500,4,2,1,55,0,0
53463,-200,4,2,1,55,0,0
53955,-200,4,2,2,55,0,0
54201,-500,4,2,1,55,0,0
54938,-133.333333333333,4,2,1,55,0,0
55922,-133.333333333333,4,2,2,55,0,0
56168,-500,4,2,2,55,0,0
56660,-500,4,2,1,55,0,0
56906,-133.333333333333,4,2,1,55,0,0
57889,-133.333333333333,4,2,2,55,0,0
58135,-500,4,2,1,55,0,0
58873,-100,4,2,1,55,0,0
59857,-100,4,2,2,55,0,0
60102,-100,4,2,1,55,0,0
60348,-200,4,2,1,55,0,0
60840,-1000,4,2,2,30,0,1
68709,-400,4,2,2,30,0,0
69201,-400,4,2,5,30,0,0
70676,-400,4,2,5,40,0,0
71783,-400,4,2,2,40,0,0
72643,-200,4,2,2,50,0,0
72766,-200,4,2,3,50,0,0
73627,-133.333333333333,4,2,3,60,0,0
74611,-133.333333333333,4,2,3,70,0,0
76086,-500,4,2,3,75,0,0
76578,491.803278688525,3,2,3,80,1,0
76578,-50,3,2,3,80,0,0
77315,-100,3,2,3,80,0,0
77561,-333.333333333333,3,2,1,80,0,0
78053,-50,3,2,1,80,0,0
78791,-111.111111111111,3,2,1,80,0,0
79037,-303.030303030303,3,2,1,80,0,0
79528,-50,3,2,1,80,0,0
80266,-100,3,2,1,80,0,0
80512,-333.333333333333,3,2,1,80,0,0
81004,-50,3,2,1,80,0,0
81741,-100,3,2,1,80,0,0
82479,-100,3,2,1,70,0,0
82602,-100,3,2,2,70,0,0
82971,-100,3,2,2,75,0,0
83463,491.803278688525,4,2,1,75,1,0
83463,-55.5555555555556,4,2,1,75,0,0
83954,-83.3333333333333,4,2,3,75,0,0
85430,-66.6666666666667,4,2,3,75,0,0
85922,-83.3333333333333,4,2,3,75,0,0
86905,-100,4,2,3,75,0,0
87397,-58.8235294117647,4,2,3,75,0,0
87889,-500,4,2,3,75,0,0
90102,-58.8235294117647,4,2,3,75,0,0
90348,-58.8235294117647,4,2,1,75,0,0
90594,-58.8235294117647,4,2,3,75,0,0
91331,-55.5555555555556,4,2,1,70,0,0
91700,-83.3333333333333,4,2,2,70,0,0
93299,-83.3333333333333,4,2,1,70,0,0
93667,-83.3333333333333,4,2,3,70,0,0
95266,-66.6666666666667,4,2,3,70,0,0
95635,-83.3333333333333,4,2,3,70,0,0
97233,-58.8235294117647,4,2,3,70,0,0
97602,-83.3333333333333,4,2,3,70,0,0
98708,-83.3333333333333,4,2,1,70,0,0
99200,-105.263157894737,4,2,4,45,0,0
101167,-105.263157894737,4,2,1,55,0,0
101659,-86.9565217391306,4,2,1,55,0,0
102028,-86.9565217391306,4,2,2,55,0,0
102151,-86.9565217391306,4,2,2,60,0,0
102397,-86.9565217391306,4,2,2,65,0,0
102643,-86.9565217391306,4,2,2,70,0,0
102889,-86.9565217391306,4,2,2,75,0,0
103012,-86.9565217391306,4,2,5,75,0,0

[Colours]
Combo1 : 242,0,0
Combo2 : 208,208,208
Combo3 : 151,151,151

[HitObjects]
256,192,1578,12,0,10922,0:0:0:0:
481,350,11168,5,0,0:0:0:0:
472,346,11414,2,0,P|494:375|473:345,1,110,0|0,0:0|0:0,1:1:0:0:
256,192,13012,5,0,0:0:0:0:
480,32,15594,21,0,0:0:0:0:
480,32,15840,2,0,L|469:80,1,50,2|0,0:0|0:0,0:0:0:0:
396,49,16209,2,0,L|385:97,1,50,2|0,0:0|0:0,0:0:0:0:
375,183,16578,2,0,P|412:182|443:162,2,75,2|2|2,0:0|0:0|0:0,0:0:0:0:
254,142,17561,5,0,0:0:0:0:
254,142,17807,2,0,L|302:131,1,50,2|0,0:0|0:0,0:0:0:0:
180,78,18176,2,0,L|228:67,1,50,2|0,0:0|0:0,0:0:0:0:
158,165,18545,2,0,P|120:151|103:118,2,75,2|2|2,2:2|2:2|2:2,0:0:0:0:
110,39,19529,21,2,2:2:0:0:
110,39,19775,2,0,L|61:28,1,50,2|0,0:0|0:0,0:0:0:0:
48,110,20143,2,0,L|0:99,1,50,2|0,0:0|0:0,0:0:0:0:
85,180,20512,2,0,P|116:160|135:118,2,75,2|2|2,0:0|0:0|0:0,0:0:0:0:
197,66,21496,5,0,0:0:0:0:
197,66,21742,2,0,P|220:75|251:77,1,50,2|2,0:0|2:2,0:0:0:0:
270,157,22111,2,0,P|293:146|316:126,1,50,2|0,0:0|0:0,0:0:0:0:
334,50,22479,2,0,P|357:60|380:80,1,50,2|0,2:2|0:0,0:0:0:0:
449,37,22848,2,0,P|458:60|460:91,1,50,2|0,2:2|0:0,0:0:0:0:
405,156,23217,1,2,2:2:0:0:
494,258,23463,21,2,2:2:0:0:
494,258,23709,2,0,P|478:277|464:304,1,50,2|0,0:0|0:0,0:0:0:0:
385,305,24078,2,0,P|381:329|382:359,1,50,2|0,0:0|0:0,0:0:0:0:
299,381,24447,2,0,P|299:356|295:331,1,50,2|0,0:0|0:0,0:0:0:0:
214,325,24816,2,0,P|201:303|186:283,1,50,2|0,0:0|0:0,0:0:0:0:
121,238,25184,1,2,0:0:0:0:
14,318,25430,5,2,2:2:0:0:
14,318,25676,2,0,P|35:304|58:295,1,50,2|0,0:0|0:0,0:0:0:0:
79,211,26045,2,0,P|100:222|120:237,1,50,2|0,0:0|0:0,0:0:0:0:
186,283,26414,2,0,P|207:269|230:260,1,50,2|0,0:0|0:0,0:0:0:0:
251,176,26783,2,0,P|272:187|292:202,1,50,2|0,0:0|0:0,0:0:0:0:
313,285,27152,1,2,0:0:0:0:
455,205,27397,21,2,2:2:0:0:
455,205,27643,2,0,P|458:180|465:156,1,50,2|0,0:0|0:0,0:0:0:0:
387,136,28012,2,0,P|383:160|376:184,1,50,2|0,0:0|0:0,0:0:0:0:
292,202,28381,2,0,P|272:187|251:176,1,50,2|0,0:0|0:0,0:0:0:0:
222,104,28750,2,0,P|199:113|177:126,1,50,2|0,0:0|0:0,0:0:0:0:
111,187,29119,1,2,0:0:0:0:
12,86,29365,5,0,0:0:0:0:
12,86,29611,2,0,P|33:73|57:65,1,50,2|0,0:0|0:0,0:0:0:0:
110,1,29979,2,0,P|131:13|150:29,1,50,2|0,0:0|0:0,0:0:0:0:
222,104,30348,2,0,P|239:86|254:66,1,50,2|0,2:2|0:0,0:0:0:0:
329,25,30717,1,2,2:2:0:0:
329,25,30840,2,0,L|353:30,3,25,0|0|2|2,0:0|0:0|2:2|0:0,0:0:0:0:
420,88,31332,21,2,2:2:0:0:
431,78,31454,1,0,0:0:0:0:
445,72,31577,1,2,2:3:0:0:
459,70,31700,1,0,0:0:0:0:
472,72,31824,2,0,P|490:62|502:43,3,37.5000014305115,0|0|2|0,0:0|0:0|2:3|0:0,0:0:0:0:
399,165,32316,5,2,2:2:0:0:
384,160,32438,1,0,0:0:0:0:
372,151,32561,2,0,P|354:140|331:139,1,37.5000014305115,2|2,2:3|2:2,0:0:0:0:
297,73,32807,2,0,P|280:81|269:96,1,37.5000014305115
191,98,33053,2,0,P|190:116|197:133,1,37.5000014305115,2|0,2:3|0:0,0:0:0:0:
264,186,33299,21,2,2:2:0:0:
259,200,33421,1,0,0:0:0:0:
250,212,33544,1,2,2:3:0:0:
239,221,33667,1,0,0:0:0:0:
226,225,33791,2,0,P|215:242|214:265,3,37.5000014305115,0|0|2|0,0:0|0:0|2:3|0:0,0:0:0:0:
278,312,34283,5,2,2:2:0:0:
289,321,34405,1,0,0:0:0:0:
297,334,34528,1,2,2:3:0:0:
301,347,34651,1,2,2:2:0:0:
299,361,34775,2,0,P|310:375|326:384,3,37.5000014305115,0|0|2|0,0:0|0:0|2:3|0:0,0:0:0:0:
199,335,35266,21,2,2:2:0:0:
184,336,35388,1,0,0:0:0:0:
168,339,35511,1,2,2:3:0:0:
154,343,35634,1,0,0:0:0:0:
136,374,35758,5,0,0:0:0:0:
121,373,35880,1,0,0:0:0:0:
105,370,36003,1,2,2:3:0:0:
91,366,36126,1,0,0:0:0:0:
45,358,36250,21,2,2:2:0:0:
49,344,36373,1,0,0:0:0:0:
52,328,36496,1,2,2:3:0:0:
53,313,36618,1,2,2:2:0:0:
24,282,36742,5,0,0:0:0:0:
20,268,36865,1,0,0:0:0:0:
17,252,36988,1,2,2:3:0:0:
16,237,37110,1,0,0:0:0:0:
52,217,37234,22,0,P|62:201|69:184,3,37.5000014305115,2|0|2|0,2:2|0:0|2:3|0:0,0:0:0:0:
18,118,37725,2,0,P|7:102|0:85,3,37.5000014305115,0|0|2|0,0:0|0:0|2:3|0:0,0:0:0:0:
64,27,38217,2,0,P|111:49|178:48,1,112.500004291535,2|2,2:2|2:2,0:0:0:0:
220,108,38709,5,0,0:0:0:0:
227,102,38831,1,0,0:0:0:0:
234,96,38954,1,2,2:3:0:0:
240,89,39077,1,0,0:0:0:0:
245,81,39201,2,0,P|256:65|265:42,3,37.5000014305115,2|0|2|0,2:2|0:0|2:3|0:0,0:0:0:0:
341,11,39693,21,0,0:0:0:0:
345,25,39815,1,0,0:0:0:0:
352,39,39938,1,2,2:3:0:0:
360,52,40061,1,0,0:0:0:0:
355,97,40184,5,0,0:0:0:0:
367,104,40306,1,0,0:0:0:0:
382,109,40430,2,0,P|398:101|413:89,1,37.5000014305115,2|0,2:3|0:0,0:0:0:0:
490,41,40676,2,0,P|488:58|491:77,1,37.5000014305115,2|0,2:2|0:0,0:0:0:0:
494,168,40922,2,0,P|479:158|461:151,1,37.5000014305115,2|0,2:3|0:0,0:0:0:0:
378,194,41168,22,0,L|382:217,3,14.9999995422363,2|0|2|0,2:2|0:0|2:3|0:0,0:0:0:0:
296,205,41660,2,0,L|301:229,3,25,0|0|2|0,0:0|0:0|2:3|0:0,0:0:0:0:
213,220,42152,2,0,L|220:254,3,34.9999989318848,0|0|2|0,0:0|0:0|2:3|0:0,0:0:0:0:
126,234,42643,2,0,L|135:278,3,44.999998626709,0|0|2|0,0:0|0:0|2:3|0:0,0:0:0:0:
58,348,43135,5,2,2:2:0:0:
45,343,43258,1,2,2:2:0:0:
45,330,43381,1,2,2:3:0:0:
58,326,43504,1,2,2:2:0:0:
74,336,43627,21,2,2:2:0:0:
61,318,43750,1,2,2:2:0:0:
39,325,43873,1,2,2:3:0:0:
39,348,43996,1,2,2:2:0:0:
61,355,44119,5,2,2:2:0:0:
74,336,44242,1,2,2:2:0:0:
80,300,44365,1,2,2:3:0:0:
66,262,44488,1,2,2:2:0:0:
22,243,44611,1,2,2:2:0:0:
3,193,44734,1,2,2:2:0:0:
23,145,44857,1,2,2:3:0:0:
74,131,44979,1,2,2:2:0:0:
119,161,45103,21,2,2:2:0:0:
164,191,45226,1,2,2:2:0:0:
215,177,45348,1,2,2:3:0:0:
235,129,45471,1,2,2:2:0:0:
216,79,45594,1,2,2:2:0:0:
242,27,45717,1,2,2:2:0:0:
299,15,45840,1,2,2:3:0:0:
354,44,45963,1,2,2:2:0:0:
355,106,46086,22,0,P|320:127|353:96,1,134.999995880127,2|0,2:1|0:0,0:0:0:0:
373,87,46578,22,0,P|325:102|282:127,2,100.000003814697,2|2|2,2:2|2:2|2:2,0:0:0:0:
470,15,47070,22,0,P|437:161|406:312,1,300.000011444092,2|2,3:2|2:2,0:0:0:0:
406,308,47807,2,0,L|468:294,1,50,2|2,2:2|2:2,0:0:0:0:
342,251,48053,1,2,2:2:0:0:
269,295,48299,1,0,0:0:0:0:
288,378,48545,1,0,0:0:0:0:
296,376,48668,1,0,0:0:0:0:
304,374,48791,1,2,2:2:0:0:
312,372,48914,1,2,2:2:0:0:
320,370,49037,5,2,2:2:0:0:
269,295,49283,1,2,2:2:0:0:
181,320,49529,2,0,L|188:356,1,37.5000014305115,0|0,3:3|0:0,0:0:0:0:
130,244,49775,1,2,2:2:0:0:
186,172,50020,2,0,L|222:179,1,37.5000014305115,2|0,3:2|0:0,0:0:0:0:
361,209,50266,22,0,L|380:213,2,20,2|0|0,2:2|0:0|0:0,0:0:0:0:
295,132,51004,5,2,3:2:0:0:
299,120,51127,1,2,2:2:0:0:
306,111,51250,2,0,P|321:99|338:91,1,37.5000014305115,2|0,2:2|0:0,0:0:0:0:
347,16,51496,1,2,2:2:0:0:
359,18,51619,2,0,P|376:24|391:35,1,37.5000014305115,2|2,2:2|2:2,0:0:0:0:
462,9,51865,1,2,2:2:0:0:
466,20,51988,2,0,P|469:38|467:57,1,37.5000014305115,2|0,2:2|0:0,0:0:0:0:
446,166,52234,22,0,P|446:176|450:189,2,20,0|0|2,0:0|0:0|2:2,0:0:0:0:
337,91,52971,5,2,2:2:0:0:
261,33,53217,1,2,2:2:0:0:
194,94,53463,2,0,L|218:99,1,25,0|0,3:3|0:0,0:0:0:0:
127,37,53709,1,2,2:2:0:0:
39,91,53955,2,0,L|63:96,1,25,2|0,3:2|0:0,0:0:0:0:
151,176,54201,22,0,L|127:171,2,20,2|0|0,2:2|0:0|0:0,0:0:0:0:
84,246,54938,1,2,3:2:0:0:
73,242,55061,1,2,2:2:0:0:
63,237,55184,2,0,P|46:221|32:195,1,37.5000014305115,2|0,2:2|0:0,0:0:0:0:
129,311,55430,1,2,2:2:0:0:
119,317,55553,2,0,P|96:323|67:322,1,37.5000014305115,2|2,2:2|2:2,0:0:0:0:
216,297,55799,1,2,2:2:0:0:
216,308,55922,2,0,P|210:330|195:355,1,37.5000014305115,2|0,2:2|0:0,0:0:0:0:
294,384,56168,6,0,P|288:369|287:358,2,20,0|0|2,0:0|0:0|2:2,0:0:0:0:
364,346,56783,1,2,2:2:0:0:
364,346,56906,2,0,P|377:333|386:317,1,37.5000014305115,2|0,2:2|0:0,0:0:0:0:
464,303,57152,2,0,P|460:284|450:268,1,37.5000014305115,2|0,2:2|0:0,0:0:0:0:
476,194,57397,2,0,P|458:188|439:188,1,37.5000014305115,2|0,3:2|0:0,0:0:0:0:
370,238,57643,1,2,2:2:0:0:
361,153,57889,2,0,P|366:135|377:119,1,37.5000014305115,2|0,3:2|0:0,0:0:0:0:
454,38,58135,22,0,P|466:36|477:33,2,20,2|0|0,2:2|0:0|0:0,0:0:0:0:
217,21,58873,6,0,P|224:52|228:75,1,50,2|0,3:2|0:0,0:0:0:0:
288,138,59119,2,0,P|280:169|276:192,1,50,2|0,2:2|0:0,0:0:0:0:
209,244,59365,2,0,P|216:275|220:298,1,50,2|0,2:2|0:0,0:0:0:0:
296,335,59611,1,2,2:2:0:0:
296,335,59734,1,0,0:0:0:0:
296,335,59857,2,0,P|288:366|284:389,1,50,2|0,2:2|0:0,0:0:0:0:
151,313,60102,1,2,2:2:0:0:
88,360,60348,2,0,L|82:335,3,25,2|0|2|0,2:2|0:0|2:2|0:0,0:0:0:0:
14,384,60840,6,0,L|11:364,15,20,2|0|0|0|0|0|0|0|0|0|0|0|0|0|0|0,3:1|3:3|3:3|3:3|3:3|3:3|3:3|3:3|3:3|3:3|3:3|3:3|3:3|3:3|3:3|3:3,0:0:0:0:
262,36,68709,6,0,L|224:368,1,325,0|0,3:3|0:0,0:0:0:0:
225,358,72643,6,0,L|249:352,3,25,0|2|2|2,3:3|2:2|2:2|2:2,0:0:0:0:
112,325,73135,2,0,L|136:319,3,25,0|2|2|2,3:3|2:2|2:2|2:2,0:0:0:0:
324,247,73627,22,0,L|360:239,3,37.5000014305115,0|2|2|2,3:3|2:2|2:2|2:2,0:0:0:0:
169,193,74119,2,0,L|205:185,3,37.5000014305115,0|2|2|2,3:3|2:2|2:2|2:2,0:0:0:0:
135,74,74611,5,0,3:3:0:0:
135,61,74734,1,2,2:2:0:0:
143,42,74857,1,2,2:2:0:0:
164,28,74979,1,2,2:2:0:0:
197,26,75102,1,0,3:3:0:0:
234,50,75225,1,2,2:2:0:0:
235,102,75348,1,2,2:2:0:0:
271,149,75471,1,2,2:2:0:0:
332,156,75594,1,0,3:3:0:0:
374,107,75717,1,2,2:2:0:0:
363,45,75840,1,2,2:2:0:0:
307,16,75963,1,2,2:2:0:0:
253,42,76086,6,0,L|259:71,1,30,6|0,3:3|0:0,0:0:0:0:
271,149,76578,6,0,B|342:140|331:60|331:60|275:42|251:83,1,200,6|0,3:1|0:0,0:0:0:0:
198,122,76946,2,0,P|296:140|401:165,1,200,0|0,3:3|0:0,0:0:0:0:
479,218,77315,2,0,P|453:223|423:234,1,50,0|0,3:3|0:0,0:0:0:0:
220,304,77561,22,0,P|199:311|177:321,1,44.999998626709,12|0,2:2|0:0,0:0:0:0:
123,377,78053,6,0,B|79:346|27:354|27:354|80:346|114:272,1,200,0|0,3:3|0:0,0:0:0:0:
166,241,78422,2,0,P|173:172|113:242,1,200,0|0,3:3|0:0,0:0:0:0:
178,320,78791,6,0,P|198:311|220:304,1,44.999998626709,0|0,3:3|0:0,0:0:0:0:
430,230,79037,6,0,P|454:222|478:218,1,49.499999848938,12|0,2:2|0:0,0:0:0:0:
393,163,79528,6,0,P|296:140|198:122,1,200,0|0,3:3|0:0,0:0:0:0:
259,71,79897,2,0,B|275:42|331:60|331:60|342:140|271:149,1,200,0|0,3:3|0:0,0:0:0:0:
176,208,80266,2,0,P|148:200|117:196,1,50,0|0,3:3|0:0,0:0:0:0:
9,118,80512,22,0,L|0:73,1,44.999998626709,4|0,3:2|0:0,0:0:0:0:
86,2,81004,6,0,L|127:197,1,200,0|0,3:3|0:0,0:0:0:0:
74,293,81373,2,0,B|46:296|22:328|22:328|27:278|71:252|125:280,1,200,0|0,3:3|0:0,0:0:0:0:
198,343,81741,2,0,P|224:358|262:359,1,50,0|0,3:3|0:0,0:0:0:0:
367,272,81987,22,0,P|341:287|321:319,1,50,12|0,2:2|0:0,0:0:0:0:
378,372,82233,2,0,P|403:356|423:324,1,50,0|0,3:3|3:3,0:0:0:0:
485,253,82479,5,0,3:3:0:0:
480,243,82602,2,0,P|473:220|468:194,1,50,8|0,2:2|3:3,0:0:0:0:
451,79,82848,1,8,2:2:0:0:
462,95,82971,21,0,3:3:0:0:
414,125,83094,1,8,2:2:0:0:
363,94,83217,1,8,2:2:0:0:
367,33,83340,1,8,2:2:0:0:
419,15,83463,6,0,B|459:69|426:120|370:115|369:111|367:106|289:107|279:186|343:216,1,269.999991760254,6|0,3:2|0:0,0:0:0:0:
367,272,83954,2,0,P|389:252|401:225,1,59.9999981689454,8|0,2:2|0:0,0:0:0:0:
270,79,84200,2,0,P|247:98|235:125,1,59.9999981689454,2|0,2:2|0:0,0:0:0:0:
198,249,84446,1,2,3:2:0:0:
198,249,84569,1,0,0:0:0:0:
198,249,84692,2,0,P|172:234|142:227,1,59.9999981689454
3,331,84938,2,0,P|20:355|31:384,1,59.9999981689454,8|0,2:2|0:0,0:0:0:0:
79,288,85184,2,0,P|90:316|107:341,1,59.9999981689454
164,123,85430,6,0,P|75:150|31:201,1,150.000005722046,2|0,3:2|0:0,0:0:0:0:
25,201,85799,1,0,0:0:0:0:
17,208,85922,2,0,P|32:176|59:157,1,59.9999981689454,8|0,2:2|0:0,0:0:0:0:
144,44,86167,2,0,P|179:40|209:54,2,59.9999981689454,2|0|0,2:2|0:0|3:3,0:0:0:0:
19,27,86536,1,0,0:0:0:0:
6,31,86659,2,0,P|24:54|50:69,1,59.9999981689454,2|0,2:2|0:0,0:0:0:0:
253,123,86905,2,0,B|327:121|304:65|395:69,1,150,10|0,2:2|0:0,0:0:0:0:
452,93,87397,22,0,P|326:69|200:49,1,255.000004863739,2|0,3:2|0:0,0:0:0:0:
86,36,87889,6,0,L|83:26,1,10,8|0,2:2|0:0,0:0:0:0:
41,123,88135,2,0,L|36:111,1,10,2|0,2:2|0:0,0:0:0:0:
137,191,88381,2,0,L|130:179,1,10,0|0,3:3|0:0,0:0:0:0:
39,234,88626,2,0,L|27:223,1,10
107,309,88872,2,0,L|96:306,1,10,10|0,2:2|0:0,0:0:0:0:
201,334,89118,2,0,L|190:345,1,10
279,260,89364,22,0,L|267:256,1,10,0|0,3:3|0:0,0:0:0:0:
365,247,89610,2,0,L|353:243,1,10
353,324,89856,2,0,L|341:320,1,10,8|0,2:2|0:0,0:0:0:0:
469,368,90102,5,0,3:3:0:0:
445,372,90225,1,8,2:2:0:0:
428,362,90348,2,0,P|446:324|487:274,1,85.0000016212464,6|0,3:2|0:0,0:0:0:0:
512,114,90594,5,8,2:2:0:0:
446,98,90717,1,8,2:2:0:0:
401,151,90840,1,2,3:2:0:0:
427,207,90963,1,0,3:3:0:0:
456,209,91085,1,4,2:3:0:0:
469,194,91208,1,4,2:3:0:0:
464,184,91331,6,0,P|367:151|279:137,1,179.999994506836,6|0,3:2|0:0,0:0:0:0:
250,56,91700,2,0,P|226:75|199:88,1,59.9999981689454,8|0,2:2|0:0,0:0:0:0:
38,165,91946,1,8,2:2:0:0:
47,152,92069,2,0,P|42:122|34:93,1,59.9999981689454,0|0,3:3|0:0,0:0:0:0:
106,17,92315,2,0,P|111:47|118:75,1,59.9999981689454,0|0,3:3|3:3,0:0:0:0:
206,185,92561,6,0,L|143:171,1,59.9999981689454,8|0,2:2|0:0,0:0:0:0:
26,304,92807,1,8,2:2:0:0:
33,293,92930,2,0,P|82:255|155:255,1,119.999996337891,0|0,3:3|0:0,0:0:0:0:
236,335,93299,22,0,P|229:305|223:276,1,59.9999981689454,4|0,3:2|0:0,0:0:0:0:
286,147,93544,1,0,0:0:0:0:
290,138,93667,2,0,P|296:108|302:79,1,59.9999981689454,8|0,2:2|0:0,0:0:0:0:
230,21,93912,1,8,2:2:0:0:
228,36,94036,2,0,P|223:65|216:94,1,59.9999981689454,0|0,3:3|0:0,0:0:0:0:
425,111,94282,5,0,3:3:0:0:
451,86,94405,1,0,3:3:0:0:
437,51,94528,2,0,P|410:79|406:111,1,59.9999981689454,8|0,2:2|0:0,0:0:0:0:
365,265,94774,1,2,2:2:0:0:
420,252,94897,1,0,3:3:0:0:
421,204,95020,1,0,3:3:0:0:
393,189,95143,1,0,0:0:0:0:
372,198,95266,22,0,B|435:195|445:271|536:253,1,150.000005722046,2|0,3:2|0:0,0:0:0:0:
475,334,95635,2,0,P|442:347|412:377,1,59.9999981689454,8|0,2:2|0:0,0:0:0:0:
317,294,95881,1,8,2:2:0:0:
302,316,96003,2,0,P|296:351|307:392,1,59.9999981689454,0|0,3:3|0:0,0:0:0:0:
239,242,96249,1,0,3:3:0:0:
213,234,96372,1,0,3:3:0:0:
186,232,96494,2,0,P|152:244|122:274,1,59.9999981689454,8|0,2:2|0:0,0:0:0:0:
35,384,96741,5,8,2:2:0:0:
87,370,96864,1,0,3:3:0:0:
87,323,96987,1,0,0:0:0:0:
54,302,97110,1,0,3:3:0:0:
28,323,97233,22,0,P|107:335|212:355,1,170.000003242493,2|0,3:2|0:0,0:0:0:0:
317,294,97602,2,0,P|285:302|249:312,1,59.9999981689454,8|0,2:2|0:0,0:0:0:0:
461,337,97848,1,8,2:2:0:0:
444,343,97971,2,0,P|412:351|376:361,1,59.9999981689454,2|0,3:2|0:0,0:0:0:0:
494,185,98217,6,0,P|486:215|481:243,1,59.9999981689454,2|0,3:2|3:3,0:0:0:0:
384,251,98463,2,0,P|390:221|396:192,1,59.9999981689454,8|10,2:2|2:2,0:0:0:0:
334,68,98708,21,4,3:2:0:0:
288,83,98831,1,0,3:3:0:0:
247,59,98954,1,2,2:2:0:0:
245,19,99077,1,0,3:3:0:0:
276,4,99200,22,0,L|236:382,1,379.999989852906,2|2,3:2|2:2,0:0:0:0:
236,381,101167,6,0,P|231:356|222:333,1,47.4999987316132,4|0,3:2|0:0,0:0:0:0:
353,301,101413,2,0,P|358:276|367:253,1,47.4999987316132
128,217,101659,2,0,P|120:188|107:158,1,57.5000010967255,0|0,3:3|0:0,0:0:0:0:
367,110,101905,2,0,P|375:81|388:51,1,57.5000010967255,0|8,0:0|2:2,0:0:0:0:
198,15,102151,21,0,3:3:0:0:
166,56,102274,1,8,2:2:0:0:
177,106,102397,1,0,3:3:0:0:
224,126,102520,1,8,2:2:0:0:
236,130,102643,1,0,3:3:0:0:
286,161,102766,1,8,2:2:0:0:
287,223,102889,1,8,2:2:0:0:
228,251,103012,1,0,3:3:0:0:
