osu file format v14

[General]
AudioFilename: audio.ogg
AudioLeadIn: 0
PreviewTime: 75538
Countdown: 0
SampleSet: Soft
StackLeniency: 0.7
Mode: 0
LetterboxInBreaks: 0
WidescreenStoryboard: 0

[Editor]
Bookmarks: 1583,11173,15599,31337,47075,60845,68714,76583,83468,91336,103017
DistanceSpacing: 0.3
BeatDivisor: 4
GridSize: 32
TimelineZoom: 1.8

[Metadata]
Title:Two Blanc
TitleUnicode:Two Blanc
Artist:Hinano
ArtistUnicode:Hinano
Creator:pnky
Version:Daydream
Source:白昼夢の青写真 CASE-_ 誰が為のIHATOV
Tags:eringira gazimal pop jpop j-pop the girl who's whos called the world the girl who dreamed visual novel vn galgame eroge laplacian clammbon クラムボン bulukanilo ブルカニロ Into Gray japanese electronic theme song case-blanc tagatame no 緒乃ワサビ onoWasabi momo muudog takuya kiyohara yuki cyanotype daydream hakuchuumu no aojashin
BeatmapID:4246969
BeatmapSetID:2036469

[Difficulty]
HPDrainRate:6
CircleSize:4.2
OverallDifficulty:8.6
ApproachRate:9.2
SliderMultiplier:2
SliderTickRate:1

[Events]
//Background and Video events
0,0,"main2.png",0,0
Video,0,"video_1.mp4"
//Break Periods
//Storyboard Layer 0 (Background)
//Storyboard Layer 1 (Fail)
//Storyboard Layer 2 (Pass)
//Storyboard Layer 3 (Foreground)
//Storyboard Layer 4 (Overlay)
//Storyboard Sound Samples

[TimingPoints]
-143,491.803278688525,4,2,1,30,1,0
11168,-500,4,2,1,30,0,0
15594,-333.333333333333,4,2,1,30,0,0
17438,-333.333333333333,4,2,1,5,0,0
17561,-333.333333333333,4,2,1,30,0,0
18299,-333.333333333333,4,2,1,25,0,0
21496,-200,4,2,1,25,0,0
22479,-333.333333333333,4,2,1,25,0,0
23463,-500,4,2,1,25,0,0
25430,-250,4,2,1,25,0,0
27397,-200,4,2,1,25,0,0
29365,-200,4,2,1,25,0,0
30348,-333.333333333333,4,2,1,25,0,0
31332,-111.111111111111,4,2,1,30,0,0
32070,-111.111111111111,4,2,2,30,0,0
32316,-111.111111111111,4,2,1,30,0,0
32746,-111.111111111111,4,2,1,5,0,0
32807,-66.6666666666667,4,2,1,30,0,0
32992,-66.6666666666667,4,2,1,5,0,0
33053,-83.3333333333333,4,2,2,30,0,0
33299,-66.6666666666667,4,2,1,30,0,0
34037,-66.6666666666667,4,2,2,30,0,0
34283,-66.6666666666667,4,2,1,30,0,0
35020,-66.6666666666667,4,2,2,30,0,0
35266,-66.6666666666667,4,2,1,30,0,0
36004,-66.6666666666667,4,2,2,30,0,0
36250,-66.6666666666667,4,2,1,30,0,0
36988,-66.6666666666667,4,2,2,30,0,0
37234,-66.6666666666667,4,2,1,30,0,0
37971,-66.6666666666667,4,2,2,30,0,0
38217,-66.6666666666667,4,2,1,30,0,0
38955,-66.6666666666667,4,2,2,30,0,0
39201,-111.111111111111,4,2,1,30,0,0
40430,-99.9999999999999,4,2,2,30,0,0
40615,-99.9999999999999,4,2,2,5,0,0
40676,-62.5,4,2,1,30,0,0
40861,-62.5,4,2,1,5,0,0
40922,-76.9230769230769,4,2,1,30,0,0
41168,-100,4,2,1,30,0,0
41906,-100,4,2,2,32,0,0
42397,-100,4,2,1,34,0,0
42889,-100,4,2,2,36,0,0
43135,-83.3333333333333,4,2,1,39,0,0
43381,-83.3333333333333,4,2,2,39,0,0
43504,-83.3333333333333,4,2,1,39,0,0
43627,-71.4285714285714,4,2,1,42,0,0
43873,-71.4285714285714,4,2,2,42,0,0
43996,-71.4285714285714,4,2,1,42,0,0
44119,-62.5,4,2,1,45,0,0
44365,-62.5,4,2,2,45,0,0
44488,-62.5,4,2,1,45,0,0
44611,-55.5555555555556,4,2,1,48,0,0
44857,-55.5555555555556,4,2,2,48,0,0
44979,-55.5555555555556,4,2,1,48,0,0
45102,-71.4285714285714,4,2,1,51,0,0
45348,-71.4285714285714,4,2,2,51,0,0
45471,-71.4285714285714,4,2,1,51,0,0
45594,-71.4285714285714,4,2,1,54,0,0
45840,-71.4285714285714,4,2,2,54,0,0
45963,-71.4285714285714,4,2,1,54,0,0
46086,-400,4,2,1,50,0,0
46578,-50,4,2,1,30,0,0
47070,-100,4,2,1,55,0,0
48053,-100,4,2,2,55,0,0
48791,-100,4,2,1,55,0,0
50020,-100,4,2,2,55,0,0
50266,-100,4,2,1,55,0,0
50512,-86.9565217391304,4,2,1,55,0,0
51004,-83.3333333333333,4,2,1,55,0,0
51496,-100,4,2,1,55,0,0
51988,-100,4,2,2,55,0,0
52725,-100,4,2,1,55,0,0
53955,-100,4,2,2,55,0,0
54201,-100,4,2,1,55,0,0
55922,-100,4,2,2,55,0,0
56660,-100,4,2,1,55,0,0
57889,-100,4,2,2,55,0,0
58135,-100,4,2,1,55,0,0
58381,-86.9565217391304,4,2,1,55,0,0
58873,-62.5,4,2,1,55,0,0
59057,-62.5,4,2,1,5,0,0
59119,-71.4285714285714,4,2,1,55,0,0
59303,-71.4285714285714,4,2,1,5,0,0
59365,-83.3333333333333,4,2,1,55,0,0
59549,-83.3333333333333,4,2,1,5,0,0
59611,-83.3333333333333,4,2,1,55,0,0
59857,-55.5555555555556,4,2,2,55,0,0
60041,-55.5555555555556,4,2,2,5,0,0
60102,-66.6666666666667,4,2,1,55,0,0
60287,-66.6666666666667,4,2,1,5,0,0
60348,-83.3333333333333,4,2,1,55,0,0
60533,-83.3333333333333,4,2,1,5,0,0
60594,-74.0740740740741,4,2,1,55,0,0
60779,-111.111111111111,4,2,1,55,0,0
60840,-1000,4,2,2,30,0,1
68709,-250,4,2,2,30,0,0
70676,-125,4,2,2,40,0,0
72643,-62.5,4,2,2,50,0,0
72766,-62.5,4,2,3,50,0,0
73627,-62.5,4,2,3,60,0,0
74611,-41.6666666666667,4,2,3,70,0,0
75594,-15.625,4,2,3,70,0,0
75840,-17.8571428571429,4,2,3,70,0,0
76086,-333.333333333333,4,2,3,75,0,0
76455,-333.333333333333,4,2,3,5,0,0
76578,491.803278688525,3,2,3,80,1,0
76578,-100,3,2,3,80,0,0
77316,-20,3,2,3,80,0,0
77561,-20,3,2,1,80,0,0
77684,-20,3,2,1,5,0,0
78053,-76.9230769230769,3,2,1,80,0,0
79037,-25,3,2,1,80,0,0
79159,-25,3,2,1,5,0,0
79528,-100,3,2,1,80,0,0
80512,-20,3,2,1,80,0,0
80635,-20,3,2,1,5,0,0
81004,-76.9230769230769,3,2,1,80,0,0
81987,-25,3,2,1,80,0,0
82233,-50,3,2,1,80,0,0
82479,-25,3,2,1,70,0,0
82602,-166.666666666667,3,2,2,70,0,0
82725,-100,3,2,2,70,0,0
82971,-100,3,2,2,75,0,0
83463,491.803278688525,4,2,1,75,1,0
83463,-57.1428571428571,4,2,1,75,0,0
83954,-57.1428571428571,4,2,3,75,0,0
90348,-57.1428571428571,4,2,1,75,0,0
90594,-57.1428571428571,4,2,3,75,0,0
91331,-66.6666666666667,4,2,1,70,0,0
91700,-66.6666666666667,4,2,2,70,0,0
93299,-45.4545454545455,4,2,1,70,0,0
93667,-66.6666666666667,4,2,3,70,0,0
98708,-66.6666666666667,4,2,1,70,0,0
99200,-105.263157894737,4,2,4,45,0,0
101167,-142.857142857143,4,2,1,55,0,0
101598,-100,4,2,1,5,0,0
101659,-111.111111111111,4,2,1,55,0,0
102028,-62.5,4,2,2,55,0,0
102090,-62.5,4,2,2,5,0,0
102151,-27.7777777777778,4,2,2,60,0,0
102397,-22.2222222222222,4,2,2,65,0,0
102643,-18.5185185185185,4,2,2,70,0,0
102889,-15.8730158730159,4,2,2,75,0,0
103012,-15.8730158730159,4,2,5,75,0,0

[Colours]
Combo1 : 242,0,0
Combo2 : 208,208,208
Combo3 : 151,151,151

[HitObjects]
256,192,1578,12,0,10922,0:0:0:0:
31,34,11168,5,0,0:0:0:0:
40,38,11414,2,0,P|18:9|39:39,1,110,0|0,0:0|0:0,1:2:0:0:
256,192,13012,5,0,0:0:0:0:
12,364,15594,22,0,B|34:372|34:372|233:332,1,224.999993133545
224,315,17561,2,0,L|411:353,1,179.999994506836
420,355,19529,6,0,P|473:336|393:277,1,209.999993591309,2|0,2:2|0:0,0:0:0:0:
258,116,21496,22,0,P|330:129|379:184,1,150,0|2,0:0|2:2,0:0:0:0:
478,155,22479,2,0,P|492:196|478:241,1,89.9999972534181,2|2,2:2|2:2,0:0:0:0:
395,272,23463,6,0,P|338:256|278:250,1,120,2|2,2:2|2:2,0:0:0:0:
63,138,25430,2,0,P|45:174|69:141,2,120,2|2|2,2:2|2:2|2:2,0:0:0:0:
166,231,27397,22,0,P|214:228|289:162,2,150,2|2|2,2:2|2:2|2:2,0:0:0:0:
0,339,29365,6,0,B|52:284|52:284|126:309,1,150,0|2,0:0|2:2,0:0:0:0:
166,231,30348,2,0,B|196:262|196:262|238:248,1,89.9999972534181,2|2,2:2|2:2,0:0:0:0:
439,361,31332,1,2,2:2:0:0:
397,288,31578,21,2,2:3:0:0:
397,288,32070,1,2,2:3:0:0:
397,288,32561,6,0,P|374:252|334:248,1,67.4999979400635,2|0,2:3|0:0,0:0:0:0:
324,253,32807,2,0,P|306:302|346:337,1,112.500004291535
346,337,33053,2,0,L|272:348,1,59.9999981689454,2|0,2:3|0:0,0:0:0:0:
76,371,33299,1,2,2:2:0:0:
137,296,33545,21,2,2:3:0:0:
137,296,34037,1,2,2:3:0:0:
137,296,34529,1,2,2:3:0:0:
137,296,35020,1,2,2:3:0:0:
19,123,35266,5,2,2:2:0:0:
148,50,35512,21,2,2:3:0:0:
144,63,35635,1,0,0:0:0:0:
218,132,36004,5,2,2:3:0:0:
205,128,36127,1,0,0:0:0:0:
136,202,36496,21,2,2:3:0:0:
140,189,36619,1,2,2:2:0:0:
66,120,36988,5,2,2:3:0:0:
79,124,37111,1,0,0:0:0:0:
92,128,37234,1,2,2:2:0:0:
227,237,37479,21,2,2:3:0:0:
222,218,37602,1,0,0:0:0:0:
188,313,37848,1,0,0:0:0:0:
183,294,37971,1,2,2:3:0:0:
227,237,38094,1,0,0:0:0:0:
294,261,38217,1,2,2:2:0:0:
505,205,38463,5,2,2:3:0:0:
438,229,38586,1,2,2:2:0:0:
394,172,38709,21,0,0:0:0:0:
411,187,38832,1,0,0:0:0:0:
434,112,38955,5,2,2:3:0:0:
456,111,39078,1,0,0:0:0:0:
426,40,39201,21,2,2:2:0:0:
325,193,39447,5,2,2:3:0:0:
329,214,39570,1,0,0:0:0:0:
442,262,39938,21,2,2:3:0:0:
421,266,40061,1,0,0:0:0:0:
373,379,40430,6,0,B|365:343|365:343|323:339,1,75,2|0,2:3|0:0,0:0:0:0:
306,313,40676,2,0,P|253:328|255:385,1,120,2|0,2:2|0:0,0:0:0:0:
254,384,40922,2,0,L|184:373,1,64.9999970245363,2|0,2:3|0:0,0:0:0:0:
8,325,41168,21,2,2:2:0:0:
152,268,41414,1,2,2:3:0:0:
163,295,41537,1,0,0:0:0:0:
40,220,41783,5,0,0:0:0:0:
81,204,41906,1,2,2:3:0:0:
122,188,42029,1,0,0:0:0:0:
106,147,42152,1,0,0:0:0:0:
234,237,42397,21,2,2:3:0:0:
223,210,42520,1,0,0:0:0:0:
234,237,42643,6,0,L|293:215,1,50
233,153,42889,2,0,L|292:131,1,50,2|0,2:3|0:0,0:0:0:0:
247,268,43135,22,0,L|291:223,1,59.9999981689454,2|2,2:2|2:2,0:0:0:0:
233,139,43381,2,0,L|277:94,1,59.9999981689454,2|2,2:3|2:2,0:0:0:0:
275,293,43627,6,0,L|301:222,1,69.9999978637696,2|2,2:2|2:2,0:0:0:0:
230,124,43873,2,0,L|256:53,1,69.9999978637696,2|2,2:3|2:2,0:0:0:0:
317,305,44119,22,0,L|311:222,1,80,2|2,2:2|2:2,0:0:0:0:
219,116,44365,2,0,L|213:33,1,80,2|2,2:3|2:2,0:0:0:0:
366,298,44611,6,0,L|323:217,1,89.9999972534181,2|2,2:2|2:2,0:0:0:0:
205,113,44857,2,0,L|162:33,1,89.9999972534181,2|2,2:3|2:2,0:0:0:0:
178,286,45102,21,2,2:2:0:0:
164,364,45225,1,2,2:2:0:0:
130,294,45348,5,2,2:3:0:0:
144,354,45471,1,2,2:2:0:0:
103,307,45594,21,2,2:2:0:0:
132,346,45717,1,2,2:2:0:0:
96,324,45840,5,2,2:3:0:0:
122,339,45963,1,2,2:2:0:0:
39,375,46086,6,0,L|-1:385,1,37.5,2|0,2:1|2:2,0:0:0:0:
103,307,46578,6,0,B|146:283|143:215|103:136|19:164|27:252|48:301|82:292,1,266.666666666667,2|2,2:2|2:2,0:0:0:0:
208,280,47070,5,2,3:2:0:0:
305,305,47193,1,2,2:2:0:0:
279,209,47316,21,2,2:2:0:0:
255,232,47561,5,2,2:2:0:0:
231,256,47807,21,2,2:2:0:0:
208,280,48053,5,2,2:2:0:0:
415,204,48545,1,0,0:0:0:0:
246,63,48791,21,2,2:2:0:0:
231,150,48914,1,2,2:2:0:0:
216,237,49037,1,2,2:2:0:0:
122,199,49283,5,2,2:2:0:0:
128,224,49529,21,0,3:3:0:0:
135,249,49775,5,2,2:2:0:0:
145,276,50020,21,2,3:2:0:0:
145,276,50266,1,2,2:2:0:0:
52,299,50512,5,0,0:0:0:0:
63,308,50574,1,0,0:0:0:0:
73,318,50635,1,0,0:0:0:0:
84,328,50697,1,0,0:0:0:0:
95,338,50758,2,0,L|23:272,1,57.5000010967255
19,158,51004,22,0,B|105:136|105:136|128:223,1,179.999994506836,2|0,3:2|0:0,0:0:0:0:
171,55,51496,5,2,2:2:0:0:
182,99,51619,1,2,2:2:0:0:
193,142,51742,1,2,2:2:0:0:
237,132,51865,1,2,2:2:0:0:
281,121,51987,1,2,2:2:0:0:
171,55,52234,21,0,0:0:0:0:
215,44,52479,1,0,0:0:0:0:
259,34,52725,1,2,2:2:0:0:
270,77,52848,1,2,2:2:0:0:
281,121,52971,1,2,2:2:0:0:
127,224,53217,1,2,2:2:0:0:
294,306,53463,5,0,3:3:0:0:
284,158,53709,21,2,2:2:0:0:
160,240,53955,5,2,3:2:0:0:
160,240,54447,21,0,0:0:0:0:
177,234,54508,1,0,0:0:0:0:
195,229,54570,1,0,0:0:0:0:
213,224,54631,1,0,0:0:0:0:
231,218,54693,2,0,L|221:272,1,50
294,306,54938,5,2,3:2:0:0:
372,281,55061,1,2,2:2:0:0:
450,256,55184,1,2,2:2:0:0:
320,297,55430,21,2,2:2:0:0:
346,289,55676,5,2,2:2:0:0:
372,281,55922,21,2,2:2:0:0:
130,384,56414,1,0,0:0:0:0:
161,122,56660,5,2,2:2:0:0:
107,191,56783,1,2,2:2:0:0:
24,160,56906,1,2,2:2:0:0:
207,58,57152,21,2,2:2:0:0:
281,74,57397,1,2,3:2:0:0:
355,90,57643,1,2,2:2:0:0:
432,111,57889,1,2,3:2:0:0:
432,111,58135,1,2,2:2:0:0:
420,198,58382,5,0,0:0:0:0:
435,193,58443,1,0,0:0:0:0:
451,189,58505,1,0,0:0:0:0:
466,184,58566,1,0,0:0:0:0:
482,180,58627,2,0,L|468:248,1,57.5000010967255
402,314,58873,22,0,P|372:266|314:263,1,120,2|0,3:2|0:0,0:0:0:0:
229,329,59119,6,0,P|279:326|306:284,1,104.999996795654,2|0,2:2|0:0,0:0:0:0:
294,191,59365,22,0,P|274:229|294:268,1,89.9999972534181,2|0,2:2|0:0,0:0:0:0:
345,139,59611,2,0,P|320:122|290:118,1,59.9999981689454,2|0,2:2|0:0,0:0:0:0:
126,305,59857,6,0,P|79:256|60:192,1,134.999995880127,2|0,2:2|0:0,0:0:0:0:
158,294,60102,22,0,P|102:293|52:267,1,112.500004291535,2|0,2:2|0:0,0:0:0:0:
174,271,60348,6,0,P|142:302|100:317,1,89.9999972534181,2|0,2:2|0:0,0:0:0:0:
169,249,60594,2,0,P|168:282|154:312,1,67.5000002574921,2|0,2:2|0:0,0:0:0:0:
14,384,60840,6,0,L|11:364,15,20,2|0|0|0|0|0|0|0|0|0|0|0|0|0|0|0,3:1|3:3|3:3|3:3|3:3|3:3|3:3|3:3|3:3|3:3|3:3|3:3|3:3|3:3|3:3|3:3,0:0:0:0:
306,29,68709,6,0,L|320:115,3,80,0|0|0|0,3:3|3:3|3:3|3:3,0:0:0:0:
231,69,70676,6,0,L|365:203,3,160,0|0|0|0,3:3|3:3|3:3|3:3,0:0:0:0:
104,171,72643,22,0,L|450:226,3,320,0|0|0|0,3:3|3:3|3:3|3:3,0:0:0:0:
49,357,74611,6,0,L|512:233,1,479.999985351563,0|0,3:3|3:3,0:0:0:0:
280,279,75348,22,0,B|221:296|221:296|215:354,1,119.999996337891,2|2,2:2|2:2,0:0:0:0:
308,271,75594,6,0,P|308:141|201:215,1,320,0|2,3:3|2:2,0:0:0:0:
325,247,75840,22,0,P|277:141|217:239,1,279.999991455078,2|2,2:2|2:2,0:0:0:0:
294,358,76086,22,0,L|337:345,1,44.999998626709,6|0,3:3|0:0,0:0:0:0:
43,113,76578,6,0,B|34:108|21:120|27:142|53:152|91:86|123:95|144:144|124:160,2,150,6|0|0,3:1|3:3|3:3,0:0:0:0:
127,17,77561,22,0,P|84:134|69:258,1,250,12|0,2:2|0:0,0:0:0:0:
300,384,78053,6,0,P|308:298|368:356,2,194.999991073609,0|0|0,3:3|3:3|3:3,0:0:0:0:
329,221,79037,22,0,P|260:238|204:370,1,200,12|0,2:2|0:0,0:0:0:0:
355,230,79528,6,0,B|401:252|401:252|445:231,1,100,0|0,3:3|0:0,0:0:0:0:
404,91,79897,2,0,B|450:69|450:69|494:89,1,100,0|0,3:3|0:0,0:0:0:0:
339,144,80266,2,0,P|317:156|292:161,1,50,0|0,3:3|0:0,0:0:0:0:
202,0,80512,22,0,P|323:0|404:91,1,250,4|0,3:2|0:0,0:0:0:0:
44,369,81004,6,0,P|17:286|45:237,1,129.999994049073,0|0,3:3|0:0,0:0:0:0:
204,236,81373,2,0,B|173:293|173:293|96:286,1,129.999994049073,0|0,3:3|0:0,0:0:0:0:
48,167,81741,2,0,P|78:178|100:201,1,64.9999970245363,0|0,3:3|0:0,0:0:0:0:
306,328,81987,22,0,L|396:149,1,200,12|0,2:2|0:0,0:0:0:0:
289,137,82233,2,0,L|333:47,1,100,0|0,3:3|3:3,0:0:0:0:
347,28,82479,5,0,3:3:0:0:
201,91,82602,2,0,L|192:52,1,29.9999990844727,8|0,2:2|3:3,0:0:0:0:
120,117,82848,5,8,2:2:0:0:
271,222,82971,1,0,3:3:0:0:
146,237,83094,5,8,2:2:0:0:
283,234,83217,1,8,2:2:0:0:
100,316,83340,5,8,2:2:0:0:
359,162,83463,2,0,P|425:189|446:289,1,175.00000166893,6|2,3:2|2:2,0:0:0:0:
333,168,83831,1,0,0:0:0:0:
461,118,83954,2,0,P|496:93|512:53,1,87.500000834465,8|0,2:2|0:0,0:0:0:0:
251,157,84200,2,0,P|256:199|283:234,1,87.500000834465,2|0,2:2|0:0,0:0:0:0:
352,15,84446,5,2,3:2:0:0:
387,86,84569,1,0,0:0:0:0:
232,56,84692,2,0,L|132:37,1,87.500000834465
397,102,84938,2,0,L|482:118,1,87.500000834465,8|0,2:2|0:0,0:0:0:0:
159,127,85184,2,0,L|59:108,1,87.500000834465
302,338,85430,21,2,3:2:0:0:
302,338,85553,1,0,0:0:0:0:
302,338,85676,2,0,L|284:236,1,87.500000834465
141,384,85922,2,0,P|183:373|215:344,1,87.500000834465,8|0,2:2|0:0,0:0:0:0:
130,123,86167,2,0,P|87:133|55:162,1,87.500000834465,2|0,2:2|0:0,0:0:0:0:
76,333,86414,5,0,3:3:0:0:
16,275,86537,1,0,0:0:0:0:
134,216,86659,2,0,B|212:176,1,87.500000834465,2|0,2:2|0:0,0:0:0:0:
3,95,86905,2,0,P|21:135|56:161,1,87.500000834465,10|0,2:2|0:0,0:0:0:0:
306,153,87151,2,0,P|288:114|254:88,1,87.500000834465
258,264,87397,22,0,P|315:201|306:117,1,175.00000166893,2|0,3:2|0:0,0:0:0:0:
211,176,87766,1,0,0:0:0:0:
342,234,87889,2,0,P|373:264|388:304,1,87.500000834465,8|0,2:2|0:0,0:0:0:0:
160,254,88135,2,0,P|128:223|113:183,1,87.500000834465,2|0,2:2|0:0,0:0:0:0:
199,338,88381,5,0,3:3:0:0:
114,371,88504,1,0,0:0:0:0:
258,264,88626,2,0,P|258:307|241:346,1,87.500000834465
44,116,88872,2,0,P|81:94|123:89,1,87.500000834465,10|0,2:2|0:0,0:0:0:0:
160,254,89118,2,0,P|128:223|113:183,1,87.500000834465
325,12,89364,21,0,3:3:0:0:
325,12,89487,1,0,0:0:0:0:
325,12,89610,2,0,L|228:-6,1,87.500000834465
404,63,89856,2,0,L|490:78,1,87.500000834465,8|0,2:2|0:0,0:0:0:0:
161,80,90102,5,0,3:3:0:0:
142,92,90225,1,8,2:2:0:0:
267,85,90348,2,0,L|170:67,1,87.500000834465,6|0,3:2|0:0,0:0:0:0:
325,12,90594,21,8,2:2:0:0:
355,149,90717,1,8,2:2:0:0:
161,80,90840,2,0,L|247:95,1,87.500000834465,2|0,3:2|3:3,0:0:0:0:
366,133,91085,5,4,2:3:0:0:
342,23,91208,1,4,2:3:0:0:
443,183,91331,22,0,P|433:254|370:289,1,150.000005722046,6|0,3:2|0:0,0:0:0:0:
318,144,91700,2,0,P|390:133|443:183,1,150.000005722046,8|8,2:2|2:2,0:0:0:0:
288,302,92069,2,0,P|290:265|309:233,1,75.0000028610231,0|0,3:3|0:0,0:0:0:0:
194,384,92315,1,0,3:3:0:0:
318,0,92561,5,8,2:2:0:0:
318,0,92807,1,8,2:2:0:0:
318,0,93053,1,8,2:2:0:0:
132,170,93299,22,0,B|158:189|158:189|255:156,2,110.000003356934,4|0|0,3:2|0:0|0:0,0:0:0:0:
245,134,93667,2,0,P|301:149|307:249,1,150.000005722046,8|8,2:2|2:2,0:0:0:0:
51,178,94036,2,0,P|71:117|104:96,1,75.0000028610231,0|0,3:3|0:0,0:0:0:0:
194,0,94282,1,0,3:3:0:0:
318,384,94528,5,8,2:2:0:0:
318,384,94774,1,2,2:2:0:0:
318,384,95020,1,0,3:3:0:0:
102,252,95266,21,2,3:2:0:0:
102,267,95389,1,0,0:0:0:0:
89,259,95512,1,0,0:0:0:0:
38,322,95635,6,0,L|213:276,1,150.000005722046,8|8,2:2|2:2,0:0:0:0:
168,374,96003,2,0,L|240:354,1,75.0000028610231,0|0,3:3|0:0,0:0:0:0:
481,297,96249,1,0,3:3:0:0:
31,87,96495,21,8,2:2:0:0:
31,87,96741,1,8,2:2:0:0:
31,87,96987,1,0,0:0:0:0:
102,252,97233,5,2,3:2:0:0:
102,267,97356,1,0,0:0:0:0:
89,259,97479,1,0,0:0:0:0:
38,322,97602,22,0,L|213:276,1,150.000005722046,8|8,2:2|2:2,0:0:0:0:
0,245,97971,2,0,L|72:225,1,75.0000028610231,2|0,3:2|0:0,0:0:0:0:
432,127,98217,1,2,3:2:0:0:
250,34,98463,5,8,2:2:0:0:
254,0,98585,1,10,2:2:0:0:
341,161,98708,22,0,L|348:86,1,75.0000028610231,4|0,3:2|3:3,0:0:0:0:
149,258,98954,2,0,L|156:183,1,75.0000028610231,2|0,2:2|3:3,0:0:0:0:
236,382,99200,22,0,L|276:4,1,379.999989852906,2|2,3:2|2:2,0:0:0:0:
219,272,101167,6,0,B|205:278|218:303|242:303|260:258|269:230|251:199,1,122.499996261597,4|0,3:2|2:2,0:0:0:0:
199,130,101659,22,0,B|200:111|169:107|152:135|187:180|212:206|255:207,1,157.499995193482,0|0,3:3|2:2,0:0:0:0:
364,195,102151,6,0,B|381:207|403:179|385:146|320:155|280:164|255:207,1,179.999994506836,0|8,3:3|2:2,0:0:0:0:
335,318,102397,22,0,B|333:345|376:351|401:310|351:246|316:208|255:207,1,225.000008583069,0|8,3:3|2:2,0:0:0:0:
92,224,102643,6,0,B|65:206|33:248|61:297|158:285|217:271|255:207,1,270.000001029968,0|8,3:3|2:2,0:0:0:0:
331,32,102889,22,0,B|364:15|343:-40|276:-41|232:64|211:131|255:207,1,315.00000931263,8|0,2:2|3:3,0:0:0:0:
