osu file format v14

[General]
AudioFilename: audio.ogg
AudioLeadIn: 0
PreviewTime: 303
Countdown: 0
SampleSet: Normal
StackLeniency: 0.7
Mode: 1
LetterboxInBreaks: 0
WidescreenStoryboard: 1

[Editor]
DistanceSpacing: 1.5
BeatDivisor: 4
GridSize: 8
TimelineZoom: 1.4

[Metadata]
Title:Mist Song (Short Ver.)
TitleUnicode:Mist Song (Short Ver.)
Artist:Hinako Kawasaki
ArtistUnicode:川崎日菜子
Creator:sing216
Version:Mist Oni
Source:ミストトレインガールズ~霧の世界の車窓から~
Tags:J_a_c_k_y jacky aabc271 ミストレ MistTrainGirls 迷霧列車少女~從霧之世界的車窗~ Yoshimi Kudo 工藤吉三 Miyazaki Kanae 宮崎カナエ mist train girls dmm games video game version size Japanese pop Jpop J-pop pv main theme メインテーマ
BeatmapID:3423507
BeatmapSetID:1675816

[Difficulty]
HPDrainRate:6
CircleSize:5
OverallDifficulty:6
ApproachRate:5
SliderMultiplier:1.4
SliderTickRate:1

[Events]
//Background and Video events
Video,0,"video.mp4"
0,0,"bg.jpg",0,0
//Break Periods
//Storyboard Layer 0 (Background)
//Storyboard Layer 1 (Fail)
//Storyboard Layer 2 (Pass)
//Storyboard Layer 3 (Foreground)
//Storyboard Layer 4 (Overlay)
//Storyboard Sound Samples

[TimingPoints]
1209,517.241379310345,3,1,0,85,1,0
1209,-100,3,1,0,85,0,0
13622,-86.9565217391304,3,1,0,90,0,0
23062,-100,3,1,0,65,0,0
23967,517.241379310345,3,1,0,65,1,0
36380,-100,3,1,0,75,0,0
48751,-100,3,1,0,65,0,0
48919,-100,3,1,0,65,0,0
61208,517.241379310345,3,1,0,65,1,8
61272,-100,3,1,0,75,0,8
61337,517.241379310345,3,1,0,75,1,0
62824,-100,3,1,0,85,0,0
62888,-80,3,1,0,85,0,1
75302,-80,3,1,0,90,0,1
84612,-80,3,1,0,80,0,0
85647,517.241379310345,3,1,0,75,1,0
85647,-100,3,1,0,75,0,0
87198,-100,3,1,0,70,0,0
88750,-100,3,1,0,60,0,0
89267,526.315789473684,3,1,0,60,1,8
89267,-98.2758630008918,3,1,0,60,0,8
89793,535.714285714286,3,1,0,60,1,8
89793,-96.5517241392628,3,1,0,60,0,8
90328,545.454545454546,3,1,0,50,1,0
90328,-94.8275866156362,3,1,0,50,0,0
91418,560.747663551402,3,1,0,50,1,8
91418,-92.2413801214328,3,1,0,50,0,8
91978,560.747663551402,3,1,0,50,1,0
91978,-92.241379313128,3,1,0,50,0,0
92539,571.428571428571,3,1,0,50,1,8
92539,-90.5172417694709,3,1,0,50,0,8
93110,600,3,1,0,50,1,8
93110,-86.2068965517241,3,1,0,50,0,8
93710,600,3,1,0,50,1,0
93710,-86.2068965517241,3,1,0,50,0,0
94010,631.578947368421,3,1,0,50,1,8
94010,-81.8965538421522,3,1,0,50,0,8
94325,789.473684210526,3,1,0,50,1,8
94325,-65.5172413996433,3,1,0,50,0,8
94719,869.565217391304,3,1,0,50,1,8
94719,-59.4827586309453,3,1,0,50,0,8
95153,930.232558139535,3,1,0,50,1,8
95153,-55.5555555555556,3,1,0,50,0,0
95618,1324.50331125828,3,1,0,50,1,0
95618,-39.0625,3,1,0,50,0,0
95783,-39.0625,3,1,0,30,0,0

[HitObjects]
253,192,1209,5,4,0:0:0:0:
253,192,1467,1,0,0:0:0:0:
253,192,1596,1,0,0:0:0:0:
253,192,1726,1,8,0:0:0:0:
253,192,1984,1,0,0:0:0:0:
253,192,2114,1,0,0:0:0:0:
253,192,2243,1,0,0:0:0:0:
253,192,2372,1,0,0:0:0:0:
253,192,2502,1,8,0:0:0:0:
253,192,2760,1,0,0:0:0:0:
253,192,3019,1,8,0:0:0:0:
253,192,3277,1,0,0:0:0:0:
253,192,3536,1,0,0:0:0:0:
253,192,3665,1,0,0:0:0:0:
253,192,3795,1,8,0:0:0:0:
253,192,4053,1,8,0:0:0:0:
253,192,4183,1,8,0:0:0:0:
253,192,4312,1,0,0:0:0:0:
253,192,4441,1,0,0:0:0:0:
253,192,4571,1,8,0:0:0:0:
253,192,4829,1,0,0:0:0:0:
253,192,5088,1,8,0:0:0:0:
253,192,5346,1,0,0:0:0:0:
253,192,5605,1,0,0:0:0:0:
253,192,5734,1,0,0:0:0:0:
253,192,5864,1,8,0:0:0:0:
253,192,6122,1,0,0:0:0:0:
253,192,6381,1,8,0:0:0:0:
253,192,6640,1,8,0:0:0:0:
253,192,6769,1,8,0:0:0:0:
253,192,6898,1,0,0:0:0:0:
253,192,7157,1,0,0:0:0:0:
290,228,7286,1,0,0:0:0:0:
253,192,7415,1,8,0:0:0:0:
253,192,7674,1,8,0:0:0:0:
253,192,7803,1,8,0:0:0:0:
253,192,7933,1,0,0:0:0:0:
253,192,8191,1,0,0:0:0:0:
253,192,8321,1,0,0:0:0:0:
253,192,8450,1,0,0:0:0:0:
253,192,8579,1,0,0:0:0:0:
253,192,8709,1,8,0:0:0:0:
253,192,8967,1,0,0:0:0:0:
253,192,9226,1,8,0:0:0:0:
253,192,9484,5,0,0:0:0:0:
253,192,9743,1,0,0:0:0:0:
253,192,9872,1,0,0:0:0:0:
253,192,10002,1,8,0:0:0:0:
253,192,10260,1,8,0:0:0:0:
253,192,10390,1,0,0:0:0:0:
253,192,10519,1,0,0:0:0:0:
253,192,10648,1,0,0:0:0:0:
253,192,10777,1,8,0:0:0:0:
253,192,11036,1,0,0:0:0:0:
253,192,11295,1,8,0:0:0:0:
253,192,11424,1,8,0:0:0:0:
253,192,11553,1,0,0:0:0:0:
253,192,11683,1,8,0:0:0:0:
253,192,11812,1,0,0:0:0:0:
253,192,11941,1,0,0:0:0:0:
253,192,12071,1,8,0:0:0:0:
253,192,12329,1,0,0:0:0:0:
253,192,12588,1,8,0:0:0:0:
253,192,12717,1,0,0:0:0:0:
253,192,12846,1,0,0:0:0:0:
253,192,12976,1,0,0:0:0:0:
253,192,13105,1,8,0:0:0:0:
253,192,13364,1,8,0:0:0:0:
253,192,13622,1,4,0:0:0:0:
253,192,14010,1,8,0:0:0:0:
253,192,14140,1,0,0:0:0:0:
253,192,14398,1,8,0:0:0:0:
253,192,14657,1,0,0:0:0:0:
253,192,14786,1,0,0:0:0:0:
253,192,14915,1,8,0:0:0:0:
253,192,15174,1,0,0:0:0:0:
253,192,15303,1,8,0:0:0:0:
253,192,15562,1,8,0:0:0:0:
253,192,15691,1,0,0:0:0:0:
253,192,15950,1,0,0:0:0:0:
253,192,16079,1,0,0:0:0:0:
253,192,16209,1,8,0:0:0:0:
253,192,16338,1,8,0:0:0:0:
253,192,16467,1,0,0:0:0:0:
253,192,16726,1,0,0:0:0:0:
253,192,16984,1,8,0:0:0:0:
253,192,17114,1,8,0:0:0:0:
253,192,17243,1,0,0:0:0:0:
253,192,17372,1,0,0:0:0:0:
253,192,17502,1,8,0:0:0:0:
253,192,17760,1,0,0:0:0:0:
253,192,18019,1,8,0:0:0:0:
253,192,18148,1,8,0:0:0:0:
253,192,18277,1,0,0:0:0:0:
253,192,18407,1,0,0:0:0:0:
253,192,18536,1,8,0:0:0:0:
253,192,18665,1,8,0:0:0:0:
253,192,18795,1,0,0:0:0:0:
253,192,19053,1,0,0:0:0:0:
253,192,19183,1,0,0:0:0:0:
253,192,19312,1,8,0:0:0:0:
253,192,19571,1,8,0:0:0:0:
253,192,19829,1,0,0:0:0:0:
253,192,20088,1,8,0:0:0:0:
253,192,20217,1,8,0:0:0:0:
253,192,20346,1,0,0:0:0:0:
253,192,20605,1,8,0:0:0:0:
253,192,20864,1,0,0:0:0:0:
253,192,20993,1,8,0:0:0:0:
253,192,21122,1,8,0:0:0:0:
253,192,21381,1,0,0:0:0:0:
253,192,21510,1,8,0:0:0:0:
253,192,21640,1,8,0:0:0:0:
253,192,21769,1,8,0:0:0:0:
253,192,21898,1,0,0:0:0:0:
253,192,22027,1,8,0:0:0:0:
253,192,22157,1,8,0:0:0:0:
253,192,22286,1,8,0:0:0:0:
253,192,22415,1,0,0:0:0:0:
253,192,22545,1,8,0:0:0:0:
253,192,22674,1,8,0:0:0:0:
253,192,22803,1,8,0:0:0:0:
253,192,23967,1,4,0:0:0:0:
253,192,24484,1,0,0:0:0:0:
253,192,24742,1,8,0:0:0:0:
253,192,25001,1,0,0:0:0:0:
253,192,25260,1,0,0:0:0:0:
282,234,25389,1,8,0:0:0:0:
253,192,25518,1,0,0:0:0:0:
253,192,25691,1,8,0:0:0:0:
253,192,25863,1,8,0:0:0:0:
253,192,26035,1,0,0:0:0:0:
253,192,26208,1,8,0:0:0:0:
253,192,26380,1,8,0:0:0:0:
253,192,26553,1,0,0:0:0:0:
253,192,26811,1,0,0:0:0:0:
253,192,27070,1,4,0:0:0:0:
253,192,27587,1,0,0:0:0:0:
253,192,27846,1,8,0:0:0:0:
253,192,27975,1,8,0:0:0:0:
253,192,28104,1,0,0:0:0:0:
253,192,28363,1,8,0:0:0:0:
253,192,28622,1,0,0:0:0:0:
253,192,29010,1,8,0:0:0:0:
253,192,29139,1,8,0:0:0:0:
253,192,29398,1,0,0:0:0:0:
253,192,29656,1,8,0:0:0:0:
253,192,29915,1,0,0:0:0:0:
253,192,30173,1,4,0:0:0:0:
253,192,30691,1,0,0:0:0:0:
253,192,30949,1,8,0:0:0:0:
253,192,31208,1,0,0:0:0:0:
253,192,31467,1,0,0:0:0:0:
253,192,31596,1,8,0:0:0:0:
253,192,31725,1,0,0:0:0:0:
253,192,31898,1,8,0:0:0:0:
253,192,32070,1,8,0:0:0:0:
253,192,32242,1,0,0:0:0:0:
253,192,32415,1,8,0:0:0:0:
253,192,32587,1,8,0:0:0:0:
253,192,32760,1,0,0:0:0:0:
253,192,32889,1,8,0:0:0:0:
253,192,33018,1,8,0:0:0:0:
253,192,33148,1,8,0:0:0:0:
253,192,33277,1,0,0:0:0:0:
253,192,33535,1,0,0:0:0:0:
253,192,33794,1,8,0:0:0:0:
253,192,34053,1,0,0:0:0:0:
253,192,34182,1,0,0:0:0:0:
253,192,34311,1,8,0:0:0:0:
253,192,34570,1,8,0:0:0:0:
253,192,34829,1,0,0:0:0:0:
253,192,35346,1,8,0:0:0:0:
253,192,35604,1,8,0:0:0:0:
253,192,35863,1,0,0:0:0:0:
253,192,35949,1,0,0:0:0:0:
257,202,36035,1,0,0:0:0:0:
253,192,36122,1,8,0:0:0:0:
253,192,36380,1,4,0:0:0:0:
253,192,36639,1,0,0:0:0:0:
253,192,36768,1,0,0:0:0:0:
253,192,36898,1,8,0:0:0:0:
253,192,37156,1,0,0:0:0:0:
253,192,37415,1,8,0:0:0:0:
253,192,37673,1,8,0:0:0:0:
253,192,37932,1,0,0:0:0:0:
253,192,38191,1,0,0:0:0:0:
253,192,38320,1,0,0:0:0:0:
253,192,38449,1,8,0:0:0:0:
253,192,38708,1,0,0:0:0:0:
253,192,38967,1,8,0:0:0:0:
253,192,39225,1,8,0:0:0:0:
253,192,39484,1,4,0:0:0:0:
253,192,39742,1,0,0:0:0:0:
253,192,40001,1,8,0:0:0:0:
253,192,40130,1,8,0:0:0:0:
253,192,40260,1,0,0:0:0:0:
253,192,40518,1,8,0:0:0:0:
253,192,40777,1,8,0:0:0:0:
253,192,41035,1,0,0:0:0:0:
253,192,41294,1,0,0:0:0:0:
253,192,41553,1,8,0:0:0:0:
253,192,41682,1,8,0:0:0:0:
253,192,41811,1,0,0:0:0:0:
253,192,42070,1,8,0:0:0:0:
253,192,42329,1,8,0:0:0:0:
253,192,42587,1,4,0:0:0:0:
253,192,42846,1,8,0:0:0:0:
253,192,43104,1,0,0:0:0:0:
253,192,43363,1,0,0:0:0:0:
253,192,43622,1,8,0:0:0:0:
253,192,43880,1,8,0:0:0:0:
253,192,44139,1,0,0:0:0:0:
253,192,44398,1,0,0:0:0:0:
253,192,44527,1,0,0:0:0:0:
253,192,44656,1,8,0:0:0:0:
253,192,44915,1,0,0:0:0:0:
253,192,45173,1,8,0:0:0:0:
253,192,45432,1,8,0:0:0:0:
244,193,45561,1,8,0:0:0:0:
253,192,45691,1,0,0:0:0:0:
253,192,45949,1,8,0:0:0:0:
253,192,46208,1,0,0:0:0:0:
253,192,46467,1,0,0:0:0:0:
253,192,46725,1,8,0:0:0:0:
253,192,46984,1,8,0:0:0:0:
253,192,47242,1,0,0:0:0:0:
253,192,47501,1,0,0:0:0:0:
253,192,47630,1,0,0:0:0:0:
253,192,47760,1,8,0:0:0:0:
253,192,48018,1,0,0:0:0:0:
253,192,48277,1,8,0:0:0:0:
253,192,48363,1,8,0:0:0:0:
253,192,48449,1,8,0:0:0:0:
259,207,48535,1,0,0:0:0:0:
253,192,48794,1,0,0:0:0:0:
253,192,49182,1,0,0:0:0:0:
253,192,49311,1,8,0:0:0:0:
253,192,49570,1,0,0:0:0:0:
253,192,49829,1,8,0:0:0:0:
253,192,50087,1,8,0:0:0:0:
253,192,50346,1,0,0:0:0:0:
253,192,50734,1,0,0:0:0:0:
253,192,50863,1,8,0:0:0:0:
253,192,51122,1,0,0:0:0:0:
253,192,51510,1,8,0:0:0:0:
253,192,51639,1,0,0:0:0:0:
253,192,51898,1,8,0:0:0:0:
256,192,52415,12,0,53449,0:0:0:0:
251,195,53708,5,8,0:0:0:0:
251,195,53967,1,8,0:0:0:0:
251,195,54225,1,8,0:0:0:0:
251,195,54484,1,8,0:0:0:0:
251,195,54742,1,8,0:0:0:0:
251,195,55001,1,0,0:0:0:0:
251,195,55389,1,0,0:0:0:0:
251,195,55518,1,8,0:0:0:0:
251,195,55777,1,0,0:0:0:0:
251,195,56294,1,8,0:0:0:0:
251,195,56553,1,0,0:0:0:0:
251,195,56941,1,0,0:0:0:0:
251,195,57070,1,8,0:0:0:0:
251,195,57329,1,0,0:0:0:0:
251,195,57846,1,8,0:0:0:0:
251,195,58104,1,0,0:0:0:0:
251,195,58492,1,8,0:0:0:0:
251,195,58622,1,0,0:0:0:0:
251,195,58880,1,8,0:0:0:0:
251,195,59139,1,0,0:0:0:0:
251,195,59398,1,8,0:0:0:0:
251,195,59656,1,12,0:0:0:0:
251,195,60173,1,12,0:0:0:0:
257,192,60691,1,0,0:0:0:0:
258,195,60949,1,0,0:0:0:0:
260,194,61035,1,0,0:0:0:0:
260,194,61122,1,0,0:0:0:0:
260,193,61208,1,0,0:0:0:0:
251,195,61337,1,8,0:0:0:0:
251,195,61854,1,8,0:0:0:0:
251,195,62371,1,8,0:0:0:0:
251,195,62500,1,8,0:0:0:0:
251,195,62630,1,8,0:0:0:0:
251,195,62759,1,8,0:0:0:0:
253,192,62888,5,4,0:0:0:0:
253,192,63147,1,0,0:0:0:0:
253,192,63276,1,0,0:0:0:0:
253,192,63405,1,8,0:0:0:0:
253,192,63664,1,0,0:0:0:0:
253,192,63793,1,0,0:0:0:0:
253,192,63923,1,8,0:0:0:0:
253,192,64052,1,8,0:0:0:0:
253,192,64181,1,0,0:0:0:0:
253,192,64311,1,0,0:0:0:0:
253,192,64440,1,8,0:0:0:0:
253,192,64699,1,8,0:0:0:0:
253,192,64828,1,8,0:0:0:0:
253,192,64957,1,0,0:0:0:0:
253,192,65216,1,0,0:0:0:0:
253,192,65345,1,0,0:0:0:0:
253,192,65474,1,8,0:0:0:0:
253,192,65733,1,8,0:0:0:0:
253,192,65862,1,8,0:0:0:0:
253,192,65992,1,0,0:0:0:0:
253,192,66121,1,0,0:0:0:0:
253,192,66250,1,8,0:0:0:0:
253,192,66509,1,0,0:0:0:0:
253,192,66768,1,8,0:0:0:0:
253,192,66897,1,8,0:0:0:0:
253,192,67026,1,0,0:0:0:0:
253,192,67285,1,0,0:0:0:0:
253,192,67414,1,0,0:0:0:0:
253,192,67543,1,8,0:0:0:0:
253,192,67673,1,8,0:0:0:0:
253,192,67802,1,0,0:0:0:0:
253,192,68061,1,8,0:0:0:0:
253,192,68319,1,8,0:0:0:0:
253,192,68449,1,8,0:0:0:0:
253,192,68578,1,0,0:0:0:0:
253,192,68837,1,0,0:0:0:0:
290,228,68966,1,0,0:0:0:0:
253,192,69095,1,8,0:0:0:0:
253,192,69354,1,8,0:0:0:0:
253,192,69483,1,8,0:0:0:0:
253,192,69612,1,0,0:0:0:0:
253,192,69871,1,0,0:0:0:0:
253,192,70000,1,0,0:0:0:0:
253,192,70130,1,0,0:0:0:0:
253,192,70259,1,0,0:0:0:0:
253,192,70388,1,8,0:0:0:0:
253,192,70647,1,0,0:0:0:0:
253,192,70905,1,8,0:0:0:0:
253,192,71164,1,0,0:0:0:0:
253,192,71293,1,0,0:0:0:0:
253,192,71423,1,0,0:0:0:0:
253,192,71552,5,0,0:0:0:0:
253,192,71681,1,8,0:0:0:0:
253,192,71940,1,8,0:0:0:0:
253,192,72069,1,0,0:0:0:0:
253,192,72199,1,0,0:0:0:0:
253,192,72328,1,0,0:0:0:0:
253,192,72457,1,8,0:0:0:0:
253,192,72716,1,0,0:0:0:0:
253,192,72974,1,8,0:0:0:0:
253,192,73233,1,0,0:0:0:0:
253,192,73362,1,8,0:0:0:0:
253,192,73492,1,0,0:0:0:0:
253,192,73621,1,0,0:0:0:0:
253,192,73750,1,8,0:0:0:0:
253,192,74009,1,0,0:0:0:0:
253,192,74138,1,0,0:0:0:0:
253,192,74268,1,8,0:0:0:0:
253,192,74397,1,8,0:0:0:0:
253,192,74526,1,0,0:0:0:0:
253,192,74655,1,0,0:0:0:0:
253,192,74785,1,8,0:0:0:0:
253,192,74914,1,0,0:0:0:0:
253,192,75043,1,8,0:0:0:0:
253,192,75302,1,4,0:0:0:0:
253,192,75690,1,8,0:0:0:0:
253,192,75819,1,0,0:0:0:0:
253,192,76078,1,8,0:0:0:0:
253,192,76337,1,0,0:0:0:0:
253,192,76466,1,0,0:0:0:0:
253,192,76595,1,8,0:0:0:0:
253,192,76724,1,8,0:0:0:0:
253,192,76854,1,0,0:0:0:0:
253,192,76983,1,8,0:0:0:0:
253,192,77242,1,8,0:0:0:0:
253,192,77371,1,0,0:0:0:0:
253,192,77630,1,0,0:0:0:0:
253,192,77759,1,0,0:0:0:0:
253,192,77888,1,8,0:0:0:0:
253,192,78018,1,0,0:0:0:0:
253,192,78147,1,8,0:0:0:0:
253,192,78276,1,8,0:0:0:0:
253,192,78405,1,0,0:0:0:0:
253,192,78664,1,8,0:0:0:0:
253,192,78793,1,8,0:0:0:0:
253,192,78923,1,0,0:0:0:0:
253,192,79052,1,0,0:0:0:0:
253,192,79181,1,8,0:0:0:0:
253,192,79440,1,0,0:0:0:0:
253,192,79699,1,8,0:0:0:0:
253,192,79828,1,8,0:0:0:0:
253,192,79957,1,0,0:0:0:0:
253,192,80087,1,0,0:0:0:0:
253,192,80216,1,8,0:0:0:0:
253,192,80345,1,8,0:0:0:0:
253,192,80474,1,0,0:0:0:0:
253,192,80733,1,0,0:0:0:0:
253,192,80862,1,0,0:0:0:0:
253,192,80992,1,8,0:0:0:0:
253,192,81121,1,0,0:0:0:0:
253,192,81250,1,8,0:0:0:0:
253,192,81509,1,0,0:0:0:0:
253,192,81768,1,0,0:0:0:0:
253,192,81897,1,0,0:0:0:0:
253,192,82026,1,8,0:0:0:0:
253,192,82285,1,8,0:0:0:0:
253,192,82414,1,8,0:0:0:0:
253,192,82543,1,0,0:0:0:0:
253,192,82802,1,0,0:0:0:0:
253,192,82931,1,0,0:0:0:0:
253,192,83061,1,8,0:0:0:0:
253,192,83190,1,0,0:0:0:0:
253,192,83319,1,0,0:0:0:0:
253,192,83449,1,0,0:0:0:0:
253,192,83578,1,8,0:0:0:0:
253,192,83707,1,0,0:0:0:0:
253,192,83837,1,0,0:0:0:0:
253,192,83966,1,0,0:0:0:0:
253,192,84095,1,8,0:0:0:0:
253,192,84224,1,0,0:0:0:0:
253,192,84354,1,0,0:0:0:0:
253,192,84483,1,0,0:0:0:0:
256,192,84612,12,0,85388,0:0:0:0:
256,192,85647,5,0,0:0:0:0:
256,192,85905,1,8,0:0:0:0:
256,192,86164,1,0,0:0:0:0:
256,192,86293,1,0,0:0:0:0:
256,192,86422,1,8,0:0:0:0:
256,192,86681,1,0,0:0:0:0:
256,192,86810,1,0,0:0:0:0:
256,192,86940,1,8,0:0:0:0:
256,192,87198,1,0,0:0:0:0:
256,192,87457,1,8,0:0:0:0:
256,192,87715,1,0,0:0:0:0:
256,192,87845,1,0,0:0:0:0:
256,192,87974,1,8,0:0:0:0:
256,192,88233,1,0,0:0:0:0:
256,192,88362,1,0,0:0:0:0:
256,192,88491,1,8,0:0:0:0:
256,192,88750,1,0,0:0:0:0:
256,192,89009,1,8,0:0:0:0:
256,192,89267,1,0,0:0:0:0:
247,199,89398,1,0,0:0:0:0:
256,192,89530,1,8,0:0:0:0:
256,192,89793,1,0,0:0:0:0:
256,192,90328,1,8,0:0:0:0:
251,198,90873,1,0,0:0:0:0:
256,192,91418,1,8,0:0:0:0:
256,192,91978,1,8,0:0:0:0:
256,192,93110,1,8,0:0:0:0:
256,192,93710,1,8,0:0:0:0:
256,192,95153,1,0,0:0:0:0:
256,192,95618,1,12,0:0:0:0:
256,192,95949,12,0,98267,0:0:0:0:
