osu file format v14

[General]
AudioFilename: audio.ogg
AudioLeadIn: 0
PreviewTime: 303
Countdown: 0
SampleSet: Normal
StackLeniency: 0.7
Mode: 1
LetterboxInBreaks: 0
WidescreenStoryboard: 1

[Editor]
DistanceSpacing: 1.5
BeatDivisor: 4
GridSize: 8
TimelineZoom: 1.3

[Metadata]
Title:Mist Song (Short Ver.)
TitleUnicode:Mist Song (Short Ver.)
Artist:Hinako Kawasaki
ArtistUnicode:川崎日菜子
Creator:sing216
Version:J a c k y's Oni
Source:ミストトレインガールズ~霧の世界の車窓から~
Tags:J_a_c_k_y jacky aabc271 ミストレ MistTrainGirls 迷霧列車少女~從霧之世界的車窗~ Yoshimi Kudo 工藤吉三 Miyazaki Kanae 宮崎カナエ mist train girls dmm games video game version size Japanese pop Jpop J-pop pv main theme メインテーマ
BeatmapID:3423676
BeatmapSetID:1675816

[Difficulty]
HPDrainRate:5
CircleSize:5
OverallDifficulty:5
ApproachRate:5
SliderMultiplier:1.4
SliderTickRate:1

[Events]
//Background and Video events
Video,0,"video.mp4"
0,0,"bg.jpg",0,0
//Break Periods
//Storyboard Layer 0 (Background)
//Storyboard Layer 1 (Fail)
//Storyboard Layer 2 (Pass)
//Storyboard Layer 3 (Foreground)
//Storyboard Layer 4 (Overlay)
//Storyboard Sound Samples

[TimingPoints]
1209,517.241379310345,3,1,0,85,1,0
13622,-100,3,1,0,90,0,0
23062,-100,3,1,0,65,0,0
23967,517.241379310345,3,1,0,65,1,0
36380,-100,3,1,0,75,0,0
48665,-100,3,1,0,65,0,0
48923,-100,3,1,0,65,0,0
61208,517.241379310345,3,1,0,65,1,8
61272,-100,3,1,0,75,0,8
61337,517.241379310345,3,1,0,75,1,0
62824,-100,3,1,0,85,0,0
62888,-100,3,1,0,85,0,1
75302,-100,3,1,0,90,0,1
84612,-100,3,1,0,80,0,0
85647,517.241379310345,3,1,0,75,1,0
85647,-100,3,1,0,75,0,0
87198,-100,3,1,0,70,0,0
88750,-100,3,1,0,60,0,0
89267,526.315789473684,3,1,0,60,1,8
89267,-98.2758630008918,3,1,0,60,0,8
89793,535.714285714286,3,1,0,60,1,8
89793,-96.5517241392628,3,1,0,60,0,8
90328,545.454545454546,3,1,0,50,1,0
90328,-94.8275866156362,3,1,0,50,0,0
91418,560.747663551402,3,1,0,50,1,8
91418,-92.2413801214328,3,1,0,50,0,8
91978,560.747663551402,3,1,0,50,1,0
91978,-92.241379313128,3,1,0,50,0,0
92539,571.428571428571,3,1,0,50,1,8
92539,-90.5172417694709,3,1,0,50,0,8
93110,600,3,1,0,50,1,8
93110,-86.2068965517241,3,1,0,50,0,8
93710,600,3,1,0,50,1,0
93710,-86.2068965517241,3,1,0,50,0,0
94010,631.578947368421,3,1,0,50,1,8
94010,-81.8965538421522,3,1,0,50,0,8
94325,789.473684210526,3,1,0,50,1,8
94325,-65.5172413996433,3,1,0,50,0,8
94719,869.565217391304,3,1,0,50,1,8
94719,-59.4827586309453,3,1,0,50,0,8
95153,930.232558139535,3,1,0,50,1,8
95153,-55.5555555555556,3,1,0,50,0,0
95618,1324.50331125828,3,1,0,50,1,0
95618,-39.0625,3,1,0,50,0,0
95783,-39.0625,3,1,0,30,0,0

[HitObjects]
93,132,1209,5,4,0:0:0:0:
93,132,1467,1,0,0:0:0:0:
93,132,1596,1,0,0:0:0:0:
93,132,1726,1,8,0:0:0:0:
93,132,1984,1,8,0:0:0:0:
93,132,2243,1,0,0:0:0:0:
93,132,2502,1,0,0:0:0:0:
93,132,2760,1,8,0:0:0:0:
93,132,3277,1,0,0:0:0:0:
93,132,3536,1,8,0:0:0:0:
93,132,3795,1,0,0:0:0:0:
93,132,4053,1,0,0:0:0:0:
93,132,4183,1,0,0:0:0:0:
93,132,4312,1,8,0:0:0:0:
93,132,4571,1,0,0:0:0:0:
93,132,4829,1,8,0:0:0:0:
93,132,5088,1,8,0:0:0:0:
93,132,5346,1,0,0:0:0:0:
93,132,5864,1,8,0:0:0:0:
93,132,6122,1,0,0:0:0:0:
93,132,6381,1,8,0:0:0:0:
93,132,6640,1,0,0:0:0:0:
93,132,6898,1,8,0:0:0:0:
93,132,7157,1,8,0:0:0:0:
93,132,7286,1,8,0:0:0:0:
93,132,7415,1,0,0:0:0:0:
93,132,7674,1,8,0:0:0:0:
93,132,7933,1,0,0:0:0:0:
93,132,8450,1,0,0:0:0:0:
93,132,8709,1,8,0:0:0:0:
93,132,8967,1,8,0:0:0:0:
93,132,9226,1,0,0:0:0:0:
93,132,9355,1,0,0:0:0:0:
93,132,9484,1,8,0:0:0:0:
93,132,9743,1,0,0:0:0:0:
93,132,10002,1,8,0:0:0:0:
93,132,10260,1,8,0:0:0:0:
93,132,10390,1,0,0:0:0:0:
93,132,10519,1,8,0:0:0:0:
93,132,10777,1,8,0:0:0:0:
93,132,11036,1,0,0:0:0:0:
93,132,11295,1,8,0:0:0:0:
93,132,11424,1,8,0:0:0:0:
93,132,11553,1,0,0:0:0:0:
93,132,11812,1,0,0:0:0:0:
93,132,11941,1,0,0:0:0:0:
93,132,12071,1,8,0:0:0:0:
93,132,12329,1,0,0:0:0:0:
93,132,12846,1,8,0:0:0:0:
93,132,13105,1,8,0:0:0:0:
93,132,13364,1,8,0:0:0:0:
93,132,13622,1,4,0:0:0:0:
93,132,13881,1,8,0:0:0:0:
93,132,14010,1,8,0:0:0:0:
93,132,14140,1,0,0:0:0:0:
93,132,14398,1,8,0:0:0:0:
93,132,14527,1,8,0:0:0:0:
93,132,14657,1,0,0:0:0:0:
93,132,14915,1,0,0:0:0:0:
93,132,15174,1,8,0:0:0:0:
112,107,15691,1,8,0:0:0:0:
93,132,15950,1,0,0:0:0:0:
93,132,16209,1,0,0:0:0:0:
93,132,16338,1,0,0:0:0:0:
112,107,16467,1,8,0:0:0:0:
112,107,16726,1,0,0:0:0:0:
93,132,16855,1,0,0:0:0:0:
93,132,16984,1,0,0:0:0:0:
93,132,17243,1,8,0:0:0:0:
93,132,17502,1,0,0:0:0:0:
93,132,17631,1,0,0:0:0:0:
93,132,17760,1,8,0:0:0:0:
93,132,18019,1,0,0:0:0:0:
93,132,18277,1,8,0:0:0:0:
93,132,18536,1,8,0:0:0:0:
93,132,18795,1,0,0:0:0:0:
93,132,19312,1,8,0:0:0:0:
93,132,19571,1,8,0:0:0:0:
93,132,19829,1,0,0:0:0:0:
93,132,20088,1,0,0:0:0:0:
93,132,20217,1,0,0:0:0:0:
93,132,20346,1,8,0:0:0:0:
93,132,20605,1,0,0:0:0:0:
93,132,20734,1,0,0:0:0:0:
93,132,20864,1,8,0:0:0:0:
93,132,21122,1,8,0:0:0:0:
93,132,21381,1,0,0:0:0:0:
93,132,21640,1,0,0:0:0:0:
93,132,21769,1,0,0:0:0:0:
93,132,21898,1,8,0:0:0:0:
93,132,22157,1,8,0:0:0:0:
93,132,22286,1,8,0:0:0:0:
93,132,22415,1,0,0:0:0:0:
93,132,22674,1,0,0:0:0:0:
93,132,22803,1,8,0:0:0:0:
93,132,23967,1,4,0:0:0:0:
93,132,24484,1,8,0:0:0:0:
93,132,24742,1,8,0:0:0:0:
93,132,25001,1,0,0:0:0:0:
93,132,25260,1,8,0:0:0:0:
93,132,25389,1,8,0:0:0:0:
93,132,25518,1,0,0:0:0:0:
93,132,25777,1,8,0:0:0:0:
93,132,26035,1,0,0:0:0:0:
93,132,26553,1,0,0:0:0:0:
93,132,26811,1,8,0:0:0:0:
93,132,27070,1,0,0:0:0:0:
93,132,27587,1,8,0:0:0:0:
93,132,27846,1,8,0:0:0:0:
93,132,28104,1,0,0:0:0:0:
93,132,28363,1,0,0:0:0:0:
93,132,28622,1,8,0:0:0:0:
93,132,28880,1,0,0:0:0:0:
93,132,29010,1,0,0:0:0:0:
93,132,29139,1,8,0:0:0:0:
93,132,29656,1,0,0:0:0:0:
93,132,29915,1,8,0:0:0:0:
93,132,30173,1,0,0:0:0:0:
93,132,30691,1,8,0:0:0:0:
93,132,30949,1,8,0:0:0:0:
93,132,31208,1,0,0:0:0:0:
93,132,31467,1,0,0:0:0:0:
93,132,31596,1,0,0:0:0:0:
93,132,31725,1,8,0:0:0:0:
93,132,31984,1,0,0:0:0:0:
93,132,32242,1,8,0:0:0:0:
93,132,32501,1,0,0:0:0:0:
93,132,32760,1,8,0:0:0:0:
93,132,33277,1,8,0:0:0:0:
93,132,33535,1,0,0:0:0:0:
93,132,33794,1,8,0:0:0:0:
93,132,34053,1,8,0:0:0:0:
93,132,34182,1,8,0:0:0:0:
93,132,34311,1,0,0:0:0:0:
93,132,34829,1,0,0:0:0:0:
93,132,35087,1,0,0:0:0:0:
93,132,35346,1,8,0:0:0:0:
93,132,35604,1,8,0:0:0:0:
93,132,35863,1,0,0:0:0:0:
93,132,35992,1,0,0:0:0:0:
93,132,36122,1,0,0:0:0:0:
93,132,36380,1,12,0:0:0:0:
93,132,36898,1,8,0:0:0:0:
93,132,37156,1,8,0:0:0:0:
93,132,37415,1,0,0:0:0:0:
93,132,37673,1,8,0:0:0:0:
93,132,37803,1,8,0:0:0:0:
93,132,37932,1,0,0:0:0:0:
93,132,38191,1,8,0:0:0:0:
93,132,38449,1,0,0:0:0:0:
93,132,38967,1,8,0:0:0:0:
93,132,39225,1,8,0:0:0:0:
93,132,39484,1,0,0:0:0:0:
93,132,40001,1,0,0:0:0:0:
93,132,40260,1,8,0:0:0:0:
93,132,40518,1,0,0:0:0:0:
93,132,40777,1,8,0:0:0:0:
93,132,40906,1,8,0:0:0:0:
93,132,41035,1,0,0:0:0:0:
93,132,41294,1,8,0:0:0:0:
93,132,41553,1,0,0:0:0:0:
93,132,42070,1,8,0:0:0:0:
93,132,42329,1,8,0:0:0:0:
93,132,42587,1,0,0:0:0:0:
93,132,42846,1,8,0:0:0:0:
93,132,43104,1,0,0:0:0:0:
93,132,43363,1,8,0:0:0:0:
93,132,43622,1,0,0:0:0:0:
93,132,43880,1,8,0:0:0:0:
93,132,44010,1,8,0:0:0:0:
93,132,44139,1,0,0:0:0:0:
93,132,44398,1,0,0:0:0:0:
93,132,44656,1,8,0:0:0:0:
93,132,44915,1,0,0:0:0:0:
93,132,45173,1,8,0:0:0:0:
93,132,45691,1,0,0:0:0:0:
93,132,45949,1,8,0:0:0:0:
93,132,46208,1,0,0:0:0:0:
93,132,46467,1,0,0:0:0:0:
93,132,46596,1,0,0:0:0:0:
93,132,46725,1,8,0:0:0:0:
93,132,46984,1,8,0:0:0:0:
93,132,47242,1,0,0:0:0:0:
93,132,47501,1,0,0:0:0:0:
93,132,47760,1,8,0:0:0:0:
93,132,48018,1,0,0:0:0:0:
93,132,48277,1,8,0:0:0:0:
93,132,48406,1,8,0:0:0:0:
93,132,48535,1,0,0:0:0:0:
93,132,48794,1,8,0:0:0:0:
93,132,49311,1,0,0:0:0:0:
93,132,49570,1,8,0:0:0:0:
93,132,49829,1,0,0:0:0:0:
93,132,50087,1,0,0:0:0:0:
93,132,50346,1,8,0:0:0:0:
93,132,50863,1,8,0:0:0:0:
93,132,51122,1,0,0:0:0:0:
93,132,51380,1,8,0:0:0:0:
93,132,51639,1,8,0:0:0:0:
93,132,51898,1,0,0:0:0:0:
93,132,52415,1,8,0:0:0:0:
93,132,52673,1,8,0:0:0:0:
93,132,52932,1,0,0:0:0:0:
93,132,53449,1,0,0:0:0:0:
93,132,53708,1,8,0:0:0:0:
93,132,53967,1,8,0:0:0:0:
93,132,54225,1,0,0:0:0:0:
93,132,54484,1,8,0:0:0:0:
93,132,54742,1,0,0:0:0:0:
93,132,55001,1,8,0:0:0:0:
93,132,55389,1,0,0:0:0:0:
93,132,55518,1,8,0:0:0:0:
93,132,55777,1,0,0:0:0:0:
93,132,56035,1,8,0:0:0:0:
93,132,56294,1,0,0:0:0:0:
93,132,56553,1,8,0:0:0:0:
93,132,56941,1,8,0:0:0:0:
93,132,57070,1,0,0:0:0:0:
93,132,57329,1,8,0:0:0:0:
93,132,57587,1,0,0:0:0:0:
93,132,57846,1,8,0:0:0:0:
93,132,58104,1,8,0:0:0:0:
93,132,58492,1,0,0:0:0:0:
93,132,58622,1,8,0:0:0:0:
93,132,58880,1,8,0:0:0:0:
93,132,59139,1,0,0:0:0:0:
93,132,59398,1,0,0:0:0:0:
93,132,59656,1,8,0:0:0:0:
93,132,60173,1,12,0:0:0:0:
93,132,61337,1,8,0:0:0:0:
93,132,61854,1,8,0:0:0:0:
93,132,62371,1,8,0:0:0:0:
93,132,62630,1,8,0:0:0:0:
93,132,62888,1,4,0:0:0:0:
93,132,63147,1,8,0:0:0:0:
93,132,63276,1,8,0:0:0:0:
93,132,63405,1,0,0:0:0:0:
93,132,63664,1,8,0:0:0:0:
93,132,63793,1,8,0:0:0:0:
93,132,63923,1,0,0:0:0:0:
93,132,64181,1,8,0:0:0:0:
93,132,64440,1,0,0:0:0:0:
93,132,64957,1,8,0:0:0:0:
93,132,65216,1,0,0:0:0:0:
93,132,65474,1,8,0:0:0:0:
93,132,65604,1,8,0:0:0:0:
93,132,65733,1,0,0:0:0:0:
93,132,65992,1,8,0:0:0:0:
93,132,66250,1,0,0:0:0:0:
93,132,66380,1,0,0:0:0:0:
93,132,66509,1,8,0:0:0:0:
93,132,66638,1,0,0:0:0:0:
93,132,66768,1,8,0:0:0:0:
93,132,67026,1,0,0:0:0:0:
93,132,67285,1,0,0:0:0:0:
93,132,67543,1,8,0:0:0:0:
93,132,68061,1,8,0:0:0:0:
93,132,68319,1,0,0:0:0:0:
93,132,68578,1,8,0:0:0:0:
93,132,68707,1,8,0:0:0:0:
93,132,68837,1,0,0:0:0:0:
93,132,69095,1,0,0:0:0:0:
93,132,69354,1,8,0:0:0:0:
93,132,69483,1,8,0:0:0:0:
93,132,69612,1,0,0:0:0:0:
93,132,69871,1,0,0:0:0:0:
93,132,70000,1,0,0:0:0:0:
93,132,70130,1,8,0:0:0:0:
93,132,70388,1,0,0:0:0:0:
93,132,70647,1,8,0:0:0:0:
93,132,70776,1,8,0:0:0:0:
93,132,70905,1,0,0:0:0:0:
93,132,71035,1,0,0:0:0:0:
93,132,71164,1,8,0:0:0:0:
93,132,71423,1,0,0:0:0:0:
93,132,71681,1,8,0:0:0:0:
93,132,71940,1,0,0:0:0:0:
93,132,72069,1,0,0:0:0:0:
93,132,72199,1,8,0:0:0:0:
93,132,72457,1,0,0:0:0:0:
93,132,72587,1,8,0:0:0:0:
93,132,72716,1,0,0:0:0:0:
47,106,72845,1,0,0:0:0:0:
93,132,72974,1,8,0:0:0:0:
93,132,73233,1,0,0:0:0:0:
93,132,73492,1,0,0:0:0:0:
93,132,73750,1,8,0:0:0:0:
93,132,74268,1,0,0:0:0:0:
93,132,74526,1,8,0:0:0:0:
93,132,74785,1,8,0:0:0:0:
93,132,75043,1,8,0:0:0:0:
93,132,75302,1,4,0:0:0:0:
93,132,75561,1,8,0:0:0:0:
93,132,75690,1,8,0:0:0:0:
93,132,75819,1,0,0:0:0:0:
93,132,76078,1,8,0:0:0:0:
93,132,76207,1,8,0:0:0:0:
93,132,76337,1,0,0:0:0:0:
93,132,76466,1,8,0:0:0:0:
93,132,76595,1,0,0:0:0:0:
93,132,76854,1,8,0:0:0:0:
93,132,77112,1,0,0:0:0:0:
93,132,77242,1,8,0:0:0:0:
93,132,77371,1,0,0:0:0:0:
93,132,77630,1,8,0:0:0:0:
93,132,77759,1,8,0:0:0:0:
93,132,77888,1,0,0:0:0:0:
93,132,78018,1,8,0:0:0:0:
93,132,78147,1,0,0:0:0:0:
93,132,78405,1,8,0:0:0:0:
93,132,78664,1,0,0:0:0:0:
93,132,78923,1,8,0:0:0:0:
93,132,79440,1,8,0:0:0:0:
93,132,79699,1,0,0:0:0:0:
93,132,79957,1,8,0:0:0:0:
93,132,80216,1,8,0:0:0:0:
93,132,80345,1,8,0:0:0:0:
93,132,80474,1,0,0:0:0:0:
93,132,80733,1,0,0:0:0:0:
93,132,80862,1,0,0:0:0:0:
93,132,80992,1,8,0:0:0:0:
93,132,81121,1,0,0:0:0:0:
93,132,81250,1,8,0:0:0:0:
93,132,81509,1,0,0:0:0:0:
93,132,82026,1,8,0:0:0:0:
93,132,82285,1,8,0:0:0:0:
93,132,82414,1,8,0:0:0:0:
93,132,82543,1,0,0:0:0:0:
93,132,82802,1,0,0:0:0:0:
93,132,82931,1,0,0:0:0:0:
93,132,83061,1,8,0:0:0:0:
93,132,83319,1,0,0:0:0:0:
93,132,83449,1,0,0:0:0:0:
93,132,83578,1,8,0:0:0:0:
93,132,83707,1,8,0:0:0:0:
93,132,83837,1,0,0:0:0:0:
93,132,84095,1,8,0:0:0:0:
93,132,84354,1,0,0:0:0:0:
93,132,84612,1,8,0:0:0:0:
125,120,85647,1,8,0:0:0:0:
125,120,85905,1,0,0:0:0:0:
125,120,86164,1,8,0:0:0:0:
125,120,86681,1,8,0:0:0:0:
125,120,87198,1,0,0:0:0:0:
125,120,87715,1,8,0:0:0:0:
125,120,87974,1,0,0:0:0:0:
125,120,88233,1,0,0:0:0:0:
125,120,88750,1,0,0:0:0:0:
125,120,89267,1,8,0:0:0:0:
125,120,89793,1,8,0:0:0:0:
125,120,90328,1,0,0:0:0:0:
125,120,90600,1,8,0:0:0:0:
125,120,90873,1,0,0:0:0:0:
125,120,91418,1,0,0:0:0:0:
125,120,91978,1,8,0:0:0:0:
57,111,93110,1,0,0:0:0:0:
86,95,93710,1,8,0:0:0:0:
57,111,95153,1,0,0:0:0:0:
57,111,95618,1,12,0:0:0:0:
256,192,95949,12,0,98267,0:0:0:0:
