osu file format v14

[General]
AudioFilename: audio.ogg
AudioLeadIn: 0
PreviewTime: 303
Countdown: 0
SampleSet: Normal
StackLeniency: 0.7
Mode: 1
LetterboxInBreaks: 0
WidescreenStoryboard: 1

[Editor]
DistanceSpacing: 1.5
BeatDivisor: 4
GridSize: 8
TimelineZoom: 0.6999999

[Metadata]
Title:Mist Song (Short Ver.)
TitleUnicode:Mist Song (Short Ver.)
Artist:Hinako Kawasaki
ArtistUnicode:川崎日菜子
Creator:sing216
Version:Futsuu
Source:ミストトレインガールズ~霧の世界の車窓から~
Tags:J_a_c_k_y jacky aabc271 ミストレ MistTrainGirls 迷霧列車少女~從霧之世界的車窗~ Yoshimi Kudo 工藤吉三 Miyazaki Kanae 宮崎カナエ mist train girls dmm games video game version size Japanese pop Jpop J-pop pv main theme メインテーマ
BeatmapID:3485134
BeatmapSetID:1675816

[Difficulty]
HPDrainRate:7
CircleSize:5
OverallDifficulty:4
ApproachRate:5
SliderMultiplier:1.4
SliderTickRate:1

[Events]
//Background and Video events
Video,0,"video.mp4"
0,0,"bg.jpg",0,0
//Break Periods
//Storyboard Layer 0 (Background)
//Storyboard Layer 1 (Fail)
//Storyboard Layer 2 (Pass)
//Storyboard Layer 3 (Foreground)
//Storyboard Layer 4 (Overlay)
//Storyboard Sound Samples

[TimingPoints]
1209,517.241379310345,3,1,0,85,1,0
13622,-100,3,1,0,90,0,0
23062,-100,3,1,0,65,0,0
23967,517.241379310345,3,1,0,65,1,0
36380,-100,3,1,0,75,0,0
48665,-100,3,1,0,65,0,0
48923,-100,3,1,0,65,0,0
61208,517.241379310345,3,1,0,65,1,8
61272,-100,3,1,0,75,0,8
61337,517.241379310345,3,1,0,75,1,0
62824,-100,3,1,0,85,0,0
62888,-100,3,1,0,85,0,1
75302,-100,3,1,0,90,0,1
84612,-100,3,1,0,80,0,0
85647,517.241379310345,3,1,0,75,1,0
85647,-100,3,1,0,75,0,0
87198,-100,3,1,0,70,0,0
88750,-100,3,1,0,60,0,0
89267,526.315789473684,3,1,0,60,1,8
89267,-98.2758630008918,3,1,0,60,0,8
89793,535.714285714286,3,1,0,60,1,8
89793,-96.5517241392628,3,1,0,60,0,8
90328,545.454545454546,3,1,0,50,1,0
90328,-94.8275866156362,3,1,0,50,0,0
91418,560.747663551402,3,1,0,50,1,8
91418,-92.2413801214328,3,1,0,50,0,8
91978,560.747663551402,3,1,0,50,1,0
91978,-92.241379313128,3,1,0,50,0,0
92539,571.428571428571,3,1,0,50,1,8
92539,-90.5172417694709,3,1,0,50,0,8
93110,600,3,1,0,50,1,8
93110,-86.2068965517241,3,1,0,50,0,8
93710,600,3,1,0,50,1,0
93710,-86.2068965517241,3,1,0,50,0,0
94010,631.578947368421,3,1,0,50,1,8
94010,-81.8965538421522,3,1,0,50,0,8
94325,789.473684210526,3,1,0,50,1,8
94325,-65.5172413996433,3,1,0,50,0,8
94719,869.565217391304,3,1,0,50,1,8
94719,-59.4827586309453,3,1,0,50,0,8
95153,930.232558139535,3,1,0,50,1,8
95153,-55.5555555555556,3,1,0,50,0,0
95618,1324.50331125828,3,1,0,50,1,0
95618,-39.0625,3,1,0,50,0,0
95783,-39.0625,3,1,0,30,0,0

[HitObjects]
255,193,1209,5,4,0:0:0:0:
255,193,1726,1,8,0:0:0:0:
255,193,2243,1,0,0:0:0:0:
255,193,2760,1,8,0:0:0:0:
255,193,3277,1,0,0:0:0:0:
255,193,3536,1,0,0:0:0:0:
255,193,3795,1,8,0:0:0:0:
255,193,4312,1,8,0:0:0:0:
255,193,4571,1,8,0:0:0:0:
255,193,4829,1,0,0:0:0:0:
255,193,5346,1,0,0:0:0:0:
255,193,6381,1,0,0:0:0:0:
255,193,6898,1,0,0:0:0:0:
255,193,7415,1,8,0:0:0:0:
255,193,7933,1,0,0:0:0:0:
255,193,8709,1,8,0:0:0:0:
255,193,8967,1,0,0:0:0:0:
255,193,10002,1,0,0:0:0:0:
255,193,10260,1,0,0:0:0:0:
255,193,10519,1,8,0:0:0:0:
255,193,10777,1,8,0:0:0:0:
255,193,11036,1,0,0:0:0:0:
250,188,11553,1,8,0:0:0:0:
254,201,12071,1,0,0:0:0:0:
248,198,12846,1,8,0:0:0:0:
255,193,13105,1,8,0:0:0:0:
255,193,13622,1,4,0:0:0:0:
255,193,14140,1,8,0:0:0:0:
255,193,14657,1,8,0:0:0:0:
255,193,14915,1,0,0:0:0:0:
255,193,15174,1,8,0:0:0:0:
255,193,15691,1,0,0:0:0:0:
255,193,16209,1,8,0:0:0:0:
255,193,16467,1,8,0:0:0:0:
255,193,16726,1,0,0:0:0:0:
255,193,17243,1,8,0:0:0:0:
255,193,18019,1,0,0:0:0:0:
255,193,18277,1,8,0:0:0:0:
255,193,18536,1,8,0:0:0:0:
255,193,18795,1,0,0:0:0:0:
254,198,19571,1,8,0:0:0:0:
255,193,19829,1,0,0:0:0:0:
255,193,20346,1,0,0:0:0:0:
255,193,20864,1,8,0:0:0:0:
255,193,21381,1,0,0:0:0:0:
255,193,21898,1,0,0:0:0:0:
254,204,22157,1,8,0:0:0:0:
255,193,22415,1,0,0:0:0:0:
255,193,22674,1,8,0:0:0:0:
255,193,23967,1,4,0:0:0:0:
255,193,24484,1,8,0:0:0:0:
255,193,24742,1,8,0:0:0:0:
255,193,25001,1,8,0:0:0:0:
255,193,25518,1,0,0:0:0:0:
255,193,26035,1,0,0:0:0:0:
255,193,27070,1,0,0:0:0:0:
255,193,27587,1,0,0:0:0:0:
255,193,27846,1,0,0:0:0:0:
255,193,28104,1,0,0:0:0:0:
255,193,28622,1,8,0:0:0:0:
255,193,29139,1,0,0:0:0:0:
255,193,30173,1,4,0:0:0:0:
255,193,30691,1,8,0:0:0:0:
255,193,30949,1,8,0:0:0:0:
255,193,31208,1,8,0:0:0:0:
255,193,31725,1,0,0:0:0:0:
255,193,32242,1,0,0:0:0:0:
255,193,32760,1,8,0:0:0:0:
255,193,33277,1,0,0:0:0:0:
255,193,33794,1,8,0:0:0:0:
255,193,34311,1,8,0:0:0:0:
255,193,34829,1,0,0:0:0:0:
255,193,36380,1,4,0:0:0:0:
255,193,36898,1,0,0:0:0:0:
255,193,37156,1,8,0:0:0:0:
255,193,37415,1,0,0:0:0:0:
255,193,37932,1,0,0:0:0:0:
255,193,38449,1,8,0:0:0:0:
255,193,39484,1,0,0:0:0:0:
255,193,40001,1,8,0:0:0:0:
255,193,40260,1,0,0:0:0:0:
255,193,40518,1,8,0:0:0:0:
255,193,41035,1,8,0:0:0:0:
255,193,41553,1,0,0:0:0:0:
255,193,42587,1,0,0:0:0:0:
255,193,42846,1,8,0:0:0:0:
255,193,43363,1,8,0:0:0:0:
255,193,43622,1,0,0:0:0:0:
255,193,44139,1,8,0:0:0:0:
255,193,44656,1,8,0:0:0:0:
255,193,45173,1,0,0:0:0:0:
255,193,45691,1,0,0:0:0:0:
255,193,45949,1,8,0:0:0:0:
255,193,46467,1,8,0:0:0:0:
255,193,46725,1,0,0:0:0:0:
255,193,47242,1,0,0:0:0:0:
255,193,47501,1,0,0:0:0:0:
258,203,47760,1,8,0:0:0:0:
255,193,48277,1,0,0:0:0:0:
255,193,48794,1,8,0:0:0:0:
255,193,50346,1,8,0:0:0:0:
256,198,51898,1,0,0:0:0:0:
255,193,53708,5,8,0:0:0:0:
255,193,54225,1,8,0:0:0:0:
255,193,54484,1,8,0:0:0:0:
255,193,55001,1,0,0:0:0:0:
255,193,55518,1,8,0:0:0:0:
255,193,56294,1,8,0:0:0:0:
255,193,56553,1,0,0:0:0:0:
255,193,57070,1,8,0:0:0:0:
255,193,57846,1,8,0:0:0:0:
255,193,58104,1,0,0:0:0:0:
255,193,58622,1,8,0:0:0:0:
255,193,59139,1,0,0:0:0:0:
255,193,59656,1,12,0:0:0:0:
255,193,60173,1,12,0:0:0:0:
255,193,61337,1,8,0:0:0:0:
255,193,61854,1,8,0:0:0:0:
255,193,62630,1,8,0:0:0:0:
255,193,62888,5,4,0:0:0:0:
255,193,63405,1,8,0:0:0:0:
255,193,63923,1,0,0:0:0:0:
255,193,64440,1,8,0:0:0:0:
255,193,64957,1,0,0:0:0:0:
255,193,65216,1,0,0:0:0:0:
255,193,65474,1,8,0:0:0:0:
255,193,65992,1,8,0:0:0:0:
255,193,66250,1,8,0:0:0:0:
255,193,66509,1,0,0:0:0:0:
255,193,67026,1,0,0:0:0:0:
255,193,68061,1,0,0:0:0:0:
255,193,68578,1,0,0:0:0:0:
255,193,69095,1,8,0:0:0:0:
255,193,69612,1,8,0:0:0:0:
255,193,70130,1,0,0:0:0:0:
255,193,70388,1,8,0:0:0:0:
255,193,70647,1,0,0:0:0:0:
255,193,71681,1,8,0:0:0:0:
255,193,71940,1,0,0:0:0:0:
255,193,72199,1,8,0:0:0:0:
255,193,72457,1,8,0:0:0:0:
255,193,72716,1,0,0:0:0:0:
255,193,73233,1,8,0:0:0:0:
255,193,73750,1,8,0:0:0:0:
167,135,74526,1,0,0:0:0:0:
255,193,74785,1,8,0:0:0:0:
255,193,75302,1,4,0:0:0:0:
255,193,75819,1,8,0:0:0:0:
255,193,76337,1,0,0:0:0:0:
255,193,76595,1,0,0:0:0:0:
255,193,76854,1,8,0:0:0:0:
255,193,77371,1,0,0:0:0:0:
255,193,77888,1,8,0:0:0:0:
255,193,78147,1,8,0:0:0:0:
255,193,78405,1,0,0:0:0:0:
255,193,78923,1,8,0:0:0:0:
255,193,79699,1,0,0:0:0:0:
255,193,79957,1,8,0:0:0:0:
255,193,80216,1,8,0:0:0:0:
255,193,80474,1,0,0:0:0:0:
255,193,80992,1,8,0:0:0:0:
255,193,81250,1,8,0:0:0:0:
255,193,81509,1,0,0:0:0:0:
255,193,82026,1,0,0:0:0:0:
255,193,82543,1,8,0:0:0:0:
255,193,83061,1,8,0:0:0:0:
255,193,83578,1,8,0:0:0:0:
255,193,83837,1,0,0:0:0:0:
255,193,84095,1,8,0:0:0:0:
255,193,84354,1,0,0:0:0:0:
255,193,84612,1,12,0:0:0:0:
262,192,85647,5,0,0:0:0:0:
262,192,86164,1,0,0:0:0:0:
262,192,86681,1,8,0:0:0:0:
262,192,87198,1,8,0:0:0:0:
262,192,87715,1,0,0:0:0:0:
262,192,88233,1,0,0:0:0:0:
262,192,88750,5,8,0:0:0:0:
262,192,89793,5,8,0:0:0:0:
262,192,90328,1,8,0:0:0:0:
262,192,91418,1,8,0:0:0:0:
262,192,91978,1,8,0:0:0:0:
262,192,93110,1,8,0:0:0:0:
262,192,93710,1,8,0:0:0:0:
262,192,95618,1,12,0:0:0:0:
256,192,95949,12,0,98267,0:0:0:0:
