osu file format v14

[General]
AudioFilename: hardcore stuff.mp3
AudioLeadIn: 0
PreviewTime: 53896
Countdown: 0
SampleSet: Soft
StackLeniency: 0.7
Mode: 0
LetterboxInBreaks: 0
WidescreenStoryboard: 1

[Editor]
DistanceSpacing: 1.7
BeatDivisor: 4
GridSize: 8
TimelineZoom: 1.5216

[Metadata]
Title:Inkya Impulse
TitleUnicode:インキャインパルス
Artist:Hina Kino, Rika Nagae, Konomi Kohara feat. Ikepy & KSKN
ArtistUnicode:木野日菜、長江里加、小原好美 feat. Ikepy & KSKN
Creator:epes2001 773
Version:Normal
Source:あそびあそばせ
Tags:asobi asobase anime comedy aaa
BeatmapID:1785884
BeatmapSetID:846194

[Difficulty]
HPDrainRate:4
CircleSize:3.5
OverallDifficulty:4
ApproachRate:5
SliderMultiplier:1.76
SliderTickRate:1

[Events]
//Background and Video events
0,0,"intense stuff.jpg",0,0
//Break Periods
2,85834,94870
2,158878,180956
//Storyboard Layer 0 (Background)
//Storyboard Layer 1 (Fail)
//Storyboard Layer 2 (Pass)
//Storyboard Layer 3 (Foreground)
//Storyboard Sound Samples

[TimingPoints]
2171,434.781104992392,4,2,0,80,1,0
23040,-100,4,1,0,80,0,0
36953,-133.333333333333,4,1,0,80,0,0
50853,434.781104992392,4,1,0,80,1,0
50853,-133.333333333333,4,1,0,80,0,0
54331,-100,4,1,0,80,0,1
80418,-133.333333333333,4,1,0,80,0,0
96070,-133.333333333333,4,1,0,80,0,0
108244,-100,4,1,0,80,0,0
123896,-133.333333333333,4,1,0,80,0,0
127374,-100,4,1,0,80,0,1
153461,-133.333333333333,4,1,0,80,0,0
183026,-83.3333333333333,4,1,0,80,0,1
195200,-66.6666666666667,4,1,0,80,0,0
196291,434.781104992392,4,1,0,80,1,0
196291,-66.6666666666667,4,1,0,80,0,0
196943,434.781104992392,4,1,0,80,1,0
196943,-100,4,1,0,80,0,0
223477,434.781104992392,4,1,0,80,1,0
224781,434.781104992392,4,1,0,80,1,1
224781,-100,4,1,0,80,0,1
250867,-100,4,1,0,80,0,0
251312,434.781104992392,4,1,0,80,1,0
252616,434.781104992392,4,1,0,80,1,0
265635,434.781104992392,4,1,0,80,1,0
266504,434.781104992392,4,1,0,80,1,0

[Colours]
Combo1 : 228,228,228
Combo2 : 128,128,192
Combo3 : 255,185,220
Combo4 : 255,128,255

[HitObjects]
117,278,9127,6,0,B|96:219|96:219|117:142,2,132
176,342,9997,2,0,P|237:302|333:309,1,132,8|0,0:0|0:0,0:0:0:0:
410,358,10649,1,0,0:0:0:0:
458,284,10866,2,0,B|463:234|463:234|418:220|418:220|390:167,2,132
375,313,11736,2,0,B|322:318|322:318|297:339|297:339|249:347,2,132,8|0|0,0:0|0:0|0:0,0:0:0:0:
336,237,12605,5,0,0:0:0:0:
215,267,12931,2,0,P|186:213|210:135,1,132
252,76,13475,2,0,P|330:89|376:134,2,132,8|0|0,0:0|0:0|0:0,0:0:0:0:
168,103,14344,5,0,0:0:0:0:
38,75,14670,1,0,0:0:0:0:
13,197,14997,1,0,0:0:0:0:
73,260,15214,2,0,B|124:278|124:278|143:364,2,132,8|0|0,0:0|0:0|0:0,0:0:0:0:
128,193,16083,6,0,L|271:237,2,132
45,161,16953,2,0,P|22:115|42:24,2,132,8|0|0,0:0|0:0|0:0,0:0:0:0:
40,248,17823,1,0,0:0:0:0:
125,348,18149,2,0,B|206:351|206:351|269:324,1,132
332,293,18692,2,0,B|383:272|383:272|469:274,2,132,8|0|0,0:0|0:0|0:0,0:0:0:0:
273,227,19562,5,0,0:0:0:0:
195,120,19888,1,0,0:0:0:0:
274,14,20214,1,0,0:0:0:0:
337,75,20431,2,0,B|384:73|384:73|402:59|402:59|486:55,2,132,8|0|0,0:0|0:0|0:0,0:0:0:0:
282,148,21301,5,0,0:0:0:0:
301,277,21627,1,0,0:0:0:0:
183,254,21953,1,0,0:0:0:0:
109,299,22170,2,0,P|99:253|117:206,1,88
172,155,22605,2,0,P|210:120|217:66,1,88
279,26,23040,6,0,P|370:43|409:136,1,176
392,194,23692,1,8,0:0:0:0:
455,248,23910,2,0,P|416:275|367:275,1,88,0|8,0:0|0:0,0:0:0:0:
297,269,24344,2,0,P|247:262|208:293,1,88,0|8,0:0|0:0,0:0:0:0:
147,334,24779,6,0,B|109:252|109:252|144:166,1,176
188,101,25431,1,8,0:0:0:0:
263,65,25649,2,0,B|274:110|274:110|257:164,1,88,0|8,0:0|0:0,0:0:0:0:
235,234,26083,2,0,B|218:279|218:279|230:334,1,88,0|8,0:0|0:0,0:0:0:0:
301,365,26518,6,0,B|323:324|323:324|410:303|410:303|421:258,1,176
411,176,27170,1,8,0:0:0:0:
458,102,27388,2,0,P|396:92|350:107,1,88,0|8,0:0|0:0,0:0:0:0:
285,113,27823,2,0,P|227:125|183:117,1,88,0|8,0:0|0:0,0:0:0:0:
126,61,28257,6,0,P|104:137|175:222,1,176
209,282,28910,1,8,0:0:0:0:
160,354,29127,2,0,B|268:371|268:371|337:337,1,176
413,364,29779,1,8,0:0:0:0:
461,291,29996,6,0,B|475:226|417:198|417:198|355:226,1,176
282,264,30649,1,8,0:0:0:0:
205,219,30866,2,0,P|159:206|117:216,1,88,0|8,0:0|0:0,0:0:0:0:
121,300,31301,2,0,P|173:314|214:296,1,88,0|8,0:0|0:0,0:0:0:0:
282,264,31736,6,0,B|302:205|302:206|262:148|306:74,1,176
376,62,32388,1,8,0:0:0:0:
433,124,32605,2,0,B|447:168|447:168|432:235,1,88,0|8,0:0|0:0,0:0:0:0:
415,286,33040,2,0,B|395:328|395:328|346:353,1,88,0|8,0:0|0:0,0:0:0:0:
280,368,33475,6,0,P|198:343|172:261,1,176
195,181,34127,1,8,0:0:0:0:
251,116,34344,2,0,P|198:97|153:110,2,88,0|8|0,0:0|0:0|0:0,0:0:0:0:
324,75,34996,1,8,0:0:0:0:
354,152,35214,6,0,P|359:211|258:277,2,176
213,78,36518,1,0,0:0:0:0:
119,185,36953,5,0,0:0:0:0:
373,254,37823,2,0,P|388:184|353:120,2,132.000005035401,8|0|0,0:0|0:0|0:0,0:0:0:0:
262,326,39127,1,0,0:0:0:0:
174,227,39562,1,8,0:0:0:0:
258,125,39996,1,0,0:0:0:0:
152,45,40431,5,0,0:0:0:0:
65,294,41301,2,0,P|168:294|197:269,2,132.000005035401,8|0|0,0:0|0:0|0:0,0:0:0:0:
116,172,42605,1,0,0:0:0:0:
242,210,43040,1,8,0:0:0:0:
367,169,43475,1,0,0:0:0:0:
493,208,43909,5,0,0:0:0:0:
239,281,44779,2,0,B|208:204|208:204|231:137,2,132.000005035401,8|0|0,0:0|0:0|0:0,0:0:0:0:
349,353,46083,1,0,0:0:0:0:
432,250,46518,1,8,0:0:0:0:
318,181,46953,1,0,0:0:0:0:
385,68,47388,5,0,0:0:0:0:
148,186,48257,2,0,B|84:215|84:215|18:213,2,132.000005035401,8|0|0,0:0|0:0|0:0,0:0:0:0:
199,64,49562,1,0,0:0:0:0:
307,139,49996,2,0,B|338:174|338:174|345:278,1,132.000005035401
351,384,50853,5,0,0:0:0:0:
477,366,51287,1,2,0:0:0:0:
492,234,51722,1,0,0:0:0:0:
372,266,52157,1,2,0:0:0:0:
417,142,52592,2,0,P|347:132|280:165,2,132.000005035401,0|2|0,0:0|0:0|0:0,0:0:0:0:
134,352,54331,6,0,P|46:286|146:88,1,352,0|8,0:0|0:0,0:0:0:0:
232,174,55635,1,0,0:0:0:0:
369,180,56070,2,0,P|316:84|275:68,2,132
361,248,56939,1,8,0:0:0:0:
314,375,57374,1,0,0:0:0:0:
251,256,57809,6,0,P|223:216|235:321,1,352,0|8,0:0|0:0,0:0:0:0:
333,243,59113,1,0,0:0:0:0:
303,116,59548,2,0,B|347:97|395:121|395:121|457:131,2,132
246,75,60418,1,8,0:0:0:0:
125,123,60852,1,0,0:0:0:0:
70,243,61287,6,0,B|137:278|203:232|203:232|236:152|236:152|281:103|362:125,1,352,0|8,0:0|0:0,0:0:0:0:
422,223,62592,1,0,0:0:0:0:
341,307,63026,2,0,B|285:298|285:298|260:313|260:313|201:303,2,132
374,353,63896,1,8,0:0:0:0:
469,269,64331,1,0,0:0:0:0:
344,223,64765,6,0,B|215:195|215:195|224:267|224:267|79:237,1,352,0|8,0:0|0:0,0:0:0:0:
34,121,66070,1,0,0:0:0:0:
139,44,66505,2,0,P|172:101|155:181,2,132
90,15,67374,1,8,0:0:0:0:
34,121,67809,1,0,0:0:0:0:
118,213,68244,6,0,P|195:232|272:176,1,176,0|8,0:0|0:0,0:0:0:0:
319,106,68896,1,0,0:0:0:0:
401,74,69113,2,8,B|414:124|414:124|437:142|437:142|450:203,2,132
332,18,69983,6,0,P|277:22|241:58,1,88
198,111,70418,2,0,P|179:137|110:154,1,88,8|0,0:0|0:0,0:0:0:0:
50,113,70852,1,0,0:0:0:0:
98,281,71287,1,8,0:0:0:0:
271,253,71722,6,0,P|353:213|354:107,1,176,0|8,0:0|0:0,0:0:0:0:
307,70,72374,1,0,0:0:0:0:
225,103,72592,2,8,B|170:91|170:91|138:100|138:100|96:88,2,132
235,190,73461,6,0,L|144:202,1,88
130,288,73896,2,0,L|246:271,1,88,8|0,0:0|0:0,0:0:0:0:
283,333,74331,1,0,0:0:0:0:
454,292,74765,1,8,0:0:0:0:
400,124,75200,6,0,P|344:146|320:181,1,88
276,238,75635,2,0,P|225:282|183:289,1,88,8|0,0:0|0:0,0:0:0:0:
118,290,76070,2,8,B|77:243|77:243|79:223|79:223|45:177,2,132
85,372,76939,6,0,P|145:372|182:351,1,88
253,347,77374,2,0,P|305:340|368:367,1,88,8|0,0:0|0:0,0:0:0:0:
422,370,77809,1,0,0:0:0:0:
465,219,78244,1,8,0:0:0:0:
357,109,78678,6,0,L|248:86,2,88,0|0|8,0:0|0:0|0:0,0:0:0:0:
344,189,79331,2,0,L|231:204,2,88
423,166,79983,1,8,0:0:0:0:
440,92,80200,1,0,0:0:0:0:
383,31,80418,5,0,0:0:0:0:
230,19,80852,1,0,0:0:0:0:
213,163,81287,1,0,0:0:0:0:
60,190,81722,1,0,0:0:0:0:
77,36,82157,5,4,0:0:0:0:
256,192,82265,12,0,85634,0:0:0:0:
257,191,96070,6,0,B|232:218|232:218|199:226|199:226|173:268,2,99.0000037765504
291,134,96939,1,8,0:0:0:0:
418,100,97374,1,0,0:0:0:0:
472,220,97809,2,0,B|437:245|437:245|412:304,2,99.0000037765504
512,167,98678,2,0,L|369:143,1,132.000005035401,8|0,0:0|0:0,0:0:0:0:
323,177,99331,1,0,0:0:0:0:
297,240,99548,6,0,P|286:302|311:349,2,99.0000037765504
240,205,100418,2,0,P|235:155|194:113,2,99.0000037765504,8|0|0,0:0|0:0|0:0,0:0:0:0:
202,259,101287,2,0,P|113:269|72:120,2,264.000010070801,0|8|0,0:0|0:0|0:0,0:0:0:0:
339,115,103678,5,0,0:0:0:0:
367,174,103896,2,0,B|381:208|381:208|369:293,2,99.0000037765504,8|0|0,0:0|0:0|0:0,0:0:0:0:
307,145,104765,1,0,0:0:0:0:
176,165,105200,1,0,0:0:0:0:
112,182,105418,1,0,0:0:0:0:
46,172,105635,2,0,P|48:238|179:306,1,198.000007553101,8|0,0:0|0:0,0:0:0:0:
202,295,106504,6,0,B|246:343|246:343|300:357,2,99.0000037765504
212,240,107374,2,0,B|239:183|239:183|287:160,2,99.0000037765504,8|0|0,0:0|0:0|0:0,0:0:0:0:
164,257,108244,5,0,0:0:0:0:
193,90,108678,1,8,0:0:0:0:
350,80,109113,1,0,0:0:0:0:
396,235,109548,1,8,0:0:0:0:
311,345,109983,6,0,P|254:304|148:316,1,176
87,253,110635,1,8,0:0:0:0:
79,165,110852,2,0,P|99:121|149:97,1,88,0|8,0:0|0:0,0:0:0:0:
215,74,111287,2,0,B|254:77|254:77|319:120,1,88,0|8,0:0|0:0,0:0:0:0:
327,185,111722,6,0,P|389:101|354:33,1,176
292,8,112374,1,8,0:0:0:0:
208,4,112591,2,0,B|161:15|161:15|123:59,1,88,0|8,0:0|0:0,0:0:0:0:
105,124,113026,2,0,B|95:152|95:152|107:223,1,88,0|8,0:0|0:0,0:0:0:0:
128,287,113461,6,0,P|213:303|299:225,1,176
331,186,114113,1,8,0:0:0:0:
399,240,114331,2,0,B|418:196|418:196|405:134,1,88,0|8,0:0|0:0,0:0:0:0:
437,83,114765,2,0,B|392:73|392:73|344:100,1,88,0|8,0:0|0:0,0:0:0:0:
281,127,115200,5,0,0:0:0:0:
221,68,115417,1,8,0:0:0:0:
168,133,115635,2,0,P|119:162|67:162,1,88,0|8,0:0|0:0,0:0:0:0:
54,246,116070,2,0,P|111:257|164:237,1,88,0|8,0:0|0:0,0:0:0:0:
206,307,116504,2,0,P|285:313|318:333,1,88,0|8,0:0|0:0,0:0:0:0:
358,374,116939,6,0,P|381:311|296:235,1,176
234,217,117591,1,8,0:0:0:0:
151,236,117809,2,0,P|133:166|151:139,1,88,0|8,0:0|0:0,0:0:0:0:
205,100,118244,2,0,P|271:91|309:117,1,88,0|8,0:0|0:0,0:0:0:0:
352,159,118678,6,0,P|370:227|309:329,1,176
243,351,119331,1,8,0:0:0:0:
159,322,119548,2,0,B|128:307|128:307|75:299,1,88,0|8,0:0|0:0,0:0:0:0:
60,211,119983,2,0,B|97:218|97:218|168:209,1,88,0|8,0:0|0:0,0:0:0:0:
213,153,120417,6,0,B|168:125|168:125|41:114,1,176
12,32,121070,1,8,0:0:0:0:
99,23,121287,2,0,L|195:33,1,88,0|8,0:0|0:0,0:0:0:0:
250,92,121722,2,0,P|317:93|361:57,1,88,0|8,0:0|0:0,0:0:0:0:
411,42,122157,5,0,0:0:0:0:
434,126,122374,1,8,0:0:0:0:
357,169,122591,2,0,L|342:274,1,88,8|0,0:0|0:0,0:0:0:0:
271,305,123026,2,0,B|247:281|247:281|254:255|254:255|221:218,1,88,8|0,0:0|0:0,0:0:0:0:
156,201,123461,2,0,B|146:237|146:237|154:309,1,88,8|0,0:0|0:0,0:0:0:0:
92,355,123896,5,0,0:0:0:0:
35,213,124331,1,2,0:0:0:0:
85,66,124765,1,2,0:0:0:0:
156,201,125200,1,2,0:0:0:0:
214,55,125635,2,0,P|320:72|359:107,1,132.000005035401,0|2,0:0|0:0,0:0:0:0:
419,204,126504,1,0,0:0:0:0:
230,369,127374,6,0,B|122:328|122:214|122:214|291:130,1,352,0|8,0:0|0:0,0:0:0:0:
376,227,128678,1,0,0:0:0:0:
484,128,129113,2,0,B|452:96|401:97|401:97|371:48,2,132
503,198,129983,1,8,0:0:0:0:
401,305,130417,1,0,0:0:0:0:
250,305,130852,6,0,B|165:267|91:316|91:316|24:139,1,352,0|8,0:0|0:0,0:0:0:0:
114,31,132157,1,0,0:0:0:0:
230,103,132591,2,0,P|309:104|352:63,2,132
161,85,133461,1,8,0:0:0:0:
137,220,133896,1,0,0:0:0:0:
233,331,134330,6,0,B|290:117|403:344|483:122,1,352,0|8,0:0|0:0,0:0:0:0:
385,28,135635,1,0,0:0:0:0:
265,100,136070,2,0,B|172:115|172:115|119:100,2,132
321,143,136939,1,8,0:0:0:0:
232,239,137374,1,0,0:0:0:0:
106,162,137809,6,0,B|85:224|85:224|123:258|123:258|101:317|101:317|171:393|270:367,1,352,0|8,0:0|0:0,0:0:0:0:
382,311,139113,1,0,0:0:0:0:
497,367,139548,2,0,P|506:299|451:214,1,132
412,161,140200,1,0,0:0:0:0:
412,161,140417,2,0,B|428:107|497:68|497:68|425:36|441:50,1,176,8|0,0:0|0:0,0:0:0:0:
333,66,141287,6,0,P|257:83|155:45,1,176,0|8,0:0|0:0,0:0:0:0:
79,31,141939,1,0,0:0:0:0:
34,107,142157,2,8,B|48:152|48:152|89:170|89:170|107:223,2,132
120,92,143026,6,0,P|168:127|187:169,1,88
207,234,143461,2,0,P|221:285|268:325,1,88,8|0,0:0|0:0,0:0:0:0:
320,353,143896,2,0,B|373:327|444:343|444:343|464:275,1,176,0|8,0:0|0:0,0:0:0:0:
446,208,144548,1,0,0:0:0:0:
473,124,144765,6,0,P|412:122|378:143,2,88,0|0|8,0:0|0:0|0:0,0:0:0:0:
446,208,145417,1,0,0:0:0:0:
359,220,145635,2,8,B|305:213|305:213|274:228|274:228|219:219,2,132
345,307,146504,6,0,P|400:301|451:322,1,88
497,252,146939,2,0,P|438:219|416:188,1,88,8|0,0:0|0:0,0:0:0:0:
370,135,147374,1,0,0:0:0:0:
412,57,147591,1,0,0:0:0:0:
336,18,147809,2,0,B|286:62|286:62|148:28,1,176,8|0,0:0|0:0,0:0:0:0:
92,24,148461,5,0,0:0:0:0:
52,102,148678,2,0,P|34:167|50:212,1,88,8|0,0:0|0:0,0:0:0:0:
82,261,149113,2,8,B|130:281|175:265|175:265|201:303,2,132
136,191,149983,6,0,P|203:191|242:217,1,88
289,254,150417,2,0,P|369:282|413:276,1,88,8|0,0:0|0:0,0:0:0:0:
455,253,150852,1,0,0:0:0:0:
423,170,151070,1,0,0:0:0:0:
472,97,151287,2,0,P|407:81|361:101,1,88,8|0,0:0|0:0,0:0:0:0:
301,101,151722,6,0,P|237:110|183:92,2,88,0|0|8,0:0|0:0|0:0,0:0:0:0:
337,184,152374,2,0,P|403:164|446:180,2,88
266,228,153026,1,8,0:0:0:0:
186,251,153243,1,0,0:0:0:0:
110,219,153461,5,0,0:0:0:0:
195,80,153896,1,0,0:0:0:0:
296,191,154330,1,0,0:0:0:0:
409,303,154765,1,0,0:0:0:0:
494,161,155200,5,4,0:0:0:0:
256,192,155309,12,0,158678,0:0:0:0:
256,192,182156,5,0,0:0:0:0:
114,329,183026,6,4,P|108:229|193:163,2,211.199993554688
267,290,184330,1,4,0:0:0:0:
417,337,184765,2,4,P|421:235|317:154,2,211.199993554688
267,290,186069,1,4,0:0:0:0:
224,157,186504,6,4,B|189:109|189:109|130:105|130:105|79:20,2,211.199993554688
267,290,187809,1,4,0:0:0:0:
319,158,188243,2,4,B|346:109|346:109|405:101|405:101|453:8,2,211.199993554688
267,290,189548,1,4,0:0:0:0:
125,338,189982,6,4,B|51:362|51:362|84:222,2,211.199993554688
267,290,191287,1,4,0:0:0:0:
409,342,191722,2,4,B|470:370|470:370|425:228,2,211.199993554688
267,290,193026,1,4,0:0:0:0:
174,165,193461,6,4,B|235:155|263:113|263:113|305:168|371:161,2,211.199993554688
267,290,194765,1,4,0:0:0:0:
351,162,195200,6,0,P|158:70|119:312,1,528.000020141602,4|0,0:0|0:0,0:0:0:0:
363,365,196943,6,0,B|405:318|466:335|466:335|495:270,1,176
458,196,197595,1,0,0:0:0:0:
490,114,197812,2,0,P|428:114|392:140,1,88,8|0,0:0|0:0,0:0:0:0:
335,178,198247,2,0,B|295:193|295:193|275:193|275:193|237:208,1,88
165,220,198682,5,0,0:0:0:0:
81,191,198899,2,0,B|106:146|89:102|89:102|175:81,1,176
252,115,199551,2,0,P|308:120|356:104,1,88,8|0,0:0|0:0,0:0:0:0:
420,81,199986,2,0,L|471:64,2,44
397,166,200421,6,0,L|439:266,1,88
391,326,200856,1,0,0:0:0:0:
310,360,201073,1,0,0:0:0:0:
227,329,201290,2,0,L|252:230,1,88,8|0,0:0|0:0,0:0:0:0:
181,185,201725,2,0,L|163:82,1,88
96,43,202160,5,0,0:0:0:0:
61,123,202377,1,0,0:0:0:0:
41,209,202595,2,0,P|68:293|101:311,1,88
122,356,203029,2,0,P|172:356|270:253,1,176,8|0,0:0|0:0,0:0:0:0:
287,192,203682,1,0,0:0:0:0:
262,107,203899,6,0,P|308:107|352:133,2,88
180,140,204551,1,0,0:0:0:0:
102,182,204769,2,0,B|57:171|57:171|44:119,1,88,8|0,0:0|0:0,0:0:0:0:
36,43,205203,2,0,L|141:66,1,88
203,96,205638,2,0,P|268:53|393:65,1,176
447,60,206290,1,0,0:0:0:0:
434,140,206508,6,0,B|458:187|458:187|451:278,2,132,8|0|0,0:0|0:0|0:0,0:0:0:0:
349,142,207377,2,0,P|272:146|183:204,1,176
153,271,208029,1,0,0:0:0:0:
234,289,208247,2,0,P|310:272|331:253,1,88,8|0,0:0|0:0,0:0:0:0:
391,238,208682,2,0,P|443:228|487:246,1,88
490,319,209116,5,0,0:0:0:0:
416,357,209334,2,0,B|358:374|358:374|235:358,1,176
168,322,209986,2,0,P|133:263|188:162,1,176,8|0,0:0|0:0,0:0:0:0:
287,99,210855,6,0,P|325:192|265:271,1,176,0|8,0:0|0:0,0:0:0:0:
223,308,211508,1,0,0:0:0:0:
148,261,211725,2,0,P|123:202|134:163,1,88
154,96,212160,2,0,B|175:70|175:70|252:66,1,88,8|0,0:0|0:0,0:0:0:0:
304,113,212595,6,0,B|339:138|339:138|483:128,2,176,0|8|0,0:0|0:0|0:0,0:0:0:0:
232,60,213682,1,0,0:0:0:0:
144,51,213899,2,0,P|91:79|57:117,1,88,8|0,0:0|0:0,0:0:0:0:
37,179,214334,6,0,P|41:266|135:334,1,176,0|8,0:0|0:0,0:0:0:0:
182,361,214986,1,0,0:0:0:0:
264,331,215203,2,0,P|326:269|323:166,1,176,0|8,0:0|0:0,0:0:0:0:
300,101,215855,1,0,0:0:0:0:
373,52,216073,6,0,P|455:71|465:182,2,176,0|8|0,0:0|0:0|0:0,0:0:0:0:
300,101,217160,1,0,0:0:0:0:
220,63,217377,2,0,P|180:46|102:53,1,88,8|0,0:0|0:0,0:0:0:0:
64,109,217812,6,0,P|41:187|101:295,1,176,0|8,0:0|0:0,0:0:0:0:
139,332,218464,1,0,0:0:0:0:
226,348,218682,2,0,P|315:334|323:331,1,88
372,271,219116,2,0,L|475:293,1,88,8|0,0:0|0:0,0:0:0:0:
468,207,219551,6,0,B|361:182|361:182|285:208,1,176,0|8,0:0|0:0,0:0:0:0:
219,242,220203,1,0,0:0:0:0:
134,268,220421,2,0,B|108:218|108:218|143:99,1,176,0|8,0:0|0:0,0:0:0:0:
219,61,221073,1,0,0:0:0:0:
295,104,221290,6,0,P|292:173|361:71,1,352
218,59,222595,1,8,0:0:0:0:
71,64,223029,5,0,0:0:0:0:
23,194,223477,1,0,0:0:0:0:
105,295,223911,1,0,0:0:0:0:
240,266,224346,1,0,0:0:0:0:
368,315,224781,6,0,P|457:318|355:200,1,352,0|8,0:0|0:0,0:0:0:0:
244,290,226085,1,0,0:0:0:0:
141,175,226520,2,0,B|105:205|105:205|94:244|94:244|45:276,2,132
201,138,227389,1,8,0:0:0:0:
79,43,227824,1,0,0:0:0:0:
23,180,228259,6,0,P|60:297|279:333,1,352,0|8,0:0|0:0,0:0:0:0:
369,234,229563,1,0,0:0:0:0:
352,96,229998,2,0,P|426:115|475:172,2,132
285,121,230867,1,8,0:0:0:0:
139,72,231302,1,0,0:0:0:0:
65,207,231737,6,0,B|113:356|113:356|194:270|323:342,1,352,0|8,0:0|0:0,0:0:0:0:
438,355,233041,1,0,0:0:0:0:
474,225,233476,2,0,B|452:180|452:180|461:137|461:137|425:77,2,132
417,273,234346,1,8,0:0:0:0:
286,233,234780,1,0,0:0:0:0:
161,307,235215,6,0,B|106:233|206:187|114:86|114:86|192:93|230:27,1,352
333,130,236520,1,0,0:0:0:0:
369,271,236954,2,0,P|309:279|245:246,2,132
425,221,237824,2,0,B|434:174|434:174|467:149|467:149|479:50,1,176,8|0,0:0|0:0,0:0:0:0:
320,31,238693,6,0,P|270:90|161:107,1,176,0|8,0:0|0:0,0:0:0:0:
100,52,239346,1,0,0:0:0:0:
58,129,239563,2,8,B|41:178|41:178|16:197|16:197|-4:261,2,132
100,52,240433,6,0,P|142:103|144:151,1,88
155,205,240867,2,0,P|152:260|200:308,1,88,8|0,0:0|0:0,0:0:0:0:
238,330,241302,1,0,0:0:0:0:
320,332,241520,1,0,0:0:0:0:
391,366,241737,2,0,B|416:316|416:316|488:270|441:183,1,176,8|0,0:0|0:0,0:0:0:0:
423,135,242389,5,0,0:0:0:0:
456,53,242607,2,0,P|383:53|331:142,1,176,8|0,0:0|0:0,0:0:0:0:
315,219,243259,1,0,0:0:0:0:
247,275,243476,2,0,P|192:288|134:266,1,88,8|0,0:0|0:0,0:0:0:0:
76,260,243911,6,0,B|61:215|61:215|81:169,1,88
157,140,244346,2,0,B|175:88|175:88|163:41,1,88,8|0,0:0|0:0,0:0:0:0:
81,35,244780,1,0,0:0:0:0:
54,118,244998,1,0,0:0:0:0:
95,195,245215,2,0,P|176:226|243:155,1,176,8|0,0:0|0:0,0:0:0:0:
319,137,245867,5,0,0:0:0:0:
389,189,246085,2,0,B|437:220|437:220|426:342,1,176,8|0,0:0|0:0,0:0:0:0:
350,383,246737,1,0,0:0:0:0:
269,350,246954,2,0,P|210:327|145:329,1,88,8|0,0:0|0:0,0:0:0:0:
106,361,247389,6,0,P|104:302|135:255,1,88
172,208,247824,2,0,P|205:163|210:111,1,88,8|0,0:0|0:0,0:0:0:0:
207,44,248259,1,0,0:0:0:0:
293,31,248476,1,0,0:0:0:0:
358,89,248693,2,0,P|386:154|377:199,1,88,8|0,0:0|0:0,0:0:0:0:
357,252,249128,6,0,P|357:302|403:363,2,88,0|0|8,0:0|0:0|0:0,0:0:0:0:
288,195,249780,2,0,P|259:240|250:287,2,88
340,124,250433,1,8,0:0:0:0:
416,167,250650,1,0,0:0:0:0:
433,253,250867,5,0,0:0:0:0:
317,316,251312,1,0,0:0:0:0:
194,276,251746,1,0,0:0:0:0:
77,315,252181,1,0,0:0:0:0:
33,183,252616,6,0,B|61:145|61:145|108:140|108:140|132:102,2,132,4|0|0,0:0|0:0|0:0,0:0:0:0:
9,267,253485,2,0,P|74:287|150:264,1,132,8|0,0:0|0:0,0:0:0:0:
251,211,254137,1,0,0:0:0:0:
317,268,254355,2,0,B|357:297|357:297|460:309,2,132
316,180,255224,2,0,B|280:153|280:153|182:135,2,132,8|0|0,0:0|0:0|0:0,0:0:0:0:
248,237,256094,5,0,0:0:0:0:
136,306,256420,2,0,P|99:253|135:180,1,132
182,132,256963,2,0,B|139:109|139:109|37:121,2,132,8|0|0,0:0|0:0|0:0,0:0:0:0:
244,194,257833,5,0,0:0:0:0:
374,171,258159,1,0,0:0:0:0:
406,298,258485,1,0,0:0:0:0:
335,350,258702,2,0,P|265:367|199:351,2,132,8|0|0,0:0|0:0|0:0,0:0:0:0:
305,267,259572,5,0,0:0:0:0:
198,189,259898,2,0,B|178:135|178:135|203:43,1,132
278,28,260442,2,0,P|369:25|423:59,2,132,8|0|0,0:0|0:0|0:0,0:0:0:0:
235,104,261311,6,0,P|145:146|99:130,1,132
162,14,261963,1,0,0:0:0:0:
249,12,262181,2,0,P|319:60|330:133,1,132,8|0,0:0|0:0,0:0:0:0:
305,231,262833,1,0,0:0:0:0:
227,272,263050,6,0,P|132:287|74:261,2,132
305,231,263920,2,0,P|375:215|440:230,2,132,8|0|0,0:0|0:0|0:0,0:0:0:0:
289,317,264789,5,0,0:0:0:0:
138,347,265115,1,0,0:0:0:0:
114,206,265442,1,0,0:0:0:0:
167,139,265635,2,8,L|221:127,1,44
299,165,265961,2,8,L|347:173,1,44
399,251,266287,2,8,L|451:268,2,44
256,192,266613,12,0,273461,0:0:0:0:
