osu file format v14

[General]
AudioFilename: hardcore stuff.mp3
AudioLeadIn: 0
PreviewTime: 53896
Countdown: 0
SampleSet: Normal
StackLeniency: 0.7
Mode: 0
LetterboxInBreaks: 0
WidescreenStoryboard: 1

[Editor]
DistanceSpacing: 1
BeatDivisor: 4
GridSize: 8
TimelineZoom: 2.299999

[Metadata]
Title:Inkya Impulse
TitleUnicode:インキャインパルス
Artist:Hina Kino, Rika Nagae, Konomi Kohara feat. Ikepy & KSKN
ArtistUnicode:木野日菜、長江里加、小原好美 feat. Ikepy & KSKN
Creator:epes2001 773
Version:Hard
Source:あそびあそばせ
Tags:asobi asobase anime comedy aaa
BeatmapID:1776696
BeatmapSetID:846194

[Difficulty]
HPDrainRate:5
CircleSize:4
OverallDifficulty:6
ApproachRate:7
SliderMultiplier:2.06
SliderTickRate:1

[Events]
//Background and Video events
0,0,"intense stuff.jpg",0,0
//Break Periods
2,85834,93431
2,158879,181256
//Storyboard Layer 0 (Background)
//Storyboard Layer 1 (Fail)
//Storyboard Layer 2 (Pass)
//Storyboard Layer 3 (Foreground)
//Storyboard Sound Samples

[TimingPoints]
2171,434.781104992392,4,1,0,80,1,0
23040,-100,4,1,0,80,0,0
36953,-133.333333333333,4,1,0,80,0,0
50853,434.781104992392,4,1,0,80,1,0
50853,-133.333333333333,4,1,0,80,0,0
54331,-100,4,1,0,80,0,1
80418,-133.333333333333,4,1,0,80,0,0
96070,-133.333333333333,4,1,0,80,0,0
108244,-100,4,1,0,80,0,0
123896,-133.333333333333,4,1,0,80,0,0
127374,-100,4,1,0,80,0,1
153461,-133.333333333333,4,1,0,80,0,0
183026,-66.6666666666667,4,1,0,80,0,1
195200,-66.6666666666667,4,1,0,80,0,0
196291,434.781104992392,4,1,0,80,1,0
196291,-66.6666666666667,4,1,0,80,0,0
196943,434.781104992392,4,1,0,80,1,0
196943,-100,4,1,0,80,0,0
223477,434.781104992392,4,1,0,80,1,0
224781,434.781104992392,4,1,0,80,1,1
224781,-100,4,1,0,80,0,1
250867,-100,4,1,0,80,0,0
251312,434.781104992392,4,1,0,80,1,0
252616,434.781104992392,4,1,0,80,1,0
265635,434.781104992392,4,1,0,80,1,0
266504,434.781104992392,4,1,0,80,1,0

[Colours]
Combo1 : 228,228,228
Combo2 : 128,128,192
Combo3 : 255,185,220
Combo4 : 255,128,255

[HitObjects]
91,320,9127,5,0,0:0:0:0:
91,320,9236,2,0,P|120:257|110:186,1,103
114,185,9562,2,0,P|116:113|142:77,1,103
242,33,9997,1,8,0:0:0:0:
242,33,10105,2,0,B|271:66|271:66|359:82,1,103
373,57,10431,2,0,L|383:172,1,103
379,275,10866,6,0,B|343:320|343:320|246:328,2,154.5
292,193,11736,2,0,B|236:155|236:155|131:164,2,154.5,8|0|0,0:0|0:0|0:0,0:0:0:0:
190,276,12605,5,0,0:0:0:0:
190,276,12714,2,0,P|131:250|86:256,1,103
49,262,13040,2,0,P|76:197|68:140,1,103
61,72,13475,1,8,0:0:0:0:
61,72,13584,2,0,P|146:97|184:80,1,103
197,80,13910,2,0,P|261:64|314:78,1,103
420,47,14344,5,0,0:0:0:0:
376,173,14562,2,0,L|432:155,1,51.5
488,275,14888,2,0,L|434:262,1,51.5
339,315,15214,6,0,L|329:380,1,51.5,8|0,0:0|0:0,0:0:0:0:
238,285,15540,2,0,L|214:230,1,51.5
132,305,15866,1,0,0:0:0:0:
37,233,16083,5,0,0:0:0:0:
37,233,16192,2,0,B|75:214|75:214|105:142,1,103
108,117,16518,2,0,P|149:58|200:39,1,103
266,111,16953,1,8,0:0:0:0:
266,111,17062,2,0,P|325:109|370:60,1,103
401,56,17388,2,0,L|428:186,1,103
419,264,17823,6,0,B|362:276|362:276|337:309|337:309|270:329,1,154.5
77,243,18475,1,0,0:0:0:0:
77,243,18692,2,0,B|108:286|108:286|222:320,2,154.5,8|0|0,0:0|0:0|0:0,0:0:0:0:
39,122,19562,5,0,0:0:0:0:
39,122,19670,2,0,B|86:93|90:93|175:100,1,103
177,118,19997,2,0,P|242:120|292:88,1,103
394,44,20431,1,8,0:0:0:0:
394,44,20540,2,0,B|426:85|426:85|424:163,1,103
403,175,20866,2,0,B|381:224|381:224|391:297,1,103
465,367,21301,6,0,P|375:380|292:322,1,154.5
185,276,21953,1,0,0:0:0:0:
185,276,22170,2,0,P|90:229|66:227,1,103,8|0,0:0|0:0,0:0:0:0:
66,205,22497,1,0,0:0:0:0:
46,171,22605,2,0,P|37:138|41:115,3,51.5
52,84,23040,6,0,P|114:37|180:38,1,103,0|8,0:0|0:0,0:0:0:0:
213,169,23475,2,0,P|145:215|108:217,1,103,0|8,0:0|0:0,0:0:0:0:
276,90,23910,2,0,P|316:110|337:135,3,51.5,0|0|8|0,0:0|0:0|0:0|0:0,0:0:0:0:
354,157,24344,2,0,B|371:195|371:195|358:286,1,103,0|8,0:0|0:0,0:0:0:0:
311,355,24779,6,0,P|252:321|207:323,1,103,0|8,0:0|0:0,0:0:0:0:
93,247,25214,2,0,P|163:228|193:186,1,103,0|8,0:0|0:0,0:0:0:0:
166,83,25649,2,0,P|128:70|104:70,3,51.5,0|0|8|0,0:0|0:0|0:0|0:0,0:0:0:0:
70,86,26083,2,0,P|42:133|47:195,1,103,0|8,0:0|0:0,0:0:0:0:
110,289,26518,6,0,B|163:294|163:294|223:268,1,103,0|8,0:0|0:0,0:0:0:0:
313,190,26953,2,0,B|363:164|363:164|421:164,1,103,0|8,0:0|0:0,0:0:0:0:
463,276,27388,1,0,0:0:0:0:
376,347,27605,1,8,0:0:0:0:
257,318,27823,2,0,P|195:304|151:320,1,103,0|8,0:0|0:0,0:0:0:0:
35,368,28257,6,0,P|10:302|51:240,1,103,0|8,0:0|0:0,0:0:0:0:
102,208,28692,2,0,P|129:146|119:98,1,103,0|8,0:0|0:0,0:0:0:0:
73,17,29127,2,0,P|115:12|139:13,3,51.5,0|0|8|0,0:0|0:0|0:0|0:0,0:0:0:0:
160,40,29562,2,0,P|199:47|235:44,3,51.5,0|0|8|0,0:0|0:0|0:0|0:0,0:0:0:0:
254,35,29996,6,0,B|310:29|310:29|337:51|337:51|370:40|370:40|403:62|403:62|461:43,1,206
482,158,30649,1,8,0:0:0:0:
374,206,30866,2,0,P|363:237|365:271,3,51.5,0|0|8|0,0:0|0:0|0:0|0:0,0:0:0:0:
372,307,31301,2,0,P|288:293|237:300,1,103,0|8,0:0|0:0,0:0:0:0:
110,235,31736,6,0,P|200:223|218:205,1,103,0|8,0:0|0:0,0:0:0:0:
262,76,32170,2,0,P|186:82|156:109,1,103,0|8,0:0|0:0,0:0:0:0:
340,167,32605,2,0,P|353:127|352:104,3,51.5,0|0|8|0,0:0|0:0|0:0|0:0,0:0:0:0:
350,72,33040,2,0,B|301:47|301:47|215:52,1,103,0|8,0:0|0:0,0:0:0:0:
119,113,33475,6,0,P|175:159|243:157,1,103,0|8,0:0|0:0,0:0:0:0:
179,275,33910,2,0,P|246:271|298:244,1,103,0|8,0:0|0:0,0:0:0:0:
372,155,34344,2,0,P|432:160|495:195,1,103,0|8,0:0|0:0,0:0:0:0:
399,264,34779,2,0,P|474:308|497:341,1,103,0|8,0:0|0:0,0:0:0:0:
395,372,35214,5,0,0:0:0:0:
130,337,35649,1,0,0:0:0:0:
192,62,36083,1,0,0:0:0:0:
468,114,36518,1,0,0:0:0:0:
395,372,36953,5,0,0:0:0:0:
395,372,37388,1,0,0:0:0:0:
395,372,37823,2,0,L|351:359,3,38.6250014734269,8|0|0|0,0:0|0:0|0:0|0:0,0:0:0:0:
357,318,38257,2,0,L|310:310,3,38.6250014734269
297,273,38692,5,0,0:0:0:0:
149,142,39127,1,0,0:0:0:0:
333,63,39562,2,0,L|312:135,3,38.6250014734269,8|0|0|0,0:0|0:0|0:0|0:0,0:0:0:0:
377,42,39996,2,0,L|374:95,3,38.6250014734269
430,35,40431,5,0,0:0:0:0:
430,35,40866,1,0,0:0:0:0:
430,35,41301,2,0,L|474:63,3,38.6250014734269,8|0|0|0,0:0|0:0|0:0|0:0,0:0:0:0:
424,87,41736,2,0,L|447:136,3,38.6250014734269
396,133,42170,5,0,0:0:0:0:
332,319,42605,1,0,0:0:0:0:
106,289,43040,1,8,0:0:0:0:
95,269,43149,1,0,0:0:0:0:
90,249,43257,1,0,0:0:0:0:
90,227,43366,1,0,0:0:0:0:
98,208,43475,2,0,P|108:182|110:166,3,38.6250014734269
106,152,43909,5,0,0:0:0:0:
106,152,44344,1,0,0:0:0:0:
106,152,44779,2,0,L|145:143,3,38.6250014734269,8|0|0|0,0:0|0:0|0:0|0:0,0:0:0:0:
159,96,45214,2,0,L|209:103,3,38.6250014734269
219,56,45649,5,0,0:0:0:0:
269,258,46083,1,0,0:0:0:0:
358,123,46518,2,0,L|425:117,3,38.6250014734269,8|0|0|0,0:0|0:0|0:0|0:0,0:0:0:0:
392,166,46953,2,0,L|455:170,3,38.6250014734269
430,222,47388,5,0,0:0:0:0:
430,222,47823,1,0,0:0:0:0:
430,222,48257,2,0,L|373:231,3,38.6250014734269,8|0|0|0,0:0|0:0|0:0|0:0,0:0:0:0:
411,276,48692,2,0,L|358:286,3,38.6250014734269
393,329,49127,5,0,0:0:0:0:
219,230,49562,1,0,0:0:0:0:
64,342,49996,1,8,0:0:0:0:
96,338,50105,1,0,0:0:0:0:
126,334,50214,1,0,0:0:0:0:
158,331,50323,1,0,0:0:0:0:
188,326,50431,2,0,L|252:345,3,38.6250014734269
258,350,50853,6,0,P|315:351|350:323,1,77.2500029468538
392,277,51287,2,0,P|401:218|390:191,1,77.2500029468538,2|0,0:0|0:0,0:0:0:0:
316,153,51722,2,0,P|256:148|226:170,1,77.2500029468538
179,219,52157,2,0,P|174:261|208:306,1,77.2500029468538,2|0,0:0|0:0,0:0:0:0:
269,356,52592,2,0,P|334:360|370:344,1,77.2500029468538
402,282,53026,2,0,P|418:229|408:189,1,77.2500029468538,2|0,0:0|0:0,0:0:0:0:
385,119,53461,1,0,0:0:0:0:
385,119,54331,6,0,B|306:89|258:31|259:31|259:31|200:91|115:120,1,309
40,73,55200,2,0,P|39:138|167:196,1,206,8|0,0:0|0:0,0:0:0:0:
261,178,55852,1,0,0:0:0:0:
339,255,56070,2,0,B|386:288|386:288|400:333|400:333|456:369,2,154.5
261,178,56939,2,0,P|173:175|141:190,1,103,8|0,0:0|0:0,0:0:0:0:
93,64,57374,2,0,P|190:87|218:82,1,103
309,38,57809,6,0,B|363:75|431:53|431:53|396:123|400:182|447:253,1,309
497,308,58679,2,0,B|444:331|444:331|281:296,1,206,8|0,0:0|0:0,0:0:0:0:
182,275,59331,1,0,0:0:0:0:
94,338,59548,2,0,P|69:258|122:176,2,154.5
203,372,60418,2,0,P|254:349|289:284,1,103,8|0,0:0|0:0,0:0:0:0:
297,169,60852,2,0,P|241:181|206:217,1,103
415,222,61287,6,0,P|420:113|253:49,1,309
196,127,62157,2,0,P|133:149|72:125,1,103,8|0,0:0|0:0,0:0:0:0:
29,70,62592,1,0,0:0:0:0:
7,172,62809,1,0,0:0:0:0:
62,252,63026,2,0,B|114:287|174:265|174:265|227:297,2,154.5
8,170,63896,2,0,P|88:158|112:133,1,103,8|0,0:0|0:0,0:0:0:0:
201,56,64331,2,0,P|264:114|299:118,1,103
384,55,64765,6,0,B|374:121|455:175|455:175|393:270|492:359,1,309
356,374,65635,2,0,L|245:349,1,103,8|0,0:0|0:0,0:0:0:0:
109,304,66070,2,0,P|182:299|221:264,1,103
226,181,66505,2,0,P|183:131|88:161,2,154.5
321,218,67374,2,0,L|376:235,3,51.5,8|0|0|0,0:0|0:0|0:0|0:0,0:0:0:0:
368,189,67809,2,0,L|425:208,3,51.5
420,169,68244,6,0,B|470:144|470:144|493:68|403:21,1,206,0|8,0:0|0:0,0:0:0:0:
280,8,68896,1,0,0:0:0:0:
209,87,69113,2,0,P|156:121|96:117,1,103
117,122,69439,1,0,0:0:0:0:
117,122,69548,2,0,L|98:250,1,103,8|0,0:0|0:0,0:0:0:0:
84,337,69983,6,0,P|130:334|183:292,1,103
242,236,70418,2,0,P|292:210|356:217,1,103,8|0,0:0|0:0,0:0:0:0:
425,273,70852,1,0,0:0:0:0:
452,231,70961,2,0,P|463:150|448:119,1,103
436,97,71287,2,0,P|389:66|316:48,1,103,8|0,0:0|0:0,0:0:0:0:
207,43,71722,6,0,P|121:54|89:80,1,103
103,188,72157,2,0,P|174:190|222:158,1,103,8|0,0:0|0:0,0:0:0:0:
318,116,72592,2,8,B|383:104|412:110|428:119|455:131|475:143|484:154,2,154.5
243,237,73461,6,0,B|194:258|194:258|149:241|137:217,1,103
118,121,73896,2,0,B|169:101|169:101|203:109|238:128,1,103,8|0,0:0|0:0,0:0:0:0:
330,169,74331,1,0,0:0:0:0:
330,169,74439,2,0,P|388:182|437:160,1,103
467,140,74765,2,0,L|448:262,1,103,8|0,0:0|0:0,0:0:0:0:
385,364,75200,6,0,B|344:318|344:318|261:357|194:286,1,206,0|8,0:0|0:0,0:0:0:0:
150,191,75852,1,0,0:0:0:0:
164,79,76070,2,0,P|230:54|287:70,1,103
297,72,76396,1,0,0:0:0:0:
297,72,76505,2,0,P|374:102|420:86,1,103,8|0,0:0|0:0,0:0:0:0:
485,203,76939,6,0,P|401:216|365:253,1,103
306,313,77374,1,8,0:0:0:0:
194,288,77592,1,0,0:0:0:0:
80,302,77809,2,0,P|77:262|79:242,1,51.5
116,228,78026,2,0,P|117:186|110:164,1,51.5
95,129,78244,1,8,0:0:0:0:
220,96,78461,1,0,0:0:0:0:
306,197,78678,6,0,P|384:195|415:168,2,103,0|0|8,0:0|0:0|0:0,0:0:0:0:
163,238,79331,2,0,P|97:246|59:272,2,103
193,266,79874,1,0,0:0:0:0:
212,302,79983,2,0,P|255:311|287:311,3,51.5,8|0|0|0,0:0|0:0|0:0|0:0,0:0:0:0:
297,315,80418,1,0,0:0:0:0:
297,315,80852,5,0,0:0:0:0:
374,91,81287,1,0,0:0:0:0:
454,258,81722,1,0,0:0:0:0:
148,184,82157,1,4,0:0:0:0:
256,192,82265,12,0,85634,0:0:0:0:
256,192,94331,12,0,96070,0:0:0:0:
257,193,96396,5,0,0:0:0:0:
233,300,96722,1,0,0:0:0:0:
233,300,96939,2,0,P|155:316|101:293,2,115.875004420281
296,213,97809,2,0,P|359:196|430:222,2,115.875004420281
268,237,98570,1,0,0:0:0:0:
237,250,98678,2,0,P|199:240|185:233,3,38.6250014734269
166,216,99113,2,0,P|140:208|119:206,3,38.6250014734269
92,207,99548,6,0,P|66:271|92:322,2,115.875004420281
194,175,100418,2,0,P|210:105|184:59,2,115.875004420281
180,208,101178,1,0,0:0:0:0:
182,243,101287,2,0,P|211:251|235:253,1,38.6250014734269
257,254,101504,2,0,P|288:258|309:264,1,38.6250014734269
328,283,101722,2,0,P|370:291|381:291,1,38.6250014734269
408,283,101939,2,0,P|436:289|457:297,1,38.6250014734269
479,318,102157,2,0,P|492:285|492:273,3,38.6250014734269
479,246,102591,2,0,P|471:209|472:197,3,38.6250014734269
484,167,103026,6,0,B|469:125|469:125|423:115|392:146,1,115.875004420281
278,198,103678,1,0,0:0:0:0:
278,198,103896,2,0,B|215:182|215:182|145:195,1,115.875004420281
144,314,104548,1,0,0:0:0:0:
144,314,104765,2,0,B|199:329|199:329|276:313,1,115.875004420281
389,282,105418,1,0,0:0:0:0:
399,257,105526,1,0,0:0:0:0:
406,232,105635,2,0,L|419:195,3,38.6250014734269
406,153,106070,2,0,L|396:113,3,38.6250014734269
421,73,106504,6,0,P|348:58|303:72,2,115.875004420281
325,182,107374,2,0,P|241:191|206:166,2,115.875004420281
464,233,108244,6,0,B|429:271|429:271|370:286,1,103
251,286,108678,2,0,B|196:273|196:273|147:233,1,103,8|0,0:0|0:0,0:0:0:0:
156,129,109113,2,0,B|202:98|202:98|262:86,1,103
389,90,109548,2,0,B|437:110|437:110|474:145,1,103,8|0,0:0|0:0,0:0:0:0:
374,186,109983,5,0,0:0:0:0:
299,112,110200,1,8,0:0:0:0:
299,112,110309,1,0,0:0:0:0:
299,112,110418,2,0,P|249:135|187:123,1,103,0|8,0:0|0:0,0:0:0:0:
97,111,110852,2,0,P|89:146|95:179,3,51.5,0|0|8|0,0:0|0:0|0:0|0:0,0:0:0:0:
104,201,111287,2,0,P|161:237|207:238,1,103,0|8,0:0|0:0,0:0:0:0:
321,248,111722,6,0,P|404:255|450:282,1,103,0|8,0:0|0:0,0:0:0:0:
503,188,112157,2,0,P|455:169|406:127,1,103,0|8,0:0|0:0,0:0:0:0:
302,60,112591,2,0,P|258:82|216:86,3,51.5,0|0|8|0,0:0|0:0|0:0|0:0,0:0:0:0:
206,95,113026,2,0,B|162:76|162:76|121:68|85:84,1,103,0|8,0:0|0:0,0:0:0:0:
75,204,113461,6,0,B|143:231|143:231|184:224,1,103,0|8,0:0|0:0,0:0:0:0:
323,302,113896,2,0,B|280:294|280:294|203:317,1,103,0|8,0:0|0:0,0:0:0:0:
356,209,114331,2,0,P|389:220|420:222,3,51.5,0|0|8|0,0:0|0:0|0:0|0:0,0:0:0:0:
450,220,114765,2,0,P|472:160|465:100,1,103,0|8,0:0|0:0,0:0:0:0:
353,37,115200,6,0,B|322:72|322:72|327:150,1,103,0|8,0:0|0:0,0:0:0:0:
275,252,115635,2,0,B|242:211|242:211|190:187,1,103,0|8,0:0|0:0,0:0:0:0:
87,126,116070,2,0,P|77:158|78:184,3,51.5,0|0|8|0,0:0|0:0|0:0|0:0,0:0:0:0:
79,222,116504,2,0,P|68:266|59:284,3,51.5,0|0|8|0,0:0|0:0|0:0|0:0,0:0:0:0:
52,323,116939,6,0,P|148:345|179:317,1,103,0|8,0:0|0:0,0:0:0:0:
248,286,117374,2,0,P|308:260|355:272,1,103,0|8,0:0|0:0,0:0:0:0:
457,280,117809,2,0,P|465:231|460:212,3,51.5,0|0|8|0,0:0|0:0|0:0|0:0,0:0:0:0:
457,182,118244,2,0,P|406:112|352:99,1,103,0|8,0:0|0:0,0:0:0:0:
267,66,118678,5,0,0:0:0:0:
211,158,118896,1,8,0:0:0:0:
133,238,119113,2,0,B|108:200|108:200|94:157|111:120,1,103,0|8,0:0|0:0,0:0:0:0:
210,59,119548,2,0,P|238:101|246:130,3,51.5,0|0|8|0,0:0|0:0|0:0|0:0,0:0:0:0:
257,145,119983,2,0,P|260:233|236:268,1,103,0|8,0:0|0:0,0:0:0:0:
119,326,120417,6,0,P|97:281|126:212,1,103,0|8,0:0|0:0,0:0:0:0:
301,351,120852,2,0,P|236:347|195:312,1,103,0|8,0:0|0:0,0:0:0:0:
365,269,121287,2,0,P|402:283|430:285,3,51.5,0|0|8|0,0:0|0:0|0:0|0:0,0:0:0:0:
460,260,121722,2,0,P|472:186|459:142,1,103,0|8,0:0|0:0,0:0:0:0:
325,55,122157,6,0,B|310:100|310:100|316:138|354:173,1,103,0|8,0:0|0:0,0:0:0:0:
326,280,122591,2,0,B|288:252|288:252|250:253|209:286,1,103,8|0,0:0|0:0,0:0:0:0:
117,324,123026,2,0,B|93:273|93:273|124:238|111:204,1,103,8|0,0:0|0:0,0:0:0:0:
99,119,123461,2,0,B|74:68|74:68|115:53|179:79,1,154.5,8|0,0:0|0:0,0:0:0:0:
205,97,123896,6,0,P|285:108|304:93,1,77.2500029468538
391,68,124331,2,0,P|410:124|401:155,1,77.2500029468538,2|0,0:0|0:0,0:0:0:0:
372,242,124765,1,0,0:0:0:0:
272,265,124983,1,0,0:0:0:0:
172,229,125200,2,0,P|104:212|65:218,1,77.2500029468538,2|0,0:0|0:0,0:0:0:0:
88,340,125635,6,0,P|159:355|186:342,1,77.2500029468538
192,344,125961,1,0,0:0:0:0:
226,333,126070,2,0,P|266:333|281:342,3,38.6250014734269,2|0|0|0,0:0|0:0|0:0|0:0,0:0:0:0:
299,344,126504,1,0,0:0:0:0:
299,344,127374,6,0,B|344:269|344:269|472:264|477:125,1,309
472,16,128244,2,0,P|402:37|381:105,1,103,8|0,0:0|0:0,0:0:0:0:
342,155,128678,1,0,0:0:0:0:
241,115,128896,1,0,0:0:0:0:
128,105,129113,2,0,P|108:174|186:243,2,154.5
199,22,129983,2,0,L|300:80,1,103,8|0,0:0|0:0,0:0:0:0:
431,113,130417,2,0,P|366:135|343:184,1,103
328,278,130852,6,0,P|370:335|395:194,1,309
328,138,131722,2,0,B|274:140|274:140|214:189,1,103,8|0,0:0|0:0,0:0:0:0:
155,248,132157,1,0,0:0:0:0:
58,200,132374,1,0,0:0:0:0:
54,89,132591,2,0,B|109:73|109:73|162:92|216:69,2,154.5
58,200,133461,2,0,B|111:224|111:224|140:273,1,103,8|0,0:0|0:0,0:0:0:0:
224,346,133896,2,0,B|267:328|267:328|297:266,1,103
341,175,134330,6,0,B|372:124|372:124|424:123|424:123|460:168|460:168|434:228|434:228|498:286,1,309
437,383,135200,2,0,L|354:305,1,103,8|0,0:0|0:0,0:0:0:0:
260,212,135635,2,0,P|221:249|213:295,1,103
125,360,136070,2,0,P|63:326|40:220,2,154.5
213,295,136939,2,0,P|233:227|219:185,1,103,8|0,0:0|0:0,0:0:0:0:
134,106,137374,2,0,B|168:69|168:69|228:56,1,103
335,89,137809,6,0,B|406:132|461:64|461:64|430:172|460:246,1,309
458,344,138678,2,0,P|403:324|326:326,1,103,8|0,0:0|0:0,0:0:0:0:
217,259,139113,2,0,P|263:238|334:240,1,103
375,148,139548,2,0,B|330:127|330:127|304:77|304:77|242:53,2,154.5
432,245,140417,2,0,P|421:279|403:302,3,51.5,8|0|0|0,0:0|0:0|0:0|0:0,0:0:0:0:
361,316,140852,2,0,P|319:328|301:342,3,51.5
265,344,141287,6,0,P|179:344|104:233,1,206,0|8,0:0|0:0,0:0:0:0:
84,138,141939,1,0,0:0:0:0:
177,58,142157,1,0,0:0:0:0:
245,164,142374,1,0,0:0:0:0:
245,164,142483,1,0,0:0:0:0:
245,164,142591,2,0,P|314:141|340:98,1,103,8|0,0:0|0:0,0:0:0:0:
432,7,143026,6,0,B|452:57|452:57|436:121,1,103
365,185,143461,2,0,B|346:225|346:225|366:293,1,103,8|0,0:0|0:0,0:0:0:0:
430,366,143896,1,0,0:0:0:0:
430,366,144004,2,0,L|302:369,1,103
288,344,144330,2,0,P|214:341|175:299,1,103,8|0,0:0|0:0,0:0:0:0:
139,221,144765,5,0,0:0:0:0:
273,187,144983,1,0,0:0:0:0:
395,244,145200,2,0,P|431:178|422:124,1,103,8|0,0:0|0:0,0:0:0:0:
347,45,145635,2,0,P|292:39|229:69,1,103,8|0,0:0|0:0,0:0:0:0:
211,83,145961,2,0,P|114:88|82:67,1,103,8|0,0:0|0:0,0:0:0:0:
67,68,146287,1,8,0:0:0:0:
28,179,146504,6,0,B|83:203|83:203|115:258,1,103
167,328,146939,2,0,B|222:312|222:312|267:265,1,103,8|0,0:0|0:0,0:0:0:0:
327,177,147374,1,0,0:0:0:0:
327,177,147483,2,0,P|395:200|440:176,1,103
459,168,147809,2,0,P|472:98|455:46,1,103,8|0,0:0|0:0,0:0:0:0:
354,12,148243,5,0,0:0:0:0:
249,92,148461,1,0,0:0:0:0:
133,57,148678,2,0,P|43:94|18:133,1,103,8|0,0:0|0:0,0:0:0:0:
21,196,149113,2,8,B|9:247|9:247|28:316|101:323,2,154.5
106,100,149983,5,0,0:0:0:0:
189,182,150200,1,0,0:0:0:0:
311,244,150417,2,0,P|337:189|328:126,1,103,8|0,0:0|0:0,0:0:0:0:
303,36,150852,1,0,0:0:0:0:
303,36,150961,2,0,P|386:43|430:80,1,103
423,86,151287,1,8,0:0:0:0:
396,218,151504,1,0,0:0:0:0:
463,340,151722,6,0,P|383:357|353:352,1,103
241,307,152156,1,8,0:0:0:0:
120,256,152374,2,0,P|65:240|-1:246,2,103
157,252,152917,1,0,0:0:0:0:
186,231,153026,2,0,P|199:177|197:167,3,51.5,8|0|0|0,0:0|0:0|0:0|0:0,0:0:0:0:
194,140,153461,1,0,0:0:0:0:
194,140,153896,5,0,0:0:0:0:
445,95,154330,1,0,0:0:0:0:
274,22,154765,1,0,0:0:0:0:
352,308,155200,1,4,0:0:0:0:
256,192,155309,12,0,158679,0:0:0:0:
255,190,182156,5,0,0:0:0:0:
255,190,183026,6,0,B|165:151|165:151|117:158|79:220,1,154.500005893708,4|0,0:0|0:0,0:0:0:0:
176,303,183461,2,0,B|252:340|252:340|290:357|317:317,1,154.500005893708,4|0,0:0|0:0,0:0:0:0:
439,149,183896,2,0,B|340:160|340:160|301:190|295:220,1,154.500005893708,4|0,0:0|0:0,0:0:0:0:
418,296,184330,1,4,0:0:0:0:
418,296,184548,1,0,0:0:0:0:
418,296,184765,6,0,B|308:289|308:289|261:265|259:242,1,154.500005893708,4|0,0:0|0:0,0:0:0:0:
207,88,185200,2,0,B|320:111|320:111|361:147,1,154.500005893708,4|0,0:0|0:0,0:0:0:0:
180,240,185635,2,0,B|83:215|83:215|46:194|25:150,1,154.500005893708,4|0,0:0|0:0,0:0:0:0:
88,53,186069,1,4,0:0:0:0:
88,53,186287,1,0,0:0:0:0:
88,53,186504,6,0,B|70:137|66:144|73:192|118:228,1,154.500005893708,4|0,0:0|0:0,0:0:0:0:
299,228,186939,2,0,B|285:117|285:117|266:86|232:68,1,154.500005893708,4|0,0:0|0:0,0:0:0:0:
179,273,187374,2,0,B|210:349|212:352|247:371|306:373,1,154.500005893708,4|0,0:0|0:0,0:0:0:0:
438,303,187809,1,4,0:0:0:0:
438,303,188026,1,0,0:0:0:0:
438,303,188243,6,0,B|466:213|457:161|425:133,1,154.500005893708,4|0,0:0|0:0,0:0:0:0:
234,118,188678,2,0,B|217:203|217:210|226:231|270:295,1,154.500005893708,4|0,0:0|0:0,0:0:0:0:
410,153,189113,2,0,B|408:93|408:93|386:38|326:-1,1,154.500005893708,4|0,0:0|0:0,0:0:0:0:
172,50,189548,1,4,0:0:0:0:
172,50,189765,1,0,0:0:0:0:
172,50,189982,6,0,B|235:32|235:32|301:70|377:55,1,154.500005893708,4|0,0:0|0:0,0:0:0:0:
205,213,190417,2,0,B|136:226|136:226|70:218|36:178,1,154.500005893708,4|0,0:0|0:0,0:0:0:0:
274,80,190852,2,0,B|333:55|333:55|398:79|458:57,1,154.500005893708,4|0,0:0|0:0,0:0:0:0:
379,245,191287,1,4,0:0:0:0:
379,245,191504,1,0,0:0:0:0:
379,245,191722,6,0,B|291:238|291:238|243:268|190:233,1,154.500005893708,4|0,0:0|0:0,0:0:0:0:
100,149,192156,2,0,B|148:122|148:122|220:140|296:129,1,154.500005893708,4|0,0:0|0:0,0:0:0:0:
410,62,192591,2,0,B|364:19|364:19|241:30,1,154.500005893708,4|0,0:0|0:0,0:0:0:0:
116,58,193026,1,4,0:0:0:0:
116,58,193243,1,0,0:0:0:0:
116,58,193461,6,0,B|184:39|184:39|264:66|339:69,1,154.500005893708,4|0,0:0|0:0,0:0:0:0:
404,155,193895,2,0,B|318:137|318:137|265:174|222:171,1,154.500005893708,4|0,0:0|0:0,0:0:0:0:
112,258,194330,2,0,B|170:224|170:224|236:269|285:264,1,154.500005893708,4|0,0:0|0:0,0:0:0:0:
395,351,194765,1,4,0:0:0:0:
395,351,194982,1,0,0:0:0:0:
395,351,195200,6,0,B|354:292|354:292|248:288|248:288|215:348|215:348|90:337|90:337|62:269|62:269|79:91,1,618.00002357483,4|0,0:0|0:0,0:0:0:0:
181,165,196291,1,0,0:0:0:0:
181,165,196399,1,0,0:0:0:0:
181,165,196508,2,0,P|230:169|267:156,1,77.2500029468538
269,120,196725,2,0,P|323:99|364:99,1,77.2500029468538
361,63,196943,6,0,B|405:112|405:112|461:118|461:118|497:95|497:95|526:166,1,206
420,221,197595,1,0,0:0:0:0:
463,341,197812,2,0,B|418:309|418:309|325:318,1,103,8|0,0:0|0:0,0:0:0:0:
243,328,198247,2,0,B|195:335|195:335|185:349|185:349|172:341|172:341|130:331,1,103
64,264,198682,5,0,0:0:0:0:
144,175,198899,1,0,0:0:0:0:
144,175,199008,1,0,0:0:0:0:
144,175,199116,2,0,P|159:142|159:115,3,51.5
154,86,199551,2,0,B|201:44|201:44|259:43|268:47,1,103,8|0,0:0|0:0,0:0:0:0:
350,103,199986,1,0,0:0:0:0:
350,103,200095,1,0,0:0:0:0:
350,103,200203,1,0,0:0:0:0:
455,49,200421,6,0,B|485:120|485:120|424:178|508:271,1,206
422,346,201073,1,0,0:0:0:0:
321,300,201290,2,0,P|254:280|207:300,1,103,8|0,0:0|0:0,0:0:0:0:
86,225,201725,2,0,P|145:209|168:171,1,103
175,44,202160,5,0,0:0:0:0:
277,117,202377,1,0,0:0:0:0:
404,80,202595,1,0,0:0:0:0:
394,213,202812,1,0,0:0:0:0:
277,258,203029,2,0,P|203:275|166:309,1,103,8|0,0:0|0:0,0:0:0:0:
68,368,203464,2,0,P|50:302|58:248,1,103
81,133,203899,5,0,0:0:0:0:
27,24,204116,1,0,0:0:0:0:
27,24,204225,1,0,0:0:0:0:
27,24,204334,2,0,L|98:34,3,51.5
116,75,204769,2,0,L|188:64,3,51.5,8|0|0|0,0:0|0:0|0:0|0:0,0:0:0:0:
212,33,205203,2,0,L|272:46,3,51.5
306,73,205638,6,0,L|422:44,1,103
454,203,206073,2,0,P|376:200|345:174,1,103
258,146,206508,2,0,P|179:131|137:140,1,103,8|0,0:0|0:0,0:0:0:0:
115,164,206834,2,0,L|99:281,1,103
97,315,207160,1,0,0:0:0:0:
97,315,207377,6,0,P|184:328|261:233,1,206
248,129,208029,1,0,0:0:0:0:
314,45,208247,2,0,B|373:46|373:46|423:87,1,103,8|0,0:0|0:0,0:0:0:0:
421,235,208682,2,0,B|366:233|366:233|320:188,1,103
248,129,209116,1,0,0:0:0:0:
248,129,209334,2,0,P|160:92|84:169,1,206
104,286,209986,1,8,0:0:0:0:
140,293,210095,1,0,0:0:0:0:
172,268,210203,1,0,0:0:0:0:
210,274,210312,1,0,0:0:0:0:
242,251,210421,1,0,0:0:0:0:
242,251,210855,6,0,B|315:328|315:328|430:322,1,206,0|8,0:0|0:0,0:0:0:0:
480,228,211508,1,0,0:0:0:0:
410,145,211725,2,0,P|397:92|422:39,1,103
254,7,212160,2,0,P|266:74|251:128,1,103,8|0,0:0|0:0,0:0:0:0:
190,192,212595,6,0,P|114:191|45:78,1,206,0|8,0:0|0:0,0:0:0:0:
154,43,213247,1,0,0:0:0:0:
259,107,213464,2,0,P|294:166|288:224,1,103
341,337,213899,2,0,P|270:336|222:308,1,103,8|0,0:0|0:0,0:0:0:0:
137,271,214334,6,0,B|97:211|35:211|35:211|67:106,1,206,0|8,0:0|0:0,0:0:0:0:
147,34,214986,1,0,0:0:0:0:
250,119,215203,1,0,0:0:0:0:
250,119,215312,2,0,P|323:116|358:92,1,103
381,74,215638,2,0,L|475:141,1,103,8|0,0:0|0:0,0:0:0:0:
455,257,216073,6,0,P|400:276|381:332,1,103
279,366,216508,2,0,P|224:334|159:333,1,103,8|0,0:0|0:0,0:0:0:0:
66,349,216942,1,0,0:0:0:0:
66,349,217051,2,0,B|49:289|49:289|66:225,1,103
77,209,217377,2,0,B|97:153|97:153|81:89,1,103,8|0,0:0|0:0,0:0:0:0:
32,11,217812,6,0,P|135:6|205:105,1,206,0|8,0:0|0:0,0:0:0:0:
203,198,218464,1,0,0:0:0:0:
143,305,218682,2,0,P|210:312|268:285,1,103
402,173,219116,2,0,P|342:176|309:200,1,103,8|0,0:0|0:0,0:0:0:0:
401,326,219551,6,0,B|456:364|456:364|492:317|490:252,1,154.5
481,237,219986,2,0,P|463:166|479:123,1,103,8|0,0:0|0:0,0:0:0:0:
370,33,220421,2,0,B|301:9|301:9|277:54|278:119,1,154.5
280,140,220855,2,0,P|261:213|223:253,1,103,8|0,0:0|0:0,0:0:0:0:
106,322,221290,6,0,B|57:266|57:266|105:213|112:181|67:109|67:109|115:62,1,309
212,2,222160,1,0,0:0:0:0:
297,93,222377,1,0,0:0:0:0:
297,93,222486,1,0,0:0:0:0:
297,93,222595,2,0,L|369:74,3,51.5,8|0|0|0,0:0|0:0|0:0|0:0,0:0:0:0:
395,89,223029,1,0,0:0:0:0:
395,89,223477,5,0,0:0:0:0:
423,318,223911,1,0,0:0:0:0:
501,182,224346,1,0,0:0:0:0:
264,208,224781,6,0,B|206:172|206:172|119:208|55:71|161:9|228:41,1,309
295,90,225650,2,0,P|348:116|396:103,1,103,8|0,0:0|0:0,0:0:0:0:
467,231,226085,2,0,P|403:218|361:238,1,103
298,315,226520,2,0,B|254:344|254:344|195:310|125:322,2,154.5
369,231,227389,2,0,P|373:175|323:137,1,103,8|0,0:0|0:0,0:0:0:0:
203,110,227824,2,0,B|189:154|189:154|238:232,1,103
292,35,228259,6,0,P|188:0|86:147,1,309
133,250,229128,2,0,P|198:271|259:260,1,103,8|0,0:0|0:0,0:0:0:0:
322,210,229563,2,0,P|377:195|445:216,1,103
465,331,229998,6,0,B|408:340|408:340|368:324|368:324|288:336,1,154.5
158,362,230650,1,0,0:0:0:0:
158,362,230867,2,0,P|172:290|155:246,1,103,8|0,0:0|0:0,0:0:0:0:
80,164,231302,2,0,P|86:89|120:47,1,103
210,12,231737,6,0,B|299:47|299:47|318:170|318:170|237:227,1,309
143,284,232607,2,0,P|99:212|117:168,1,103,8|0,0:0|0:0,0:0:0:0:
237,106,233041,2,0,P|281:152|288:201,1,103
128,69,233476,2,0,B|168:29|168:29|210:0|299:20,2,154.5
97,196,234346,2,0,P|102:285|141:314,1,103,8|0,0:0|0:0,0:0:0:0:
254,299,234780,2,0,P|280:222|255:174,1,103
204,95,235215,6,0,B|275:61|275:61|317:124|410:112|410:112|382:222,1,309
350,296,236085,2,0,P|292:313|237:283,1,103,8|0,0:0|0:0,0:0:0:0:
108,221,236520,2,0,P|175:201|217:219,1,103
97,340,236954,2,0,B|37:308|37:308|17:184,2,154.5
225,289,237824,2,0,L|274:251,3,51.5,8|0|0|0,0:0|0:0|0:0|0:0,0:0:0:0:
275,210,238259,2,0,L|333:226,3,51.5
375,227,238693,6,0,B|417:196|417:196|426:102|426:102|377:58,1,206,0|8,0:0|0:0,0:0:0:0:
252,36,239346,1,0,0:0:0:0:
159,125,239563,1,0,0:0:0:0:
159,125,239672,2,0,P|76:126|43:110,1,103
15,101,239998,2,0,L|2:223,1,103,8|0,0:0|0:0,0:0:0:0:
35,335,240433,5,0,0:0:0:0:
121,255,240650,1,0,0:0:0:0:
205,330,240867,2,0,P|270:359|328:354,1,103,8|0,0:0|0:0,0:0:0:0:
399,281,241302,1,0,0:0:0:0:
399,281,241411,2,0,B|379:228|379:228|396:155,1,103
434,160,241737,2,0,P|454:111|423:41,1,103,8|0,0:0|0:0,0:0:0:0:
306,19,242172,5,0,0:0:0:0:
214,110,242389,1,0,0:0:0:0:
88,76,242607,2,0,B|63:110|63:110|42:142|69:205,1,103,8|0,0:0|0:0,0:0:0:0:
140,269,243041,2,8,B|193:269|207:229|224:220|231:249|262:273|300:269,2,154.5
33,328,243911,5,0,0:0:0:0:
24,215,244128,1,0,0:0:0:0:
125,159,244346,2,0,B|161:127|161:127|178:48,1,103,8|0,0:0|0:0,0:0:0:0:
286,15,244780,1,0,0:0:0:0:
286,15,244889,2,0,B|311:75|311:75|363:111,1,103
379,123,245215,2,0,P|409:187|389:236,1,103,8|0,0:0|0:0,0:0:0:0:
274,311,245650,6,0,P|251:254|281:200,1,103
434,296,246085,1,8,0:0:0:0:
354,371,246302,1,0,0:0:0:0:
365,222,246520,2,8,B|408:173|479:197|479:197|510:158,2,154.5
274,311,247389,6,0,P|217:327|163:307,1,103
84,217,247824,2,0,P|136:188|215:202,1,103,8|0,0:0|0:0,0:0:0:0:
297,122,248259,1,0,0:0:0:0:
297,122,248367,2,0,P|246:80|195:68,1,103
169,63,248693,1,8,0:0:0:0:
57,122,248911,1,0,0:0:0:0:
19,230,249128,6,0,P|70:278|132:284,1,103
232,260,249563,1,8,0:0:0:0:
362,235,249780,2,0,P|435:235|495:259,2,103
327,256,250324,1,0,0:0:0:0:
299,283,250433,2,0,P|260:310|236:316,3,51.5,8|0|0|0,0:0|0:0|0:0|0:0,0:0:0:0:
222,324,250867,1,0,0:0:0:0:
222,324,251313,5,0,0:0:0:0:
109,93,251746,1,0,0:0:0:0:
46,290,252181,1,0,0:0:0:0:
276,139,252616,5,4,0:0:0:0:
276,139,252724,2,0,P|334:166|378:155,1,103
418,136,253050,2,0,L|421:242,1,103
357,344,253485,1,8,0:0:0:0:
357,344,253594,2,0,P|271:321|232:331,1,103
217,344,253920,2,0,P|158:358|102:332,1,103
68,245,254355,2,0,B|57:190|57:190|84:145|84:145|75:92,2,154.5
187,276,255224,2,0,B|221:240|221:240|272:242|272:242|319:184,2,154.5,8|0|0,0:0|0:0|0:0,0:0:0:0:
83,342,256094,5,0,0:0:0:0:
83,342,256202,2,0,L|126:238,1,103
155,206,256529,2,0,L|199:106,1,103
189,15,256963,1,8,0:0:0:0:
189,15,257072,2,0,P|274:31|298:65,1,103
300,86,257398,2,0,P|345:133|397:137,1,103
499,111,257833,5,0,0:0:0:0:
426,244,258050,2,0,L|357:254,1,51.5
205,206,258376,2,0,L|270:220,1,51.5
115,320,258702,6,0,B|86:302|86:302|83:274,1,51.5,8|0,0:0|0:0,0:0:0:0:
117,109,259029,2,0,B|141:124|141:124|164:155,1,51.5
33,209,259355,1,0,0:0:0:0:
16,86,259572,5,0,0:0:0:0:
16,86,259681,2,0,L|130:112,1,103
154,142,260007,2,0,P|223:136|270:166,1,103
374,197,260442,1,8,0:0:0:0:
374,197,260550,2,0,B|388:143|388:143|373:82,1,103
381,45,260876,2,0,L|257:64,1,103
145,83,261311,6,0,B|74:87|74:87|-5:31,2,154.5
263,158,262181,2,0,B|331:154|331:154|411:213,2,154.5,8|0|0,0:0|0:0|0:0,0:0:0:0:
159,262,263050,5,0,0:0:0:0:
159,262,263159,2,0,P|87:214|46:209,1,103
49,164,263485,2,0,P|118:144|151:110,1,103
280,76,263920,1,8,0:0:0:0:
280,76,264029,2,0,B|329:102|329:102|355:165,1,103
345,197,264355,2,0,B|325:248|325:248|273:271,1,103
159,267,264789,5,0,0:0:0:0:
95,171,265007,2,0,P|119:156|149:152,1,51.5
167,27,265333,2,0,P|196:40|215:60,1,51.5
286,143,265635,6,8,P|307:110|311:84,1,51.5
412,33,265961,2,8,P|412:77|425:101,1,51.5
460,200,266287,1,8,0:0:0:0:
448,239,266395,1,8,0:0:0:0:
436,277,266504,5,8,0:0:0:0:
256,192,266612,12,0,273460,0:0:0:0:
