osu file format v14

[General]
AudioFilename: hardcore stuff.mp3
AudioLeadIn: 0
PreviewTime: 53896
Countdown: 0
SampleSet: Normal
StackLeniency: 0.7
Mode: 0
LetterboxInBreaks: 0
WidescreenStoryboard: 0

[Editor]
DistanceSpacing: 1
BeatDivisor: 4
GridSize: 8
TimelineZoom: 1.84

[Metadata]
Title:Inkya Impulse
TitleUnicode:インキャインパルス
Artist:Hina Kino, Rika Nagae, Konomi Kohara feat. Ikepy & KSKN
ArtistUnicode:木野日菜、長江里加、小原好美 feat. Ikepy & KSKN
Creator:epes2001 773
Version:AAAAAAAAAA
Source:あそびあそばせ
Tags:asobi asobase anime comedy aaa
BeatmapID:1769757
BeatmapSetID:846194

[Difficulty]
HPDrainRate:6
CircleSize:4.5
OverallDifficulty:8
ApproachRate:9
SliderMultiplier:2.76
SliderTickRate:1

[Events]
//Background and Video events
0,0,"intense stuff.jpg",0,0
//Break Periods
2,158879,181556
//Storyboard Layer 0 (Background)
//Storyboard Layer 1 (Fail)
//Storyboard Layer 2 (Pass)
//Storyboard Layer 3 (Foreground)
//Storyboard Sound Samples

[TimingPoints]
2171,434.781104992392,4,1,0,80,1,0
23040,-100,4,1,0,80,0,0
29996,-66.6666666666667,4,1,0,80,0,0
30214,-100,4,1,0,80,0,0
35214,-66.6666666666667,4,1,0,80,0,0
36953,-133.333333333333,4,1,0,80,0,0
50853,434.781104992392,4,1,0,80,1,0
50853,-133.333333333333,4,1,0,80,0,0
54331,-100,4,1,0,80,0,1
57266,-100,4,1,0,5,0,1
57374,-100,4,1,0,80,0,1
57700,-100,4,1,0,5,0,1
57809,-100,4,1,0,80,0,1
60744,-100,4,1,0,5,0,1
60852,-100,4,1,0,80,0,1
61179,-100,4,1,0,5,0,1
61287,-100,4,1,0,80,0,1
64222,-100,4,1,0,5,0,1
64331,-100,4,1,0,80,0,1
64657,-100,4,1,0,5,0,1
64765,-100,4,1,0,80,0,1
80418,-133.333333333333,4,1,0,80,0,0
81178,-133.333333333333,4,1,0,5,0,0
81287,-133.333333333333,4,1,0,80,0,0
81613,-133.333333333333,4,1,0,5,0,0
81722,-133.333333333333,4,1,0,80,0,0
82048,-133.333333333333,4,1,0,5,0,0
82157,-100,4,1,0,80,0,0
95852,-100,4,1,0,5,0,0
96070,-133.333333333333,4,1,0,80,0,0
103026,-66.6666666666667,4,1,0,80,0,0
103352,-133.333333333333,4,1,0,80,0,0
108244,-100,4,1,0,80,0,0
123896,-133.333333333333,4,1,0,80,0,0
127374,-100,4,1,0,80,0,1
130309,-100,4,1,0,5,0,1
130417,-100,4,1,0,80,0,1
130744,-100,4,1,0,5,0,1
130852,-100,4,1,0,80,0,1
133787,-100,4,1,0,5,0,1
133896,-100,4,1,0,80,0,1
134222,-100,4,1,0,5,0,1
134330,-100,4,1,0,80,0,1
137265,-100,4,1,0,5,0,1
137374,-100,4,1,0,80,0,1
137700,-100,4,1,0,5,0,1
137809,-100,4,1,0,80,0,1
153461,-133.333333333333,4,1,0,80,0,0
154222,-133.333333333333,4,1,0,5,0,0
154330,-133.333333333333,4,1,0,80,0,0
154656,-133.333333333333,4,1,0,5,0,0
154765,-133.333333333333,4,1,0,80,0,0
155091,-133.333333333333,4,1,0,5,0,0
155200,-133.333333333333,4,1,0,80,0,0
183026,-66.6666666666667,4,1,0,80,0,1
195200,-66.6666666666667,4,1,0,80,0,0
196291,434.781104992392,4,1,0,80,1,0
196943,434.781104992392,4,1,0,80,1,0
196943,-100,4,1,0,80,0,0
223477,434.781104992392,4,1,0,80,1,0
224672,-100,4,1,0,5,0,0
224781,434.781104992392,4,1,0,80,1,1
224781,-100,4,1,0,80,0,1
227716,-100,4,1,0,5,0,1
227824,-100,4,1,0,80,0,1
228150,-100,4,1,0,5,0,1
228259,-100,4,1,0,80,0,1
231194,-100,4,1,0,5,0,1
231303,-100,4,1,0,80,0,1
231629,-100,4,1,0,5,0,1
231737,-100,4,1,0,80,0,1
234672,-100,4,1,0,5,0,1
234781,-100,4,1,0,80,0,1
235107,-100,4,1,0,5,0,1
235216,-100,4,1,0,80,0,1
250867,-100,4,1,0,80,0,0
251312,434.781104992392,4,1,0,80,1,0
251638,-100,4,1,0,5,0,0
251746,-100,4,1,0,80,0,0
252072,-100,4,1,0,5,0,0
252181,-100,4,1,0,80,0,0
252507,-100,4,1,0,5,0,0
252616,434.781104992392,4,1,0,80,1,0
252616,-100,4,1,0,80,0,0
265635,434.781104992392,4,1,0,80,1,0
266504,434.781104992392,4,1,0,80,1,0

[Colours]
Combo1 : 228,228,228
Combo2 : 128,128,192
Combo3 : 255,185,220
Combo4 : 255,128,255

[HitObjects]
123,358,9127,5,0,0:0:0:0:
123,358,9236,2,0,B|92:318|92:318|107:269|107:269|59:202,1,138
24,127,9562,2,0,B|83:90|83:90|152:131|152:131,1,138
191,194,9888,1,0,0:0:0:0:
242,130,9997,1,8,0:0:0:0:
281,202,10105,2,0,B|268:249|268:249|269:293|269:293|248:346,1,138
180,382,10431,1,0,0:0:0:0:
127,309,10540,2,0,B|86:252|86:252|119:193,1,138
194,129,10866,6,0,B|258:150|258:150|326:129,1,138
329,259,11192,2,0,B|265:238|265:238|199:260,1,138
256,355,11518,1,0,0:0:0:0:
265,201,11736,2,0,B|284:124|284:124|214:85|238:0,2,207,8|0|0,0:0|0:0|0:0,0:0:0:0:
142,242,12605,6,0,B|117:171|115:158|115:158|135:112|118:71,1,138
312,42,12931,2,0,B|296:88|317:125|317:125|286:211,1,138
246,286,13257,2,0,L|334:277,1,69
342,352,13475,1,8,0:0:0:0:
342,352,13584,2,0,L|205:366,1,138
147,317,13910,1,0,0:0:0:0:
219,251,14018,2,0,B|239:195|239:195|198:115,1,138
124,54,14344,6,0,P|189:32|258:40,1,138
159,201,14670,2,0,P|68:230|26:221,1,138
203,125,14997,1,0,0:0:0:0:
317,217,15214,1,8,0:0:0:0:
317,217,15323,2,0,L|467:235,1,138
456,344,15649,2,0,B|392:327|392:327|316:340,1,138
246,340,15975,1,0,0:0:0:0:
171,368,16083,6,0,P|127:314|123:224,1,138
182,135,16410,2,0,B|223:166|223:166|235:268,1,138
71,153,16736,2,0,P|72:108|88:79,1,69
151,16,16953,1,8,0:0:0:0:
151,16,17062,2,0,B|195:22|195:22|223:50|223:50|314:64,1,138
384,164,17388,1,0,0:0:0:0:
384,164,17497,2,0,B|341:179|341:179|310:168|310:168|238:184,1,138
104,296,17823,6,0,P|137:238|203:229,1,138
320,222,18149,2,0,B|293:166|293:166|200:130,1,138
91,219,18475,1,0,0:0:0:0:
91,219,18692,2,0,B|69:133|69:133|97:80|97:81|97:81|81:11,2,207,8|0|0,0:0|0:0|0:0,0:0:0:0:
211,345,19562,6,0,P|258:295|331:286,1,138
460,253,19888,2,0,B|399:211|399:211|366:125,1,138
425,46,20214,2,0,P|372:46|347:64,1,69
292,122,20431,1,8,0:0:0:0:
292,122,20540,2,0,B|242:160|185:147|185:147|205:118,1,138
267,288,20866,1,0,0:0:0:0:
323,228,20975,2,0,B|368:213|432:246|432:246|392:275,1,138
186,254,21301,6,0,B|119:209|119:209|61:240|62:240|41:321,2,207
328,320,22170,1,8,0:0:0:0:
446,235,22388,2,0,P|468:188|470:155,1,69
348,69,22605,2,0,P|343:110|361:159,1,69
234,312,22823,2,0,P|243:261|241:235,1,69
132,123,23040,6,0,B|92:139|92:139|62:251,1,138,0|8,0:0|0:0,0:0:0:0:
72,341,23366,1,0,0:0:0:0:
163,379,23475,2,0,P|208:342|215:317,1,69
269,182,23692,2,0,P|317:233|348:242,1,69,8|0,0:0|0:0,0:0:0:0:
405,360,23910,6,0,B|375:366|375:366|308:349,1,69
168,277,24127,2,0,B|214:262|214:262|265:273,1,69,8|0,0:0|0:0,0:0:0:0:
72,341,24344,2,0,B|45:304|45:304|35:266,1,69
89,142,24562,2,0,B|98:181|98:181|79:233,1,69,8|0,0:0|0:0,0:0:0:0:
47,43,24779,6,0,P|110:17|200:40,1,138,0|8,0:0|0:0,0:0:0:0:
261,128,25105,2,0,P|348:149|410:129,1,138
487,97,25431,1,8,0:0:0:0:
507,193,25540,1,0,0:0:0:0:
423,259,25649,6,0,P|337:248|316:265,1,69
200,356,25866,2,0,P|250:345|277:325,1,69,8|0,0:0|0:0,0:0:0:0:
242,181,26083,2,0,P|170:180|157:188,1,69
46,327,26301,2,0,P|88:284|97:262,1,69,8|0,0:0|0:0,0:0:0:0:
52,143,26518,6,0,B|100:206|100:206|188:254,1,138,0|8,0:0|0:0,0:0:0:0:
336,75,26844,2,0,B|283:143|283:143|220:150,1,138
173,64,27170,1,8,0:0:0:0:
173,64,27279,1,0,0:0:0:0:
173,64,27388,6,0,B|157:108|157:108|165:156,1,69
236,266,27605,2,0,B|228:220|228:220|205:186,1,69,8|0,0:0|0:0,0:0:0:0:
139,314,27823,1,0,0:0:0:0:
227,348,27931,1,0,0:0:0:0:
319,312,28040,1,8,0:0:0:0:
350,230,28149,1,0,0:0:0:0:
343,137,28257,6,0,B|385:108|385:108|452:126|498:84,1,138,0|8,0:0|0:0,0:0:0:0:
204,16,28583,2,0,B|257:58|257:58|310:25|369:28,1,138
214,187,28910,1,8,0:0:0:0:
130,140,29018,1,0,0:0:0:0:
89,228,29127,6,0,L|79:325,1,69
38,101,29344,2,0,L|21:194,1,69,8|0,0:0|0:0,0:0:0:0:
206,275,29562,2,0,L|220:353,1,69
156,103,29779,2,0,L|174:176,1,69,8|0,0:0|0:0,0:0:0:0:
426,341,29996,6,0,B|332:286|332:286|294:237|317:168,1,207.000007896424,0|8,0:0|0:0,0:0:0:0:
370,106,30323,1,0,0:0:0:0:
475,148,30431,2,0,P|424:200|394:211,1,69
259,35,30649,2,0,P|297:109|314:117,1,69,8|0,0:0|0:0,0:0:0:0:
211,208,30866,6,0,B|174:196|174:196|137:204,1,69
259,291,31083,2,0,B|225:302|225:302|195:335,1,69,8|0,0:0|0:0,0:0:0:0:
316,168,31301,2,0,B|287:137|287:137|254:122,1,69
364,289,31518,2,0,B|334:324|334:324|325:374,1,69,8|0,0:0|0:0,0:0:0:0:
428,205,31736,6,0,B|450:155|450:155|432:59,1,138,0|8,0:0|0:0,0:0:0:0:
231,24,32062,2,0,B|268:84|272:85|273:85|273:85|363:104,1,138
206,227,32388,1,8,0:0:0:0:
121,174,32496,1,0,0:0:0:0:
81,278,32605,6,0,P|34:237|30:209,1,69
103,86,32823,2,0,P|155:86|185:104,1,69,8|0,0:0|0:0,0:0:0:0:
190,358,33040,2,0,P|180:317|192:282,1,69
363,235,33257,2,0,P|378:282|367:320,1,69,8|0,0:0|0:0,0:0:0:0:
269,157,33475,6,0,B|328:118|328:118|419:136,1,138,0|8,0:0|0:0,0:0:0:0:
266,303,33801,2,0,B|205:345|205:345|125:326,1,138
82,257,34127,1,8,0:0:0:0:
139,166,34236,1,0,0:0:0:0:
94,62,34344,6,0,P|166:55|242:117,1,138,0|8,0:0|0:0,0:0:0:0:
302,198,34670,2,0,P|385:228|467:197,1,138
494,146,34996,1,8,0:0:0:0:
423,78,35105,1,0,0:0:0:0:
309,31,35214,6,0,B|298:84|298:84|302:130|372:157,1,103.500003948212
251,327,35431,2,0,B|258:267|258:267|247:240|220:233,1,103.500003948212,8|0,0:0|0:0,0:0:0:0:
138,78,35649,2,0,B|166:133|166:133|226:165,1,103.500003948212
404,297,35866,2,0,B|370:239|370:239|308:207,1,103.500003948212,8|0,0:0|0:0,0:0:0:0:
63,302,36083,2,0,B|130:282|130:282|155:225,1,103.500003948212
183,44,36301,2,0,B|114:66|114:66|82:120,1,103.500003948212,8|0,0:0|0:0,0:0:0:0:
243,341,36518,2,0,L|370:365,1,103.500003948212
405,95,36736,2,0,B|356:70|356:70|292:81,1,103.500003948212,8|0,0:0|0:0,0:0:0:0:
84,191,36953,6,0,B|237:322|317:118|497:249,1,414.000015792847,0|8,0:0|0:0,0:0:0:0:
336,373,38257,1,0,0:0:0:0:
205,280,38692,2,0,B|112:192|19:269|19:269|76:38,1,414.000015792847,0|8,0:0|0:0,0:0:0:0:
243,8,39996,1,0,0:0:0:0:
68,69,40431,6,0,B|188:80|188:80|257:225|257:225|417:247,1,414.000015792847,0|8,0:0|0:0,0:0:0:0:
324,366,41736,1,0,0:0:0:0:
245,158,42170,2,0,B|177:177|162:252|162:252|85:271|85:271|75:363|75:363|186:339,1,414.000015792847,0|8,0:0|0:0,0:0:0:0:
217,332,43149,1,0,0:0:0:0:
250,329,43257,1,0,0:0:0:0:
282,333,43366,1,0,0:0:0:0:
312,344,43475,1,0,0:0:0:0:
345,353,43583,1,0,0:0:0:0:
378,353,43692,1,0,0:0:0:0:
410,344,43801,1,0,0:0:0:0:
441,331,43909,6,0,B|481:257|435:170|435:170|348:233|348:233|249:244|237:140,1,414.000015792847,0|8,0:0|0:0,0:0:0:0:
223,32,45214,1,0,0:0:0:0:
124,136,45649,2,0,B|91:188|123:250|123:250|300:265|300:265|346:213|312:144,1,414.000015792847,0|8,0:0|0:0,0:0:0:0:
223,32,46953,1,0,0:0:0:0:
316,156,47388,6,0,B|444:128|444:128|428:234|428:234|330:256|330:256|277:360,1,414.000015792847,0|8,0:0|0:0,0:0:0:0:
216,199,48692,1,0,0:0:0:0:
295,323,49127,2,0,B|210:267|96:309|96:309|129:201|129:201|67:120|67:120,1,414.000015792847,0|8,0:0|0:0,0:0:0:0:
55,102,50105,1,0,0:0:0:0:
50,67,50214,1,0,0:0:0:0:
58,33,50323,1,0,0:0:0:0:
85,10,50431,5,0,0:0:0:0:
118,31,50540,1,0,0:0:0:0:
153,44,50649,1,0,0:0:0:0:
188,48,50757,1,0,0:0:0:0:
224,41,50853,6,0,B|272:26|272:26|356:44,1,103.500003948212
380,167,51287,2,0,B|330:189|330:189|274:175,1,103.500003948212,2|0,0:0|0:0,0:0:0:0:
165,153,51722,1,0,0:0:0:0:
138,262,51939,1,0,0:0:0:0:
247,287,52157,1,2,0:0:0:0:
282,177,52374,1,0,0:0:0:0:
272,64,52592,6,0,B|321:68|321:68|361:109,1,103.500003948212
165,153,53026,2,0,B|113:151|113:151|62:102,1,103.500003948212,2|0,0:0|0:0,0:0:0:0:
154,14,53461,1,0,0:0:0:0:
126,44,54331,6,0,P|196:42|250:112,1,138
209,183,54657,2,0,P|297:167|329:112,1,138
361,56,54983,1,0,0:0:0:0:
377,198,55200,2,0,P|319:262|244:270,1,138,8|0,0:0|0:0,0:0:0:0:
160,257,55526,2,0,P|193:333|277:354,1,138
327,329,55852,1,0,0:0:0:0:
443,258,56070,6,0,B|407:330|326:329|326:329|296:390,2,207
434,124,56939,2,0,B|389:64|389:64|307:83|254:-1,1,207,8|0,0:0|0:0,0:0:0:0:
271,23,57374,2,0,B|216:76|140:69|140:69|98:137,1,207
106,122,57809,6,0,B|77:178|77:178|71:241|141:288,1,138
169,356,58135,2,0,B|208:311|208:311|224:261|186:217,1,138
203,144,58461,1,0,0:0:0:0:
340,35,58679,2,0,B|320:79|320:79|348:185,1,138,8|0,0:0|0:0,0:0:0:0:
388,253,59005,2,0,B|434:202|434:202|450:128,1,138
420,55,59331,1,0,0:0:0:0:
492,260,59548,6,0,B|437:341|363:333|363:333|276:312,1,207
159,175,60200,1,0,0:0:0:0:
159,175,60418,2,0,B|145:235|145:235|177:275|177:275|161:348|160:350|212:387,1,207,8|0,0:0|0:0,0:0:0:0:
182,363,60852,2,0,B|224:375|270:350|270:350|334:382|334:382|373:339|373:339|395:313,1,207
363,349,61287,6,0,P|399:291|470:261,1,138
459,149,61613,2,0,P|396:202|303:189,1,138
270,156,61939,1,0,0:0:0:0:
202,39,62157,2,0,P|260:5|328:14,1,138,8|0,0:0|0:0,0:0:0:0:
165,125,62483,2,0,P|103:156|20:138,1,138
6,59,62809,1,0,0:0:0:0:
120,231,63026,6,0,P|207:244|269:146,1,207
275,7,63679,1,0,0:0:0:0:
275,7,63896,2,0,B|323:48|323:48|422:49|422:49|488:101,1,207,8|0,0:0|0:0,0:0:0:0:
457,76,64331,2,0,B|431:142|431:142|438:208|438:208|394:287,1,207
404,268,64765,6,0,B|366:260|366:260|336:269|336:269|303:262|303:262|265:275,1,138
152,199,65092,2,0,B|182:186|182:186|217:194|217:194|257:182|257:182|305:196,1,138
352,122,65418,1,0,0:0:0:0:
73,136,65635,2,0,B|45:185|45:185|65:287,1,138,8|0,0:0|0:0,0:0:0:0:
135,330,65961,2,0,P|200:312|268:356,1,138
349,314,66287,1,0,0:0:0:0:
349,314,66505,6,0,B|370:240|370:240|350:186|350:186|390:140|336:112,2,207
250,373,67374,2,0,L|303:360,5,46,8|0|0|0|0|0,0:0|0:0|0:0|0:0|0:0|0:0,0:0:0:0:
289,331,67809,2,0,L|347:343,5,46
331,306,68244,6,0,B|399:289|399:289|430:239|413:179,1,138
379,151,68570,1,0,0:0:0:0:
424,78,68679,2,0,B|357:42|357:42|257:64,1,138,8|0,0:0|0:0,0:0:0:0:
211,76,69005,1,0,0:0:0:0:
135,39,69113,2,0,B|99:100|99:100|85:157|128:216,1,138
167,224,69439,1,0,0:0:0:0:
250,198,69548,2,0,P|248:283|236:301,1,69,8|0,0:0|0:0,0:0:0:0:
79,289,69765,2,0,P|65:227|80:197,1,69
158,100,69983,6,0,P|225:71|318:104,1,138
360,148,70309,1,0,0:0:0:0:
360,148,70418,2,0,P|439:177|508:157,1,138,8|0,0:0|0:0,0:0:0:0:
434,338,70744,1,0,0:0:0:0:
434,338,70852,2,0,P|342:309|306:311,1,69
193,335,71070,2,0,P|255:301|267:286,1,69
265,191,71287,1,8,0:0:0:0:
184,227,71396,1,0,0:0:0:0:
95,242,71505,1,0,0:0:0:0:
6,237,71613,1,0,0:0:0:0:
48,154,71722,6,0,P|127:147|212:97,1,138
260,77,72048,1,0,0:0:0:0:
328,144,72157,2,0,B|366:178|366:178|412:188|412:188|486:241,1,138,8|0,0:0|0:0,0:0:0:0:
385,277,72483,1,0,0:0:0:0:
315,341,72592,2,0,P|293:306|294:257,1,69
180,195,72809,1,0,0:0:0:0:
180,195,72918,2,0,P|190:251|183:293,1,69,0|8,0:0|0:0,0:0:0:0:
92,344,73135,1,0,0:0:0:0:
92,344,73244,2,0,P|76:295|86:249,1,69
98,173,73461,6,0,P|106:107|95:82,1,69
59,13,73679,1,0,0:0:0:0:
59,13,73787,2,0,P|140:32|159:28,1,69,0|8,0:0|0:0,0:0:0:0:
239,28,74005,1,0,0:0:0:0:
239,28,74113,2,0,P|212:106|219:137,1,69
193,206,74331,1,0,0:0:0:0:
272,165,74439,1,0,0:0:0:0:
307,84,74548,1,0,0:0:0:0:
389,45,74657,1,0,0:0:0:0:
470,100,74765,2,0,P|419:131|386:140,1,69,8|0,0:0|0:0,0:0:0:0:
346,207,74983,2,0,P|395:231|437:235,1,69
461,310,75200,6,0,B|383:344|383:344|295:341,1,138
161,194,75526,1,0,0:0:0:0:
161,194,75635,2,0,P|225:223|319:195,1,138,8|0,0:0|0:0,0:0:0:0:
387,124,75961,1,0,0:0:0:0:
387,124,76070,2,0,L|302:92,1,69
208,55,76287,1,0,0:0:0:0:
208,55,76396,2,0,L|138:95,1,69,0|8,0:0|0:0,0:0:0:0:
98,260,76613,1,0,0:0:0:0:
98,260,76722,2,0,L|82:173,1,69
260,224,76939,6,0,B|245:292|245:292|172:360,1,138
62,335,77265,1,0,0:0:0:0:
62,335,77374,2,0,B|23:271|23:271|38:178,1,138,8|0,0:0|0:0,0:0:0:0:
149,131,77700,1,0,0:0:0:0:
149,131,77809,2,0,P|146:46|130:24,1,69
104,240,78026,2,0,P|153:247|195:236,1,69
260,224,78244,1,8,0:0:0:0:
282,139,78352,1,0,0:0:0:0:
340,81,78461,1,0,0:0:0:0:
422,57,78570,1,0,0:0:0:0:
492,90,78678,6,0,B|497:168|499:168|464:237,1,138
343,342,79113,1,8,0:0:0:0:
148,198,79331,2,0,P|241:185|321:229,1,138
184,354,79765,1,0,0:0:0:0:
184,354,79874,1,0,0:0:0:0:
184,354,79983,2,0,L|162:282,1,69,8|0,0:0|0:0,0:0:0:0:
37,258,80200,2,0,L|79:189,1,69
33,108,80418,5,0,0:0:0:0:
202,73,80852,2,0,P|290:57|357:100,1,155.250005922318
334,224,81287,2,0,P|217:226|174:191,1,155.250005922318
208,46,81722,2,0,P|296:30|363:73,1,155.250005922318
261,240,82157,5,4,0:0:0:0:
146,315,82374,1,0,0:0:0:0:
146,315,82483,2,0,B|122:251|122:251|128:222|128:222|107:145,1,138
95,100,82809,1,0,0:0:0:0:
234,37,83026,1,8,0:0:0:0:
234,37,83135,2,0,P|259:107|331:128,1,138
399,75,83461,1,0,0:0:0:0:
399,75,83570,2,0,B|425:113|425:113|399:237,1,138
304,259,83896,6,0,B|282:322|282:322|444:309,2,207
165,177,84765,2,0,B|189:245|189:245|41:221,2,207,8|0|0,0:0|0:0|0:0,0:0:0:0:
119,57,85635,5,0,0:0:0:0:
119,57,85744,2,0,B|183:31|183:31|262:56,1,138
317,111,86070,2,0,P|374:143|449:111,1,138
462,97,86396,1,0,0:0:0:0:
486,73,86505,2,0,P|497:124|490:162,1,69,8|0,0:0|0:0,0:0:0:0:
480,208,86722,1,0,0:0:0:0:
420,286,86939,1,0,0:0:0:0:
420,286,87048,2,0,B|325:278|325:278|375:229,1,138
436,359,87374,5,0,0:0:0:0:
290,357,87592,2,0,P|238:354|218:333,1,69
104,149,87918,2,0,P|143:138|183:163,1,69
121,295,88244,2,0,B|90:291|90:291|47:306,1,69,8|0,0:0|0:0,0:0:0:0:
296,160,88570,2,0,B|329:173|329:173|389:162,1,69
221,44,88896,1,0,0:0:0:0:
227,275,89113,5,0,0:0:0:0:
227,275,89222,2,0,B|278:265|278:265|310:304|368:304,1,138
512,145,89548,2,0,B|439:147|439:147|380:183,1,138
322,231,89874,1,0,0:0:0:0:
270,175,89983,1,8,0:0:0:0:
270,175,90091,2,0,P|191:160|118:190,1,138
67,297,90418,1,0,0:0:0:0:
67,297,90526,2,0,P|163:308|215:278,1,138
300,210,90852,6,0,B|357:182|357:182|393:198|393:198|414:187|414:187|440:202|440:202|498:180,2,207
190,287,91722,2,0,B|143:318|143:318|110:305|110:305|94:315|94:315|69:305|69:305|50:318|50:318|-4:292,2,207,8|0|0,0:0|0:0|0:0,0:0:0:0:
300,210,92591,5,0,0:0:0:0:
300,210,92700,2,0,P|362:178|441:224,1,138
425,344,93026,2,0,P|332:365|281:330,1,138
228,308,93352,1,0,0:0:0:0:
154,299,93461,1,8,0:0:0:0:
154,299,93570,2,0,B|102:319|102:319|117:217,1,138
168,170,93896,1,0,0:0:0:0:
168,170,94005,2,0,B|212:193|212:193|203:102,1,138
256,192,94331,12,0,95852,0:0:0:0:
255,193,96070,5,0,0:0:0:0:
255,193,96396,1,0,0:0:0:0:
120,75,96722,1,0,0:0:0:0:
120,75,96939,2,0,B|109:125|109:125|138:176|138:176|117:250,1,155.250005922318,8|0,0:0|0:0,0:0:0:0:
100,358,97591,1,0,0:0:0:0:
100,358,97809,6,0,B|157:363|157:363|209:345|209:345|265:350,1,155.250005922318
435,321,98461,1,0,0:0:0:0:
428,303,98570,1,0,0:0:0:0:
430,284,98678,2,0,P|453:279|484:289,1,51.7500019741059,8|0,0:0|0:0,0:0:0:0:
380,227,98896,2,0,P|415:201|435:198,1,51.7500019741059
308,148,99113,2,0,P|297:206|289:220,1,51.7500019741059
221,271,99331,2,0,P|202:227|204:207,1,51.7500019741059
187,140,99548,6,0,B|144:113|144:113|92:146|92:146|32:104,2,155.250005922318
316,231,100418,2,0,B|362:260|362:260|404:223|404:223|470:257,2,155.250005922318,8|0|0,0:0|0:0|0:0,0:0:0:0:
298,220,101178,1,0,0:0:0:0:
281,213,101287,6,0,B|285:182|285:182|277:159,1,51.7500019741059
185,148,101504,2,0,B|177:171|177:171|190:208,1,51.7500019741059
208,278,101722,2,0,L|276:289,1,51.7500019741059
270,91,101939,2,0,L|215:84,1,51.7500019741059
336,326,102157,2,0,L|348:255,1,51.7500019741059,8|0,0:0|0:0,0:0:0:0:
123,271,102374,2,0,L|135:334,1,51.7500019741059
243,228,102591,2,0,L|251:168,1,51.7500019741059
81,126,102809,2,0,L|99:195,1,51.7500019741059
305,62,103026,6,0,B|201:6|103:34|103:34|174:137,1,310.500011844635
250,260,103678,5,0,0:0:0:0:
250,260,103896,2,0,P|327:282|402:223,2,155.250005922318,8|0|0,0:0|0:0|0:0,0:0:0:0:
163,157,104765,6,0,B|118:137|118:137|64:167|64:167|55:227,1,155.250005922318
34,357,105418,1,0,0:0:0:0:
45,352,105526,1,0,0:0:0:0:
59,348,105635,2,0,P|92:349|121:362,1,51.7500019741059,8|0,0:0|0:0,0:0:0:0:
205,364,105852,2,0,P|176:333|168:306,1,51.7500019741059
150,241,106070,2,0,P|196:245|221:259,1,51.7500019741059
277,271,106287,2,0,P|272:210|261:193,1,51.7500019741059
206,142,106504,6,0,P|281:118|357:167,1,155.250005922318
255,314,107157,1,0,0:0:0:0:
255,314,107374,2,0,B|197:308|197:308|152:338|152:338|106:302,2,155.250005922318,8|0|0,0:0|0:0|0:0,0:0:0:0:
281,329,108135,1,0,0:0:0:0:
307,338,108244,6,0,P|369:335|432:260,1,138
271,60,108678,2,0,P|187:110|184:189,1,138,8|0,0:0|0:0,0:0:0:0:
438,172,109113,2,0,B|446:108|446:108|403:41,1,138
199,247,109548,2,0,B|190:301|190:301|243:373,1,138,8|0,0:0|0:0,0:0:0:0:
485,261,109983,6,0,B|428:246|428:246|387:271|312:253,1,138,0|8,0:0|0:0,0:0:0:0:
268,279,110309,1,0,0:0:0:0:
182,297,110418,2,0,B|115:304|115:304|44:280|35:233,1,138,0|8,0:0|0:0,0:0:0:0:
39,181,110744,1,0,0:0:0:0:
75,86,110852,6,0,P|122:124|141:162,1,69
210,202,111070,2,0,P|246:129|246:126,1,69,8|0,0:0|0:0,0:0:0:0:
235,42,111287,1,0,0:0:0:0:
318,66,111396,1,0,0:0:0:0:
357,165,111504,1,8,0:0:0:0:
441,188,111613,1,0,0:0:0:0:
486,267,111722,6,0,B|415:280|415:280|366:338,1,138,0|8,0:0|0:0,0:0:0:0:
287,364,112048,1,0,0:0:0:0:
201,344,112157,2,0,B|163:283|163:283|45:259,1,138,0|8,0:0|0:0,0:0:0:0:
55,186,112483,1,0,0:0:0:0:
88,92,112591,6,0,B|133:106|133:106|150:138,1,69
206,206,112809,2,0,B|249:199|249:199|278:169,1,69,8|0,0:0|0:0,0:0:0:0:
259,84,113026,2,0,B|299:90|299:90|339:112,1,69
378,184,113244,2,0,B|421:177|421:177|449:148,1,69,8|0,0:0|0:0,0:0:0:0:
490,44,113461,6,0,B|407:33|407:33|365:42|336:34|317:20,1,138,0|8,0:0|0:0,0:0:0:0:
254,19,113787,1,0,0:0:0:0:
172,71,113896,2,0,B|161:153|161:153|190:182|234:142,1,138,0|8,0:0|0:0,0:0:0:0:
310,137,114222,1,0,0:0:0:0:
371,211,114331,6,0,P|306:234|278:231,1,69
245,313,114548,2,0,P|197:303|175:292,1,69,8|0,0:0|0:0,0:0:0:0:
51,171,114765,2,0,P|94:198|134:209,1,69
158,115,114983,2,0,P|215:122|252:118,1,69,8|0,0:0|0:0,0:0:0:0:
230,23,115200,6,0,B|295:58|363:58|363:58|392:48,1,138,0|8,0:0|0:0,0:0:0:0:
469,30,115526,1,0,0:0:0:0:
485,131,115635,2,0,B|464:160|464:160|459:216,1,69
359,348,115852,2,0,B|368:305|368:305|356:273,1,69,8|0,0:0|0:0,0:0:0:0:
286,200,116070,5,0,0:0:0:0:
255,266,116178,1,0,0:0:0:0:
202,318,116287,1,8,0:0:0:0:
137,350,116396,1,0,0:0:0:0:
69,304,116504,1,0,0:0:0:0:
134,272,116613,1,8,0:0:0:0:
187,220,116722,1,0,0:0:0:0:
218,154,116830,1,0,0:0:0:0:
233,80,116939,6,0,B|296:103|296:103|344:169,1,138,0|8,0:0|0:0,0:0:0:0:
286,241,117265,1,0,0:0:0:0:
364,273,117374,2,0,P|432:243|449:169,1,138,0|8,0:0|0:0,0:0:0:0:
286,241,117700,1,0,0:0:0:0:
286,241,117809,6,0,L|271:329,1,69
174,179,118026,2,0,B|177:222|177:222|197:252,1,69,8|0,0:0|0:0,0:0:0:0:
255,129,118244,2,0,L|246:50,1,69
124,22,118461,2,0,B|115:60|115:60|133:103,1,69,8|0,0:0|0:0,0:0:0:0:
321,242,118678,6,0,B|267:231|267:231|230:245|230:245|208:235|208:235|163:257,1,138,0|8,0:0|0:0,0:0:0:0:
144,328,119004,1,0,0:0:0:0:
229,372,119113,2,0,B|266:377|266:377|308:366,1,69
428,294,119331,2,0,B|392:291|392:291|360:303,1,69,8|0,0:0|0:0,0:0:0:0:
234,105,119548,6,0,B|242:142|242:142|266:178,1,69
393,102,119765,2,0,B|375:64|376:64|376:64|348:39,1,69,8|0,0:0|0:0,0:0:0:0:
188,261,119983,2,0,P|243:297|283:293,1,69
148,155,120200,2,0,P|90:178|78:200,1,69,8|0,0:0|0:0,0:0:0:0:
346,367,120417,6,0,B|372:304|372:304|403:234|346:180,1,138,0|8,0:0|0:0,0:0:0:0:
330,158,120744,1,0,0:0:0:0:
334,71,120852,2,0,P|376:57|424:65,1,69
492,153,121070,2,0,P|447:168|412:163,1,69,8|0,0:0|0:0,0:0:0:0:
330,158,121287,5,0,0:0:0:0:
235,140,121396,1,0,0:0:0:0:
181,218,121504,1,8,0:0:0:0:
91,198,121613,1,0,0:0:0:0:
45,114,121722,2,0,P|92:102|137:117,1,69
136,294,121939,2,0,P|76:307|45:303,1,69,8|0,0:0|0:0,0:0:0:0:
91,198,122157,5,0,0:0:0:0:
434,266,122374,1,8,0:0:0:0:
434,266,122591,2,0,L|419:225,6,34.5,8|0|0|0|0|0|0,0:0|0:0|0:0|0:0|0:0|0:0|0:0,0:0:0:0:
443,191,123026,2,0,L|455:146,6,34.5,8|0|0|0|0|0|0,0:0|0:0|0:0|0:0|0:0|0:0|0:0,0:0:0:0:
435,113,123461,1,8,0:0:0:0:
128,108,123896,5,0,0:0:0:0:
114,204,124113,1,0,0:0:0:0:
236,272,124331,1,2,0:0:0:0:
220,175,124548,1,0,0:0:0:0:
265,75,124765,2,0,P|339:70|382:115,1,103.500003948212
428,222,125200,2,0,P|377:225|337:195,1,103.500003948212,2|0,0:0|0:0,0:0:0:0:
496,128,125635,5,0,0:0:0:0:
403,68,125852,2,0,L|392:28,4,25.875000987053,0|0|0|0|2,0:0|0:0|0:0|0:0|0:0,0:0:0:0:
387,103,126178,1,0,0:0:0:0:
357,122,126287,1,0,0:0:0:0:
321,128,126396,1,0,0:0:0:0:
291,117,126504,1,0,0:0:0:0:
291,117,127374,6,0,P|228:89|112:136,1,138
78,216,127700,2,0,P|139:225|209:194,1,138
291,117,128026,1,0,0:0:0:0:
417,219,128244,2,0,B|381:248|381:248|273:221,1,138,8|0,0:0|0:0,0:0:0:0:
152,298,128570,2,0,B|193:333|193:333|299:304,1,138
292,226,128896,1,0,0:0:0:0:
445,338,129113,6,0,P|499:254|444:150,1,207
392,39,129765,1,0,0:0:0:0:
392,39,129983,2,0,B|332:71|332:71|281:60|281:60|197:98,1,207,8|0,0:0|0:0,0:0:0:0:
201,95,130417,2,0,P|118:65|139:167,1,207
112,155,130852,6,0,L|114:304,1,138
174,370,131178,2,0,P|232:318|238:239,1,138
221,169,131504,1,0,0:0:0:0:
434,95,131722,2,0,B|446:137|446:137|425:162|425:162|446:238,1,138,8|0,0:0|0:0,0:0:0:0:
465,341,132048,2,0,P|398:324|356:256,1,138
326,177,132374,1,0,0:0:0:0:
219,363,132591,6,0,B|146:347|146:347|95:366|95:366|15:348,2,207
368,357,133461,2,0,P|424:313|339:231,1,207,8|0,0:0|0:0,0:0:0:0:
354,227,133896,2,0,B|314:178|314:178|372:130|372:130|379:37,1,207
377,61,134330,6,0,P|286:24|225:48,1,138
220,126,134657,2,0,P|160:158|93:151,1,138
33,74,134983,1,0,0:0:0:0:
28,294,135200,2,0,B|61:264|61:264|161:250,1,138,8|0,0:0|0:0,0:0:0:0:
225,319,135526,2,0,B|265:345|265:345|371:326,1,138
440,294,135852,1,0,0:0:0:0:
333,183,136070,6,0,P|417:199|475:93,2,207
218,127,136939,2,8,B|154:87|91:110|91:110|65:190,1,207
68,180,137374,2,0,B|61:249|61:249|134:300|205:280,1,207
190,283,137809,6,0,P|290:280|343:336,1,138
450,341,138135,2,0,B|403:300|403:300|378:212,1,138
378,123,138461,1,0,0:0:0:0:
475,43,138678,2,0,B|489:97|489:97|452:185,1,138,8|0,0:0|0:0,0:0:0:0:
382,227,139004,2,0,B|327:202|327:202|273:86,1,138
250,49,139330,1,0,0:0:0:0:
250,49,139548,6,0,B|170:38|170:38|130:73|130:73|24:57,2,207
369,80,140417,2,0,L|414:66,5,46,8|0|0|0|0|0,0:0|0:0|0:0|0:0|0:0|0:0,0:0:0:0:
398,118,140852,2,0,L|454:129,5,46
426,162,141287,6,0,B|458:193|459:193|454:298,1,138
387,352,141613,1,0,0:0:0:0:
294,330,141722,2,0,B|223:323|223:323|181:337|130:360,1,138,8|0,0:0|0:0,0:0:0:0:
75,366,142048,1,0,0:0:0:0:
94,278,142157,2,0,P|117:235|123:199,1,69
119,66,142374,2,0,P|143:115|163:136,1,69
219,247,142591,1,8,0:0:0:0:
266,172,142700,1,0,0:0:0:0:
350,160,142809,1,0,0:0:0:0:
415,220,142917,1,0,0:0:0:0:
421,307,143026,6,0,P|351:328|275:271,1,138
219,247,143352,1,0,0:0:0:0:
169,170,143461,2,0,P|88:142|15:183,1,138,8|0,0:0|0:0,0:0:0:0:
4,234,143787,1,0,0:0:0:0:
71,308,143896,2,0,P|100:249|99:223,1,69
106,156,144113,2,0,P|109:93|127:71,1,69
171,31,144330,1,8,0:0:0:0:
263,38,144439,1,0,0:0:0:0:
314,116,144548,1,0,0:0:0:0:
299,207,144657,1,0,0:0:0:0:
249,291,144765,6,0,P|346:302|395:238,1,138
425,204,145091,1,0,0:0:0:0:
389,116,145200,2,0,B|410:82|410:82|276:71,1,138,8|0,0:0|0:0,0:0:0:0:
226,113,145526,1,0,0:0:0:0:
144,71,145635,2,0,B|101:75|101:75|56:96,1,69
61,206,145852,2,0,B|104:204|104:204|139:183,1,69
239,178,146070,2,0,B|283:173|283:173|330:191,1,69,8|0,0:0|0:0,0:0:0:0:
362,302,146287,2,0,B|310:309|310:309|278:298,1,69
193,307,146504,6,0,P|121:274|56:295,1,138
118,355,146830,1,0,0:0:0:0:
146,209,146939,2,0,P|152:149|138:120,1,69,8|0,0:0|0:0,0:0:0:0:
65,69,147157,2,0,P|45:118|48:161,1,69
153,10,147374,1,0,0:0:0:0:
153,10,147483,1,0,0:0:0:0:
239,72,147591,1,0,0:0:0:0:
239,72,147700,1,0,0:0:0:0:
337,24,147809,1,8,0:0:0:0:
371,48,147917,1,0,0:0:0:0:
395,76,148026,1,0,0:0:0:0:
408,109,148135,1,0,0:0:0:0:
412,149,148243,6,0,B|381:207|381:207|405:328,1,138
325,337,148570,1,0,0:0:0:0:
231,308,148678,2,0,B|188:302|188:302|165:313|165:313|129:303|129:303|93:315,1,138,8|0,0:0|0:0,0:0:0:0:
43,237,149004,1,0,0:0:0:0:
124,177,149113,2,0,B|149:144|149:144|141:106,1,69
252,10,149330,2,0,B|239:42|239:42|251:93,1,69
275,297,149548,2,0,B|283:254|283:254|268:224,1,69,8|0,0:0|0:0,0:0:0:0:
183,293,149765,1,0,0:0:0:0:
232,372,149874,1,0,0:0:0:0:
334,364,149983,6,0,P|392:322|415:240,1,138
433,177,150309,1,0,0:0:0:0:
411,86,150417,2,0,P|361:8|298:-4,1,138,8|0,0:0|0:0,0:0:0:0:
238,40,150743,1,0,0:0:0:0:
139,11,150852,2,0,B|128:43|128:43|137:91,1,69
230,235,151070,2,0,B|241:191|241:191|232:157,1,69
145,322,151287,2,0,P|182:351|232:368,1,69,8|0,0:0|0:0,0:0:0:0:
383,188,151504,2,0,P|330:147|309:138,1,69
337,355,151722,6,0,B|411:358|411:359|486:325,2,138,0|0|8,0:0|0:0|0:0,0:0:0:0:
228,235,152374,2,0,B|154:232|154:231|79:265,2,138
259,216,152917,1,0,0:0:0:0:
296,225,153026,2,0,P|305:258|304:285,2,46,8|0|0,0:0|0:0|0:0,0:0:0:0:
292,304,153243,2,0,P|287:334|296:361,2,46
314,374,153461,5,0,0:0:0:0:
314,374,153896,2,0,B|388:309|388:309|473:350,1,155.250005922318
439,333,154330,2,0,P|475:272|419:182,1,155.250005922318
446,198,154765,2,0,B|392:154|392:154|396:62,1,155.250005922318
475,0,155200,5,4,0:0:0:0:
256,192,155309,12,0,158679,0:0:0:0:
255,191,182156,5,0,0:0:0:0:
255,191,183026,6,0,P|212:239|165:248,1,103.500003948212,4|8,0:0|0:0,0:0:0:0:
79,135,183243,2,0,P|119:91|175:78,1,103.500003948212,0|8,0:0|0:0,0:0:0:0:
226,328,183461,2,0,P|154:326|106:296,1,103.500003948212,4|8,0:0|0:0,0:0:0:0:
253,103,183678,2,0,P|300:116|348:162,1,103.500003948212,0|8,0:0|0:0,0:0:0:0:
52,234,183896,2,0,B|20:179|20:179|51:33,1,207.000007896424,4|0,0:0|0:0,0:0:0:0:
320,18,184222,1,0,0:0:0:0:
320,18,184330,2,0,B|345:88|345:88|392:121|392:121|425:235,1,207.000007896424,4|0,0:0|0:0,0:0:0:0:
352,359,184656,1,0,0:0:0:0:
352,359,184765,6,0,B|395:342|395:342|415:346|415:346|469:326,1,103.500003948212,4|8,0:0|0:0,0:0:0:0:
194,286,184982,2,0,B|146:273|146:273|126:280|126:280|74:266,1,103.500003948212,0|8,0:0|0:0,0:0:0:0:
322,109,185200,2,0,B|314:158|314:158|323:175|323:175|314:222,1,103.500003948212,4|8,0:0|0:0,0:0:0:0:
157,27,185417,2,0,B|164:71|164:71|177:82|177:82|181:127,1,103.500003948212,0|8,0:0|0:0,0:0:0:0:
432,171,185635,2,0,P|461:70|350:13,1,207.000007896424,4|0,0:0|0:0,0:0:0:0:
181,124,185961,1,0,0:0:0:0:
181,124,186069,2,0,B|121:171|60:133|60:133|20:208|20:208,1,207.000007896424,4|0,0:0|0:0,0:0:0:0:
132,358,186396,1,0,0:0:0:0:
132,358,186504,6,0,P|159:304|134:245,1,103.500003948212,4|8,0:0|0:0,0:0:0:0:
308,165,186722,2,0,P|295:233|325:277,1,103.500003948212,0|8,0:0|0:0,0:0:0:0:
189,25,186939,2,0,P|171:82|185:132,1,103.500003948212,4|8,0:0|0:0,0:0:0:0:
392,133,187156,2,0,P|410:77|391:22,1,103.500003948212,0|8,0:0|0:0,0:0:0:0:
271,348,187374,2,0,B|322:337|322:337|373:353|373:353|420:340|420:340|477:363,1,207.000007896424,4|0,0:0|0:0,0:0:0:0:
215,228,187700,1,0,0:0:0:0:
215,228,187809,2,0,B|144:259|144:259|55:240|49:146,1,207.000007896424,4|0,0:0|0:0,0:0:0:0:
135,37,188135,1,0,0:0:0:0:
135,37,188243,6,0,B|126:90|126:90|145:157,1,103.500003948212,4|8,0:0|0:0,0:0:0:0:
307,164,188461,2,0,B|314:111|314:111|296:52,1,103.500003948212,0|8,0:0|0:0,0:0:0:0:
183,308,188678,2,0,B|222:340|222:340|280:349,1,103.500003948212,4|8,0:0|0:0,0:0:0:0:
400,204,188896,2,0,B|355:172|355:172|307:164,1,103.500003948212,0|8,0:0|0:0,0:0:0:0:
428,368,189113,2,0,B|481:326|481:326|507:162,1,207.000007896424,4|0,0:0|0:0,0:0:0:0:
339,56,189439,1,0,0:0:0:0:
339,56,189548,2,0,B|228:13|230:114|108:55,1,207.000007896424,4|0,0:0|0:0,0:0:0:0:
25,155,189874,1,0,0:0:0:0:
25,155,189982,6,0,P|57:201|103:220,1,103.500003948212,4|8,0:0|0:0,0:0:0:0:
263,254,190200,2,0,P|233:300|181:322,1,103.500003948212,0|8,0:0|0:0,0:0:0:0:
135,134,190417,2,0,P|195:161|238:158,1,103.500003948212,4|8,0:0|0:0,0:0:0:0:
400,218,190635,2,0,P|396:294|372:330,1,103.500003948212,0|8,0:0|0:0,0:0:0:0:
190,35,190852,2,0,B|234:71|234:71|286:64|286:64|324:83|324:83|395:60,1,207.000007896424,4|0,0:0|0:0,0:0:0:0:
477,220,191178,1,0,0:0:0:0:
477,220,191287,2,0,P|413:140|325:208,1,207.000007896424,4|0,0:0|0:0,0:0:0:0:
274,337,191613,1,0,0:0:0:0:
274,337,191722,6,0,B|225:322|225:322|166:341,1,103.500003948212,4|8,0:0|0:0,0:0:0:0:
163,110,191939,2,0,B|217:126|217:126|285:105,1,103.500003948212,0|8,0:0|0:0,0:0:0:0:
117,276,192156,2,0,L|8:240,1,103.500003948212,4|8,0:0|0:0,0:0:0:0:
238,10,192374,2,0,L|349:46,1,103.500003948212,0|8,0:0|0:0,0:0:0:0:
50,140,192591,2,0,B|74:85|41:40|41:40|100:60|145:9,1,207.000007896424,4|0,0:0|0:0,0:0:0:0:
392,160,192917,1,0,0:0:0:0:
392,160,193026,2,0,B|368:214|401:260|401:260|342:240|297:291,1,207.000007896424,4|0,0:0|0:0,0:0:0:0:
450,56,193352,1,0,0:0:0:0:
450,56,193461,6,0,P|481:92|489:166,1,103.500003948212,4|8,0:0|0:0,0:0:0:0:
233,152,193678,2,0,P|241:88|273:50,1,103.500003948212,0|8,0:0|0:0,0:0:0:0:
309,280,193895,2,0,P|261:295|205:282,1,103.500003948212,4|8,0:0|0:0,0:0:0:0:
120,104,194113,2,0,P|140:42|167:4,1,103.500003948212,0|8,0:0|0:0,0:0:0:0:
39,258,194330,1,12,0:0:0:0:
65,357,194439,1,8,0:0:0:0:
126,202,194548,2,0,B|145:251|145:251|122:304,1,103.500003948212
359,36,194765,1,12,0:0:0:0:
372,146,194874,1,8,0:0:0:0:
217,40,194982,1,8,0:0:0:0:
208,160,195091,1,8,0:0:0:0:
286,108,195200,6,0,B|383:157|470:84|470:84|428:197|476:304|476:304|285:187|271:369|64:286,1,828.000031585695,8|0,0:0|0:0,0:0:0:0:
88,294,196291,1,0,0:0:0:0:
73,258,196399,1,0,0:0:0:0:
79,212,196508,1,0,0:0:0:0:
102,173,196617,1,0,0:0:0:0:
138,149,196725,1,0,0:0:0:0:
181,139,196834,1,0,0:0:0:0:
221,149,196943,6,0,B|333:229|365:113|494:186,1,276
430,274,197595,1,0,0:0:0:0:
498,360,197812,2,0,P|402:375|342:340,1,138,8|0,0:0|0:0,0:0:0:0:
269,306,198247,2,0,B|221:290|221:290|200:300|200:300|180:289|180:289|140:302,1,138
51,357,198682,6,0,B|19:303|19:303|31:218,1,138
34,196,199008,1,0,0:0:0:0:
41,160,199116,2,0,P|94:139|121:142,1,69
203,222,199334,2,0,P|151:226|123:211,1,69
198,132,199551,2,0,B|262:161|311:106|311:106|399:264,1,276,8|0,0:0|0:0,0:0:0:0:
384,237,200095,1,0,0:0:0:0:
384,237,200203,1,0,0:0:0:0:
310,351,200421,6,0,B|266:289|266:289|181:284|181:284|136:345|137:344|59:328,1,276
70,229,201073,1,0,0:0:0:0:
161,162,201290,2,0,B|192:122|192:122|198:33,1,138,8|0,0:0|0:0,0:0:0:0:
60,86,201725,2,0,B|33:125|33:125|41:230,1,138
181,299,202160,6,0,B|252:311|252:311|323:288|323:250,1,138
298,109,202595,2,0,B|236:111|236:111|184:127|164:154,1,138
247,217,203029,1,8,0:0:0:0:
247,217,203247,1,0,0:0:0:0:
420,200,203464,1,0,0:0:0:0:
420,200,203682,1,0,0:0:0:0:
464,354,203899,6,0,P|368:324|317:344,1,138
306,350,204225,1,0,0:0:0:0:
272,355,204334,1,0,0:0:0:0:
237,351,204442,1,0,0:0:0:0:
205,338,204551,1,0,0:0:0:0:
180,311,204660,1,0,0:0:0:0:
170,267,204769,5,8,0:0:0:0:
141,244,204877,1,0,0:0:0:0:
106,233,204986,1,0,0:0:0:0:
69,233,205095,1,0,0:0:0:0:
29,251,205203,5,0,0:0:0:0:
13,215,205312,1,0,0:0:0:0:
13,177,205421,1,0,0:0:0:0:
25,139,205529,1,0,0:0:0:0:
47,108,205638,6,0,P|123:84|188:236,1,276
141,348,206290,1,0,0:0:0:0:
141,348,206508,2,0,P|254:351|296:290,1,138,8|0,0:0|0:0,0:0:0:0:
302,269,206834,2,0,P|397:220|463:240,1,138
490,248,207160,1,0,0:0:0:0:
490,248,207377,6,0,B|503:139|503:139|434:71|441:75,1,138
416,89,207703,1,0,0:0:0:0:
337,95,207812,2,0,B|276:128|276:128|227:127|190:91,1,138
102,62,208247,1,8,0:0:0:0:
62,196,208464,1,0,0:0:0:0:
199,300,208682,2,0,P|214:213|177:169,1,138
109,310,209116,5,0,0:0:0:0:
109,310,209334,2,0,B|25:208|153:162|81:40,1,276
36,139,209986,2,0,P|57:145|92:146,5,46,8|0|0|0|0|0,0:0|0:0|0:0|0:0|0:0|0:0,0:0:0:0:
115,146,210421,1,0,0:0:0:0:
246,129,210855,6,0,P|302:121|344:48,1,138
352,26,211182,1,0,0:0:0:0:
385,10,211290,2,0,P|436:6|469:23,2,69,8|0|0,0:0|0:0|0:0,0:0:0:0:
246,129,211725,1,0,0:0:0:0:
211,141,211834,1,0,0:0:0:0:
174,146,211942,1,0,0:0:0:0:
137,142,212051,1,0,0:0:0:0:
101,132,212160,5,8,0:0:0:0:
82,164,212269,1,0,0:0:0:0:
78,201,212377,1,0,0:0:0:0:
91,237,212486,1,0,0:0:0:0:
114,264,212595,6,0,P|238:267|266:244,1,138
274,241,212921,1,0,0:0:0:0:
315,220,213029,2,0,P|346:217|385:232,3,69,8|0|0|0,0:0|0:0|0:0|0:0,0:0:0:0:
411,246,213464,1,0,0:0:0:0:
443,223,213573,1,0,0:0:0:0:
468,190,213682,1,0,0:0:0:0:
482,151,213790,1,0,0:0:0:0:
476,111,213899,6,0,P|448:65|426:49,1,69,8|0,0:0|0:0,0:0:0:0:
336,45,214116,2,0,P|305:82|303:111,1,69
274,195,214334,6,0,P|203:241|86:193,1,207
46,131,214769,1,8,0:0:0:0:
154,53,214986,1,0,0:0:0:0:
283,100,215203,1,0,0:0:0:0:
283,100,215312,2,0,B|358:111|358:111|401:96|418:55,1,138
500,41,215638,2,0,L|469:202,1,138,8|0,0:0|0:0,0:0:0:0:
474,331,216073,6,0,B|411:299|411:299|337:318,1,138
248,349,216399,1,0,0:0:0:0:
248,349,216508,2,0,P|179:357|96:277,1,138,8|0,0:0|0:0,0:0:0:0:
64,242,216834,1,0,0:0:0:0:
128,157,216942,1,0,0:0:0:0:
66,65,217051,2,0,P|169:52|214:80,1,138
253,92,217377,1,8,0:0:0:0:
315,107,217486,1,0,0:0:0:0:
377,96,217595,1,0,0:0:0:0:
435,74,217703,1,0,0:0:0:0:
435,74,217812,6,0,B|462:140|462:140|413:245,1,138
402,281,218138,1,0,0:0:0:0:
452,366,218247,2,0,L|377:357,1,69,8|0,0:0|0:0,0:0:0:0:
214,305,218464,2,0,L|296:295,1,69
130,374,218682,6,0,P|74:322|72:298,1,69
152,143,218899,2,0,P|205:193|202:224,1,69
35,79,219116,6,0,P|72:37|105:35,1,69,8|0,0:0|0:0,0:0:0:0:
321,215,219334,2,0,P|290:262|252:275,1,69
81,236,219551,6,0,B|131:188|131:188|146:184|146:184|145:171|145:171|159:171|159:171|161:157|161:157|226:95,1,207
277,184,219986,1,8,0:0:0:0:
393,58,220203,1,0,0:0:0:0:
90,50,220421,6,0,B|157:37|157:37|183:51|183:51|209:39|209:39|225:53|225:53|307:45,1,207
336,131,220855,1,8,0:0:0:0:
157,98,221073,1,0,0:0:0:0:
361,40,221290,6,0,B|441:49|474:13|474:13|480:38|469:77|457:91|443:102|441:131|455:164|465:184|471:198,1,276,0|8,0:0|0:0,0:0:0:0:
417,289,221942,1,0,0:0:0:0:
282,320,222160,1,0,0:0:0:0:
219,287,222268,1,0,0:0:0:0:
148,276,222377,2,0,L|97:286,2,46
168,208,222595,2,0,L|230:215,2,46,8|0|0,0:0|0:0|0:0,0:0:0:0:
129,148,222812,2,0,L|73:158,2,46
173,89,223029,5,0,0:0:0:0:
173,89,223477,2,0,B|282:45|319:158|454:94|454:94|379:240|506:277|413:349|413:349|305:263|253:388|192:310,1,759
229,335,224781,6,0,B|163:321|155:386|62:327,1,138
55,261,225107,2,0,P|52:192|97:132,1,138
173,89,225433,1,0,0:0:0:0:
295,232,225650,2,0,B|253:198|253:198|142:220,1,138,8|0,0:0|0:0,0:0:0:0:
361,313,225976,2,0,B|404:268|404:268|402:177,1,138
332,135,226302,1,0,0:0:0:0:
454,40,226520,6,0,B|494:105|467:155|467:155|487:256,1,207
342,359,227172,1,0,0:0:0:0:
342,359,227389,2,0,P|255:300|147:319,1,207,8|0,0:0|0:0,0:0:0:0:
158,312,227824,2,0,P|243:234|239:137,1,207
243,148,228259,6,0,P|237:64|275:14,1,138
409,58,228585,2,0,P|395:142|346:191,1,138
305,250,228911,1,0,0:0:0:0:
108,217,229128,2,0,B|83:153|83:153|106:78,1,138,8|0,0:0|0:0,0:0:0:0:
210,170,229454,2,0,B|230:229|230:229|198:313,1,138
172,382,229780,1,0,0:0:0:0:
203,299,229998,6,0,B|130:274|84:328|84:328|-25:304,2,207
401,317,230867,2,0,B|426:255|426:255|394:195|394:195|312:190,1,207,8|0,0:0|0:0,0:0:0:0:
321,190,231302,2,0,B|358:113|358:113|323:63|323:63|249:35,1,207
127,36,231737,6,0,B|149:106|149:107|226:152,1,138
203,299,232063,2,0,B|181:229|180:228|122:193,1,138
48,249,232389,1,0,0:0:0:0:
290,282,232607,2,0,B|337:315|337:315|439:304,1,138,8|0,0:0|0:0,0:0:0:0:
474,176,232933,2,0,B|451:218|451:218|356:227,1,138
315,143,233259,1,0,0:0:0:0:
155,58,233476,6,0,B|141:134|202:173|202:173|177:280,1,207
138,380,234128,1,0,0:0:0:0:
138,380,234346,2,0,P|241:364|295:282,1,207,8|0,0:0|0:0,0:0:0:0:
294,283,234780,2,0,B|265:204|265:204|269:124|344:102,1,207
328,107,235215,6,0,P|445:137|483:100,1,138
242,52,235541,2,0,P|174:37|97:74,1,138
43,133,235867,1,0,0:0:0:0:
179,183,236085,2,0,B|232:174|232:174|249:184|249:184|330:170,1,138,8|0,0:0|0:0,0:0:0:0:
400,276,236411,2,0,B|338:270|338:270|319:281|319:281|247:269,1,138
110,232,236737,1,0,0:0:0:0:
73,319,236954,6,0,B|148:299|148:299|223:329|287:251,1,207
336,131,237607,1,0,0:0:0:0:
336,131,237824,2,0,P|361:113|388:107,5,46,8|0|0|0|0|0,0:0|0:0|0:0|0:0|0:0|0:0,0:0:0:0:
388,151,238259,2,0,P|423:149|446:158,5,46
421,196,238693,6,0,B|457:198|497:227|497:227|478:320,1,138
418,358,239020,1,0,0:0:0:0:
321,320,239128,2,0,B|253:300|253:300|185:333,1,138,8|0,0:0|0:0,0:0:0:0:
101,371,239454,1,0,0:0:0:0:
63,284,239563,2,0,B|119:260|119:260|152:207|125:150,1,138,8|0,0:0|0:0,0:0:0:0:
88,106,239889,2,0,P|121:42|198:53,1,138,8|0,0:0|0:0,0:0:0:0:
259,96,240215,1,8,0:0:0:0:
344,38,240324,1,0,0:0:0:0:
440,66,240433,6,0,P|460:126|386:197,1,138
350,240,240759,1,0,0:0:0:0:
320,326,240867,2,0,B|245:311|245:311|211:246,1,138,8|0,0:0|0:0,0:0:0:0:
187,171,241193,1,0,0:0:0:0:
112,93,241302,2,0,B|80:122|80:122|65:173,1,69
228,78,241520,2,0,B|206:45|206:45|167:20,1,69
150,255,241737,2,0,P|205:258|237:243,1,69,8|0,0:0|0:0,0:0:0:0:
388,157,241954,2,0,P|331:148|303:160,1,69
313,346,242172,6,0,B|354:299|354:299|435:306|463:262,1,138
481,211,242498,1,0,0:0:0:0:
464,101,242607,2,0,B|424:100|401:132|401:132|287:129,1,138,8|0,0:0|0:0,0:0:0:0:
247,84,242933,1,0,0:0:0:0:
148,42,243041,2,0,B|131:86|131:86|151:124|151:124|132:175,1,138,8|0,0:0|0:0,0:0:0:0:
78,271,243367,2,0,B|139:263|139:263|169:283|169:283|225:273,1,138,8|0,0:0|0:0,0:0:0:0:
312,258,243693,1,8,0:0:0:0:
367,339,243802,1,0,0:0:0:0:
470,342,243911,6,0,P|497:264|434:220,1,138
377,184,244237,1,0,0:0:0:0:
312,107,244346,2,0,P|338:31|397:9,1,138,8|0,0:0|0:0,0:0:0:0:
474,53,244672,1,0,0:0:0:0:
494,138,244780,2,0,B|481:175|481:175|495:225,1,69
388,349,244998,2,0,B|396:311|396:311|382:274,1,69
311,188,245215,1,8,0:0:0:0:
240,245,245324,1,0,0:0:0:0:
159,283,245433,1,0,0:0:0:0:
71,285,245541,1,0,0:0:0:0:
37,206,245650,6,0,P|133:198|201:137,1,138
208,94,245976,1,0,0:0:0:0:
276,34,246085,2,0,P|381:35|445:61,1,138,8|0,0:0|0:0,0:0:0:0:
457,126,246411,1,0,0:0:0:0:
399,203,246520,2,0,B|332:197|332:197|238:220,1,138,8|0,0:0|0:0,0:0:0:0:
188,277,246846,2,0,P|146:211|182:144,1,138,8|0,0:0|0:0,0:0:0:0:
220,89,247172,1,8,0:0:0:0:
313,62,247280,1,0,0:0:0:0:
390,115,247389,6,0,B|413:182|413:182|472:239,1,138
439,322,247715,1,0,0:0:0:0:
350,322,247824,2,0,B|281:290|281:290|191:303,1,138,8|0,0:0|0:0,0:0:0:0:
137,340,248150,1,0,0:0:0:0:
72,262,248259,2,0,P|125:246|148:216,1,69
179,80,248476,2,0,P|124:95|110:111,1,69
256,213,248693,2,0,B|290:234|290:234|350:240,1,69,8|0,0:0|0:0,0:0:0:0:
434,63,248911,2,0,B|394:55|394:55|354:69,1,69
366,338,249128,6,0,P|454:308|481:221,1,138
327,138,249563,1,8,0:0:0:0:
115,159,249780,2,0,P|104:250|138:303,2,138
126,127,250324,1,0,0:0:0:0:
136,97,250433,2,0,L|156:49,2,46,8|0|0,0:0|0:0|0:0,0:0:0:0:
182,74,250650,2,0,L|223:39,2,46
240,66,250867,5,0,0:0:0:0:
240,66,251313,2,0,P|333:107|429:46,1,207
419,60,251746,2,0,B|446:129|446:129|412:184|412:184|439:262,1,207
434,249,252181,2,0,P|332:227|236:288,1,207
206,380,252617,5,4,0:0:0:0:
83,275,252833,1,0,0:0:0:0:
83,275,252942,2,0,B|55:228|55:228|82:137,1,138
107,70,253268,1,0,0:0:0:0:
218,29,253485,2,0,P|276:81|345:74,1,138,8|0,0:0|0:0,0:0:0:0:
427,42,253811,2,0,P|411:120|441:188,1,138
472,242,254137,1,0,0:0:0:0:
397,334,254355,6,0,B|330:311|330:311|246:326,1,138
135,214,254681,2,0,B|196:252|196:252|286:237,1,138
322,170,255007,1,0,0:0:0:0:
245,65,255224,2,0,B|180:44|180:44|35:66,2,207,8|0|0,0:0|0:0|0:0,0:0:0:0:
241,199,256094,6,0,P|332:171|361:110,1,138
414,41,256420,2,0,B|458:86|458:86|474:197,1,138
440,241,256746,1,0,0:0:0:0:
361,272,256855,1,0,0:0:0:0:
326,351,256963,1,8,0:0:0:0:
326,351,257072,2,0,L|162:334,1,138
132,265,257398,1,0,0:0:0:0:
132,265,257507,2,0,B|204:257|204:257|244:188,1,138
267,98,257833,6,0,P|240:18|169:82,2,207
371,177,258702,2,0,P|409:267|461:181,2,207,8|0|0,0:0|0:0|0:0,0:0:0:0:
403,31,259572,6,0,B|328:15|328:15|234:43,1,138
166,56,259898,2,0,B|139:126|139:126|156:213,1,138
149,287,260224,1,0,0:0:0:0:
213,357,260333,1,0,0:0:0:0:
308,347,260442,1,8,0:0:0:0:
308,347,260550,2,0,B|326:280|314:229|286:206,1,138
249,137,260876,1,0,0:0:0:0:
249,137,260985,2,0,P|241:52|277:-1,1,138
393,103,261311,6,0,P|400:186|317:282,1,207
158,324,261963,1,0,0:0:0:0:
158,324,262181,2,0,B|83:283|83:283|39:153,1,207,8|0,0:0|0:0,0:0:0:0:
186,11,262833,1,0,0:0:0:0:
186,11,263050,6,0,B|259:33|259:33|292:31|292:31|312:57|312:57|386:51,1,207
465,30,263485,2,0,B|472:81|431:123|431:123|429:181,1,138
357,191,263811,1,0,0:0:0:0:
394,263,263920,1,8,0:0:0:0:
394,263,264029,2,0,P|326:255|265:306,1,138
210,355,264355,1,0,0:0:0:0:
210,355,264463,2,0,P|133:353|77:293,1,138
57,229,264789,5,0,0:0:0:0:
202,155,265007,1,0,0:0:0:0:
202,155,265115,1,0,0:0:0:0:
75,71,265333,1,0,0:0:0:0:
75,71,265442,1,0,0:0:0:0:
182,280,265635,6,8,L|265:291,1,69
441,85,265961,2,8,L|358:71,1,69
415,338,266287,2,8,L|497:322,2,69
256,192,266613,12,0,273461,0:0:0:0:
