osu file format v14

[General]
AudioFilename: audio2.mp3
AudioLeadIn: 0
PreviewTime: -1
Countdown: 1
SampleSet: Soft
StackLeniency: 0.7
Mode: 0
LetterboxInBreaks: 0
WidescreenStoryboard: 0

[Editor]
DistanceSpacing: 1
BeatDivisor: 12
GridSize: 8
TimelineZoom: 2.1

[Metadata]
Title:When a Horse Get a Screaming Chicken
TitleUnicode:当一匹疯马得到一只尖叫鸡
Artist:Himoda
ArtistUnicode:Himoda黑猫大
Creator:lkx_Shore
Version:Easy
Source:Bilibili
Tags:av7972630
BeatmapID:1387289
BeatmapSetID:654484

[Difficulty]
HPDrainRate:5
CircleSize:4
OverallDifficulty:7
ApproachRate:8
SliderMultiplier:1.92
SliderTickRate:1

[Events]
//Background and Video events
0,0,"20170815145911.jpg",0,0
Video,0,"213854.avi"
//Break Periods
//Storyboard Layer 0 (Background)
//Storyboard Layer 1 (Fail)
//Storyboard Layer 2 (Pass)
//Storyboard Layer 3 (Foreground)
//Storyboard Sound Samples

[TimingPoints]
269,400,4,2,0,60,1,0
1269,-100,4,2,0,5,0,0
1319,-66.6666666666667,4,2,0,60,0,0
1969,-133.333333333333,4,2,0,60,0,0
2419,-66.6666666666667,4,2,0,60,0,0
3669,-66.6666666666667,4,2,0,20,0,0
7619,-200,4,2,0,30,0,0
8919,-66.6666666666667,4,2,0,30,0,0
9869,-66.6666666666667,4,2,0,5,0,0
9919,-66.6666666666667,4,2,0,30,0,0
11169,-133.333333333333,4,2,0,30,0,0
11269,-133.333333333333,4,2,0,5,0,0
11469,400,4,2,0,60,1,0
13869,-200,4,2,0,60,0,0
14169,-200,4,2,0,5,0,0
14269,-66.6666666666667,4,2,0,60,0,0
17869,-100,4,2,0,60,0,0
20470,-66.6666666666667,4,2,0,5,0,0
21069,-100,4,2,0,60,0,0
22669,800,4,2,0,5,1,0
22669,-200,4,2,0,5,0,0
22869,-200,4,2,0,5,0,0
22919,-200,4,2,0,5,0,0
24269,400,4,2,0,60,1,0
25069,-200,4,2,0,60,0,0
25869,-100,4,2,0,60,0,0
26969,-100,4,2,0,20,0,0
27469,-100,4,2,0,60,0,0
31769,-100,4,2,0,5,0,0
31819,400,4,2,0,60,1,0
31819,-200,4,2,0,60,0,0
32219,400,4,2,0,60,1,0
33419,-66.6666666666667,4,2,0,60,0,0
33819,-100,4,2,0,60,0,0
37219,-100,4,2,0,20,0,0
38569,461.538461538462,4,2,0,60,1,0
38569,-133.333333333333,4,2,0,60,0,0
39346,461.538461538462,4,2,0,60,1,0
39346,-100,4,2,0,60,0,0
40269,-66.6666666666667,4,2,0,60,0,0
40499,-100,4,2,0,60,0,0
50580,461.538461538462,4,2,0,60,1,0
53769,200,4,2,0,60,1,0
53769,-66.6666666666667,4,2,0,60,0,0
53819,-66.6666666666667,4,2,0,5,0,0

[HitObjects]
64,328,269,6,0,P|112:336|176:320,1,96
232,272,669,1,0,0:0:0:0:
232,272,869,1,0,0:0:0:0:
376,272,1019,1,0,0:0:0:0:
376,272,1169,2,0,L|368:336,1,48
344,344,1319,6,0,B|312:288|312:288|424:304|424:304|368:200|368:200,1,288.000010986329
448,88,1969,6,0,P|424:104|384:112,1,54.0000020599366
400,112,2419,6,0,B|336:96|262:108|262:108|248:112|248:128|248:128|256:144|271:138|271:138|277:128|280:120|280:120|272:112|221:99|176:104,1,288.000010986329
128,144,2919,2,0,P|120:112|128:64,1,72.0000027465821
224,280,3169,2,0,B|232:248|225:216|225:216|176:264|216:368,1,216.000008239746
336,336,3669,1,0,0:0:0:0:
336,336,3719,6,0,L|384:352,1,36.0000013732911
400,328,6219,5,0,0:0:0:0:
416,312,7619,6,0,P|424:288|416:200,1,114
96,320,8919,6,0,B|112:264|112:264|152:312|152:312|168:256|168:256|208:304|208:304|240:304|256:272,1,288.000010986329
272,136,9419,2,0,P|240:200|240:224,1,72.0000027465821
352,328,9669,2,0,B|376:304|384:272|384:272|397:298|397:298|399:329|376:368,1,162.00000617981
379,362,9919,6,0,B|358:338|344:304|328:264|328:264|344:304|344:304|328:264|328:264|336:200|376:184,1,288.000010986329
464,72,10519,2,0,B|424:80|424:80|464:72|464:72|424:80|424:80|384:80|352:72|352:72|296:32,1,252.000009613037
176,72,11169,6,0,L|160:176,1,90.0000034332277
144,264,11469,5,2,1:2:0:0:
144,264,11669,1,2,0:0:0:0:
368,264,11869,1,10,0:2:0:0:
368,264,12069,1,2,0:0:0:0:
192,184,12269,2,0,P|136:176|88:192,1,96,0|2,1:0|0:0,0:0:0:0:
328,344,12669,2,0,P|384:352|432:336,1,96,8|2,0:0|0:0,0:0:0:0:
421,341,13069,6,0,P|392:352|368:352,1,48,2|0,1:2|0:0,0:0:0:0:
98,186,13269,1,2,0:0:0:0:
375,352,13469,6,0,P|399:350|421:341,1,48,8|0,0:0|0:0,0:0:0:0:
368,264,13669,1,2,0:0:0:0:
424,344,13869,6,0,P|376:352|336:344,1,72,0|0,0:0|0:2,0:0:0:0:
272,304,14269,6,0,B|272:232|272:232|232:168|232:168|272:232|272:232|272:304,1,288.000010986329,4|0,1:2|1:0,0:0:0:0:
152,272,14869,1,2,0:2:0:0:
368,184,15069,1,8,0:2:0:0:
176,80,15269,1,2,0:0:0:0:
344,352,15469,1,0,1:0:0:0:
176,80,15669,1,0,1:0:0:0:
344,352,15869,1,8,1:0:0:0:
112,256,16069,2,0,P|150:244|184:248,1,72.0000027465821,2|0,0:0|0:0,0:0:0:0:
248,288,16269,5,0,1:0:0:0:
272,280,16369,1,0,0:0:0:0:
296,232,16469,5,2,0:0:0:0:
456,208,16669,1,8,0:0:0:0:
432,200,16769,1,0,0:0:0:0:
408,152,16869,5,2,0:0:0:0:
240,56,17069,1,0,1:0:0:0:
216,104,17169,1,0,0:0:0:0:
192,112,17269,5,2,0:0:0:0:
376,280,17469,5,8,0:0:0:0:
400,328,17569,1,0,0:0:0:0:
424,336,17669,5,2,0:0:0:0:
424,336,17869,2,0,L|440:232,1,96,0|2,1:0|0:0,0:0:0:0:
192,112,18269,2,0,L|176:216,1,96,8|2,0:0|0:0,0:0:0:0:
177,206,18669,2,0,L|192:112,1,96,0|2,1:0|0:0,0:0:0:0:
438,241,19069,2,0,L|424:336,1,96,8|2,0:0|0:0,0:0:0:0:
424,336,19469,6,0,L|432:272,1,48,0|0,1:0|0:0,0:0:0:0:
192,112,19669,2,0,L|176:216,1,96,2|8,0:0|0:0,0:0:0:0:
424,336,20069,2,0,L|440:232,1,96,2|0,0:0|1:0,0:0:0:0:
438,241,20502,2,0,B|406:201|406:201|382:241|438:377|526:305|510:209|469:179,1,312.000011901856
480,104,21069,6,0,L|384:88,1,96,2|2,1:2|0:0,0:0:0:0:
256,64,21469,1,8,1:0:0:0:
256,64,21569,1,0,0:0:0:0:
256,64,21669,2,0,P|229:102|224:160,1,96,2|0,0:0|1:0,0:0:0:0:
328,288,22069,1,2,0:0:0:0:
440,144,22269,1,8,0:0:0:0:
120,304,22469,1,2,0:0:0:0:
440,144,22669,6,0,B|444:144|444:144|444:144|444:144|444:144|444:144|444:144|444:144|444:144|444:144|444:144|444:144|440:144|440:144|440:144|440:144|440:144|440:144|440:144|440:144|440:144|440:144|440:144|440:144|440:144|440:144|440:144|440:144,1,6
376,244,22819,2,0,B|380:244|380:244|380:244|380:244|380:244|380:244|380:244|380:244|380:244|380:244|380:244|380:244|376:244|376:244|376:244|376:244|376:244|376:244|376:244|376:244|376:244|376:244|376:244|376:244|376:244|376:244|376:244|376:244,1,6
400,260,22919,2,0,B|404:260|404:260|404:260|404:260|404:260|404:260|404:260|404:260|404:260|404:260|404:260|404:260|404:260|404:260|404:260|404:260|404:260|404:260|404:260|404:260|404:260|404:260|404:260|404:260|404:260|404:260|404:260|404:260|404:260|404:260|404:260|404:260|404:260|404:260|404:260|404:260|400:248|404:268|400:260|400:260|400:260|400:260|400:260|400:260|400:260|400:260|400:260|400:260|400:260|400:260|400:260|400:260|400:260|400:260|400:260|400:260|400:260|400:260|400:260|400:260|400:260|400:260|400:260|400:260|400:260|400:260|400:260|400:260|400:260|400:260|400:260|400:260|400:260|400:260|400:260|400:260|400:260|400:260,1,12
312,124,23119,2,0,B|316:124|316:124|316:124|316:124|316:124|316:124|316:124|316:124|316:124|316:124|316:124|316:124|312:124|312:124|312:124|312:124|312:124|312:124|312:124|312:124|312:124|312:124|312:124|312:124|312:124|312:124|312:124|312:124,1,6
292,152,23219,2,0,B|296:152|296:152|296:152|296:152|296:152|296:152|296:152|296:152|296:152|296:152|296:152|296:152|292:152|292:152|292:152|292:152|292:152|292:152|292:152|292:152|292:152|292:152|292:152|292:152|292:152|292:152|292:152|292:152,1,6
236,268,23469,2,0,B|240:268|240:268|240:268|240:268|240:268|240:268|240:268|240:268|240:268|240:268|240:268|240:268|236:268|236:268|236:268|236:268|236:268|236:268|236:268|236:268|236:268|236:268|236:268|236:268|236:268|236:268|236:268|236:268,1,6
256,300,23569,2,0,B|260:300|260:300|260:300|260:300|260:300|260:300|260:300|260:300|260:300|260:300|260:300|260:300|256:300|256:300|256:300|256:300|256:300|256:300|256:300|256:300|256:300|256:300|256:300|256:300|256:300|256:300|256:300|256:300,1,6
276,332,23669,2,0,B|280:332|280:332|280:332|280:332|280:332|280:332|280:332|280:332|280:332|280:332|280:332|280:332|280:332|280:332|280:332|280:332|280:332|280:332|280:332|280:332|280:332|280:332|280:332|280:332|280:332|280:332|280:332|280:332|280:332|280:332|280:332|280:332|280:332|280:332|280:332|280:332|276:320|280:340|276:332|276:332|276:332|276:332|276:332|276:332|276:332|276:332|276:332|276:332|276:332|276:332|276:332|276:332|276:332|276:332|276:332|276:332|276:332|276:332|276:332|276:332|276:332|276:332|276:332|276:332|276:332|276:332|276:332|276:332|276:332|276:332|276:332|276:332|276:332|276:332|276:332|276:332|276:332|276:332,1,12
92,160,23869,2,0,B|96:160|96:160|96:160|96:160|96:160|96:160|96:160|96:160|96:160|96:160|96:160|96:160|92:160|92:160|92:160|92:160|92:160|92:160|92:160|92:160|92:160|92:160|92:160|92:160|92:160|92:160|92:160|92:160,1,6
108,120,23969,2,0,B|112:120|112:120|112:120|112:120|112:120|112:120|112:120|112:120|112:120|112:120|112:120|112:120|108:120|108:120|108:120|108:120|108:120|108:120|108:120|108:120|108:120|108:120|108:120|108:120|108:120|108:120|108:120|108:120,1,6
104,80,24069,2,0,B|108:80|108:80|108:80|108:80|108:80|108:80|108:80|108:80|108:80|108:80|108:80|108:80|104:80|104:80|104:80|104:80|104:80|104:80|104:80|104:80|104:80|104:80|104:80|104:80|104:80|104:80|104:80|104:80,1,6
80,44,24169,6,0,B|84:44|84:44|84:44|84:44|84:44|84:44|84:44|84:44|84:44|84:44|84:44|84:44|84:44|84:44|84:44|84:44|84:44|84:44|84:44|84:44|84:44|84:44|84:44|84:44|84:44|84:44|84:44|84:44|84:44|84:44|84:44|84:44|84:44|84:44|84:44|84:44|80:32|84:52|80:44|80:44|80:44|80:44|80:44|80:44|80:44|80:44|80:44|80:44|80:44|80:44|80:44|80:44|80:44|80:44|80:44|80:44|80:44|80:44|80:44|80:44|80:44|80:44|80:44|80:44|80:44|80:44|80:44|80:44|80:44|80:44|80:44|80:44|80:44|80:44|80:44|80:44|80:44|80:44,1,12
16,112,24469,1,2,0:0:0:0:
96,160,24669,1,8,0:0:0:0:
168,88,24869,2,0,P|174:64|168:32,1,48
40,248,25069,6,0,P|33:271|40:304,1,48,0|2,1:0|0:0,0:0:0:0:
112,332,25469,1,8,0:0:0:0:
180,276,25669,1,2,0:0:0:0:
180,276,25869,6,0,P|208:268|244:268,1,48,0|0,1:1|0:0,0:0:0:0:
226,266,26069,1,2,0:0:0:0:
180,276,26269,1,8,0:0:0:0:
244,344,26469,1,2,0:0:0:0:
340,344,26669,1,0,1:0:0:0:
448,256,26969,6,0,B|471:262|471:262|448:256|448:256|454:232|454:232|448:256|448:256|424:249|424:249|448:256|448:256|441:279|441:279|448:256|448:256|448:256|448:256|448:256|448:256,1,192
448,256,27469,5,0,1:2:0:0:
478,164,27669,1,2,0:0:0:0:
448,256,27869,1,8,0:1:0:0:
448,256,28069,2,0,L|480:160,1,96,2|0,0:0|1:0,0:0:0:0:
448,256,28469,1,0,1:0:0:0:
488,160,28669,2,0,L|458:252,1,96,8|2,0:0|0:0,0:0:0:0:
336,288,29069,6,0,L|344:264,1,24,0|0,1:0|0:0,0:0:0:0:
304,112,29269,2,0,L|296:136,1,24,2|0,0:0|0:0,0:0:0:0:
336,288,29469,2,0,L|344:264,1,24,8|0,0:0|0:0,0:0:0:0:
336,288,29669,2,0,L|344:264,1,24,2|0,0:0|0:0,0:0:0:0:
304,112,29869,2,0,L|296:136,1,24,0|0,1:0|0:0,0:0:0:0:
304,112,30269,2,0,L|296:136,1,24,8|0,0:0|0:0,0:0:0:0:
336,288,30669,6,0,P|264:312|104:200,1,288,0|2,1:0|0:0,0:0:0:0:
248,312,30869,1,2,0:0:0:0:
160,280,31069,1,8,0:0:0:0:
104,200,31469,2,0,P|168:176|176:248,1,144,0|0,1:0|0:0,0:0:0:0:
160,280,31819,6,0,B|160:304|160:304|160:280|160:280|160:320,1,84,2|0,0:0|0:0,0:0:0:0:
160,360,32219,6,0,B|248:320|248:320|440:360,1,288,0|2,1:0|0:0,0:0:0:0:
248,320,32419,1,2,0:0:0:0:
344,340,32619,1,8,0:0:0:0:
435,359,33019,2,0,P|488:296|416:272,1,168,0|0,1:0|0:0,0:0:0:0:
416,256,33419,6,0,P|504:312|432:376,1,216.000008239746,8|0,0:0|0:0,0:0:0:0:
352,328,33819,5,0,1:0:0:0:
272,272,34019,1,2,0:0:0:0:
176,256,34219,1,8,0:0:0:0:
80,280,34419,1,2,0:0:0:0:
80,280,34619,2,0,P|104:272|128:264,1,48,0|0,1:0|0:0,0:0:0:0:
176,256,34819,1,2,0:0:0:0:
272,272,35019,1,8,0:0:0:0:
80,280,35219,1,0,0:0:0:0:
80,280,35419,6,0,B|96:192|96:192|176:256,2,192,0|0|0,1:0|1:0|1:0,0:0:0:0:
80,280,36219,1,0,1:0:0:0:
152,344,36419,1,2,0:0:0:0:
152,344,36519,1,0,0:0:0:0:
152,344,36619,1,8,0:0:0:0:
456,248,37269,6,0,B|440:304|440:304|424:264|424:264|403:293|403:293|384:247|336:248|336:248|384:256|384:256|336:248|336:248|296:248|296:248|336:248|336:248|296:248|296:248|272:256|272:256|257:270|257:270|272:256|272:256,1,504
360,336,38569,6,0,B|392:272|368:208|368:208|392:272|392:272|392:272,1,198.000007553101
472,312,39346,6,0,L|488:264,1,48,4|0,1:2|0:0,0:0:0:0:
456,176,39576,2,0,L|456:128,1,48,2|0,0:0|0:0,0:0:0:0:
392,56,39807,1,10,0:0:0:0:
312,104,39922,1,2,0:0:0:0:
216,96,40038,1,0,0:0:0:0:
136,40,40153,1,0,0:0:0:0:
136,40,40269,2,0,B|88:48|88:48|128:64,1,72.0000027465821,2|2,0:0|0:0,0:0:0:0:
208,200,40499,2,0,B|264:192|264:192|216:176,1,96,2|2,0:0|0:0,0:0:0:0:
136,152,40846,1,0,0:0:0:0:
80,232,40961,1,2,0:0:0:0:
104,320,41076,1,0,0:0:0:0:
192,360,41192,6,0,L|320:344,1,96,4|0,0:2|0:0,0:0:0:0:
464,368,41538,2,0,L|368:379,1,96,2|0,0:2|0:0,0:0:0:0:
287,348,41884,1,0,0:0:0:0:
264,256,41999,1,2,0:0:0:0:
320,184,42115,2,0,P|358:217|376:264,1,96,2|0,0:0|0:0,0:0:0:0:
176,208,42461,2,0,P|172:157|192:111,1,96
264,256,42807,1,0,0:0:0:0:
200,328,42922,1,0,0:0:0:0:
104,320,43038,6,0,L|64:280,1,48,4|0,1:2|0:0,0:0:0:0:
312,328,43269,2,0,L|352:288,1,48,2|0,0:0|0:0,0:0:0:0:
96,336,43499,1,2,0:0:0:0:
8,296,43615,1,0,0:0:0:0:
24,200,43730,1,2,0:0:0:0:
120,176,43846,1,0,0:0:0:0:
168,264,43961,2,0,L|160:320,1,48,2|2,0:0|0:0,0:0:0:0:
376,240,44192,2,0,L|384:296,1,48,2|2,0:0|0:0,0:0:0:0:
152,248,44422,2,0,L|144:304,1,48,2|0,0:0|0:0,0:0:0:0:
400,224,44653,2,0,L|408:280,1,48,2|0,0:0|0:0,0:0:0:0:
288,352,44884,6,0,L|272:232,1,96,4|2,1:2|0:0,0:0:0:0:
312,64,45230,1,2,0:0:0:0:
312,64,45346,1,0,0:0:0:0:
400,104,45461,1,0,0:0:0:0:
312,64,45576,2,0,L|328:184,1,96,2|0,1:2|0:0,0:0:0:0:
456,320,45922,1,0,0:0:0:0:
456,320,46038,1,2,0:0:0:0:
368,360,46153,1,0,0:0:0:0:
272,344,46269,2,0,L|168:352,1,96,0|2,0:0|0:0,0:0:0:0:
176,351,46615,1,0,0:0:0:0:
88,376,46730,6,0,P|56:344|48:296,1,96
56,344,46846,2,0,P|80:288|72:248,1,96
48,295,46961,2,0,P|80:248|88:200,1,96
74,254,47076,2,0,P|48:216|48:160,1,96
48,216,47192,2,0,P|80:152|80:120,1,96
72,176,47307,2,0,P|48:120|56:88,1,96
80,128,47422,2,0,P|88:80|72:32,1,96
88,80,47538,2,0,P|48:40|48:0,1,96
48,48,47653,2,0,L|144:32,1,96
96,40,47769,2,0,L|192:80,1,96
144,60,47884,2,0,L|236:36,1,96
192,48,47999,2,0,B|240:36|240:36|276:152|204:212,1,240
236,35,48115,1,0,0:0:0:0:
252,80,48230,1,0,0:0:0:0:
248,132,48346,1,0,0:0:0:0:
236,172,48461,1,0,0:0:0:0:
205,212,48576,6,0,P|164:248|152:312,1,96
168,240,48692,1,0,0:0:0:0:
151,285,48807,2,0,L|212:372,1,96
180,328,48922,1,0,0:0:0:0:
212,372,49038,2,0,L|304:344,1,96
260,360,49153,1,0,0:0:0:0:
303,344,49269,2,0,P|356:340|408:356,1,96
352,340,49384,1,0,0:0:0:0:
397,351,49499,2,0,P|448:328|472:292,1,96
444,332,49615,1,0,0:0:0:0:
470,295,49730,2,0,P|456:236|464:196,1,96
456,248,49846,1,0,0:0:0:0:
461,202,49961,1,0,0:0:0:0:
488,164,50076,1,0,0:0:0:0:
488,164,50192,1,0,0:0:0:0:
500,116,50307,2,0,P|452:132|372:112,1,96
407,128,50580,6,0,L|392:80,1,48
340,216,50810,2,0,L|354:261,1,48
354,261,51041,1,0,0:0:0:0:
408,128,51156,2,0,P|344:104|284:108,1,96
272,120,51503,2,0,L|216:100,1,48
216,100,51618,2,0,L|192:156,1,48
192,156,51733,2,0,L|248:176,1,48
248,176,51849,2,0,L|268:128,1,48
272,120,51964,1,0,0:0:0:0:
300,108,52041,1,0,0:0:0:0:
332,108,52118,1,0,0:0:0:0:
364,112,52195,6,0,L|336:204,1,96,0|4,0:0|2:2,0:0:0:0:
404,272,52541,1,0,0:0:0:0:
500,272,52656,1,0,0:0:0:0:
404,272,52772,1,0,0:0:0:0:
320,320,52887,2,0,L|216:296,1,96,2|0,0:0|0:0,0:0:0:0:
192,288,53195,1,0,0:0:0:0:
160,288,53272,1,0,0:0:0:0:
128,304,53349,1,4,0:2:0:0:
128,304,53769,6,0,B|192:288|192:288|280:312,1,144.000005493164
