osu file format v14

[General]
AudioFilename: audio.mp3
AudioLeadIn: 0
PreviewTime: 107027
Countdown: 0
SampleSet: Soft
StackLeniency: 0.7
Mode: 0
LetterboxInBreaks: 0
WidescreenStoryboard: 0

[Editor]
Bookmarks: 25945,57162,68108,74999,82702
DistanceSpacing: 1.3
BeatDivisor: 4
GridSize: 4
TimelineZoom: 1.5

[Metadata]
Title:Heart Color
TitleUnicode:心彩
Artist:Himmel
ArtistUnicode:Himmel
Creator:Nightlys
Version:Ecstasy
Source:
Tags:
BeatmapID:1580352
BeatmapSetID:750468

[Difficulty]
HPDrainRate:6
CircleSize:5
OverallDifficulty:7
ApproachRate:9
SliderMultiplier:1.2
SliderTickRate:1

[Events]
//Background and Video events
0,0,"illust_67258809_20180213_223135.png",0,0
//Break Periods
//Storyboard Layer 0 (Background)
//Storyboard Layer 1 (Fail)
//Storyboard Layer 2 (Pass)
//Storyboard Layer 3 (Foreground)
//Storyboard Sound Samples

[TimingPoints]
0,405.405405405405,4,2,0,100,1,0
38918,-86.9565217391304,4,2,0,100,0,0
50270,-200,4,2,0,100,0,0
51891,-100,4,2,0,100,0,0

[Colours]
Combo1 : 255,167,79
Combo2 : 255,128,255
Combo3 : 255,98,176
Combo4 : 128,255,255

[HitObjects]
256,192,22702,12,0,25540,0:0:0:0:
120,112,25945,6,0,P|112:136|112:176,1,60,0|0,2:2|0:0,2:2:0:0:
170,197,26351,2,0,P|180:224|184:256,1,60,0|0,2:2|2:2,2:2:0:0:
256,152,26756,2,0,P|256:180|242:210,1,60,0|0,2:2|2:2,2:2:0:0:
306,67,27162,2,0,P|312:96|314:131,1,60,0|0,2:2|2:2,2:2:0:0:
192,280,27567,6,0,P|180:248|184:216,1,60,0|0,2:2|2:2,2:2:0:0:
242,195,27973,2,0,P|256:164|256:136,1,60,0|0,2:2|2:2,2:2:0:0:
328,240,28378,2,0,P|324:208|314:182,1,60,0|0,2:2|2:2,2:2:0:0:
378,325,28784,2,0,P|388:296|386:261,1,60,0|0,2:2|2:2,2:2:0:0:
436,224,29189,6,0,P|408:204|380:196,1,60,0|0,2:2|2:2,2:2:0:0:
368,120,29594,2,0,P|333:139|293:142,1,60,0|0,2:2|2:2,2:2:0:0:
300,80,29999,2,0,P|260:76|216:87,1,60,0|0,2:2|2:2,2:2:0:0:
212,16,30405,2,0,P|180:24|144:40,1,60,0|0,2:2|2:2,2:2:0:0:
299,15,30810,6,0,P|328:20|356:34,1,60,0|0,2:2|2:2,2:2:0:0:
212,79,31216,2,0,P|240:76|271:78,1,60,0|0,2:2|2:2,2:2:0:0:
143,119,31621,2,0,P|168:136|198:142,1,60,0|0,2:2|2:2,2:2:0:0:
76,180,32027,2,0,P|104:180|140:192,1,60,0|0,2:2|2:2,2:2:0:0:
72,252,32432,6,0,P|88:276|124:296,1,60
204,260,32837,1,0,0:0:0:0:
138,199,33040,1,0,0:0:0:0:
113,292,33242,2,0,P|128:320|168:344,1,60
208,372,33648,2,0,P|236:380|284:380,1,60
304,324,34054,5,0,0:0:0:0:
366,346,34256,1,0,0:0:0:0:
397,287,34459,1,0,0:0:0:0:
456,318,34662,1,0,0:0:0:0:
484,260,34864,2,0,P|484:220|472:188,1,60
412,200,35270,2,0,P|384:168|344:148,1,60
344,92,35675,5,0,0:0:0:0:
300,144,35878,2,0,P|288:176|248:208,1,60
228,136,36283,5,0,0:0:0:0:
180,188,36486,2,0,P|148:200|108:196,1,60
56,172,36891,2,0,P|41:201|32:248,1,60
126,299,37297,2,0,P|118:270|104:244,1,60
55,196,37702,2,0,P|43:227|48:276,1,60
96,300,38108,1,0,0:0:0:0:
164,284,38310,1,0,0:0:0:0:
192,352,38513,1,0,0:0:0:0:
260,328,38716,1,0,0:0:0:0:
232,260,38918,6,0,P|212:228|200:192,1,69.0000013160706
252,136,39324,2,0,P|268:168|274:200,1,69.0000013160706
307,264,39729,2,0,P|330:237|340:205,1,69.0000013160706
403,231,40135,2,0,P|420:202|424:168,1,69.0000013160706
384,112,40540,1,0,0:0:0:0:
376,44,40743,1,0,0:0:0:0:
320,84,40945,1,0,0:0:0:0:
264,44,41148,5,0,0:0:0:0:
202,14,41351,1,0,0:0:0:0:
206,83,41553,1,0,0:0:0:0:
140,60,41756,5,0,0:0:0:0:
116,124,41959,1,0,0:0:0:0:
136,188,42162,6,0,P|117:219|86:253,1,69.0000013160706
16,248,42567,2,0,P|32:276|72:308,1,69.0000013160706
32,360,42972,2,0,P|63:371|97:376,1,69.0000013160706
184,280,43378,2,0,P|153:295|126:316,1,69.0000013160706
120,240,43783,1,0,0:0:0:0:
192,208,43985,1,0,0:0:0:0:
248,248,44188,5,0,0:0:0:0:
310,278,44391,1,0,0:0:0:0:
306,209,44593,1,0,0:0:0:0:
372,232,44796,5,0,0:0:0:0:
396,168,44999,1,0,0:0:0:0:
329,147,45202,1,0,0:0:0:0:
136,48,45405,6,0,P|200:20|224:24,1,69.0000013160706
196,88,45810,1,0,0:0:0:0:
260,124,46013,1,0,0:0:0:0:
216,192,46216,1,0,0:0:0:0:
148,152,46418,1,0,0:0:0:0:
148,224,46621,6,0,P|120:244|68:256,1,69.0000013160706
110,83,47027,6,0,P|143:91|171:112,1,69.0000013160706
112,151,47432,1,0,0:0:0:0:
168,196,47635,1,0,0:0:0:0:
124,251,47837,1,0,0:0:0:0:
72,203,48040,1,0,0:0:0:0:
28,255,48243,1,0,0:0:0:0:
80,303,48445,1,0,0:0:0:0:
196,348,48648,6,0,P|184:312|180:268,1,69.0000013160706
248,296,49054,1,0,0:0:0:0:
304,268,49256,1,0,0:0:0:0:
308,336,49459,1,0,0:0:0:0:
248,288,49662,1,0,0:0:0:0:
312,264,49864,1,0,0:0:0:0:
300,336,50067,1,0,0:0:0:0:
244,276,50270,6,0,P|236:212|240:124,1,150
280,72,51486,1,8,0:0:0:0:
328,120,51689,1,0,0:0:0:0:
340,212,51891,6,0,L|332:224,1,15
304,296,52094,1,0,0:0:0:0:
388,280,52297,1,0,0:0:0:0:
344,216,52499,6,0,L|339:237,1,15
312,292,52702,1,0,0:0:0:0:
388,280,52905,1,0,0:0:0:0:
416,208,53108,1,0,0:0:0:0:
344,184,53310,1,0,0:0:0:0:
292,124,53513,6,0,L|284:136,1,15
256,208,53716,1,0,0:0:0:0:
340,192,53919,1,0,0:0:0:0:
296,128,54121,6,0,L|291:149,1,15
264,204,54324,1,0,0:0:0:0:
340,192,54527,1,0,0:0:0:0:
372,120,54729,2,0,P|368:88|356:56,1,60
280,60,55135,5,0,0:0:0:0:
212,88,55337,1,0,0:0:0:0:
228,164,55540,1,0,0:0:0:0:
304,136,55743,2,0,L|328:128,1,15
392,104,55945,1,0,0:0:0:0:
428,176,56148,1,0,0:0:0:0:
360,208,56351,1,0,0:0:0:0:
288,240,56554,2,0,L|272:248,1,15
214,289,56756,6,0,P|192:268|176:244,1,60
120,283,57162,2,0,P|136:308|158:329,1,60
52,248,57567,1,0,0:0:0:0:
72,172,57769,1,0,0:0:0:0:
140,152,57972,1,0,0:0:0:0:
200,196,58175,1,0,0:0:0:0:
128,232,58378,6,0,L|124:216,1,15
100,148,58581,1,0,0:0:0:0:
80,76,58783,1,0,0:0:0:0:
152,100,58986,2,0,L|136:120,1,15
88,148,59189,1,0,0:0:0:0:
76,72,59391,1,0,0:0:0:0:
152,100,59594,1,0,0:0:0:0:
92,144,59796,1,0,0:0:0:0:
152,212,59999,6,0,L|144:224,1,15
116,296,60202,1,0,0:0:0:0:
200,280,60405,1,0,0:0:0:0:
152,224,60607,6,0,L|147:245,1,15
120,300,60810,1,0,0:0:0:0:
196,288,61013,1,0,0:0:0:0:
228,218,61216,1,0,0:0:0:0:
200,154,61418,1,0,0:0:0:0:
128,148,61621,6,0,L|107:162,1,15
52,176,61824,1,0,0:0:0:0:
104,220,62026,1,0,0:0:0:0:
176,192,62229,2,0,L|192:216,1,15
216,268,62432,1,0,0:0:0:0:
148,296,62635,1,0,0:0:0:0:
204,344,62837,2,0,L|224:332,1,15
276,308,63040,1,0,0:0:0:0:
320,244,63243,6,0,P|320:216|304:176,1,60
244,160,63648,2,0,P|238:197|247:231,1,60
296,120,64054,1,0,0:0:0:0:
248,44,64256,1,0,0:0:0:0:
172,60,64459,5,0,0:0:0:0:
163,144,64662,1,0,0:0:0:0:
24,80,64864,6,0,L|24:94,1,15
68,148,65067,1,0,0:0:0:0:
27,205,65270,1,0,0:0:0:0:
78,262,65472,2,0,L|79:280,1,15
52,343,65675,1,0,0:0:0:0:
122,368,65878,1,0,0:0:0:0:
182,323,66081,1,0,0:0:0:0:
250,357,66283,1,0,0:0:0:0:
228,256,66486,6,0,L|232:238,1,15
276,190,66689,1,0,0:0:0:0:
216,150,66891,1,0,0:0:0:0:
264,102,67094,1,0,0:0:0:0:
264,102,67195,1,0,0:0:0:0:
188,28,67499,1,0,0:0:0:0:
136,88,67702,2,0,P|100:96|64:112,1,60
44,164,68108,6,0,P|72:188|112:204,1,60
160,192,68513,1,0,0:0:0:0:
188,264,68716,1,0,0:0:0:0:
188,264,68817,1,0,0:0:0:0:
304,232,69121,1,0,0:0:0:0:
296,312,69324,1,0,0:0:0:0:
480,256,69527,5,0,0:0:0:0:
424,184,69729,5,0,0:0:0:0:
384,116,69932,1,0,0:0:0:0:
312,84,70135,1,0,0:0:0:0:
316,204,70337,5,0,0:0:0:0:
268,140,70540,1,0,0:0:0:0:
192,112,70743,1,0,0:0:0:0:
228,216,70945,5,0,0:0:0:0:
156,184,71148,1,0,0:0:0:0:
76,172,71351,6,0,L|60:172,1,15
80,248,71554,1,0,0:0:0:0:
136,304,71756,1,0,0:0:0:0:
160,240,71959,2,0,L|163:226,1,15
188,160,72162,1,0,0:0:0:0:
232,224,72364,1,0,0:0:0:0:
248,296,72567,1,0,0:0:0:0:
300,240,72770,1,0,0:0:0:0:
344,292,72972,6,0,L|359:310,1,15
404,360,73175,1,0,0:0:0:0:
436,288,73378,1,0,0:0:0:0:
384,232,73581,1,0,0:0:0:0:
384,232,73682,1,0,0:0:0:0:
328,132,73986,1,0,0:0:0:0:
260,172,74189,1,0,0:0:0:0:
228,240,74391,1,0,0:0:0:0:
276,328,74594,6,0,L|210:340,1,60
148,344,74999,1,0,0:0:0:0:
68,344,75202,1,0,0:0:0:0:
250,242,75405,6,0,L|195:280,1,60
140,310,75810,1,0,0:0:0:0:
68,344,76013,1,0,0:0:0:0:
190,175,76216,6,0,L|156:233,1,60
119,283,76621,1,0,0:0:0:0:
68,344,76824,1,0,0:0:0:0:
44,232,77027,6,0,L|40:192,1,30
96,152,77229,2,0,L|100:120,1,30
56,60,77432,1,0,0:0:0:0:
56,60,77635,1,0,0:0:0:0:
208,72,77837,6,0,L|248:88,1,30
304,108,78040,1,0,0:0:0:0:
240,152,78243,2,0,L|164:144,1,60
124,92,78648,1,0,0:0:0:0:
112,164,78851,1,0,0:0:0:0:
128,93,79054,1,0,0:0:0:0:
107,162,79257,1,0,0:0:0:0:
184,216,79459,6,0,L|200:255,1,30
220,320,79662,1,0,0:0:0:0:
154,343,79865,2,0,P|124:324|80:316,1,60
40,276,80270,1,0,0:0:0:0:
27,347,80473,1,0,0:0:0:0:
43,277,80676,1,0,0:0:0:0:
21,345,80879,1,0,0:0:0:0:
96,192,81081,6,0,L|84:164,1,30
60,88,81284,1,0,0:0:0:0:
136,112,81486,2,0,P|152:132|188:156,1,60
252,184,81891,1,0,0:0:0:0:
239,113,82094,1,0,0:0:0:0:
255,183,82297,1,0,0:0:0:0:
233,115,82500,1,0,0:0:0:0:
264,20,82702,6,0,L|320:80,1,60
392,184,83108,2,0,L|344:116,1,60
344,0,83513,6,0,L|344:82,1,60
325,207,83919,2,0,L|336:124,1,60
