osu file format v14

[General]
AudioFilename: audio.mp3
AudioLeadIn: 0
PreviewTime: 255410
Countdown: 0
SampleSet: Normal
StackLeniency: 0.7
Mode: 1
LetterboxInBreaks: 0
WidescreenStoryboard: 0

[Editor]
Bookmarks: 98513,171846,221846,262513,280679,286013,291346
DistanceSpacing: 1.5
BeatDivisor: 4
GridSize: 4
TimelineZoom: 2.5

[Metadata]
Title:Atashi Kawaii Sengen!!! (nenpulse bootleg remix)
TitleUnicode:アタシ♡カワイイ♡宣言!!! (nenpulse bootleg remix)
Artist:Himesaka Noa (CV: Kito Akari)
ArtistUnicode:姫坂乃愛 (CV: 鬼頭明里)
Creator:Suisei
Version:Inner Oni
Source:私に天使が舞い降りた!
Tags:わたてん japanese anime electronic wataten an angel flew down to me watashi ni tenshi ga maiorita 天使のうたごえ no utagoe キャラクターソング character song Kitou
BeatmapID:2692813
BeatmapSetID:1298160

[Difficulty]
HPDrainRate:5
CircleSize:5
OverallDifficulty:6
ApproachRate:5
SliderMultiplier:1.4
SliderTickRate:1

[Events]
//Background and Video events
0,0,"noa69.jpg",0,80
//Break Periods
2,189860,199460
//Storyboard Layer 0 (Background)
//Storyboard Layer 1 (Fail)
//Storyboard Layer 2 (Pass)
//Storyboard Layer 3 (Foreground)
//Storyboard Layer 4 (Overlay)
//Storyboard Sound Samples

[TimingPoints]
661,333.333333333333,4,1,0,70,1,0
661,-125,4,1,0,70,0,0
11327,-111.111111111111,4,1,0,70,0,0
16660,-100,4,1,0,70,0,0
21494,-116.279069767442,4,1,0,70,0,0
21549,-117.647058823529,4,1,0,70,0,0
21605,-119.047619047619,4,1,0,70,0,0
21660,-120.481927710843,4,1,0,70,0,0
21994,-125,4,1,0,70,0,0
29994,-125,4,1,0,40,0,0
31410,-83.3333333333333,4,1,0,70,0,0
32660,-100,4,1,0,70,0,0
91410,-83.3333333333333,4,1,0,70,0,0
92660,-100,4,1,0,80,0,1
101827,-100,4,1,0,80,0,0
103327,-100,4,1,0,80,0,1
116660,-100,4,1,0,70,0,0
164744,-83.3333333333333,4,1,0,70,0,0
165994,-100,4,1,0,80,0,1
175160,-100,4,1,0,80,0,0
176660,-100,4,1,0,80,0,1
189994,-100,4,1,0,70,0,0
232660,-83.3333333333333,4,1,0,70,0,0
237494,-100,4,1,0,70,0,0
237994,-83.3333333333333,4,1,0,70,0,0
242827,-100,4,1,0,70,0,0
255410,-83.3333333333333,4,1,0,70,0,0
256660,-100,4,1,0,80,0,1
265827,-100,4,1,0,80,0,0
267327,-100,4,1,0,80,0,1
280327,-100,4,1,0,70,0,0
280660,-100,4,1,0,80,0,1
301994,-100,4,1,0,70,0,0
323327,-111.111111111111,4,1,0,70,0,0
334327,-125,4,1,0,70,0,0
341994,-133.333333333333,4,1,0,70,0,0
343327,-142.857142857143,4,1,0,30,0,0

[HitObjects]
225,196,661,5,12,0:0:0:0:
323,303,994,1,0,0:0:0:0:
318,297,1160,1,8,0:0:0:0:
317,297,1494,1,0,0:0:0:0:
304,206,1827,1,8,0:0:0:0:
254,232,2160,1,0,0:0:0:0:
254,232,2327,1,8,0:0:0:0:
254,232,2660,1,8,0:0:0:0:
254,232,2827,1,0,0:0:0:0:
234,216,5994,1,8,0:0:0:0:
234,216,6327,1,0,0:0:0:0:
234,216,6494,1,8,0:0:0:0:
243,216,6827,1,0,0:0:0:0:
243,216,7160,1,8,0:0:0:0:
243,216,7494,1,0,0:0:0:0:
243,216,7660,1,8,0:0:0:0:
243,216,7994,1,8,0:0:0:0:
243,216,8160,1,0,0:0:0:0:
193,213,11327,1,12,0:0:0:0:
193,213,11660,1,0,0:0:0:0:
193,213,11827,1,8,0:0:0:0:
193,213,12160,1,0,0:0:0:0:
193,213,12494,1,8,0:0:0:0:
193,213,12827,1,0,0:0:0:0:
193,213,12994,1,8,0:0:0:0:
193,213,13327,1,8,0:0:0:0:
193,213,13494,1,0,0:0:0:0:
252,209,13827,1,8,0:0:0:0:
240,191,14160,1,0,0:0:0:0:
349,290,14494,1,0,0:0:0:0:
349,290,14827,1,8,0:0:0:0:
349,290,15160,1,8,0:0:0:0:
274,221,15494,1,0,0:0:0:0:
274,221,15827,1,0,0:0:0:0:
274,221,16160,1,0,0:0:0:0:
274,221,16494,1,0,0:0:0:0:
208,222,16660,1,12,0:0:0:0:
208,222,16827,1,0,0:0:0:0:
208,222,16994,1,0,0:0:0:0:
208,222,17160,1,8,0:0:0:0:
155,197,17244,1,8,0:0:0:0:
220,226,17327,1,0,0:0:0:0:
220,226,17410,1,0,0:0:0:0:
220,226,17494,1,8,0:0:0:0:
220,226,17660,1,0,0:0:0:0:
220,226,17827,1,8,0:0:0:0:
289,221,17994,1,4,0:0:0:0:
289,221,18160,1,8,0:0:0:0:
289,221,18244,1,0,0:0:0:0:
289,221,18327,1,8,0:0:0:0:
289,221,18494,1,0,0:0:0:0:
289,221,18577,1,8,0:0:0:0:
229,186,18660,1,0,0:0:0:0:
229,186,18744,1,0,0:0:0:0:
229,186,18827,1,8,0:0:0:0:
229,186,18994,1,8,0:0:0:0:
229,186,19160,1,0,0:0:0:0:
239,199,19327,1,0,0:0:0:0:
239,199,19410,1,0,0:0:0:0:
239,199,19494,1,8,0:0:0:0:
239,199,19577,1,0,0:0:0:0:
239,199,19660,1,8,0:0:0:0:
239,199,19744,1,8,0:0:0:0:
239,199,19827,1,8,0:0:0:0:
239,199,19910,1,8,0:0:0:0:
239,199,19994,1,0,0:0:0:0:
239,199,20077,1,0,0:0:0:0:
251,199,20160,1,8,0:0:0:0:
251,199,20244,1,0,0:0:0:0:
200,152,20327,1,8,0:0:0:0:
200,152,20383,1,8,0:0:0:0:
200,152,20438,1,8,0:0:0:0:
200,152,20494,1,8,0:0:0:0:
212,226,20549,1,8,0:0:0:0:
212,226,20605,1,8,0:0:0:0:
232,158,20660,1,0,0:0:0:0:
134,182,21494,1,0,0:0:0:0:
134,182,21549,1,0,0:0:0:0:
141,181,21605,1,0,0:0:0:0:
377,290,21660,1,8,0:0:0:0:
205,218,21994,1,8,0:0:0:0:
205,218,22327,1,0,0:0:0:0:
286,239,22494,1,8,0:0:0:0:
286,239,22827,1,0,0:0:0:0:
286,239,23160,1,8,0:0:0:0:
269,227,23494,1,8,0:0:0:0:
269,227,23660,1,8,0:0:0:0:
269,227,23994,1,8,0:0:0:0:
269,227,24160,1,0,0:0:0:0:
303,255,24494,1,0,0:0:0:0:
303,255,24660,1,8,0:0:0:0:
302,267,24994,1,0,0:0:0:0:
302,267,25160,1,0,0:0:0:0:
302,267,25327,1,8,0:0:0:0:
285,250,25660,1,0,0:0:0:0:
285,250,25827,1,0,0:0:0:0:
285,250,26160,1,0,0:0:0:0:
285,250,26327,1,8,0:0:0:0:
285,250,26660,1,0,0:0:0:0:
344,295,27160,1,0,0:0:0:0:
344,295,27327,1,8,0:0:0:0:
357,311,27660,1,0,0:0:0:0:
357,311,27827,1,8,0:0:0:0:
357,308,28160,1,0,0:0:0:0:
357,311,28494,1,8,0:0:0:0:
157,200,28827,1,8,0:0:0:0:
157,200,28994,1,8,0:0:0:0:
157,200,29327,1,8,0:0:0:0:
157,200,29494,1,0,0:0:0:0:
216,218,29827,1,0,0:0:0:0:
216,218,29994,1,8,0:0:0:0:
377,341,30327,1,8,0:0:0:0:
377,341,30494,1,8,0:0:0:0:
344,291,30827,1,8,0:0:0:0:
278,195,30994,1,0,0:0:0:0:
278,195,31160,1,8,0:0:0:0:
285,184,31494,1,4,0:0:0:0:
285,184,31660,1,4,0:0:0:0:
285,184,31827,1,4,0:0:0:0:
285,184,31994,1,4,0:0:0:0:
116,215,32160,1,0,0:0:0:0:
116,215,32216,1,0,0:0:0:0:
116,215,32272,1,0,0:0:0:0:
116,215,32327,1,8,0:0:0:0:
264,203,32660,1,12,0:0:0:0:
302,244,32827,1,8,0:0:0:0:
302,244,32910,1,8,0:0:0:0:
290,251,32994,1,8,0:0:0:0:
290,251,33160,1,0,0:0:0:0:
290,251,33244,1,0,0:0:0:0:
264,203,33327,1,8,0:0:0:0:
264,203,33494,1,8,0:0:0:0:
294,228,33660,1,0,0:0:0:0:
295,250,33744,1,0,0:0:0:0:
295,250,33827,1,8,0:0:0:0:
228,226,33994,1,0,0:0:0:0:
270,209,34160,1,8,0:0:0:0:
270,209,34244,1,8,0:0:0:0:
270,209,34327,1,0,0:0:0:0:
270,210,34494,1,8,0:0:0:0:
275,220,34660,1,0,0:0:0:0:
275,220,34744,1,8,0:0:0:0:
275,220,34827,1,8,0:0:0:0:
275,220,34910,1,8,0:0:0:0:
275,220,34994,1,0,0:0:0:0:
275,220,35160,1,8,0:0:0:0:
248,184,35327,1,0,0:0:0:0:
248,184,35383,1,0,0:0:0:0:
248,184,35438,1,0,0:0:0:0:
248,184,35494,1,8,0:0:0:0:
212,135,35577,1,8,0:0:0:0:
212,135,35660,1,8,0:0:0:0:
272,211,35827,1,0,0:0:0:0:
196,195,35994,1,8,0:0:0:0:
196,195,36077,1,0,0:0:0:0:
196,195,36160,1,8,0:0:0:0:
297,220,36327,1,0,0:0:0:0:
211,218,36494,1,8,0:0:0:0:
260,211,36660,1,0,0:0:0:0:
260,211,36827,1,8,0:0:0:0:
260,211,36910,1,8,0:0:0:0:
217,191,36994,1,0,0:0:0:0:
304,231,37077,1,0,0:0:0:0:
252,204,37160,1,8,0:0:0:0:
306,214,37327,1,0,0:0:0:0:
230,229,37494,1,12,0:0:0:0:
230,229,37660,1,12,0:0:0:0:
270,215,37994,1,0,0:0:0:0:
190,228,38160,1,8,0:0:0:0:
190,228,38244,1,8,0:0:0:0:
190,228,38327,1,8,0:0:0:0:
175,216,38494,1,0,0:0:0:0:
268,197,38660,1,8,0:0:0:0:
268,197,38744,1,0,0:0:0:0:
270,194,38827,1,8,0:0:0:0:
280,220,38994,1,0,0:0:0:0:
280,220,39077,1,0,0:0:0:0:
280,220,39160,1,8,0:0:0:0:
268,197,39327,1,0,0:0:0:0:
258,206,39494,1,8,0:0:0:0:
258,206,39577,1,8,0:0:0:0:
258,206,39660,1,0,0:0:0:0:
272,233,39827,1,8,0:0:0:0:
272,233,39910,1,8,0:0:0:0:
272,233,39994,1,0,0:0:0:0:
272,233,40077,1,8,0:0:0:0:
272,233,40160,1,0,0:0:0:0:
272,233,40244,1,0,0:0:0:0:
272,233,40327,1,8,0:0:0:0:
286,235,40494,1,0,0:0:0:0:
177,186,40660,1,0,0:0:0:0:
177,186,40716,1,0,0:0:0:0:
177,186,40772,1,0,0:0:0:0:
177,186,40827,1,8,0:0:0:0:
194,169,40910,1,8,0:0:0:0:
194,169,40994,1,8,0:0:0:0:
249,189,41160,1,0,0:0:0:0:
249,189,41327,1,8,0:0:0:0:
249,189,41410,1,0,0:0:0:0:
249,189,41494,1,8,0:0:0:0:
257,192,41660,1,0,0:0:0:0:
257,192,41827,1,8,0:0:0:0:
257,192,41910,1,8,0:0:0:0:
254,193,41994,1,0,0:0:0:0:
254,193,42077,1,8,0:0:0:0:
254,193,42160,1,8,0:0:0:0:
254,193,42327,1,0,0:0:0:0:
254,193,42494,1,8,0:0:0:0:
270,221,42660,1,0,0:0:0:0:
259,214,42827,1,12,0:0:0:0:
259,214,42994,1,12,0:0:0:0:
264,203,43327,1,4,0:0:0:0:
302,244,43494,1,8,0:0:0:0:
302,244,43577,1,8,0:0:0:0:
290,251,43660,1,8,0:0:0:0:
290,251,43827,1,0,0:0:0:0:
290,251,43910,1,0,0:0:0:0:
264,203,43994,1,8,0:0:0:0:
132,180,44077,1,0,0:0:0:0:
264,203,44160,1,8,0:0:0:0:
294,228,44327,1,0,0:0:0:0:
295,250,44410,1,0,0:0:0:0:
295,250,44494,1,8,0:0:0:0:
228,226,44660,1,0,0:0:0:0:
270,209,44827,1,8,0:0:0:0:
270,209,44910,1,8,0:0:0:0:
270,209,44994,1,0,0:0:0:0:
270,210,45160,1,8,0:0:0:0:
275,220,45327,1,0,0:0:0:0:
275,220,45410,1,8,0:0:0:0:
275,220,45494,1,8,0:0:0:0:
275,220,45577,1,8,0:0:0:0:
275,220,45660,1,0,0:0:0:0:
275,220,45827,1,8,0:0:0:0:
248,184,45994,1,0,0:0:0:0:
248,184,46049,1,0,0:0:0:0:
248,184,46105,1,0,0:0:0:0:
248,184,46160,1,8,0:0:0:0:
212,135,46244,1,8,0:0:0:0:
212,135,46327,1,8,0:0:0:0:
272,211,46494,1,0,0:0:0:0:
196,195,46660,1,8,0:0:0:0:
196,195,46744,1,0,0:0:0:0:
196,195,46827,1,8,0:0:0:0:
297,220,46994,1,0,0:0:0:0:
211,218,47160,1,8,0:0:0:0:
260,211,47327,1,0,0:0:0:0:
260,211,47494,1,0,0:0:0:0:
260,211,47577,1,8,0:0:0:0:
217,191,47660,1,0,0:0:0:0:
190,213,47827,1,8,0:0:0:0:
190,213,47910,1,8,0:0:0:0:
294,214,47994,1,0,0:0:0:0:
274,193,48160,1,12,0:0:0:0:
274,193,48327,1,12,0:0:0:0:
207,190,48660,1,12,0:0:0:0:
207,190,48827,1,8,0:0:0:0:
207,190,48910,1,8,0:0:0:0:
207,190,48994,1,8,0:0:0:0:
156,187,49160,1,0,0:0:0:0:
251,177,49327,1,8,0:0:0:0:
250,171,49410,1,0,0:0:0:0:
249,171,49494,1,8,0:0:0:0:
146,209,49660,1,0,0:0:0:0:
146,209,49827,1,8,0:0:0:0:
220,188,49994,1,4,0:0:0:0:
256,212,50160,1,8,0:0:0:0:
256,212,50244,1,8,0:0:0:0:
256,212,50327,1,0,0:0:0:0:
256,212,50410,1,8,0:0:0:0:
256,212,50494,1,0,0:0:0:0:
261,212,50660,1,8,0:0:0:0:
261,218,50827,1,0,0:0:0:0:
261,218,50910,1,0,0:0:0:0:
186,212,50994,1,8,0:0:0:0:
186,212,51077,1,0,0:0:0:0:
186,212,51160,1,8,0:0:0:0:
327,292,51327,1,0,0:0:0:0:
257,207,51660,1,12,0:0:0:0:
311,284,51994,1,0,0:0:0:0:
257,207,52327,1,12,0:0:0:0:
237,201,52827,1,4,0:0:0:0:
237,204,52994,1,4,0:0:0:0:
237,204,53327,1,4,0:0:0:0:
152,200,53494,1,0,0:0:0:0:
152,200,53549,1,0,0:0:0:0:
152,200,53605,1,0,0:0:0:0:
152,200,53660,1,8,0:0:0:0:
280,227,53994,1,0,0:0:0:0:
280,227,54160,1,0,0:0:0:0:
280,227,54327,1,8,0:0:0:0:
280,227,54494,1,0,0:0:0:0:
299,222,54577,1,8,0:0:0:0:
299,246,54660,1,8,0:0:0:0:
299,246,54827,1,0,0:0:0:0:
299,246,54910,1,8,0:0:0:0:
299,246,54994,1,8,0:0:0:0:
293,138,55160,1,8,0:0:0:0:
293,138,55216,1,8,0:0:0:0:
293,138,55272,1,8,0:0:0:0:
293,138,55327,1,0,0:0:0:0:
265,214,55660,1,8,0:0:0:0:
282,224,56160,1,0,0:0:0:0:
282,224,56327,1,8,0:0:0:0:
275,250,56827,1,0,0:0:0:0:
275,250,56994,1,8,0:0:0:0:
275,250,57160,1,0,0:0:0:0:
291,233,57494,1,0,0:0:0:0:
291,233,57660,1,8,0:0:0:0:
291,233,57827,1,8,0:0:0:0:
291,233,57994,1,0,0:0:0:0:
297,214,58327,1,8,0:0:0:0:
297,214,58494,1,0,0:0:0:0:
283,252,58827,1,0,0:0:0:0:
283,252,58994,1,8,0:0:0:0:
283,252,59160,1,0,0:0:0:0:
262,196,59494,1,0,0:0:0:0:
262,196,59660,1,8,0:0:0:0:
269,235,60160,1,0,0:0:0:0:
263,256,60327,1,0,0:0:0:0:
248,256,60494,1,8,0:0:0:0:
245,218,60660,1,0,0:0:0:0:
306,231,60994,1,8,0:0:0:0:
306,231,61160,1,0,0:0:0:0:
283,239,61494,1,0,0:0:0:0:
283,239,61660,1,8,0:0:0:0:
283,239,61827,1,0,0:0:0:0:
283,239,61994,1,0,0:0:0:0:
286,240,62160,1,0,0:0:0:0:
283,239,62327,1,8,0:0:0:0:
283,239,62494,1,0,0:0:0:0:
216,228,62827,1,0,0:0:0:0:
216,228,62994,1,8,0:0:0:0:
271,225,63327,1,0,0:0:0:0:
235,239,63660,1,8,0:0:0:0:
235,239,63994,1,0,0:0:0:0:
235,239,64160,1,0,0:0:0:0:
235,239,64327,1,8,0:0:0:0:
265,240,64494,1,0,0:0:0:0:
254,198,65494,1,0,0:0:0:0:
254,198,65577,1,0,0:0:0:0:
254,198,65660,1,8,0:0:0:0:
269,214,65994,1,4,0:0:0:0:
259,221,66327,1,12,0:0:0:0:
258,239,66660,1,0,0:0:0:0:
258,239,66827,1,0,0:0:0:0:
259,239,66910,1,0,0:0:0:0:
259,239,66994,1,8,0:0:0:0:
259,239,67160,1,4,0:0:0:0:
286,271,67494,1,0,0:0:0:0:
286,271,67660,1,12,0:0:0:0:
264,216,67994,1,0,0:0:0:0:
264,216,68160,1,0,0:0:0:0:
264,216,68244,1,0,0:0:0:0:
264,216,68327,1,8,0:0:0:0:
264,216,68494,1,4,0:0:0:0:
287,237,68827,1,0,0:0:0:0:
287,237,68994,1,12,0:0:0:0:
243,215,69327,1,8,0:0:0:0:
142,234,69494,1,0,0:0:0:0:
142,234,69577,1,0,0:0:0:0:
142,234,69660,1,8,0:0:0:0:
236,203,69827,1,4,0:0:0:0:
236,203,70160,1,12,0:0:0:0:
236,203,70494,1,12,0:0:0:0:
236,203,70827,1,12,0:0:0:0:
245,189,71160,1,4,0:0:0:0:
222,202,71660,1,12,0:0:0:0:
262,178,71827,1,0,0:0:0:0:
262,178,71910,1,8,0:0:0:0:
262,178,71994,1,0,0:0:0:0:
232,218,72160,1,0,0:0:0:0:
68,198,72327,1,8,0:0:0:0:
69,204,72494,1,8,0:0:0:0:
68,198,72577,1,8,0:0:0:0:
278,197,72660,1,0,0:0:0:0:
274,206,72827,1,0,0:0:0:0:
237,176,72910,1,0,0:0:0:0:
237,176,72994,1,8,0:0:0:0:
237,176,73160,1,0,0:0:0:0:
216,238,73494,1,0,0:0:0:0:
216,238,73577,1,0,0:0:0:0:
216,238,73660,1,8,0:0:0:0:
216,238,73827,1,0,0:0:0:0:
234,197,73994,1,4,0:0:0:0:
295,230,74327,1,8,0:0:0:0:
272,253,74660,1,0,0:0:0:0:
272,253,74827,1,0,0:0:0:0:
272,253,74910,1,0,0:0:0:0:
272,253,74994,1,8,0:0:0:0:
272,253,75160,1,12,0:0:0:0:
301,237,75494,1,0,0:0:0:0:
301,237,75577,1,0,0:0:0:0:
257,227,75660,1,8,0:0:0:0:
257,227,75744,1,0,0:0:0:0:
257,227,75827,1,8,0:0:0:0:
257,227,75910,1,8,0:0:0:0:
257,199,75994,1,0,0:0:0:0:
257,199,76077,1,8,0:0:0:0:
257,199,76160,1,0,0:0:0:0:
257,199,76244,1,0,0:0:0:0:
257,199,76327,1,8,0:0:0:0:
148,224,76660,1,4,0:0:0:0:
148,224,76827,1,4,0:0:0:0:
170,227,77327,1,8,0:0:0:0:
339,155,77660,1,8,0:0:0:0:
320,269,77827,1,4,0:0:0:0:
282,244,78160,1,4,0:0:0:0:
282,244,78327,1,4,0:0:0:0:
261,243,78660,1,0,0:0:0:0:
261,243,78827,1,0,0:0:0:0:
261,243,78910,1,0,0:0:0:0:
261,243,78994,1,8,0:0:0:0:
266,233,79327,1,4,0:0:0:0:
266,233,79494,1,4,0:0:0:0:
258,227,79994,1,8,0:0:0:0:
244,211,80327,1,8,0:0:0:0:
357,311,80494,1,4,0:0:0:0:
306,266,80827,1,4,0:0:0:0:
306,266,80994,1,4,0:0:0:0:
291,234,81327,1,8,0:0:0:0:
291,234,81494,1,0,0:0:0:0:
291,234,81577,1,0,0:0:0:0:
291,234,81660,1,8,0:0:0:0:
288,203,81994,1,4,0:0:0:0:
289,257,82327,1,0,0:0:0:0:
289,257,82494,1,0,0:0:0:0:
312,255,82660,1,8,0:0:0:0:
178,230,82827,1,0,0:0:0:0:
178,230,82910,1,0,0:0:0:0:
178,230,82994,1,0,0:0:0:0:
187,235,83160,1,8,0:0:0:0:
270,243,83494,1,0,0:0:0:0:
257,249,83660,1,0,0:0:0:0:
257,249,83744,1,0,0:0:0:0:
257,249,83827,1,8,0:0:0:0:
257,249,83910,1,0,0:0:0:0:
222,223,83994,1,8,0:0:0:0:
222,223,84077,1,8,0:0:0:0:
222,223,84160,1,0,0:0:0:0:
222,223,84244,1,0,0:0:0:0:
222,223,84327,1,8,0:0:0:0:
244,224,84660,1,4,0:0:0:0:
271,241,84827,1,8,0:0:0:0:
271,241,84910,1,8,0:0:0:0:
271,241,84994,1,0,0:0:0:0:
271,241,85160,1,8,0:0:0:0:
271,241,85327,1,0,0:0:0:0:
271,241,85494,1,8,0:0:0:0:
271,241,85577,1,8,0:0:0:0:
271,241,85660,1,0,0:0:0:0:
271,241,85827,1,8,0:0:0:0:
261,216,85994,1,4,0:0:0:0:
261,216,86160,1,8,0:0:0:0:
261,216,86244,1,8,0:0:0:0:
261,216,86327,1,0,0:0:0:0:
262,222,86494,1,8,0:0:0:0:
178,191,86660,1,0,0:0:0:0:
178,191,86744,1,0,0:0:0:0:
178,191,86827,1,8,0:0:0:0:
178,191,86910,1,0,0:0:0:0:
178,191,86994,1,8,0:0:0:0:
178,191,87077,1,8,0:0:0:0:
178,191,87160,1,0,0:0:0:0:
190,202,87327,1,0,0:0:0:0:
190,202,87410,1,0,0:0:0:0:
190,202,87494,1,8,0:0:0:0:
196,206,87577,1,0,0:0:0:0:
271,244,87660,1,8,0:0:0:0:
271,244,87744,1,8,0:0:0:0:
271,244,87827,1,0,0:0:0:0:
271,244,87910,1,8,0:0:0:0:
265,252,87994,1,8,0:0:0:0:
257,254,88077,1,0,0:0:0:0:
257,254,88160,1,8,0:0:0:0:
241,227,88244,1,0,0:0:0:0:
241,227,88327,1,8,0:0:0:0:
241,227,88410,1,8,0:0:0:0:
241,227,88494,1,0,0:0:0:0:
241,227,88577,1,8,0:0:0:0:
270,271,88660,1,0,0:0:0:0:
270,271,88744,1,0,0:0:0:0:
270,271,88827,1,8,0:0:0:0:
270,280,88910,1,0,0:0:0:0:
276,231,88994,1,8,0:0:0:0:
276,231,89077,1,8,0:0:0:0:
276,231,89160,1,0,0:0:0:0:
276,231,89244,1,8,0:0:0:0:
251,266,89327,1,8,0:0:0:0:
251,266,89410,1,0,0:0:0:0:
251,266,89494,1,8,0:0:0:0:
251,266,89577,1,0,0:0:0:0:
224,186,89660,1,8,0:0:0:0:
224,186,89716,1,8,0:0:0:0:
224,186,89772,1,8,0:0:0:0:
224,186,89827,1,0,0:0:0:0:
179,218,89910,1,0,0:0:0:0:
235,233,89994,1,8,0:0:0:0:
83,233,90160,1,0,0:0:0:0:
89,235,90327,1,0,0:0:0:0:
93,239,90494,1,8,0:0:0:0:
302,256,90827,1,0,0:0:0:0:
302,256,90910,1,8,0:0:0:0:
302,256,90994,1,0,0:0:0:0:
302,256,91160,1,0,0:0:0:0:
276,264,91494,1,12,0:0:0:0:
276,264,91660,1,12,0:0:0:0:
276,264,91827,1,12,0:0:0:0:
276,264,91994,1,12,0:0:0:0:
129,249,92160,1,0,0:0:0:0:
129,249,92216,1,0,0:0:0:0:
129,249,92272,1,0,0:0:0:0:
129,249,92327,1,8,0:0:0:0:
256,194,92660,1,4,0:0:0:0:
202,205,92827,1,0,0:0:0:0:
202,205,92910,1,0,0:0:0:0:
202,205,92994,1,8,0:0:0:0:
221,204,93160,1,8,0:0:0:0:
221,204,93244,1,8,0:0:0:0:
221,204,93327,1,0,0:0:0:0:
223,195,93410,1,8,0:0:0:0:
223,195,93494,1,0,0:0:0:0:
177,227,93660,1,8,0:0:0:0:
177,227,93827,1,8,0:0:0:0:
269,228,93994,1,0,0:0:0:0:
269,228,94160,1,0,0:0:0:0:
269,228,94244,1,0,0:0:0:0:
269,228,94327,1,8,0:0:0:0:
339,292,94494,1,0,0:0:0:0:
277,232,94660,1,8,0:0:0:0:
277,232,94744,1,8,0:0:0:0:
277,232,94827,1,8,0:0:0:0:
277,232,94910,1,8,0:0:0:0:
277,232,94994,1,0,0:0:0:0:
277,232,95160,1,8,0:0:0:0:
269,228,95327,1,0,0:0:0:0:
268,225,95494,1,0,0:0:0:0:
181,220,95577,1,0,0:0:0:0:
181,220,95660,1,8,0:0:0:0:
181,220,95827,1,0,0:0:0:0:
234,233,95994,1,8,0:0:0:0:
234,233,96077,1,8,0:0:0:0:
234,233,96160,1,0,0:0:0:0:
234,233,96244,1,0,0:0:0:0:
171,225,96327,1,8,0:0:0:0:
171,225,96494,1,0,0:0:0:0:
262,249,96660,1,8,0:0:0:0:
262,249,96827,1,0,0:0:0:0:
262,249,96910,1,0,0:0:0:0:
262,249,96994,1,8,0:0:0:0:
262,249,97160,1,0,0:0:0:0:
252,241,97327,1,8,0:0:0:0:
101,149,97410,1,0,0:0:0:0:
252,241,97494,1,8,0:0:0:0:
252,241,97577,1,0,0:0:0:0:
252,241,97660,1,8,0:0:0:0:
251,240,97827,1,8,0:0:0:0:
244,255,97994,1,4,0:0:0:0:
120,199,98160,1,0,0:0:0:0:
131,202,98244,1,0,0:0:0:0:
131,203,98327,1,8,0:0:0:0:
218,234,98494,1,0,0:0:0:0:
218,234,98577,1,0,0:0:0:0:
218,234,98660,1,8,0:0:0:0:
218,234,98744,1,8,0:0:0:0:
218,234,98827,1,0,0:0:0:0:
283,228,98994,1,8,0:0:0:0:
339,317,99160,1,0,0:0:0:0:
308,239,99327,1,4,0:0:0:0:
308,239,99494,1,0,0:0:0:0:
308,239,99577,1,0,0:0:0:0:
308,239,99660,1,8,0:0:0:0:
308,239,99827,1,0,0:0:0:0:
291,233,99994,1,8,0:0:0:0:
291,233,100077,1,8,0:0:0:0:
291,233,100160,1,0,0:0:0:0:
291,233,100244,1,8,0:0:0:0:
291,233,100327,1,0,0:0:0:0:
212,195,100494,1,8,0:0:0:0:
262,220,100660,1,4,0:0:0:0:
245,211,100994,1,0,0:0:0:0:
245,211,101160,1,12,0:0:0:0:
245,211,101494,1,12,0:0:0:0:
149,223,101660,1,0,0:0:0:0:
245,211,101827,1,12,0:0:0:0:
145,216,102160,1,0,0:0:0:0:
145,216,102244,1,0,0:0:0:0:
270,215,102327,1,8,0:0:0:0:
268,224,102410,1,0,0:0:0:0:
268,224,102494,1,0,0:0:0:0:
234,220,102577,1,0,0:0:0:0:
257,199,102660,1,8,0:0:0:0:
257,199,102744,1,8,0:0:0:0:
257,199,102827,1,0,0:0:0:0:
222,170,102910,1,0,0:0:0:0:
268,166,102994,1,8,0:0:0:0:
268,166,103049,1,8,0:0:0:0:
268,166,103105,1,8,0:0:0:0:
262,172,103160,1,0,0:0:0:0:
142,203,103244,1,0,0:0:0:0:
256,194,103327,1,8,0:0:0:0:
202,205,103494,1,0,0:0:0:0:
202,205,103577,1,0,0:0:0:0:
202,205,103660,1,8,0:0:0:0:
221,204,103827,1,8,0:0:0:0:
221,204,103910,1,8,0:0:0:0:
221,204,103994,1,0,0:0:0:0:
223,195,104077,1,8,0:0:0:0:
223,195,104160,1,0,0:0:0:0:
177,227,104327,1,8,0:0:0:0:
177,227,104494,1,8,0:0:0:0:
269,228,104660,1,0,0:0:0:0:
269,228,104827,1,0,0:0:0:0:
269,228,104910,1,0,0:0:0:0:
269,228,104994,1,8,0:0:0:0:
339,292,105160,1,0,0:0:0:0:
277,232,105327,1,8,0:0:0:0:
277,232,105410,1,8,0:0:0:0:
277,232,105494,1,0,0:0:0:0:
277,232,105577,1,0,0:0:0:0:
277,232,105660,1,8,0:0:0:0:
277,232,105827,1,8,0:0:0:0:
269,228,105994,1,0,0:0:0:0:
268,225,106160,1,0,0:0:0:0:
181,220,106244,1,0,0:0:0:0:
181,220,106327,1,8,0:0:0:0:
181,220,106494,1,0,0:0:0:0:
234,233,106660,1,8,0:0:0:0:
234,233,106744,1,8,0:0:0:0:
234,233,106827,1,0,0:0:0:0:
234,233,106910,1,0,0:0:0:0:
171,225,106994,1,8,0:0:0:0:
171,225,107160,1,0,0:0:0:0:
262,249,107327,1,8,0:0:0:0:
262,249,107494,1,0,0:0:0:0:
262,249,107577,1,0,0:0:0:0:
262,249,107660,1,8,0:0:0:0:
262,249,107827,1,0,0:0:0:0:
252,241,107994,1,8,0:0:0:0:
252,241,108077,1,0,0:0:0:0:
252,241,108160,1,8,0:0:0:0:
252,241,108244,1,0,0:0:0:0:
252,241,108327,1,8,0:0:0:0:
252,241,108410,1,8,0:0:0:0:
251,240,108494,1,0,0:0:0:0:
266,234,108660,1,4,0:0:0:0:
256,228,108827,1,0,0:0:0:0:
256,228,108883,1,0,0:0:0:0:
256,228,108938,1,0,0:0:0:0:
256,228,108994,1,8,0:0:0:0:
188,223,109160,1,0,0:0:0:0:
188,223,109327,1,8,0:0:0:0:
188,223,109410,1,8,0:0:0:0:
189,228,109494,1,0,0:0:0:0:
347,284,109660,1,8,0:0:0:0:
347,284,109827,1,8,0:0:0:0:
166,219,109994,1,4,0:0:0:0:
166,219,110160,1,0,0:0:0:0:
166,219,110244,1,0,0:0:0:0:
176,223,110327,1,8,0:0:0:0:
173,226,110494,1,0,0:0:0:0:
269,194,110660,1,8,0:0:0:0:
269,194,110744,1,8,0:0:0:0:
269,194,110827,1,0,0:0:0:0:
269,194,110910,1,0,0:0:0:0:
269,194,110994,1,8,0:0:0:0:
268,236,111160,1,8,0:0:0:0:
284,233,111327,1,0,0:0:0:0:
311,274,111660,1,12,0:0:0:0:
311,274,111994,1,0,0:0:0:0:
308,266,112327,1,12,0:0:0:0:
276,235,112494,1,4,0:0:0:0:
286,277,112827,1,4,0:0:0:0:
286,277,112994,1,4,0:0:0:0:
320,278,113327,1,4,0:0:0:0:
320,278,113494,1,8,0:0:0:0:
320,278,113577,1,8,0:0:0:0:
320,278,113660,1,8,0:0:0:0:
354,318,113827,1,4,0:0:0:0:
359,313,114160,1,4,0:0:0:0:
359,313,114327,1,4,0:0:0:0:
317,291,114660,1,4,0:0:0:0:
317,291,114827,1,8,0:0:0:0:
317,291,114910,1,8,0:0:0:0:
317,291,114994,1,8,0:0:0:0:
279,254,115160,1,4,0:0:0:0:
279,254,115494,1,4,0:0:0:0:
305,283,115660,1,0,0:0:0:0:
304,281,115744,1,0,0:0:0:0:
303,281,115827,1,8,0:0:0:0:
303,281,115910,1,0,0:0:0:0:
296,226,115994,1,8,0:0:0:0:
296,226,116077,1,8,0:0:0:0:
228,234,116160,1,0,0:0:0:0:
228,234,116216,1,0,0:0:0:0:
228,234,116272,1,0,0:0:0:0:
228,234,116327,1,8,0:0:0:0:
264,203,116660,1,4,0:0:0:0:
302,244,116827,1,8,0:0:0:0:
302,244,116910,1,8,0:0:0:0:
290,251,116994,1,8,0:0:0:0:
290,251,117160,1,0,0:0:0:0:
290,251,117244,1,0,0:0:0:0:
264,203,117327,1,8,0:0:0:0:
264,203,117494,1,8,0:0:0:0:
294,228,117660,1,0,0:0:0:0:
295,250,117744,1,0,0:0:0:0:
295,250,117827,1,8,0:0:0:0:
228,226,117994,1,0,0:0:0:0:
270,209,118160,1,8,0:0:0:0:
270,209,118244,1,8,0:0:0:0:
270,209,118327,1,0,0:0:0:0:
270,210,118494,1,8,0:0:0:0:
275,220,118660,1,0,0:0:0:0:
275,220,118744,1,8,0:0:0:0:
275,220,118827,1,8,0:0:0:0:
275,220,118910,1,8,0:0:0:0:
275,220,118994,1,0,0:0:0:0:
275,220,119160,1,8,0:0:0:0:
248,184,119327,1,0,0:0:0:0:
248,184,119383,1,0,0:0:0:0:
248,184,119438,1,0,0:0:0:0:
248,184,119494,1,8,0:0:0:0:
212,135,119577,1,8,0:0:0:0:
212,135,119660,1,8,0:0:0:0:
272,211,119827,1,0,0:0:0:0:
196,195,119994,1,8,0:0:0:0:
196,195,120077,1,0,0:0:0:0:
196,195,120160,1,8,0:0:0:0:
297,220,120327,1,0,0:0:0:0:
211,218,120494,1,8,0:0:0:0:
260,211,120660,1,0,0:0:0:0:
260,211,120827,1,8,0:0:0:0:
260,211,120910,1,8,0:0:0:0:
217,191,120994,1,0,0:0:0:0:
304,231,121077,1,0,0:0:0:0:
252,204,121160,1,8,0:0:0:0:
306,214,121327,1,0,0:0:0:0:
230,229,121494,1,12,0:0:0:0:
230,229,121660,1,12,0:0:0:0:
270,215,121994,1,0,0:0:0:0:
190,228,122160,1,8,0:0:0:0:
190,228,122244,1,8,0:0:0:0:
190,228,122327,1,8,0:0:0:0:
175,216,122494,1,0,0:0:0:0:
268,197,122660,1,8,0:0:0:0:
268,197,122744,1,0,0:0:0:0:
270,194,122827,1,8,0:0:0:0:
280,220,122994,1,0,0:0:0:0:
280,220,123077,1,0,0:0:0:0:
280,220,123160,1,8,0:0:0:0:
268,197,123327,1,0,0:0:0:0:
258,206,123494,1,8,0:0:0:0:
258,206,123577,1,8,0:0:0:0:
258,206,123660,1,0,0:0:0:0:
272,233,123827,1,8,0:0:0:0:
272,233,123910,1,8,0:0:0:0:
272,233,123994,1,0,0:0:0:0:
272,233,124077,1,8,0:0:0:0:
272,233,124160,1,0,0:0:0:0:
272,233,124244,1,0,0:0:0:0:
272,233,124327,1,8,0:0:0:0:
286,235,124494,1,0,0:0:0:0:
177,186,124660,1,0,0:0:0:0:
177,186,124716,1,0,0:0:0:0:
177,186,124772,1,0,0:0:0:0:
177,186,124827,1,8,0:0:0:0:
194,169,124910,1,8,0:0:0:0:
194,169,124994,1,8,0:0:0:0:
249,189,125160,1,0,0:0:0:0:
249,189,125327,1,8,0:0:0:0:
249,189,125410,1,0,0:0:0:0:
249,189,125494,1,8,0:0:0:0:
257,192,125660,1,0,0:0:0:0:
257,192,125827,1,8,0:0:0:0:
257,192,125910,1,8,0:0:0:0:
254,193,125994,1,0,0:0:0:0:
254,193,126077,1,8,0:0:0:0:
254,193,126160,1,8,0:0:0:0:
254,193,126327,1,0,0:0:0:0:
254,193,126494,1,8,0:0:0:0:
270,221,126660,1,0,0:0:0:0:
266,217,126827,1,12,0:0:0:0:
266,217,126994,1,12,0:0:0:0:
248,231,127327,1,4,0:0:0:0:
248,231,127494,1,8,0:0:0:0:
248,231,127577,1,8,0:0:0:0:
248,231,127660,1,0,0:0:0:0:
248,231,127827,1,8,0:0:0:0:
252,237,127994,1,0,0:0:0:0:
252,237,128077,1,8,0:0:0:0:
252,237,128160,1,8,0:0:0:0:
252,237,128244,1,8,0:0:0:0:
252,237,128327,1,0,0:0:0:0:
252,237,128494,1,8,0:0:0:0:
252,237,128577,1,8,0:0:0:0:
266,217,128660,1,0,0:0:0:0:
208,232,128827,1,8,0:0:0:0:
208,232,128994,1,0,0:0:0:0:
241,235,129160,1,8,0:0:0:0:
265,247,129327,1,0,0:0:0:0:
265,247,129410,1,0,0:0:0:0:
265,247,129494,1,8,0:0:0:0:
265,247,129577,1,8,0:0:0:0:
265,247,129660,1,0,0:0:0:0:
265,247,129827,1,8,0:0:0:0:
265,247,129994,1,0,0:0:0:0:
265,247,130160,1,8,0:0:0:0:
265,247,130244,1,8,0:0:0:0:
265,247,130327,1,0,0:0:0:0:
265,247,130494,1,8,0:0:0:0:
265,247,130660,1,0,0:0:0:0:
265,247,130744,1,8,0:0:0:0:
265,247,130827,1,8,0:0:0:0:
265,247,130910,1,8,0:0:0:0:
265,247,130994,1,0,0:0:0:0:
252,183,131160,1,8,0:0:0:0:
252,183,131244,1,8,0:0:0:0:
252,183,131327,1,8,0:0:0:0:
252,183,131410,1,8,0:0:0:0:
252,183,131494,1,0,0:0:0:0:
252,183,131660,1,8,0:0:0:0:
276,209,131827,1,0,0:0:0:0:
276,209,131910,1,0,0:0:0:0:
276,209,131994,1,8,0:0:0:0:
276,209,132077,1,0,0:0:0:0:
276,209,132160,1,0,0:0:0:0:
276,209,132244,1,8,0:0:0:0:
276,209,132327,1,0,0:0:0:0:
276,209,132410,1,0,0:0:0:0:
276,209,132494,1,8,0:0:0:0:
243,217,132660,1,4,0:0:0:0:
254,163,132827,1,0,0:0:0:0:
254,163,132883,1,0,0:0:0:0:
254,163,132938,1,0,0:0:0:0:
250,167,132994,1,8,0:0:0:0:
352,285,133160,1,0,0:0:0:0:
256,190,133327,1,8,0:0:0:0:
256,190,133410,1,0,0:0:0:0:
256,190,133494,1,0,0:0:0:0:
256,190,133577,1,0,0:0:0:0:
256,190,133660,1,8,0:0:0:0:
256,190,133827,1,8,0:0:0:0:
190,230,133994,1,4,0:0:0:0:
300,264,134160,1,0,0:0:0:0:
300,264,134244,1,0,0:0:0:0:
300,264,134327,1,8,0:0:0:0:
300,264,134494,1,0,0:0:0:0:
192,201,134660,1,8,0:0:0:0:
192,201,134744,1,8,0:0:0:0:
192,201,134827,1,0,0:0:0:0:
192,201,134910,1,0,0:0:0:0:
192,201,134994,1,8,0:0:0:0:
192,201,135077,1,8,0:0:0:0:
192,201,135160,1,0,0:0:0:0:
285,238,135327,1,0,0:0:0:0:
285,238,135660,1,12,0:0:0:0:
285,238,135994,1,0,0:0:0:0:
285,238,136327,1,12,0:0:0:0:
244,249,136827,1,4,0:0:0:0:
244,249,136994,1,4,0:0:0:0:
321,267,137327,1,4,0:0:0:0:
301,244,137494,1,0,0:0:0:0:
301,244,137549,1,0,0:0:0:0:
254,226,137605,1,0,0:0:0:0:
301,244,137660,1,8,0:0:0:0:
280,227,137994,1,0,0:0:0:0:
280,227,138160,1,0,0:0:0:0:
280,227,138327,1,8,0:0:0:0:
280,227,138494,1,0,0:0:0:0:
338,212,138577,1,8,0:0:0:0:
299,246,138660,1,8,0:0:0:0:
299,246,138827,1,0,0:0:0:0:
299,246,138910,1,8,0:0:0:0:
299,246,138994,1,8,0:0:0:0:
293,138,139160,1,8,0:0:0:0:
293,138,139216,1,8,0:0:0:0:
293,138,139272,1,8,0:0:0:0:
293,138,139327,1,0,0:0:0:0:
265,214,139660,1,8,0:0:0:0:
282,224,140160,1,0,0:0:0:0:
282,224,140327,1,8,0:0:0:0:
275,250,140827,1,0,0:0:0:0:
275,250,140994,1,8,0:0:0:0:
275,250,141160,1,0,0:0:0:0:
291,233,141494,1,0,0:0:0:0:
291,233,141660,1,8,0:0:0:0:
291,233,141827,1,8,0:0:0:0:
291,233,141994,1,0,0:0:0:0:
297,214,142327,1,8,0:0:0:0:
297,214,142494,1,0,0:0:0:0:
283,252,142827,1,0,0:0:0:0:
283,252,142994,1,8,0:0:0:0:
283,252,143160,1,0,0:0:0:0:
262,196,143494,1,0,0:0:0:0:
262,196,143660,1,8,0:0:0:0:
269,235,144160,1,0,0:0:0:0:
263,256,144327,1,0,0:0:0:0:
248,256,144494,1,8,0:0:0:0:
245,218,144660,1,0,0:0:0:0:
306,231,144994,1,8,0:0:0:0:
306,231,145160,1,0,0:0:0:0:
283,239,145494,1,0,0:0:0:0:
283,239,145660,1,8,0:0:0:0:
283,239,145827,1,0,0:0:0:0:
283,239,145994,1,0,0:0:0:0:
286,240,146160,1,0,0:0:0:0:
283,239,146327,1,8,0:0:0:0:
283,239,146494,1,0,0:0:0:0:
216,228,146827,1,0,0:0:0:0:
216,228,146994,1,8,0:0:0:0:
271,225,147327,1,0,0:0:0:0:
235,239,147660,1,8,0:0:0:0:
235,239,147994,1,0,0:0:0:0:
235,239,148160,1,0,0:0:0:0:
235,239,148327,1,8,0:0:0:0:
265,240,148494,1,0,0:0:0:0:
251,189,149160,1,0,0:0:0:0:
267,189,149327,1,8,0:0:0:0:
254,198,149494,1,0,0:0:0:0:
254,198,149549,1,0,0:0:0:0:
121,232,149605,1,0,0:0:0:0:
254,198,149660,1,8,0:0:0:0:
148,224,149994,1,4,0:0:0:0:
148,224,150160,1,4,0:0:0:0:
237,206,150660,1,8,0:0:0:0:
237,206,150994,1,8,0:0:0:0:
320,269,151160,1,4,0:0:0:0:
282,244,151494,1,4,0:0:0:0:
282,244,151660,1,4,0:0:0:0:
261,243,151994,1,0,0:0:0:0:
261,243,152160,1,0,0:0:0:0:
261,243,152244,1,0,0:0:0:0:
261,243,152327,1,8,0:0:0:0:
266,233,152660,1,4,0:0:0:0:
266,233,152827,1,4,0:0:0:0:
266,240,153327,1,8,0:0:0:0:
266,240,153660,1,8,0:0:0:0:
357,311,153827,1,4,0:0:0:0:
306,266,154160,1,4,0:0:0:0:
306,266,154327,1,4,0:0:0:0:
291,234,154660,1,8,0:0:0:0:
291,234,154827,1,0,0:0:0:0:
291,234,154910,1,0,0:0:0:0:
291,234,154994,1,8,0:0:0:0:
288,203,155327,1,4,0:0:0:0:
289,257,155660,1,0,0:0:0:0:
289,257,155827,1,0,0:0:0:0:
312,255,155994,1,8,0:0:0:0:
178,230,156160,1,0,0:0:0:0:
178,230,156244,1,0,0:0:0:0:
178,230,156327,1,0,0:0:0:0:
187,235,156494,1,8,0:0:0:0:
270,243,156827,1,0,0:0:0:0:
257,249,156994,1,0,0:0:0:0:
257,249,157077,1,0,0:0:0:0:
257,249,157160,1,8,0:0:0:0:
257,249,157244,1,0,0:0:0:0:
222,223,157327,1,8,0:0:0:0:
222,223,157410,1,8,0:0:0:0:
222,223,157494,1,0,0:0:0:0:
222,223,157577,1,0,0:0:0:0:
222,223,157660,1,8,0:0:0:0:
244,224,157994,1,4,0:0:0:0:
271,241,158160,1,8,0:0:0:0:
271,241,158244,1,8,0:0:0:0:
271,241,158327,1,0,0:0:0:0:
271,241,158494,1,8,0:0:0:0:
271,241,158660,1,0,0:0:0:0:
271,241,158827,1,8,0:0:0:0:
271,241,158910,1,8,0:0:0:0:
271,241,158994,1,0,0:0:0:0:
271,241,159160,1,8,0:0:0:0:
261,216,159327,1,4,0:0:0:0:
261,216,159494,1,8,0:0:0:0:
261,216,159577,1,8,0:0:0:0:
261,216,159660,1,0,0:0:0:0:
262,222,159827,1,8,0:0:0:0:
178,191,159994,1,0,0:0:0:0:
178,191,160077,1,0,0:0:0:0:
178,191,160160,1,8,0:0:0:0:
178,191,160244,1,0,0:0:0:0:
178,191,160327,1,8,0:0:0:0:
178,191,160410,1,8,0:0:0:0:
178,191,160494,1,0,0:0:0:0:
190,202,160660,1,0,0:0:0:0:
190,202,160744,1,0,0:0:0:0:
190,202,160827,1,8,0:0:0:0:
196,206,160910,1,0,0:0:0:0:
271,244,160994,1,8,0:0:0:0:
271,244,161077,1,8,0:0:0:0:
271,244,161160,1,0,0:0:0:0:
271,244,161244,1,8,0:0:0:0:
265,252,161327,1,8,0:0:0:0:
257,254,161410,1,0,0:0:0:0:
257,254,161494,1,8,0:0:0:0:
241,227,161577,1,0,0:0:0:0:
241,227,161660,1,8,0:0:0:0:
241,227,161744,1,8,0:0:0:0:
241,227,161827,1,0,0:0:0:0:
241,227,161910,1,8,0:0:0:0:
270,271,161994,1,0,0:0:0:0:
270,271,162077,1,0,0:0:0:0:
270,271,162160,1,8,0:0:0:0:
270,280,162244,1,0,0:0:0:0:
276,231,162327,1,8,0:0:0:0:
276,231,162410,1,8,0:0:0:0:
276,231,162494,1,0,0:0:0:0:
276,231,162577,1,8,0:0:0:0:
251,266,162660,1,8,0:0:0:0:
251,266,162744,1,0,0:0:0:0:
251,266,162827,1,8,0:0:0:0:
251,266,162910,1,0,0:0:0:0:
224,186,162994,1,8,0:0:0:0:
224,186,163049,1,8,0:0:0:0:
224,186,163105,1,8,0:0:0:0:
224,186,163160,1,0,0:0:0:0:
260,204,163244,1,0,0:0:0:0:
235,233,163327,1,8,0:0:0:0:
83,233,163494,1,0,0:0:0:0:
89,235,163660,1,0,0:0:0:0:
93,239,163827,1,8,0:0:0:0:
302,256,164160,1,0,0:0:0:0:
302,256,164244,1,8,0:0:0:0:
302,256,164327,1,0,0:0:0:0:
302,256,164494,1,0,0:0:0:0:
276,264,164827,1,12,0:0:0:0:
276,264,164994,1,12,0:0:0:0:
276,264,165160,1,12,0:0:0:0:
276,264,165327,1,12,0:0:0:0:
129,249,165494,1,0,0:0:0:0:
129,249,165549,1,0,0:0:0:0:
129,249,165605,1,0,0:0:0:0:
129,249,165660,1,8,0:0:0:0:
256,194,165994,1,4,0:0:0:0:
202,205,166160,1,0,0:0:0:0:
202,205,166244,1,0,0:0:0:0:
202,205,166327,1,8,0:0:0:0:
221,204,166494,1,8,0:0:0:0:
221,204,166577,1,8,0:0:0:0:
221,204,166660,1,0,0:0:0:0:
223,195,166744,1,8,0:0:0:0:
223,195,166827,1,0,0:0:0:0:
177,227,166994,1,8,0:0:0:0:
177,227,167160,1,8,0:0:0:0:
269,228,167327,1,0,0:0:0:0:
269,228,167494,1,0,0:0:0:0:
269,228,167577,1,0,0:0:0:0:
269,228,167660,1,8,0:0:0:0:
339,292,167827,1,0,0:0:0:0:
277,232,167994,1,8,0:0:0:0:
277,232,168077,1,8,0:0:0:0:
277,232,168160,1,0,0:0:0:0:
277,232,168244,1,0,0:0:0:0:
277,232,168327,1,8,0:0:0:0:
277,232,168494,1,8,0:0:0:0:
269,228,168660,1,0,0:0:0:0:
268,225,168827,1,0,0:0:0:0:
181,220,168910,1,0,0:0:0:0:
181,220,168994,1,8,0:0:0:0:
181,220,169160,1,0,0:0:0:0:
234,233,169327,1,8,0:0:0:0:
234,233,169410,1,8,0:0:0:0:
234,233,169494,1,0,0:0:0:0:
234,233,169577,1,0,0:0:0:0:
171,225,169660,1,8,0:0:0:0:
171,225,169827,1,0,0:0:0:0:
262,249,169994,1,8,0:0:0:0:
262,249,170160,1,0,0:0:0:0:
262,249,170244,1,0,0:0:0:0:
262,249,170327,1,8,0:0:0:0:
262,249,170494,1,0,0:0:0:0:
252,241,170660,1,8,0:0:0:0:
252,241,170744,1,0,0:0:0:0:
252,241,170827,1,8,0:0:0:0:
252,241,170910,1,0,0:0:0:0:
252,241,170994,1,8,0:0:0:0:
251,240,171160,1,8,0:0:0:0:
244,255,171327,1,4,0:0:0:0:
120,199,171494,1,0,0:0:0:0:
131,202,171549,1,0,0:0:0:0:
131,203,171605,1,0,0:0:0:0:
131,203,171660,1,8,0:0:0:0:
218,234,171827,1,0,0:0:0:0:
218,234,171910,1,0,0:0:0:0:
218,234,171994,1,8,0:0:0:0:
218,234,172077,1,8,0:0:0:0:
218,234,172160,1,0,0:0:0:0:
283,228,172327,1,8,0:0:0:0:
339,317,172494,1,0,0:0:0:0:
308,239,172660,1,4,0:0:0:0:
308,239,172827,1,0,0:0:0:0:
308,239,172910,1,0,0:0:0:0:
308,239,172994,1,8,0:0:0:0:
308,239,173160,1,0,0:0:0:0:
291,233,173327,1,8,0:0:0:0:
291,233,173410,1,8,0:0:0:0:
291,233,173494,1,0,0:0:0:0:
291,233,173577,1,8,0:0:0:0:
291,233,173660,1,0,0:0:0:0:
212,195,173827,1,8,0:0:0:0:
262,220,173994,1,4,0:0:0:0:
245,211,174327,1,0,0:0:0:0:
245,211,174494,1,12,0:0:0:0:
245,211,174827,1,12,0:0:0:0:
149,223,174994,1,0,0:0:0:0:
245,211,175160,1,12,0:0:0:0:
145,216,175494,1,0,0:0:0:0:
145,216,175577,1,0,0:0:0:0:
270,215,175660,1,8,0:0:0:0:
268,224,175744,1,0,0:0:0:0:
268,224,175827,1,0,0:0:0:0:
234,220,175910,1,0,0:0:0:0:
257,199,175994,1,8,0:0:0:0:
257,199,176077,1,8,0:0:0:0:
257,199,176160,1,0,0:0:0:0:
222,170,176244,1,0,0:0:0:0:
268,166,176327,1,8,0:0:0:0:
268,166,176383,1,8,0:0:0:0:
268,166,176438,1,8,0:0:0:0:
262,172,176494,1,0,0:0:0:0:
150,189,176577,1,0,0:0:0:0:
256,194,176660,1,8,0:0:0:0:
202,205,176827,1,0,0:0:0:0:
202,205,176910,1,0,0:0:0:0:
202,205,176994,1,8,0:0:0:0:
221,204,177160,1,8,0:0:0:0:
221,204,177244,1,8,0:0:0:0:
221,204,177327,1,0,0:0:0:0:
223,195,177410,1,8,0:0:0:0:
223,195,177494,1,0,0:0:0:0:
177,227,177660,1,8,0:0:0:0:
177,227,177827,1,8,0:0:0:0:
269,228,177994,1,0,0:0:0:0:
269,228,178160,1,0,0:0:0:0:
269,228,178244,1,0,0:0:0:0:
269,228,178327,1,8,0:0:0:0:
339,292,178494,1,0,0:0:0:0:
277,232,178660,1,8,0:0:0:0:
277,232,178744,1,8,0:0:0:0:
277,232,178827,1,0,0:0:0:0:
277,232,178910,1,0,0:0:0:0:
277,232,178994,1,8,0:0:0:0:
277,232,179160,1,8,0:0:0:0:
269,228,179327,1,0,0:0:0:0:
268,225,179494,1,0,0:0:0:0:
181,220,179577,1,0,0:0:0:0:
181,220,179660,1,8,0:0:0:0:
181,220,179827,1,0,0:0:0:0:
234,233,179994,1,8,0:0:0:0:
234,233,180077,1,8,0:0:0:0:
234,233,180160,1,0,0:0:0:0:
234,233,180244,1,0,0:0:0:0:
171,225,180327,1,8,0:0:0:0:
171,225,180494,1,0,0:0:0:0:
262,249,180660,1,8,0:0:0:0:
262,249,180827,1,0,0:0:0:0:
262,249,180910,1,0,0:0:0:0:
262,249,180994,1,8,0:0:0:0:
262,249,181160,1,0,0:0:0:0:
252,241,181327,1,8,0:0:0:0:
252,241,181410,1,0,0:0:0:0:
252,241,181494,1,8,0:0:0:0:
252,241,181577,1,0,0:0:0:0:
252,241,181660,1,8,0:0:0:0:
252,241,181744,1,8,0:0:0:0:
251,240,181827,1,0,0:0:0:0:
266,234,181994,1,4,0:0:0:0:
256,228,182160,1,0,0:0:0:0:
256,228,182216,1,0,0:0:0:0:
256,228,182272,1,0,0:0:0:0:
256,228,182327,1,8,0:0:0:0:
188,223,182494,1,0,0:0:0:0:
188,223,182660,1,8,0:0:0:0:
188,223,182744,1,8,0:0:0:0:
189,228,182827,1,0,0:0:0:0:
347,284,182994,1,8,0:0:0:0:
347,284,183160,1,8,0:0:0:0:
166,219,183327,1,4,0:0:0:0:
166,219,183494,1,0,0:0:0:0:
166,219,183577,1,0,0:0:0:0:
176,223,183660,1,8,0:0:0:0:
173,226,183827,1,0,0:0:0:0:
269,194,183994,1,8,0:0:0:0:
269,194,184077,1,8,0:0:0:0:
269,194,184160,1,0,0:0:0:0:
269,194,184244,1,0,0:0:0:0:
269,194,184327,1,8,0:0:0:0:
268,236,184494,1,8,0:0:0:0:
284,233,184660,1,0,0:0:0:0:
311,274,184994,1,12,0:0:0:0:
311,274,185327,1,0,0:0:0:0:
308,266,185660,1,12,0:0:0:0:
276,235,185827,1,4,0:0:0:0:
286,277,186160,1,4,0:0:0:0:
286,277,186327,1,4,0:0:0:0:
320,278,186660,1,4,0:0:0:0:
320,278,186827,1,8,0:0:0:0:
320,278,186910,1,8,0:0:0:0:
320,278,186994,1,8,0:0:0:0:
354,318,187160,1,4,0:0:0:0:
359,313,187494,1,4,0:0:0:0:
359,313,187660,1,4,0:0:0:0:
317,291,187994,1,4,0:0:0:0:
317,291,188160,1,8,0:0:0:0:
317,291,188244,1,8,0:0:0:0:
317,291,188327,1,8,0:0:0:0:
279,254,188494,1,4,0:0:0:0:
279,254,188827,1,4,0:0:0:0:
305,283,188994,1,0,0:0:0:0:
304,281,189077,1,0,0:0:0:0:
303,281,189160,1,8,0:0:0:0:
303,281,189244,1,0,0:0:0:0:
296,226,189327,1,8,0:0:0:0:
296,226,189410,1,8,0:0:0:0:
228,234,189494,1,0,0:0:0:0:
228,234,189549,1,0,0:0:0:0:
228,234,189605,1,0,0:0:0:0:
228,234,189660,1,8,0:0:0:0:
296,201,200660,5,0,0:0:0:0:
46,214,200994,1,0,0:0:0:0:
344,281,201327,1,0,0:0:0:0:
338,282,201660,1,0,0:0:0:0:
344,281,201994,1,0,0:0:0:0:
338,282,202327,1,0,0:0:0:0:
338,282,202660,1,0,0:0:0:0:
338,282,202994,1,0,0:0:0:0:
333,256,203327,1,0,0:0:0:0:
333,256,203660,1,0,0:0:0:0:
333,256,203994,1,0,0:0:0:0:
333,256,204327,1,0,0:0:0:0:
333,256,204660,1,0,0:0:0:0:
339,296,204994,1,0,0:0:0:0:
339,296,205327,1,0,0:0:0:0:
366,282,205660,1,0,0:0:0:0:
296,270,205994,1,4,0:0:0:0:
151,233,206160,1,0,0:0:0:0:
296,270,206327,1,8,0:0:0:0:
270,235,206494,1,0,0:0:0:0:
296,270,206660,1,0,0:0:0:0:
270,235,206827,1,0,0:0:0:0:
296,270,206994,1,8,0:0:0:0:
365,311,207160,1,0,0:0:0:0:
302,262,207327,1,4,0:0:0:0:
283,198,207494,1,0,0:0:0:0:
302,262,207660,1,8,0:0:0:0:
283,198,207827,1,0,0:0:0:0:
302,262,207994,1,0,0:0:0:0:
283,198,208160,1,0,0:0:0:0:
302,262,208327,1,8,0:0:0:0:
283,198,208494,1,0,0:0:0:0:
231,191,208660,1,0,0:0:0:0:
231,191,208744,1,0,0:0:0:0:
217,245,208827,1,8,0:0:0:0:
217,245,208910,1,0,0:0:0:0:
217,245,208994,1,8,0:0:0:0:
217,245,209077,1,8,0:0:0:0:
217,245,209160,1,0,0:0:0:0:
217,245,209244,1,8,0:0:0:0:
217,245,209327,1,0,0:0:0:0:
217,245,209410,1,0,0:0:0:0:
217,245,209494,1,8,0:0:0:0:
217,245,209577,1,0,0:0:0:0:
217,245,209660,1,8,0:0:0:0:
302,262,209744,1,8,0:0:0:0:
302,262,209827,1,8,0:0:0:0:
302,262,209994,1,0,0:0:0:0:
258,189,210077,1,0,0:0:0:0:
258,189,210160,1,0,0:0:0:0:
258,189,210244,1,0,0:0:0:0:
258,189,210327,1,0,0:0:0:0:
258,189,210660,1,8,0:0:0:0:
258,189,210744,1,8,0:0:0:0:
258,189,210827,1,8,0:0:0:0:
258,189,210910,1,8,0:0:0:0:
258,189,210994,1,8,0:0:0:0:
280,244,211327,1,0,0:0:0:0:
273,243,211410,1,0,0:0:0:0:
272,243,211494,1,0,0:0:0:0:
272,243,211577,1,0,0:0:0:0:
272,243,211660,1,8,0:0:0:0:
196,228,211827,1,0,0:0:0:0:
295,261,211994,1,8,0:0:0:0:
295,261,212077,1,0,0:0:0:0:
295,261,212160,1,8,0:0:0:0:
179,231,212327,1,0,0:0:0:0:
179,231,212494,1,8,0:0:0:0:
316,253,212660,1,0,0:0:0:0:
316,253,212827,1,0,0:0:0:0:
316,253,212910,1,0,0:0:0:0:
316,253,212994,1,8,0:0:0:0:
318,248,213160,1,0,0:0:0:0:
303,243,213327,1,8,0:0:0:0:
303,243,213494,1,0,0:0:0:0:
303,243,213660,1,8,0:0:0:0:
219,241,213827,1,8,0:0:0:0:
46,207,213994,1,0,0:0:0:0:
46,207,214160,1,0,0:0:0:0:
46,207,214244,1,0,0:0:0:0:
46,207,214327,1,8,0:0:0:0:
361,310,214494,1,8,0:0:0:0:
361,310,214577,1,8,0:0:0:0:
270,221,214660,1,0,0:0:0:0:
270,221,214827,1,8,0:0:0:0:
275,245,214994,1,0,0:0:0:0:
275,245,215077,1,0,0:0:0:0:
275,245,215160,1,8,0:0:0:0:
280,257,215327,1,0,0:0:0:0:
250,227,215494,1,8,0:0:0:0:
250,227,215577,1,8,0:0:0:0:
250,227,215660,1,0,0:0:0:0:
250,227,215827,1,8,0:0:0:0:
250,227,215910,1,8,0:0:0:0:
261,233,215994,1,0,0:0:0:0:
261,233,216077,1,0,0:0:0:0:
140,213,216160,1,8,0:0:0:0:
140,213,216244,1,8,0:0:0:0:
140,213,216327,1,0,0:0:0:0:
140,213,216494,1,8,0:0:0:0:
284,224,216660,1,0,0:0:0:0:
276,257,216827,1,0,0:0:0:0:
276,257,216910,1,0,0:0:0:0:
276,257,216994,1,8,0:0:0:0:
276,257,217160,1,0,0:0:0:0:
197,204,217327,1,8,0:0:0:0:
197,204,217494,1,0,0:0:0:0:
197,204,217577,1,0,0:0:0:0:
197,204,217660,1,8,0:0:0:0:
182,170,217827,1,0,0:0:0:0:
240,198,217994,1,0,0:0:0:0:
240,198,218160,1,8,0:0:0:0:
240,198,218244,1,8,0:0:0:0:
240,198,218327,1,0,0:0:0:0:
240,198,218494,1,8,0:0:0:0:
263,207,218660,1,8,0:0:0:0:
263,207,218744,1,0,0:0:0:0:
263,207,218827,1,8,0:0:0:0:
237,186,218994,1,0,0:0:0:0:
237,187,219049,1,0,0:0:0:0:
237,187,219105,1,0,0:0:0:0:
237,187,219160,1,8,0:0:0:0:
274,210,219327,1,0,0:0:0:0:
274,210,219494,1,0,0:0:0:0:
274,210,219577,1,0,0:0:0:0:
274,210,219660,1,8,0:0:0:0:
274,210,219827,1,0,0:0:0:0:
254,217,219994,1,8,0:0:0:0:
253,218,220077,1,8,0:0:0:0:
253,218,220160,1,0,0:0:0:0:
253,218,220244,1,0,0:0:0:0:
253,218,220327,1,8,0:0:0:0:
253,218,220494,1,0,0:0:0:0:
243,220,220660,1,0,0:0:0:0:
243,220,220744,1,0,0:0:0:0:
243,220,220827,1,8,0:0:0:0:
243,220,220910,1,0,0:0:0:0:
243,220,220994,1,0,0:0:0:0:
243,220,221077,1,0,0:0:0:0:
243,220,221160,1,8,0:0:0:0:
243,220,221244,1,8,0:0:0:0:
224,218,221327,1,0,0:0:0:0:
224,218,221410,1,8,0:0:0:0:
224,218,221494,1,0,0:0:0:0:
224,218,221577,1,8,0:0:0:0:
250,218,221660,1,0,0:0:0:0:
250,221,221744,1,8,0:0:0:0:
250,221,221827,1,8,0:0:0:0:
250,221,221994,1,0,0:0:0:0:
194,224,222077,1,0,0:0:0:0:
194,224,222160,1,0,0:0:0:0:
194,224,222244,1,0,0:0:0:0:
194,224,222327,1,8,0:0:0:0:
276,222,222494,1,0,0:0:0:0:
269,217,222660,1,8,0:0:0:0:
269,218,222827,1,0,0:0:0:0:
72,205,222910,1,8,0:0:0:0:
72,205,222994,1,0,0:0:0:0:
76,214,223160,1,8,0:0:0:0:
299,234,223327,1,0,0:0:0:0:
325,249,223494,1,0,0:0:0:0:
325,249,223577,1,0,0:0:0:0:
325,249,223660,1,8,0:0:0:0:
259,222,223827,1,0,0:0:0:0:
259,222,223994,1,8,0:0:0:0:
259,222,224160,1,0,0:0:0:0:
259,222,224327,1,8,0:0:0:0:
259,222,224494,1,8,0:0:0:0:
293,221,224660,1,0,0:0:0:0:
293,221,224827,1,0,0:0:0:0:
293,221,224883,1,0,0:0:0:0:
158,222,224938,1,0,0:0:0:0:
293,221,224994,1,8,0:0:0:0:
214,187,225160,1,8,0:0:0:0:
214,187,225244,1,8,0:0:0:0:
143,259,225327,1,0,0:0:0:0:
177,266,225494,1,8,0:0:0:0:
269,257,225660,1,0,0:0:0:0:
332,294,225744,1,0,0:0:0:0:
266,252,225827,1,8,0:0:0:0:
332,304,225994,1,0,0:0:0:0:
322,291,226160,1,8,0:0:0:0:
322,291,226244,1,8,0:0:0:0:
322,291,226327,1,0,0:0:0:0:
322,291,226494,1,8,0:0:0:0:
282,240,226660,1,0,0:0:0:0:
282,240,226744,1,0,0:0:0:0:
282,238,226827,1,8,0:0:0:0:
282,240,226910,1,8,0:0:0:0:
282,240,226994,1,0,0:0:0:0:
282,240,227160,1,8,0:0:0:0:
259,226,227327,1,4,0:0:0:0:
240,234,227494,1,0,0:0:0:0:
240,234,227577,1,0,0:0:0:0:
240,234,227660,1,8,0:0:0:0:
240,234,227827,1,0,0:0:0:0:
282,240,227994,1,8,0:0:0:0:
282,240,228077,1,0,0:0:0:0:
282,240,228160,1,0,0:0:0:0:
282,240,228244,1,0,0:0:0:0:
282,240,228327,1,8,0:0:0:0:
282,240,228494,1,0,0:0:0:0:
302,279,228660,1,0,0:0:0:0:
302,279,228744,1,0,0:0:0:0:
302,279,228827,1,8,0:0:0:0:
302,279,228910,1,8,0:0:0:0:
302,279,228994,1,0,0:0:0:0:
302,279,229077,1,0,0:0:0:0:
302,279,229160,1,8,0:0:0:0:
302,279,229244,1,0,0:0:0:0:
289,231,229327,1,0,0:0:0:0:
289,231,229410,1,0,0:0:0:0:
289,231,229494,1,8,0:0:0:0:
289,231,229577,1,0,0:0:0:0:
263,242,229660,1,8,0:0:0:0:
263,242,229744,1,0,0:0:0:0:
263,242,229827,1,8,0:0:0:0:
263,242,229910,1,8,0:0:0:0:
232,220,229994,1,0,0:0:0:0:
232,220,230077,1,0,0:0:0:0:
232,220,230160,1,8,0:0:0:0:
232,220,230244,1,0,0:0:0:0:
232,220,230327,1,8,0:0:0:0:
232,220,230410,1,8,0:0:0:0:
232,220,230494,1,8,0:0:0:0:
232,220,230577,1,8,0:0:0:0:
262,219,230660,1,0,0:0:0:0:
262,219,230744,1,0,0:0:0:0:
262,219,230827,1,8,0:0:0:0:
262,219,230910,1,0,0:0:0:0:
262,243,230994,1,8,0:0:0:0:
262,243,231049,1,8,0:0:0:0:
262,243,231105,1,8,0:0:0:0:
262,243,231160,1,8,0:0:0:0:
286,254,231216,1,8,0:0:0:0:
286,251,231272,1,8,0:0:0:0:
262,219,231327,1,0,0:0:0:0:
236,245,231660,1,0,0:0:0:0:
236,245,231744,1,0,0:0:0:0:
236,245,231827,1,8,0:0:0:0:
236,245,231910,1,0,0:0:0:0:
236,245,231994,1,8,0:0:0:0:
236,245,232077,1,8,0:0:0:0:
236,245,232160,1,0,0:0:0:0:
236,245,232244,1,0,0:0:0:0:
236,245,232327,1,8,0:0:0:0:
188,168,232660,1,4,0:0:0:0:
188,168,232827,1,12,0:0:0:0:
188,168,232994,1,4,0:0:0:0:
188,168,233160,1,12,0:0:0:0:
188,168,233327,1,4,0:0:0:0:
256,217,233827,1,4,0:0:0:0:
256,217,234160,1,12,0:0:0:0:
256,217,234327,1,4,0:0:0:0:
256,217,234494,1,12,0:0:0:0:
256,217,234660,1,4,0:0:0:0:
302,260,235327,1,4,0:0:0:0:
302,260,235494,1,12,0:0:0:0:
302,260,235660,1,12,0:0:0:0:
302,260,235827,1,4,0:0:0:0:
302,260,235994,1,4,0:0:0:0:
304,255,236494,1,4,0:0:0:0:
299,253,236827,1,4,0:0:0:0:
304,255,237160,1,4,0:0:0:0:
304,255,237327,1,4,0:0:0:0:
322,227,237494,1,0,0:0:0:0:
322,227,237577,1,0,0:0:0:0:
322,227,237660,1,8,0:0:0:0:
271,210,237994,1,4,0:0:0:0:
271,210,238160,1,12,0:0:0:0:
271,210,238327,1,4,0:0:0:0:
271,210,238494,1,12,0:0:0:0:
271,210,238660,1,4,0:0:0:0:
350,296,239160,1,4,0:0:0:0:
330,293,239494,1,12,0:0:0:0:
330,293,239660,1,4,0:0:0:0:
330,293,239827,1,12,0:0:0:0:
330,293,239994,1,4,0:0:0:0:
281,255,240660,1,12,0:0:0:0:
281,255,240827,1,4,0:0:0:0:
281,255,240994,1,4,0:0:0:0:
281,255,241160,1,12,0:0:0:0:
281,255,241327,1,4,0:0:0:0:
329,281,241827,1,4,0:0:0:0:
279,230,242160,1,4,0:0:0:0:
279,230,242494,1,4,0:0:0:0:
274,204,242660,1,4,0:0:0:0:
306,209,242827,1,0,0:0:0:0:
306,209,242883,1,0,0:0:0:0:
306,209,242938,1,0,0:0:0:0:
306,209,242994,1,8,0:0:0:0:
163,215,243327,1,0,0:0:0:0:
281,224,243660,1,8,0:0:0:0:
285,220,243994,1,0,0:0:0:0:
257,211,244160,1,0,0:0:0:0:
257,211,244327,1,8,0:0:0:0:
250,229,244660,1,0,0:0:0:0:
250,229,244994,1,8,0:0:0:0:
250,229,245160,1,0,0:0:0:0:
250,229,245494,1,0,0:0:0:0:
250,229,245660,1,8,0:0:0:0:
194,265,245994,1,0,0:0:0:0:
247,216,246327,1,8,0:0:0:0:
298,247,246660,1,0,0:0:0:0:
298,247,246827,1,0,0:0:0:0:
298,247,246994,1,8,0:0:0:0:
235,227,247327,1,0,0:0:0:0:
235,233,247660,1,8,0:0:0:0:
235,233,248160,1,0,0:0:0:0:
235,233,248327,1,8,0:0:0:0:
254,215,248660,1,4,0:0:0:0:
299,264,248827,1,8,0:0:0:0:
299,264,248994,1,8,0:0:0:0:
254,215,249160,1,4,0:0:0:0:
299,264,249327,1,8,0:0:0:0:
299,264,249494,1,8,0:0:0:0:
254,215,249660,1,4,0:0:0:0:
299,264,249827,1,8,0:0:0:0:
299,264,249994,1,8,0:0:0:0:
254,215,250160,1,4,0:0:0:0:
299,264,250327,1,8,0:0:0:0:
299,264,250494,1,8,0:0:0:0:
254,215,250660,1,4,0:0:0:0:
213,195,250827,1,0,0:0:0:0:
213,195,250883,1,0,0:0:0:0:
213,195,250938,1,0,0:0:0:0:
213,195,250994,1,8,0:0:0:0:
277,220,251327,1,0,0:0:0:0:
277,220,251410,1,0,0:0:0:0:
276,235,251494,1,8,0:0:0:0:
276,235,251577,1,0,0:0:0:0:
276,235,251660,1,8,0:0:0:0:
276,235,251744,1,8,0:0:0:0:
276,235,251827,1,0,0:0:0:0:
276,235,251910,1,8,0:0:0:0:
257,211,251994,1,8,0:0:0:0:
257,211,252077,1,0,0:0:0:0:
257,211,252160,1,8,0:0:0:0:
257,211,252244,1,0,0:0:0:0:
257,211,252327,1,8,0:0:0:0:
257,211,252410,1,8,0:0:0:0:
257,211,252494,1,0,0:0:0:0:
257,211,252577,1,8,0:0:0:0:
129,224,252660,1,0,0:0:0:0:
129,224,252744,1,0,0:0:0:0:
129,224,252827,1,8,0:0:0:0:
129,224,252910,1,0,0:0:0:0:
129,224,252994,1,8,0:0:0:0:
129,224,253077,1,8,0:0:0:0:
129,224,253160,1,0,0:0:0:0:
129,224,253244,1,8,0:0:0:0:
187,234,253327,1,8,0:0:0:0:
187,234,253410,1,0,0:0:0:0:
187,234,253494,1,8,0:0:0:0:
187,234,253577,1,0,0:0:0:0:
182,161,253660,1,8,0:0:0:0:
182,161,253716,1,8,0:0:0:0:
182,161,253772,1,8,0:0:0:0:
182,161,253827,1,0,0:0:0:0:
182,161,253910,1,0,0:0:0:0:
217,196,253994,1,8,0:0:0:0:
281,227,254160,1,0,0:0:0:0:
281,227,254327,1,0,0:0:0:0:
281,227,254494,1,8,0:0:0:0:
281,227,254827,1,0,0:0:0:0:
281,227,254910,1,8,0:0:0:0:
281,227,254994,1,0,0:0:0:0:
281,227,255160,1,0,0:0:0:0:
259,214,255494,1,12,0:0:0:0:
259,214,255660,1,12,0:0:0:0:
259,214,255827,1,12,0:0:0:0:
259,214,255994,1,12,0:0:0:0:
267,222,256160,1,0,0:0:0:0:
267,222,256216,1,0,0:0:0:0:
267,222,256272,1,0,0:0:0:0:
265,224,256327,1,8,0:0:0:0:
256,194,256660,1,4,0:0:0:0:
202,205,256827,1,0,0:0:0:0:
202,205,256910,1,0,0:0:0:0:
202,205,256994,1,8,0:0:0:0:
221,204,257160,1,8,0:0:0:0:
221,204,257244,1,8,0:0:0:0:
221,204,257327,1,0,0:0:0:0:
223,195,257410,1,8,0:0:0:0:
223,195,257494,1,0,0:0:0:0:
177,227,257660,1,8,0:0:0:0:
177,227,257827,1,8,0:0:0:0:
269,228,257994,1,0,0:0:0:0:
269,228,258160,1,0,0:0:0:0:
269,228,258244,1,0,0:0:0:0:
269,228,258327,1,8,0:0:0:0:
339,292,258494,1,0,0:0:0:0:
277,232,258660,1,8,0:0:0:0:
277,232,258744,1,8,0:0:0:0:
277,232,258827,1,0,0:0:0:0:
277,232,258910,1,0,0:0:0:0:
277,232,258994,1,8,0:0:0:0:
277,232,259160,1,8,0:0:0:0:
269,228,259327,1,0,0:0:0:0:
268,225,259494,1,0,0:0:0:0:
181,220,259577,1,0,0:0:0:0:
181,220,259660,1,8,0:0:0:0:
181,220,259827,1,0,0:0:0:0:
234,233,259994,1,8,0:0:0:0:
234,233,260077,1,8,0:0:0:0:
234,233,260160,1,0,0:0:0:0:
234,233,260244,1,0,0:0:0:0:
171,225,260327,1,8,0:0:0:0:
171,225,260494,1,0,0:0:0:0:
262,249,260660,1,8,0:0:0:0:
262,249,260827,1,0,0:0:0:0:
262,249,260910,1,0,0:0:0:0:
262,249,260994,1,8,0:0:0:0:
262,249,261160,1,0,0:0:0:0:
252,241,261327,1,8,0:0:0:0:
252,241,261410,1,0,0:0:0:0:
252,241,261494,1,8,0:0:0:0:
252,241,261577,1,0,0:0:0:0:
252,241,261660,1,8,0:0:0:0:
251,240,261827,1,8,0:0:0:0:
244,255,261994,1,4,0:0:0:0:
120,199,262160,1,0,0:0:0:0:
131,202,262216,1,0,0:0:0:0:
131,203,262272,1,0,0:0:0:0:
131,203,262327,1,8,0:0:0:0:
218,234,262494,1,0,0:0:0:0:
218,234,262577,1,0,0:0:0:0:
218,234,262660,1,8,0:0:0:0:
218,234,262744,1,8,0:0:0:0:
218,234,262827,1,0,0:0:0:0:
283,228,262994,1,8,0:0:0:0:
339,317,263160,1,0,0:0:0:0:
308,239,263327,1,4,0:0:0:0:
308,239,263494,1,0,0:0:0:0:
308,239,263577,1,0,0:0:0:0:
308,239,263660,1,8,0:0:0:0:
308,239,263827,1,0,0:0:0:0:
291,233,263994,1,8,0:0:0:0:
291,233,264077,1,8,0:0:0:0:
291,233,264160,1,0,0:0:0:0:
291,233,264244,1,8,0:0:0:0:
291,233,264327,1,0,0:0:0:0:
212,195,264494,1,8,0:0:0:0:
262,220,264660,1,4,0:0:0:0:
245,211,264994,1,0,0:0:0:0:
245,211,265160,1,12,0:0:0:0:
245,211,265494,1,12,0:0:0:0:
149,223,265660,1,0,0:0:0:0:
245,211,265827,1,12,0:0:0:0:
145,216,266160,1,0,0:0:0:0:
145,216,266244,1,0,0:0:0:0:
270,215,266327,1,8,0:0:0:0:
268,224,266410,1,0,0:0:0:0:
268,224,266494,1,0,0:0:0:0:
234,220,266577,1,0,0:0:0:0:
257,199,266660,1,8,0:0:0:0:
257,199,266744,1,8,0:0:0:0:
257,199,266827,1,0,0:0:0:0:
222,170,266910,1,0,0:0:0:0:
268,166,266994,1,8,0:0:0:0:
268,166,267049,1,8,0:0:0:0:
268,166,267105,1,8,0:0:0:0:
262,172,267160,1,0,0:0:0:0:
181,193,267244,1,0,0:0:0:0:
256,194,267327,1,8,0:0:0:0:
202,205,267494,1,0,0:0:0:0:
202,205,267577,1,0,0:0:0:0:
202,205,267660,1,8,0:0:0:0:
221,204,267827,1,8,0:0:0:0:
221,204,267910,1,8,0:0:0:0:
221,204,267994,1,0,0:0:0:0:
223,195,268077,1,8,0:0:0:0:
223,195,268160,1,0,0:0:0:0:
177,227,268327,1,8,0:0:0:0:
177,227,268494,1,8,0:0:0:0:
269,228,268660,1,0,0:0:0:0:
269,228,268827,1,0,0:0:0:0:
269,228,268910,1,0,0:0:0:0:
269,228,268994,1,8,0:0:0:0:
339,292,269160,1,0,0:0:0:0:
277,232,269327,1,8,0:0:0:0:
277,232,269410,1,8,0:0:0:0:
277,232,269494,1,0,0:0:0:0:
277,232,269577,1,0,0:0:0:0:
277,232,269660,1,8,0:0:0:0:
277,232,269827,1,8,0:0:0:0:
269,228,269994,1,0,0:0:0:0:
268,225,270160,1,0,0:0:0:0:
181,220,270244,1,0,0:0:0:0:
181,220,270327,1,8,0:0:0:0:
181,220,270494,1,0,0:0:0:0:
234,233,270660,1,8,0:0:0:0:
234,233,270744,1,8,0:0:0:0:
234,233,270827,1,0,0:0:0:0:
234,233,270910,1,0,0:0:0:0:
171,225,270994,1,8,0:0:0:0:
171,225,271160,1,0,0:0:0:0:
262,249,271327,1,8,0:0:0:0:
262,249,271494,1,0,0:0:0:0:
262,249,271577,1,0,0:0:0:0:
262,249,271660,1,8,0:0:0:0:
262,249,271827,1,0,0:0:0:0:
252,241,271994,1,8,0:0:0:0:
252,241,272077,1,0,0:0:0:0:
252,241,272160,1,8,0:0:0:0:
252,241,272244,1,0,0:0:0:0:
252,241,272327,1,8,0:0:0:0:
252,241,272410,1,8,0:0:0:0:
251,240,272494,1,0,0:0:0:0:
266,234,272660,1,4,0:0:0:0:
256,228,272827,1,0,0:0:0:0:
256,228,272883,1,0,0:0:0:0:
256,228,272938,1,0,0:0:0:0:
256,228,272994,1,8,0:0:0:0:
188,223,273160,1,0,0:0:0:0:
188,223,273327,1,8,0:0:0:0:
188,223,273410,1,8,0:0:0:0:
189,228,273494,1,0,0:0:0:0:
347,284,273660,1,8,0:0:0:0:
347,284,273827,1,8,0:0:0:0:
166,219,273994,1,4,0:0:0:0:
166,219,274160,1,0,0:0:0:0:
166,219,274244,1,0,0:0:0:0:
176,223,274327,1,8,0:0:0:0:
173,226,274494,1,0,0:0:0:0:
269,194,274660,1,8,0:0:0:0:
269,194,274744,1,8,0:0:0:0:
269,194,274827,1,0,0:0:0:0:
269,194,274910,1,0,0:0:0:0:
269,194,274994,1,8,0:0:0:0:
268,236,275160,1,8,0:0:0:0:
284,233,275327,1,0,0:0:0:0:
311,274,275660,1,12,0:0:0:0:
311,274,275994,1,0,0:0:0:0:
308,266,276327,1,12,0:0:0:0:
276,235,276494,1,4,0:0:0:0:
286,277,276827,1,4,0:0:0:0:
286,277,276994,1,4,0:0:0:0:
320,278,277327,1,4,0:0:0:0:
320,278,277494,1,8,0:0:0:0:
320,278,277577,1,8,0:0:0:0:
320,278,277660,1,8,0:0:0:0:
354,318,277827,1,4,0:0:0:0:
359,313,278160,1,4,0:0:0:0:
359,313,278327,1,4,0:0:0:0:
317,291,278660,1,4,0:0:0:0:
317,291,278827,1,8,0:0:0:0:
317,291,278910,1,8,0:0:0:0:
317,291,278994,1,8,0:0:0:0:
279,254,279160,1,4,0:0:0:0:
279,254,279494,1,4,0:0:0:0:
305,283,279660,1,0,0:0:0:0:
304,281,279744,1,0,0:0:0:0:
303,281,279827,1,8,0:0:0:0:
303,281,279910,1,0,0:0:0:0:
296,226,279994,1,8,0:0:0:0:
296,226,280077,1,8,0:0:0:0:
228,234,280160,1,0,0:0:0:0:
228,234,280216,1,0,0:0:0:0:
228,234,280272,1,0,0:0:0:0:
228,234,280327,1,8,0:0:0:0:
265,215,280660,1,12,0:0:0:0:
287,221,280827,1,0,0:0:0:0:
287,221,280910,1,0,0:0:0:0:
287,221,280994,1,8,0:0:0:0:
287,222,281160,1,0,0:0:0:0:
295,238,281327,1,8,0:0:0:0:
295,238,281410,1,8,0:0:0:0:
293,238,281494,1,0,0:0:0:0:
293,238,281577,1,0,0:0:0:0:
293,238,281660,1,8,0:0:0:0:
293,238,281827,1,8,0:0:0:0:
289,198,281910,1,8,0:0:0:0:
310,234,281994,1,0,0:0:0:0:
309,234,282160,1,8,0:0:0:0:
286,184,282244,1,0,0:0:0:0:
309,234,282327,1,8,0:0:0:0:
258,226,282494,1,0,0:0:0:0:
232,227,282660,1,8,0:0:0:0:
232,227,282744,1,8,0:0:0:0:
232,227,282827,1,0,0:0:0:0:
232,227,282910,1,8,0:0:0:0:
232,227,282994,1,0,0:0:0:0:
93,175,283077,1,0,0:0:0:0:
232,227,283160,1,8,0:0:0:0:
275,224,283327,1,0,0:0:0:0:
275,224,283494,1,0,0:0:0:0:
275,224,283577,1,0,0:0:0:0:
275,224,283660,1,8,0:0:0:0:
275,224,283827,1,0,0:0:0:0:
247,200,283994,1,8,0:0:0:0:
247,200,284077,1,0,0:0:0:0:
247,200,284160,1,0,0:0:0:0:
247,200,284244,1,0,0:0:0:0:
247,200,284327,1,8,0:0:0:0:
302,237,284494,1,8,0:0:0:0:
302,237,284577,1,8,0:0:0:0:
267,214,284660,1,0,0:0:0:0:
266,214,284744,1,0,0:0:0:0:
265,214,284827,1,8,0:0:0:0:
265,214,284910,1,0,0:0:0:0:
265,214,284994,1,8,0:0:0:0:
305,249,285160,1,0,0:0:0:0:
266,216,285327,1,8,0:0:0:0:
267,214,285410,1,8,0:0:0:0:
267,214,285494,1,0,0:0:0:0:
267,214,285577,1,8,0:0:0:0:
267,214,285660,1,0,0:0:0:0:
266,214,285744,1,0,0:0:0:0:
265,214,285827,1,8,0:0:0:0:
283,252,285994,1,8,0:0:0:0:
283,252,286160,1,0,0:0:0:0:
283,252,286244,1,0,0:0:0:0:
283,252,286327,1,8,0:0:0:0:
283,252,286494,1,0,0:0:0:0:
259,216,286660,1,8,0:0:0:0:
259,216,286744,1,0,0:0:0:0:
259,216,286827,1,0,0:0:0:0:
259,216,286910,1,0,0:0:0:0:
259,216,286994,1,8,0:0:0:0:
309,266,287160,1,8,0:0:0:0:
309,266,287244,1,8,0:0:0:0:
259,216,287327,1,0,0:0:0:0:
259,216,287494,1,8,0:0:0:0:
259,216,287577,1,0,0:0:0:0:
259,216,287660,1,8,0:0:0:0:
259,216,287827,1,0,0:0:0:0:
283,209,287994,1,8,0:0:0:0:
283,209,288077,1,0,0:0:0:0:
283,209,288160,1,8,0:0:0:0:
283,209,288244,1,8,0:0:0:0:
207,228,288327,1,0,0:0:0:0:
207,228,288410,1,0,0:0:0:0:
207,228,288494,1,8,0:0:0:0:
249,200,288660,1,0,0:0:0:0:
251,208,288827,1,0,0:0:0:0:
251,208,288910,1,0,0:0:0:0:
251,208,288994,1,8,0:0:0:0:
251,208,289160,1,0,0:0:0:0:
235,226,289327,1,8,0:0:0:0:
235,226,289410,1,0,0:0:0:0:
226,180,289494,1,8,0:0:0:0:
226,180,289577,1,8,0:0:0:0:
152,231,289660,1,0,0:0:0:0:
184,204,289827,1,8,0:0:0:0:
184,204,289910,1,8,0:0:0:0:
211,200,289994,1,0,0:0:0:0:
211,200,290160,1,0,0:0:0:0:
211,200,290244,1,0,0:0:0:0:
211,200,290327,1,8,0:0:0:0:
211,200,290410,1,0,0:0:0:0:
211,200,290494,1,8,0:0:0:0:
219,209,290577,1,8,0:0:0:0:
244,204,290660,1,0,0:0:0:0:
244,204,290744,1,8,0:0:0:0:
244,204,290827,1,8,0:0:0:0:
244,204,290910,1,0,0:0:0:0:
244,204,290994,1,8,0:0:0:0:
244,204,291077,1,0,0:0:0:0:
186,224,291160,1,8,0:0:0:0:
248,231,291327,1,12,0:0:0:0:
248,231,291494,1,0,0:0:0:0:
248,231,291577,1,0,0:0:0:0:
248,231,291660,1,8,0:0:0:0:
248,231,291827,1,0,0:0:0:0:
252,237,291994,1,8,0:0:0:0:
252,237,292077,1,8,0:0:0:0:
252,237,292160,1,0,0:0:0:0:
252,237,292244,1,0,0:0:0:0:
252,237,292327,1,8,0:0:0:0:
252,237,292494,1,8,0:0:0:0:
252,237,292577,1,8,0:0:0:0:
266,217,292660,1,0,0:0:0:0:
70,228,292744,1,0,0:0:0:0:
266,217,292827,1,8,0:0:0:0:
266,217,292910,1,0,0:0:0:0:
266,217,292994,1,8,0:0:0:0:
266,217,293160,1,0,0:0:0:0:
265,247,293327,1,8,0:0:0:0:
265,247,293410,1,8,0:0:0:0:
265,247,293494,1,0,0:0:0:0:
265,247,293577,1,8,0:0:0:0:
265,247,293660,1,0,0:0:0:0:
207,243,293744,1,0,0:0:0:0:
265,247,293827,1,8,0:0:0:0:
265,247,293994,1,0,0:0:0:0:
265,247,294160,1,8,0:0:0:0:
265,247,294244,1,8,0:0:0:0:
265,247,294327,1,0,0:0:0:0:
265,247,294494,1,8,0:0:0:0:
265,247,294660,1,0,0:0:0:0:
265,247,294744,1,8,0:0:0:0:
265,247,294827,1,8,0:0:0:0:
265,247,294910,1,8,0:0:0:0:
265,247,294994,1,0,0:0:0:0:
265,247,295160,1,8,0:0:0:0:
350,309,295327,1,0,0:0:0:0:
263,235,295494,1,0,0:0:0:0:
263,235,295577,1,0,0:0:0:0:
263,235,295660,1,8,0:0:0:0:
263,235,295744,1,8,0:0:0:0:
263,235,295827,1,0,0:0:0:0:
245,228,295994,1,8,0:0:0:0:
245,228,296077,1,8,0:0:0:0:
245,228,296160,1,0,0:0:0:0:
245,228,296244,1,8,0:0:0:0:
162,211,296327,1,0,0:0:0:0:
162,211,296410,1,0,0:0:0:0:
162,211,296494,1,8,0:0:0:0:
243,217,296660,1,4,0:0:0:0:
254,163,296827,1,0,0:0:0:0:
254,163,296883,1,0,0:0:0:0:
254,163,296938,1,0,0:0:0:0:
250,167,296994,1,8,0:0:0:0:
352,285,297160,1,0,0:0:0:0:
256,190,297327,1,8,0:0:0:0:
256,190,297410,1,0,0:0:0:0:
256,190,297494,1,0,0:0:0:0:
256,190,297577,1,0,0:0:0:0:
256,190,297660,1,8,0:0:0:0:
256,190,297827,1,8,0:0:0:0:
190,230,297994,1,4,0:0:0:0:
300,264,298160,1,0,0:0:0:0:
300,264,298244,1,0,0:0:0:0:
300,264,298327,1,8,0:0:0:0:
300,264,298494,1,0,0:0:0:0:
192,201,298660,1,8,0:0:0:0:
192,201,298744,1,8,0:0:0:0:
192,201,298827,1,0,0:0:0:0:
192,201,298910,1,0,0:0:0:0:
192,201,298994,1,8,0:0:0:0:
192,201,299077,1,8,0:0:0:0:
192,201,299160,1,0,0:0:0:0:
285,238,299327,1,0,0:0:0:0:
285,238,299660,1,12,0:0:0:0:
285,238,299994,1,0,0:0:0:0:
285,238,300327,1,12,0:0:0:0:
244,249,300827,1,4,0:0:0:0:
244,249,300994,1,4,0:0:0:0:
321,267,301327,1,4,0:0:0:0:
301,244,301494,1,0,0:0:0:0:
301,244,301549,1,0,0:0:0:0:
254,226,301605,1,0,0:0:0:0:
301,244,301660,1,8,0:0:0:0:
260,204,301994,1,12,0:0:0:0:
277,264,302160,1,0,0:0:0:0:
277,264,302244,1,0,0:0:0:0:
161,240,302327,1,8,0:0:0:0:
161,240,302494,1,8,0:0:0:0:
239,235,302660,1,0,0:0:0:0:
239,235,302744,1,0,0:0:0:0:
239,235,302827,1,8,0:0:0:0:
168,245,302994,1,8,0:0:0:0:
169,245,303160,1,0,0:0:0:0:
225,221,303327,1,0,0:0:0:0:
225,221,303494,1,8,0:0:0:0:
226,221,303577,1,0,0:0:0:0:
226,221,303660,1,8,0:0:0:0:
226,221,303827,1,0,0:0:0:0:
225,221,303994,1,8,0:0:0:0:
225,221,304077,1,8,0:0:0:0:
225,221,304160,1,0,0:0:0:0:
225,221,304244,1,0,0:0:0:0:
225,221,304327,1,8,0:0:0:0:
249,195,304494,1,8,0:0:0:0:
256,221,304660,1,0,0:0:0:0:
256,221,304827,1,8,0:0:0:0:
256,221,304910,1,8,0:0:0:0:
256,221,304994,1,0,0:0:0:0:
256,221,305160,1,8,0:0:0:0:
256,221,305327,1,0,0:0:0:0:
256,221,305494,1,8,0:0:0:0:
256,221,305577,1,8,0:0:0:0:
256,221,305660,1,0,0:0:0:0:
256,226,305827,1,8,0:0:0:0:
256,221,305994,1,0,0:0:0:0:
256,221,306160,1,8,0:0:0:0:
256,221,306244,1,0,0:0:0:0:
256,221,306327,1,0,0:0:0:0:
256,221,306494,1,8,0:0:0:0:
256,221,306577,1,0,0:0:0:0:
256,221,306660,1,0,0:0:0:0:
260,220,306827,1,12,0:0:0:0:
256,221,306994,1,12,0:0:0:0:
260,204,307327,1,8,0:0:0:0:
277,264,307494,1,0,0:0:0:0:
277,264,307577,1,0,0:0:0:0:
161,240,307660,1,8,0:0:0:0:
161,240,307827,1,8,0:0:0:0:
239,235,307994,1,0,0:0:0:0:
239,235,308077,1,0,0:0:0:0:
239,235,308160,1,8,0:0:0:0:
168,245,308327,1,0,0:0:0:0:
169,245,308494,1,8,0:0:0:0:
225,221,308660,1,0,0:0:0:0:
225,221,308827,1,8,0:0:0:0:
226,221,308910,1,0,0:0:0:0:
226,221,308994,1,8,0:0:0:0:
226,221,309160,1,0,0:0:0:0:
225,221,309327,1,8,0:0:0:0:
225,221,309410,1,8,0:0:0:0:
225,221,309494,1,0,0:0:0:0:
225,221,309577,1,0,0:0:0:0:
225,221,309660,1,8,0:0:0:0:
265,184,309827,1,8,0:0:0:0:
256,221,309994,1,0,0:0:0:0:
256,221,310160,1,8,0:0:0:0:
256,221,310244,1,8,0:0:0:0:
256,221,310327,1,0,0:0:0:0:
256,221,310494,1,8,0:0:0:0:
256,221,310660,1,0,0:0:0:0:
256,221,310827,1,8,0:0:0:0:
256,221,310910,1,8,0:0:0:0:
256,221,310994,1,0,0:0:0:0:
256,226,311160,1,8,0:0:0:0:
256,221,311327,1,0,0:0:0:0:
235,204,311494,1,8,0:0:0:0:
149,186,311577,1,0,0:0:0:0:
149,186,311660,1,0,0:0:0:0:
149,186,311827,1,8,0:0:0:0:
149,186,311910,1,0,0:0:0:0:
149,186,311994,1,0,0:0:0:0:
260,220,312160,1,12,0:0:0:0:
256,221,312327,1,12,0:0:0:0:
251,208,312660,1,4,0:0:0:0:
232,218,312827,1,0,0:0:0:0:
232,218,312910,1,0,0:0:0:0:
232,218,312994,1,8,0:0:0:0:
232,218,313160,1,0,0:0:0:0:
271,228,313327,1,8,0:0:0:0:
271,228,313494,1,0,0:0:0:0:
271,228,313577,1,8,0:0:0:0:
271,228,313660,1,8,0:0:0:0:
271,228,313827,1,8,0:0:0:0:
262,237,313994,1,0,0:0:0:0:
262,238,314160,1,0,0:0:0:0:
262,238,314244,1,8,0:0:0:0:
262,238,314327,1,0,0:0:0:0:
262,238,314494,1,0,0:0:0:0:
285,241,314660,1,8,0:0:0:0:
227,241,314827,1,0,0:0:0:0:
227,241,314910,1,0,0:0:0:0:
227,241,314994,1,8,0:0:0:0:
269,238,315077,1,0,0:0:0:0:
227,241,315160,1,0,0:0:0:0:
309,259,315327,1,0,0:0:0:0:
309,259,315494,1,0,0:0:0:0:
309,259,315577,1,0,0:0:0:0:
309,259,315660,1,8,0:0:0:0:
309,259,315827,1,0,0:0:0:0:
265,232,315994,1,0,0:0:0:0:
178,221,316160,1,8,0:0:0:0:
178,221,316244,1,8,0:0:0:0:
178,221,316327,1,0,0:0:0:0:
178,221,316494,1,8,0:0:0:0:
243,221,316660,1,0,0:0:0:0:
243,221,316827,1,0,0:0:0:0:
243,221,316910,1,0,0:0:0:0:
243,221,316994,1,0,0:0:0:0:
243,221,317160,1,8,0:0:0:0:
225,213,317327,1,0,0:0:0:0:
202,227,317494,1,12,0:0:0:0:
202,227,317660,1,12,0:0:0:0:
279,200,317994,1,4,0:0:0:0:
279,216,318160,1,0,0:0:0:0:
279,216,318244,1,8,0:0:0:0:
279,216,318327,1,0,0:0:0:0:
279,216,318494,1,8,0:0:0:0:
293,219,318660,1,8,0:0:0:0:
292,219,318827,1,0,0:0:0:0:
194,234,318910,1,0,0:0:0:0:
194,234,318994,1,8,0:0:0:0:
194,234,319160,1,0,0:0:0:0:
272,220,319327,1,4,0:0:0:0:
272,220,319494,1,0,0:0:0:0:
272,220,319577,1,0,0:0:0:0:
272,220,319660,1,8,0:0:0:0:
272,222,319827,1,0,0:0:0:0:
275,225,319994,1,8,0:0:0:0:
275,225,320160,1,0,0:0:0:0:
275,225,320244,1,0,0:0:0:0:
275,225,320327,1,8,0:0:0:0:
275,225,320410,1,0,0:0:0:0:
275,225,320494,1,8,0:0:0:0:
323,262,320660,1,0,0:0:0:0:
323,262,320994,1,12,0:0:0:0:
323,262,321327,1,0,0:0:0:0:
323,262,321660,1,12,0:0:0:0:
229,211,322160,1,4,0:0:0:0:
229,211,322327,1,4,0:0:0:0:
229,211,322660,1,4,0:0:0:0:
312,198,322827,1,0,0:0:0:0:
152,199,322883,1,0,0:0:0:0:
152,199,322938,1,0,0:0:0:0:
312,198,322994,1,8,0:0:0:0:
193,213,323327,1,8,0:0:0:0:
193,213,323660,1,0,0:0:0:0:
193,213,323827,1,8,0:0:0:0:
193,213,324160,1,0,0:0:0:0:
193,213,324494,1,8,0:0:0:0:
193,213,324827,1,0,0:0:0:0:
193,213,324994,1,8,0:0:0:0:
193,213,325327,1,8,0:0:0:0:
193,213,325494,1,0,0:0:0:0:
236,231,325827,1,8,0:0:0:0:
236,231,326160,1,0,0:0:0:0:
236,231,326494,1,0,0:0:0:0:
236,231,326827,1,8,0:0:0:0:
236,231,327160,1,8,0:0:0:0:
275,230,327494,1,0,0:0:0:0:
275,230,327827,1,0,0:0:0:0:
275,230,328160,1,0,0:0:0:0:
275,230,328494,1,0,0:0:0:0:
193,213,328660,1,8,0:0:0:0:
193,213,328994,1,0,0:0:0:0:
193,213,329160,1,8,0:0:0:0:
193,213,329494,1,0,0:0:0:0:
193,213,329827,1,8,0:0:0:0:
193,213,330160,1,0,0:0:0:0:
193,213,330327,1,8,0:0:0:0:
193,213,330660,1,8,0:0:0:0:
193,213,330827,1,0,0:0:0:0:
249,219,331160,1,8,0:0:0:0:
272,219,331494,1,0,0:0:0:0:
272,219,331827,1,0,0:0:0:0:
272,219,332160,1,8,0:0:0:0:
272,219,332494,1,8,0:0:0:0:
272,219,332827,1,0,0:0:0:0:
272,219,333160,1,0,0:0:0:0:
272,219,333494,1,0,0:0:0:0:
272,219,333827,1,0,0:0:0:0:
225,196,333994,1,8,0:0:0:0:
323,303,334327,1,0,0:0:0:0:
318,297,334494,1,8,0:0:0:0:
317,297,334827,1,0,0:0:0:0:
304,206,335160,1,8,0:0:0:0:
254,232,335494,1,0,0:0:0:0:
254,232,335660,1,8,0:0:0:0:
254,232,335994,1,8,0:0:0:0:
254,232,336160,1,0,0:0:0:0:
225,196,339327,1,8,0:0:0:0:
323,303,339660,1,0,0:0:0:0:
318,297,339827,1,8,0:0:0:0:
317,297,340160,1,0,0:0:0:0:
304,206,340494,1,8,0:0:0:0:
254,232,340827,1,0,0:0:0:0:
254,232,340994,1,8,0:0:0:0:
254,232,341327,1,8,0:0:0:0:
254,232,341494,1,0,0:0:0:0:
259,204,343327,1,12,0:0:0:0:
