osu file format v14

[General]
AudioFilename: audio.mp3
AudioLeadIn: 0
PreviewTime: 71338
Countdown: 0
SampleSet: Soft
StackLeniency: 0.7
Mode: 0
LetterboxInBreaks: 0
WidescreenStoryboard: 1

[Editor]
Bookmarks: 12755,159921,170588,252588
DistanceSpacing: 0.9
BeatDivisor: 4
GridSize: 32
TimelineZoom: 2

[Metadata]
Title:Atashi Kawaii Sengen!!!
TitleUnicode:アタシ♡カワイイ♡宣言!!!
Artist:Himesaka Noa (CV: Kito Akari)
ArtistUnicode:姫坂乃愛 (CV: 鬼頭明里)
Creator:[Karcher]
Version:Insane!!!
Source:私に天使が舞い降りた!
Tags:わたてん japanese anime pop jpop j-pop wataten an angel flew down to me watashi ni tenshi ga maiorita 天使のうたごえ no utagoe キャラクターソング character song Kitou
BeatmapID:3278793
BeatmapSetID:1605689

[Difficulty]
HPDrainRate:6
CircleSize:3.8
OverallDifficulty:8
ApproachRate:9
SliderMultiplier:1.7
SliderTickRate:1

[Events]
//Background and Video events
0,0,"BG.jpg",0,0
//Break Periods
2,106808,108008
2,159941,169941
//Storyboard Layer 0 (Background)
//Storyboard Layer 1 (Fail)
//Storyboard Layer 2 (Pass)
//Storyboard Layer 3 (Foreground)
//Storyboard Layer 4 (Overlay)
//Storyboard Sound Samples

[TimingPoints]
609,333.333333333333,4,2,1,65,1,0
13275,333.333333333333,4,2,1,65,1,0
13275,-200,4,2,1,65,0,0
18608,-125,4,2,1,70,0,0
22774,-100,4,2,1,75,0,0
23524,-100,4,2,1,5,0,0
23608,-100,4,2,1,75,0,0
23649,-100,4,2,1,45,0,0
23941,-100,4,2,1,80,0,1
28608,-66.6666666666667,4,2,1,90,0,0
29274,-100,4,2,1,80,0,1
33858,-100,4,2,1,5,0,1
33941,-100,4,2,1,80,0,1
34608,-125,4,2,1,55,0,0
45274,-111.111111111111,4,2,1,60,0,0
49358,-111.111111111111,4,2,1,5,0,0
49441,-111.111111111111,4,2,1,60,0,0
55941,-111.111111111111,4,2,1,70,0,0
59774,-666.666666666667,4,2,1,70,0,0
60524,-666.666666666667,4,2,1,5,0,0
60608,-100,4,2,1,70,0,0
61274,-100,4,2,1,75,0,0
61524,-100,4,2,1,5,0,0
61608,-100,4,2,1,75,0,0
63941,-90.9090909090909,4,2,1,80,0,0
64608,-200,4,2,1,80,0,0
65108,-90.9090909090909,4,2,1,80,0,0
69274,-90.9090909090909,4,2,1,85,0,0
70691,-90.9090909090909,4,2,1,5,0,0
70774,-90.9090909090909,4,2,1,85,0,0
71941,-83.3333333333333,4,2,1,90,0,1
72191,-83.3333333333333,4,2,1,5,0,1
72274,-83.3333333333333,4,2,1,90,0,1
76524,-83.3333333333333,4,2,1,5,0,1
76608,-83.3333333333333,4,2,1,90,0,1
77524,-83.3333333333333,4,2,1,5,0,1
77608,-83.3333333333333,4,2,1,90,0,1
82858,-83.3333333333333,4,2,1,5,0,1
82941,-83.3333333333333,4,2,1,90,0,1
88191,-83.3333333333333,4,2,1,5,0,1
88274,-83.3333333333333,4,2,1,90,0,1
90858,-83.3333333333333,4,2,1,5,0,1
90941,-83.3333333333333,4,2,1,90,0,1
91191,-83.3333333333333,4,2,1,5,0,1
91274,-83.3333333333333,4,2,1,90,0,1
91524,-83.3333333333333,4,2,1,5,0,1
91608,-83.3333333333333,4,2,1,90,0,1
95274,-83.3333333333333,4,2,1,90,0,0
95941,-100,4,2,1,80,0,1
100608,-66.6666666666667,4,2,1,90,0,0
101274,-100,4,2,1,80,0,1
105858,-100,4,2,1,5,0,1
105941,-100,4,2,1,80,0,1
106608,-200,4,2,1,50,0,0
108608,-200,4,2,1,65,0,0
109274,-133.333333333333,4,2,2,60,0,0
118608,-133.333333333333,4,2,1,65,0,0
119941,-125,4,2,1,70,0,0
124858,-125,4,2,1,5,0,0
124941,-125,4,2,1,70,0,0
125191,-125,4,2,1,5,0,0
125274,-125,4,2,1,75,0,0
125483,-125,4,2,1,45,0,0
125608,-125,4,2,1,75,0,0
127941,-125,4,2,1,80,0,0
133274,-90.9090909090909,4,2,1,85,0,0
134691,-90.9090909090909,4,2,1,5,0,0
134774,-90.9090909090909,4,2,1,85,0,0
135941,-83.3333333333333,4,2,1,90,0,1
136191,-83.3333333333333,4,2,1,5,0,1
136274,-83.3333333333333,4,2,1,90,0,1
140524,-83.3333333333333,4,2,1,5,0,1
140608,-83.3333333333333,4,2,1,90,0,1
141524,-83.3333333333333,4,2,1,5,0,1
141608,-83.3333333333333,4,2,1,90,0,1
144691,-83.3333333333333,4,2,1,5,0,1
144774,-83.3333333333333,4,2,1,90,0,1
146941,-83.3333333333333,4,2,1,90,0,1
152191,-83.3333333333333,4,2,1,5,0,1
152274,-83.3333333333333,4,2,1,90,0,1
154858,-83.3333333333333,4,2,1,5,0,1
154941,-83.3333333333333,4,2,1,90,0,1
155191,-83.3333333333333,4,2,1,5,0,1
155274,-83.3333333333333,4,2,1,90,0,1
155524,-83.3333333333333,4,2,1,5,0,1
155608,-83.3333333333333,4,2,1,90,0,1
159274,-83.3333333333333,4,2,1,90,0,0
170608,-200,4,2,1,60,0,0
179774,-125,4,2,1,65,0,0
180608,-125,4,2,1,70,0,0
181274,-100,4,2,1,75,0,0
185358,-100,4,2,1,5,0,0
185441,-100,4,2,1,75,0,0
186024,-100,4,2,1,5,0,0
186108,-100,4,2,1,75,0,0
187858,-100,4,2,1,5,0,0
188108,-100,4,2,1,75,0,0
188191,-100,4,2,1,5,0,0
188441,-100,4,2,1,75,0,0
188691,-100,4,2,1,5,0,0
188774,-100,4,2,1,75,0,0
190691,-100,4,2,1,5,0,0
190774,-100,4,2,1,75,0,0
191941,-100,4,2,1,90,0,0
202608,-100,4,2,1,85,0,0
213274,-90.9090909090909,4,2,1,90,0,0
214691,-90.9090909090909,4,2,1,5,0,0
214774,-90.9090909090909,4,2,1,90,0,0
215941,-83.3333333333333,4,2,1,95,0,1
216191,-83.3333333333333,4,2,1,5,0,1
216274,-83.3333333333333,4,2,1,95,0,1
221524,-83.3333333333333,4,2,1,5,0,1
221608,-83.3333333333333,4,2,1,95,0,1
224191,-83.3333333333333,4,2,1,5,0,1
224274,-83.3333333333333,4,2,1,95,0,1
226858,-83.3333333333333,4,2,1,5,0,1
226941,-83.3333333333333,4,2,1,95,0,1
232191,-83.3333333333333,4,2,1,5,0,1
232274,-83.3333333333333,4,2,1,95,0,1
234858,-83.3333333333333,4,2,1,5,0,1
234941,-83.3333333333333,4,2,1,95,0,1
235191,-83.3333333333333,4,2,1,5,0,1
235274,-83.3333333333333,4,2,1,95,0,1
235524,-83.3333333333333,4,2,1,5,0,1
235608,-83.3333333333333,4,2,1,95,0,1
239274,-55.5555555555556,4,2,1,95,0,0
239941,-90.9090909090909,4,2,1,80,0,1
244608,-66.6666666666667,4,2,1,90,0,0
245274,-90.9090909090909,4,2,1,80,0,1
250608,-125,4,2,1,50,0,0
252608,-125,4,2,1,5,0,0

[Colours]
Combo1 : 121,125,162
Combo2 : 247,203,159
Combo3 : 171,118,118
Combo4 : 89,86,105

[HitObjects]
136,98,12775,5,2,0:0:0:0:
215,157,12942,1,2,0:0:0:0:
228,59,13108,1,2,0:0:0:0:
68,34,13275,6,0,P|45:79|62:159,1,127.5,6|2,3:2|0:0,0:0:0:0:
149,239,13941,6,0,B|108:263|63:245|63:245|84:245|98:232,1,127.5,4|2,3:2|0:0,0:0:0:0:
200,162,14608,6,0,B|271:146|259:187|327:167,1,127.5,4|0,3:2|0:0,0:0:0:0:
359,9,15274,6,0,P|306:18|301:89,1,127.5,6|2,3:2|0:0,0:0:0:0:
464,114,15941,6,0,B|476:103|493:96|493:96|444:92|406:133,1,127.5,6|2,3:2|0:0,0:0:0:0:
340,294,16608,6,0,L|324:166,1,127.5,6|2,3:2|0:0,0:0:0:0:
173,28,17274,6,0,L|157:154,1,127.5,4|0,3:2|0:0,0:0:0:0:
35,335,17941,5,2,0:0:0:0:
20,323,18024,1,2,0:0:0:0:
11,305,18108,1,2,0:0:0:0:
12,286,18191,1,2,0:0:0:0:
21,269,18274,2,0,P|31:258|45:251,3,21.25,2|2|2|2,0:0|0:0|0:0|0:0,0:0:0:0:
119,232,18608,6,0,P|154:240|185:235,1,68,6|8,3:2|0:0,0:0:0:0:
185,234,18858,1,8,0:0:0:0:
185,234,18941,1,10,0:0:0:0:
255,170,19108,1,10,0:0:0:0:
255,170,19191,1,8,0:0:0:0:
255,170,19274,2,0,P|296:160|327:170,1,68,8|10,0:0|0:0,0:0:0:0:
352,200,19524,2,0,P|356:219|354:239,1,34,8|8,0:0|0:0,0:0:0:0:
442,35,19774,6,0,L|440:74,1,34,10|8,0:0|0:0,0:0:0:0:
476,142,19941,2,0,P|435:152|404:142,1,68,8|10,0:0|0:0,0:0:0:0:
410,145,20191,1,8,0:0:0:0:
410,145,20274,1,10,0:0:0:0:
346,82,20441,1,8,0:0:0:0:
346,82,20524,1,8,0:0:0:0:
346,82,20607,2,0,P|305:72|274:82,1,68,10|10,0:0|0:0,0:0:0:0:
247,109,20857,2,0,P|241:127|245:148,1,34,8|8,0:0|0:0,0:0:0:0:
387,235,21108,6,0,L|388:268,1,34,10|8,0:0|0:0,0:0:0:0:
397,353,21274,1,2,3:2:0:0:
397,353,22774,5,14,0:0:0:0:
228,296,22941,1,10,0:0:0:0:
387,235,23108,1,10,0:0:0:0:
260,370,23274,6,0,P|210:379|154:334,1,127.5,14|0,0:0|0:0,0:0:0:0:
151,253,23608,6,0,L|155:219,6,21.25,2|2|2|2|2|2|2,0:0|0:0|0:0|0:0|0:0|0:0|0:0,0:0:0:0:
182,159,23941,6,0,P|226:168|267:152,1,85,14|0,0:0|3:2,0:0:0:0:
440,218,24274,2,0,P|396:227|355:211,1,85,10|0,0:0|3:2,0:0:0:0:
346,44,24608,2,0,L|359:222,1,170,10|8,0:0|0:0,0:0:0:0:
512,218,25108,6,0,P|470:226|436:250,1,85,2|8,3:2|0:0,0:0:0:0:
443,338,25441,1,2,3:2:0:0:
287,273,25608,2,0,P|321:297|371:305,1,85,10|0,0:0|3:2,0:0:0:0:
455,95,25941,5,10,0:0:0:0:
346,44,26108,5,2,3:1:0:0:
263,131,26274,5,10,0:1:0:0:
321,236,26441,5,2,3:1:0:0:
439,214,26608,6,0,P|483:203|522:212,1,85,14|0,0:0|3:2,0:0:0:0:
490,379,26941,2,0,L|481:284,1,85,10|0,0:0|3:2,0:0:0:0:
321,236,27274,2,0,B|263:213|263:213|157:241,1,170,10|8,0:0|0:0,0:0:0:0:
50,354,27774,6,0,L|62:257,1,85,2|8,3:2|0:0,0:0:0:0:
88,168,28108,1,2,3:2:0:0:
234,276,28274,2,0,P|188:262|154:235,1,85,10|0,0:0|3:2,0:0:0:0:
52,86,28608,6,0,P|20:39|33:110,2,191.250007295609,14|14|14,0:0|0:0|0:0,0:0:0:0:
88,168,29274,6,0,P|136:145|171:144,1,85,14|0,0:0|3:2,0:0:0:0:
326,236,29608,2,0,P|283:231|246:211,1,85,10|0,0:0|3:2,0:0:0:0:
268,42,29941,2,0,L|245:224,1,170,10|8,0:0|0:0,0:0:0:0:
372,352,30441,6,0,P|414:353|456:331,1,85,2|8,3:2|0:0,0:0:0:0:
486,248,30774,1,2,3:2:0:0:
385,179,30941,2,0,L|394:275,1,85,10|0,0:0|3:2,0:0:0:0:
203,341,31274,5,10,0:0:0:0:
86,372,31441,5,2,3:1:0:0:
20,272,31607,5,10,0:1:0:0:
95,178,31774,5,2,3:1:0:0:
207,221,31941,6,0,P|248:232|288:220,1,85,14|0,0:0|3:2,0:0:0:0:
465,179,32274,2,0,P|424:190|384:178,1,85,10|0,0:0|3:2,0:0:0:0:
267,51,32608,2,0,L|290:238,1,170,10|10,0:0|0:0,0:0:0:0:
406,323,33108,6,0,B|311:296|326:344|235:315,1,170,2|0,3:2|3:2,0:0:0:0:
113,210,33608,2,0,P|68:216|53:294,1,127.5,12|0,0:0|0:0,0:0:0:0:
48,286,33941,5,2,3:2:0:0:
238,316,34108,1,10,0:0:0:0:
238,316,34191,1,10,0:0:0:0:
238,316,34274,2,0,L|232:269,3,42.5,10|10|10|10,0:0|0:0|0:0|0:0,0:0:0:0:
226,192,34608,5,6,3:2:0:0:
334,251,34774,1,2,0:0:0:0:
334,251,34941,2,0,P|372:253|403:240,1,68,10|2,0:0|0:0,0:0:0:0:
492,188,35274,2,0,L|482:117,2,68,2|2|10,0:0|0:0|0:0,0:0:0:0:
399,242,35774,6,0,L|379:100,1,136,2|2,3:2|0:0,0:0:0:0:
298,51,36274,1,10,0:0:0:0:
298,51,36441,1,2,0:0:0:0:
241,129,36608,2,0,P|202:134|170:129,1,68,2|2,0:0|0:0,0:0:0:0:
54,71,36941,1,10,0:0:0:0:
0,190,37108,2,0,L|7:269,1,68,2|0,3:2|3:2,0:0:0:0:
116,237,37441,5,2,0:0:0:0:
116,237,37608,2,0,P|158:230|189:237,1,68,10|2,0:0|0:0,0:0:0:0:
247,306,37941,2,0,P|296:309|361:248,1,136,2|10,0:0|0:0,0:0:0:0:
271,155,38441,2,0,L|276:227,1,68,2|0,3:2|3:2,0:0:0:0:
453,113,38774,2,0,L|443:248,1,136,2|0,0:0|0:0,0:0:0:0:
351,341,39274,5,8,0:0:0:0:
351,341,39358,1,8,0:0:0:0:
351,341,39441,1,2,3:2:0:0:
242,350,39608,1,10,0:0:0:0:
134,358,39774,1,10,0:0:0:0:
19,307,39941,5,6,3:2:0:0:
19,307,40108,2,0,L|29:375,1,68,2|8,0:0|0:0,0:0:0:0:
134,358,40441,2,0,L|124:290,1,68,2|0,0:0|3:2,0:0:0:0:
131,188,40774,2,0,P|165:180|201:183,2,68,2|10|2,0:0|0:0|0:0,0:0:0:0:
232,281,41274,5,2,3:2:0:0:
232,282,41441,2,0,L|241:349,1,68,2|8,0:0|0:0,0:0:0:0:
351,341,41774,2,0,L|331:206,1,136,2|0,0:0|0:0,0:0:0:0:
450,116,42274,1,8,0:0:0:0:
512,177,42441,5,2,0:0:0:0:
360,125,42608,2,0,P|321:122|292:131,1,68,2|0,3:2|0:0,0:0:0:0:
174,216,42941,2,0,P|213:219|242:210,1,68,10|0,0:0|0:0,0:0:0:0:
196,61,43274,1,2,3:2:0:0:
196,61,43441,2,0,L|205:134,1,68,2|8,0:0|0:0,0:0:0:0:
331,206,43774,6,0,L|311:340,1,136,14|10,0:0|0:0,0:0:0:0:
173,384,44274,1,10,0:0:0:0:
88,251,44441,1,6,3:2:0:0:
170,225,44608,6,0,P|174:259|165:295,1,68,2|8,0:0|0:0,0:0:0:0:
6,277,44941,2,0,P|2:243|11:207,1,68,10|8,0:0|0:0,0:0:0:0:
69,84,45274,5,4,3:2:0:0:
137,144,45441,1,2,0:0:0:0:
137,144,45608,2,0,P|181:138|215:152,1,76.4999976654053,10|0,0:0|0:0,0:0:0:0:
271,229,45941,1,2,3:2:0:0:
271,229,46108,1,2,0:0:0:0:
379,125,46274,1,10,0:0:0:0:
379,125,46441,2,0,L|296:138,1,76.4999976654053,2|0,0:0|3:2,0:0:0:0:
134,137,46774,6,0,L|217:150,2,76.4999976654053,2|10|2,0:0|0:0|0:0,0:0:0:0:
4,244,47274,1,2,3:2:0:0:
4,244,47441,1,2,0:0:0:0:
5,92,47608,1,10,0:0:0:0:
115,228,47774,6,0,L|281:254,1,152.999995330811,2|2,0:0|0:0,0:0:0:0:
403,186,48274,1,10,0:0:0:0:
363,348,48441,1,2,0:0:0:0:
403,186,48608,1,2,3:2:0:0:
363,348,48774,2,0,L|381:270,1,76.4999976654053,2|8,0:0|0:0,0:0:0:0:
439,106,49108,6,0,P|393:100|329:140,1,114.749996498108,2|0,0:0|0:0,0:0:0:0:
334,132,49441,2,0,P|292:142|241:132,1,76.4999976654053,2|8,0:0|0:0,0:0:0:0:
136,80,49774,2,0,L|147:164,1,76.4999976654053,2|0,0:0|3:2,0:0:0:0:
250,214,50108,2,0,L|259:138,1,76.4999976654053,2|8,0:0|0:0,0:0:0:0:
341,45,50441,1,2,0:0:0:0:
341,45,50608,6,0,P|398:13|470:67,2,152.999995330811,0|8|0,3:2|0:0|3:2,0:0:0:0:
399,136,51441,1,2,0:0:0:0:
399,136,51608,2,0,L|387:211,1,76.4999976654053,10|2,0:0|0:0,0:0:0:0:
416,292,51941,5,2,3:2:0:0:
460,216,52108,2,0,P|421:205|383:212,1,76.4999976654053,2|8,0:0|0:0,0:0:0:0:
255,250,52441,2,0,P|312:265|300:351,1,152.999995330811,2|0,0:0|0:0,0:0:0:0:
219,349,52941,1,8,0:0:0:0:
90,271,53108,1,2,0:0:0:0:
56,351,53274,6,0,P|99:358|132:349,1,76.4999976654053,2|0,3:2|0:0,0:0:0:0:
185,196,53608,2,0,L|174:275,1,76.4999976654053,10|0,0:0|0:0,0:0:0:0:
306,346,53941,1,2,3:2:0:0:
380,293,54108,2,0,L|369:217,1,76.4999976654053,2|8,0:0|0:0,0:0:0:0:
230,116,54441,6,0,B|318:92|301:142|383:115,1,152.999995330811,2|0,0:0|0:0,0:0:0:0:
485,62,54941,2,0,L|476:149,1,76.4999976654053,10|0,0:0|0:0,0:0:0:0:
369,217,55274,1,2,3:2:0:0:
271,105,55441,2,0,P|223:142|133:134,1,152.999995330811,2|0,0:0|0:0,0:0:0:0:
30,32,55941,5,14,0:0:0:0:
30,32,56108,1,8,0:0:0:0:
275,105,57274,5,8,0:0:0:0:
275,105,57441,1,8,0:0:0:0:
40,206,58608,5,10,0:0:0:0:
40,206,58775,1,8,0:0:0:0:
275,105,59774,6,0,L|282:161,1,57.374998249054,6|0,3:2|0:0,0:0:0:0:
297,241,60608,5,10,0:0:0:0:
319,252,60691,1,8,0:0:0:0:
343,258,60774,1,8,0:3:0:0:
368,258,60858,1,4,0:3:0:0:
392,249,60941,2,0,P|408:236|419:217,3,42.5,2|0|0|0,3:2|3:2|3:2|3:2,0:0:0:0:
461,148,61274,6,0,P|442:110|478:32,1,127.5,6|0,3:2|0:0,0:0:0:0:
472,35,61608,2,0,P|433:52|384:39,1,85,10|2,0:0|0:0,0:0:0:0:
303,122,61941,1,2,3:2:0:0:
303,122,62108,1,2,3:2:0:0:
215,34,62274,1,10,0:0:0:0:
75,117,62441,6,0,L|105:289,1,170,2|2,3:2|3:2,0:0:0:0:
263,306,62941,2,0,P|239:273|196:257,1,85,10|0,0:0|0:0,0:0:0:0:
28,345,63274,2,0,P|102:381|178:350,1,170,2|8,3:2|0:0,0:0:0:0:
198,257,63774,1,2,0:0:0:0:
42,163,63941,6,0,B|118:152|118:152|145:168|145:168|224:155,1,187.000005706787,6|10,3:2|0:0,0:0:0:0:
314,83,64441,2,0,P|248:62|229:161,1,187.000005706787,2|0,0:0|0:0,0:0:0:0:
276,227,64941,1,8,0:0:0:0:
432,106,65108,6,0,L|414:294,1,187.000005706787,2|2,0:0|0:0,0:0:0:0:
248,384,65608,1,10,0:0:0:0:
248,384,65774,1,2,0:0:0:0:
164,330,65941,2,0,P|203:296|266:286,1,93.5000028533936,2|0,3:2|3:2,0:0:0:0:
418,384,66274,2,0,P|372:372|339:339,1,93.5000028533936,10|0,0:0|0:0,0:0:0:0:
167,209,66608,6,0,P|119:192|64:298,1,187.000005706787,6|8,3:2|0:0,0:0:0:0:
164,330,67108,1,2,0:0:0:0:
164,330,67274,1,2,3:2:0:0:
266,272,67441,2,0,P|316:247|358:251,1,93.5000028533936,2|8,3:2|0:0,0:0:0:0:
512,338,67774,5,2,0:0:0:0:
512,338,67941,1,2,3:2:0:0:
412,379,68108,2,0,L|427:275,1,93.5000028533936,2|8,0:0|0:0,0:0:0:0:
512,139,68441,5,2,0:0:0:0:
512,139,68608,1,2,3:2:0:0:
405,109,68774,1,2,3:2:0:0:
405,109,68941,2,0,L|424:204,1,93.5000028533936,10|2,0:0|3:2,0:0:0:0:
332,302,69274,5,14,0:0:0:0:
196,213,69441,1,2,3:2:0:0:
193,373,69608,1,2,3:2:0:0:
389,234,69774,6,0,P|348:212|302:217,1,93.5000028533936,14|0,0:0|3:2,0:0:0:0:
130,296,70108,1,2,3:2:0:0:
92,207,70274,1,10,0:0:0:0:
185,73,70441,2,0,L|196:216,1,140.25000428009,6|0,3:2|0:0,0:0:0:0:
196,213,70774,5,10,0:0:0:0:
332,302,70941,1,10,0:0:0:0:
421,165,71108,1,10,0:0:0:0:
284,76,71274,1,10,0:0:0:0:
309,187,71441,5,2,0:0:0:0:
309,187,71608,5,2,0:0:0:0:
309,187,71774,5,2,0:0:0:0:
426,67,71941,6,0,P|373:93|283:75,1,152.999995330811,6|0,3:2|0:0,0:0:0:0:
210,26,72274,1,10,0:0:0:0:
64,133,72441,2,0,L|48:26,1,101.999996887207,2|0,0:0|3:2,0:0:0:0:
204,115,72774,2,0,L|188:215,1,101.999996887207,2|8,0:0|0:0,0:0:0:0:
37,304,73108,6,0,B|156:264|128:349|238:307,1,203.999993774414,2|2,0:0|0:0,0:0:0:0:
389,239,73608,2,0,P|345:223|284:225,1,101.999996887207,10|0,0:0|0:0,0:0:0:0:
104,154,73941,1,2,3:2:0:0:
204,115,74108,2,0,L|188:215,1,101.999996887207,2|8,0:0|0:0,0:0:0:0:
330,319,74441,5,2,0:0:0:0:
470,276,74608,2,0,P|477:221|452:177,1,101.999996887207,2|0,3:2|0:0,0:0:0:0:
456,181,74858,1,2,0:0:0:0:
456,181,74941,1,10,0:0:0:0:
290,223,75108,1,2,0:0:0:0:
324,66,75274,5,2,3:2:0:0:
456,181,75441,1,2,0:0:0:0:
497,12,75608,1,10,0:0:0:0:
248,18,75774,6,0,P|152:-2|81:80,1,203.999993774414,2|2,0:0|0:0,0:0:0:0:
196,206,76274,2,0,L|355:176,1,152.999995330811,10|0,0:0|0:0,0:0:0:0:
430,162,76608,5,2,3:2:0:0:
511,291,76774,1,8,0:0:0:0:
487,300,76858,1,8,0:0:0:0:
461,303,76941,1,8,0:0:0:0:
435,300,77024,1,8,0:0:0:0:
411,290,77108,1,10,0:0:0:0:
391,273,77191,1,8,0:0:0:0:
384,248,77274,6,0,P|413:307|358:366,1,152.999995330811,6|0,3:2|0:0,0:0:0:0:
276,382,77608,1,10,0:0:0:0:
111,340,77774,2,0,P|167:337|214:315,1,101.999996887207,2|0,0:0|3:2,0:0:0:0:
287,192,78108,2,0,L|297:301,1,101.999996887207,2|8,0:0|0:0,0:0:0:0:
111,340,78441,6,0,L|129:136,1,203.999993774414,2|2,0:0|0:0,0:0:0:0:
256,12,78941,2,0,P|311:2|360:17,1,101.999996887207,10|0,0:0|0:0,0:0:0:0:
392,151,79274,1,2,3:2:0:0:
287,192,79441,2,0,L|303:82,1,101.999996887207,2|8,0:0|0:0,0:0:0:0:
406,153,79774,5,2,0:0:0:0:
340,269,79941,2,0,P|279:284|196:179,1,203.999993774414,2|10,3:2|0:0,0:0:0:0:
31,52,80441,2,0,L|62:259,1,203.999993774414,2|2,0:0|0:0,0:0:0:0:
103,344,80941,1,10,0:0:0:0:
280,268,81108,6,0,B|362:239|428:271|428:271|374:298,1,203.999993774414,6|0,3:2|3:2,0:0:0:0:
293,369,81608,2,0,L|279:263,1,101.999996887207,8|0,0:0|3:2,0:0:0:0:
397,147,81941,1,8,0:0:0:0:
232,95,82108,1,8,0:0:0:0:
232,95,82191,1,8,0:0:0:0:
232,95,82274,1,8,0:0:0:0:
119,225,82441,1,8,0:0:0:0:
119,225,82524,1,8,0:0:0:0:
119,225,82608,6,0,P|59:229|21:143,1,152.999995330811,6|0,3:2|0:0,0:0:0:0:
46,77,82941,1,10,0:0:0:0:
232,95,83108,2,0,P|238:141|217:202,1,101.999996887207,2|0,0:0|3:2,0:0:0:0:
128,326,83441,2,0,L|117:211,1,101.999996887207,2|8,0:0|0:0,0:0:0:0:
219,296,83774,6,0,P|322:283|361:372,1,203.999993774414,2|2,0:0|0:0,0:0:0:0:
506,367,84274,2,0,P|502:309|490:267,1,101.999996887207,10|0,0:0|0:0,0:0:0:0:
490,267,84524,1,2,0:0:0:0:
490,267,84608,1,2,3:2:0:0:
382,156,84774,2,0,P|336:136|281:144,1,101.999996887207,2|8,0:0|0:0,0:0:0:0:
199,208,85108,1,2,0:0:0:0:
81,121,85274,6,0,P|131:127|177:106,1,101.999996887207,2|0,3:2|0:0,0:0:0:0:
177,106,85524,1,2,0:0:0:0:
177,106,85608,2,0,L|164:5,1,101.999996887207,10|0,0:0|0:0,0:0:0:0:
285,142,85941,2,0,P|336:64|441:80,1,203.999993774414,2|10,3:2|0:0,0:0:0:0:
323,234,86441,6,0,P|272:156|167:172,1,203.999993774414,2|2,0:0|0:0,0:0:0:0:
197,367,86941,2,0,L|214:266,1,101.999996887207,10|0,0:0|0:0,0:0:0:0:
68,145,87274,1,2,3:1:0:0:
16,272,87441,1,2,0:1:0:0:
99,379,87608,2,0,P|154:384|201:363,1,101.999996887207,10|2,0:1|0:0,0:0:0:0:
250,133,87941,6,0,L|415:159,1,152.999995330811,6|0,3:2|0:0,0:0:0:0:
488,169,88274,1,10,0:0:0:0:
507,6,88441,2,0,P|466:41|458:90,1,101.999996887207,2|0,0:0|3:2,0:0:0:0:
427,237,88774,2,0,P|473:214|486:161,1,101.999996887207,2|8,0:0|0:0,0:0:0:0:
250,133,89108,6,0,P|192:103|186:212,1,203.999993774414,2|2,0:0|0:0,0:0:0:0:
276,340,89608,2,0,L|264:225,1,101.999996887207,10|0,0:0|0:0,0:0:0:0:
432,95,89941,1,2,3:2:0:0:
465,195,90108,2,0,L|359:173,1,101.999996887207,2|8,0:0|0:0,0:0:0:0:
250,133,90441,1,2,0:0:0:0:
154,212,90608,6,0,P|168:153|260:138,1,152.999995330811,14|0,0:0|0:0,0:0:0:0:
366,176,90941,2,0,P|295:190|250:133,1,152.999995330811,10|0,0:0|0:0,0:0:0:0:
230,10,91274,2,0,P|277:64|250:132,1,152.999995330811,10|0,0:0|0:0,0:0:0:0:
154,212,91608,1,10,0:0:0:0:
29,77,91774,6,0,P|42:176|57:291,1,203.999993774414,14|10,0:0|0:0,0:0:0:0:
155,371,92274,1,10,0:0:0:0:
256,288,92441,1,10,0:0:0:0:
357,371,92608,1,10,0:0:0:0:
483,77,93108,6,0,P|470:176|455:291,1,203.999993774414,10|10,0:0|0:0,0:0:0:0:
357,371,93608,1,10,0:0:0:0:
256,288,93775,1,10,0:0:0:0:
155,371,93942,1,10,0:0:0:0:
29,77,94441,6,0,P|42:178|55:279,1,203.999993774414,10|10,0:0|0:0,0:0:0:0:
155,371,94941,1,10,0:0:0:0:
256,288,95108,1,10,0:0:0:0:
357,371,95275,1,10,0:0:0:0:
466,194,95941,6,0,L|455:278,1,85,14|0,0:0|3:2,0:0:0:0:
357,371,96274,2,0,L|346:287,1,85,10|0,0:0|3:2,0:0:0:0:
231,218,96608,2,0,P|277:296|352:280,1,170,10|8,0:0|0:0,0:0:0:0:
481,172,97108,6,0,P|440:148|396:143,1,85,2|8,3:2|0:0,0:0:0:0:
312,85,97441,1,2,3:2:0:0:
231,218,97608,2,0,P|272:210|308:188,1,85,10|0,0:0|3:2,0:0:0:0:
188,49,97941,5,10,0:0:0:0:
71,17,98108,5,2,3:1:0:0:
6,117,98274,5,10,0:1:0:0:
80,211,98441,5,2,3:1:0:0:
192,168,98608,6,0,P|234:157|276:170,1,85,14|0,0:0|3:2,0:0:0:0:
444,231,98941,2,0,P|402:220|360:233,1,85,10|0,0:0|3:2,0:0:0:0:
258,337,99274,2,0,L|272:167,1,170,10|8,0:0|0:0,0:0:0:0:
365,38,99774,6,0,L|372:122,1,85,2|8,3:2|0:0,0:0:0:0:
363,231,100108,1,2,3:2:0:0:
191,175,100274,2,0,P|236:182|275:165,1,85,10|0,0:0|3:2,0:0:0:0:
184,44,100608,6,0,B|55:19|55:19|-6:45,2,191.250007295609,14|14|14,0:0|0:0|0:0,0:0:0:0:
271,167,101274,6,0,P|308:185|353:180,1,85,14|0,0:0|3:2,0:0:0:0:
512,95,101608,2,0,P|475:113|430:108,1,85,10|0,0:0|3:2,0:0:0:0:
331,11,101941,2,0,L|351:187,1,170,10|8,0:0|0:0,0:0:0:0:
489,289,102441,6,0,P|474:244|433:223,1,85,2|8,3:2|0:0,0:0:0:0:
361,281,102774,1,2,3:2:0:0:
267,197,102941,2,0,L|362:177,1,85,10|0,0:0|3:2,0:0:0:0:
263,316,103274,5,10,0:0:0:0:
146,348,103441,5,2,3:1:0:0:
81,248,103607,5,10,0:1:0:0:
155,154,103774,5,2,3:1:0:0:
267,197,103941,6,0,P|309:208|351:195,1,85,14|0,0:0|3:2,0:0:0:0:
329,72,104274,2,0,P|287:61|245:74,1,85,10|0,0:0|3:2,0:0:0:0:
155,154,104608,2,0,P|68:143|59:64,1,170,10|10,0:0|0:0,0:0:0:0:
248,72,105108,6,0,L|232:258,1,170,2|0,3:2|3:2,0:0:0:0:
42,325,105608,2,0,P|78:278|143:290,1,127.5,12|0,0:0|0:0,0:0:0:0:
139,287,105941,5,2,3:2:0:0:
234,351,106108,1,10,0:0:0:0:
234,351,106191,1,10,0:0:0:0:
234,351,106274,2,0,L|285:346,1,42.5,10|2,0:0|0:0,0:0:0:0:
271,248,106441,2,0,L|313:252,1,42.5,10|2,0:0|0:0,0:0:0:0:
378,329,106608,5,0,0:0:0:0:
274,76,108608,6,0,L|278:106,3,21.25,2|2|2|2,1:2|0:0|1:2|0:0,0:0:0:0:
301,181,108941,2,0,L|297:211,3,21.25,2|2|2|2,1:2|0:0|0:0|0:0,0:0:0:0:
285,286,109274,5,2,3:2:0:0:
211,248,109441,2,0,P|200:282|204:317,1,63.7500024318696,2|10,0:0|0:0,0:0:0:0:
358,331,109774,2,0,P|369:297|365:262,1,63.7500024318696,2|2,0:0|3:2,0:0:0:0:
299,203,110108,1,2,0:0:0:0:
299,203,110191,1,2,0:0:0:0:
299,203,110274,1,10,0:0:0:0:
305,113,110441,1,2,0:0:0:0:
125,83,110608,5,2,3:2:0:0:
49,129,110774,2,0,P|38:91|45:57,2,63.7500024318696,2|10|2,0:0|0:0|0:0,0:0:0:0:
211,66,111274,2,0,P|214:98|204:128,1,63.7500024318696,2|2,3:2|0:0,0:0:0:0:
203,128,111524,1,2,0:0:0:0:
203,128,111608,1,10,0:0:0:0:
135,226,111774,2,0,L|145:295,1,63.7500024318696,2|2,0:0|3:2,0:0:0:0:
321,286,112108,6,0,L|330:222,2,63.7500024318696,2|10|2,0:0|0:0|0:0,0:0:0:0:
412,304,112608,1,2,3:2:0:0:
503,322,112774,1,2,0:0:0:0:
503,322,112858,1,2,0:0:0:0:
503,322,112941,1,10,0:0:0:0:
421,240,113108,6,0,L|411:303,1,63.7500024318696,2|2,0:0|3:2,0:0:0:0:
512,258,113441,2,0,L|502:321,2,63.7500024318696,2|10|2,0:0|0:0|0:0,0:0:0:0:
488,163,113941,1,2,3:2:0:0:
395,143,114108,1,2,0:0:0:0:
395,143,114191,1,2,0:0:0:0:
395,143,114274,2,0,P|357:138|323:146,1,63.7500024318696,10|2,0:0|0:0,0:0:0:0:
169,240,114608,5,2,3:2:0:0:
130,162,114774,2,0,P|162:156|198:162,1,63.7500024318696,2|10,0:0|0:0,0:0:0:0:
256,245,115108,2,0,P|245:275|222:303,1,63.7500024318696,2|2,0:0|3:2,0:0:0:0:
121,312,115441,1,2,0:0:0:0:
121,312,115524,1,2,0:0:0:0:
121,312,115608,2,0,P|99:287|87:253,1,63.7500024318696,10|2,0:0|0:0,0:0:0:0:
169,240,115941,5,2,3:2:0:0:
192,160,116107,2,0,P|161:156|130:162,1,63.7500024318696,2|10,0:0|0:0,0:0:0:0:
88,258,116441,2,0,P|100:287|121:312,1,63.7500024318696,2|2,0:0|3:2,0:0:0:0:
226,300,116774,1,2,0:0:0:0:
226,300,116857,1,2,0:0:0:0:
226,300,116941,2,0,P|245:274|256:245,1,63.7500024318696,10|2,0:0|0:0,0:0:0:0:
305,86,117274,6,0,L|294:155,1,63.7500024318696,2|2,3:2|0:0,0:0:0:0:
348,224,117608,2,0,L|417:235,1,63.7500024318696,10|2,0:0|0:0,0:0:0:0:
486,181,117941,1,2,3:2:0:0:
443,43,118108,1,2,0:0:0:0:
443,43,118191,1,2,0:0:0:0:
443,43,118274,2,0,L|374:32,1,63.7500024318696,10|2,0:0|0:0,0:0:0:0:
209,96,118608,5,10,0:0:0:0:
209,96,119274,1,10,0:0:0:0:
209,96,119358,1,10,0:0:0:0:
209,96,119441,2,0,L|202:139,1,31.8750012159348,10|6,0:3|0:3,0:0:0:0:
141,194,119608,2,0,L|148:237,3,31.8750012159348,2|2|2|2,3:2|3:2|3:2|3:2,0:0:0:0:
211,288,119941,6,0,B|280:268|270:312|347:284,1,136,6|0,3:2|0:0,0:0:0:0:
436,259,120441,1,2,0:0:0:0:
356,137,120608,1,10,0:0:0:0:
356,137,120774,2,0,L|365:210,1,68,2|0,0:0|0:0,0:0:0:0:
441,97,121108,6,0,P|375:97|340:41,1,136,2|0,0:0|3:2,0:0:0:0:
236,46,121608,2,0,P|224:79|198:103,1,68,2|0,0:0|3:2,0:0:0:0:
76,19,121941,2,0,L|143:27,1,68,8|0,0:0|0:0,0:0:0:0:
42,122,122274,2,0,L|109:114,1,68,2|0,3:2|0:0,0:0:0:0:
202,231,122608,6,0,B|220:164|220:164|199:97,1,136,2|0,3:2|0:0,0:0:0:0:
238,14,123108,1,2,3:2:0:0:
361,107,123274,1,10,0:0:0:0:
361,107,123441,2,0,L|291:95,1,68,2|0,3:2|0:0,0:0:0:0:
143,27,123774,6,0,B|38:17|38:17|62:47,1,136,6|0,3:2|0:0,0:0:0:0:
200,100,124274,2,0,L|186:173,1,68,2|0,0:0|0:0,0:0:0:0:
86,270,124608,2,0,P|136:251|172:292,1,102,10|0,0:0|0:0,0:0:0:0:
168,279,124941,2,0,P|218:260|254:301,1,102,10|0,0:0|0:0,0:0:0:0:
250,288,125274,5,14,0:2:0:0:
355,342,125441,2,0,L|358:362,4,17,2|2|2|0|10,0:0|0:0|0:0|0:2|0:0,0:0:0:0:
435,263,125774,1,2,0:0:0:0:
240,221,125941,2,0,L|252:297,2,68,10|2|2,0:2|0:0|0:0,0:0:0:0:
85,184,126441,6,0,L|65:328,1,136,14|2,0:2|0:0,0:0:0:0:
162,265,126941,1,10,0:0:0:0:
162,265,127108,1,2,0:0:0:0:
209,144,127274,2,0,P|246:143|285:130,1,68,10|0,0:0|0:0,0:0:0:0:
452,34,127774,5,10,0:2:0:0:
452,34,127858,1,8,0:0:0:0:
452,34,127941,2,0,L|443:107,1,68,2|0,3:2|0:0,0:0:0:0:
437,196,128274,1,10,0:0:0:0:
341,142,128441,1,2,3:2:0:0:
341,142,128524,1,0,3:2:0:0:
341,142,128608,2,0,P|306:137|270:154,1,68,0|0,3:2|3:2,0:0:0:0:
215,236,128941,1,8,0:0:0:0:
117,135,129108,5,2,0:0:0:0:
117,135,129191,1,0,3:2:0:0:
117,135,129275,2,0,P|152:130|188:147,1,68,0|0,3:2|0:0,0:0:0:0:
305,237,129608,1,10,0:0:0:0:
206,303,129774,1,10,0:3:0:0:
206,303,129858,1,8,0:3:0:0:
206,303,129941,2,0,L|215:229,1,68,2|0,3:2|3:2,0:0:0:0:
276,148,130274,2,0,L|267:74,1,68,10|0,0:0|3:2,0:0:0:0:
174,19,130608,5,6,3:2:0:0:
147,15,130691,1,2,0:0:0:0:
120,19,130774,1,2,0:0:0:0:
95,31,130858,1,2,0:0:0:0:
78,52,130941,2,0,P|71:69|68:86,3,34,10|2|2|2,0:0|0:0|0:0|0:0,0:0:0:0:
36,176,131274,5,2,3:2:0:0:
36,176,131358,1,2,0:0:0:0:
36,176,131441,2,0,P|53:179|73:177,1,34,2|2,3:2|0:0,0:0:0:0:
191,127,131608,1,10,0:0:0:0:
191,127,131692,1,2,0:0:0:0:
191,127,131775,2,0,P|174:124|154:126,1,34,2|2,3:2|0:0,0:0:0:0:
167,221,131941,6,0,P|164:238|166:258,1,34,2|2,3:2|0:0,0:0:0:0:
282,161,132108,1,2,0:0:0:0:
282,161,132192,1,2,0:0:0:0:
282,161,132274,2,0,P|285:144|283:124,3,34,10|2|2|2,0:0|0:0|0:0|0:0,0:0:0:0:
349,66,132608,2,0,P|335:54|317:46,3,34,2|2|2|2,3:2|0:0|3:2|0:0,0:0:0:0:
230,48,132941,1,10,0:0:0:0:
203,45,133024,1,2,0:0:0:0:
175,42,133108,1,2,0:0:0:0:
148,39,133191,1,2,0:0:0:0:
124,37,133274,5,14,0:0:0:0:
74,198,133441,1,2,3:2:0:0:
218,145,133608,1,2,3:2:0:0:
304,325,133774,6,0,P|375:338|387:229,1,187.000005706787,14|2,0:0|3:2,0:0:0:0:
218,145,134274,1,10,0:0:0:0:
331,94,134441,2,0,L|309:233,1,140.25000428009,6|0,3:2|0:0,0:0:0:0:
309,232,134774,5,10,0:0:0:0:
156,283,134941,1,10,0:0:0:0:
105,130,135108,1,10,0:0:0:0:
258,79,135274,1,10,0:0:0:0:
215,186,135441,5,2,3:2:0:0:
215,186,135524,1,0,3:2:0:0:
215,186,135608,1,14,0:0:0:0:
38,64,135941,6,0,P|91:39|176:77,1,152.999995330811,6|0,3:2|0:0,0:0:0:0:
258,79,136274,1,10,0:0:0:0:
383,21,136441,2,0,L|364:129,1,101.999996887207,2|0,0:0|3:2,0:0:0:0:
392,291,136774,2,0,P|441:293|491:276,1,101.999996887207,2|8,0:0|0:0,0:0:0:0:
287,228,137108,6,0,P|233:201|212:309,1,203.999993774414,2|2,0:0|0:0,0:0:0:0:
26,356,137608,2,0,L|38:246,1,101.999996887207,10|0,0:0|0:0,0:0:0:0:
191,106,137941,1,2,3:2:0:0:
95,69,138108,2,0,L|106:170,1,101.999996887207,2|8,0:0|0:0,0:0:0:0:
145,274,138441,5,2,0:0:0:0:
282,215,138608,2,0,P|333:208|379:227,1,101.999996887207,2|0,3:2|0:0,0:0:0:0:
378,226,138858,1,2,0:0:0:0:
378,226,138941,1,10,0:0:0:0:
484,328,139108,1,2,0:0:0:0:
479,159,139274,5,2,3:2:0:0:
318,299,139441,1,2,0:0:0:0:
314,110,139608,1,10,0:0:0:0:
510,242,139774,6,0,P|443:245|396:362,1,203.999993774414,2|2,0:0|0:0,0:0:0:0:
221,258,140274,2,0,P|155:257|71:293,1,152.999995330811,10|0,0:0|0:0,0:0:0:0:
19,353,140608,5,2,3:2:0:0:
5,139,140774,1,8,0:0:0:0:
28,150,140858,1,8,0:0:0:0:
53,153,140941,1,8,0:0:0:0:
78,149,141024,1,8,0:0:0:0:
101,137,141108,1,10,0:0:0:0:
119,119,141191,1,8,0:0:0:0:
128,95,141274,6,0,L|141:250,1,152.999995330811,6|0,3:2|0:0,0:0:0:0:
148,333,141608,1,10,0:0:0:0:
322,300,141774,2,0,P|275:281|215:277,1,101.999996887207,2|0,0:0|3:2,0:0:0:0:
50,357,142108,2,0,P|100:352|147:333,1,101.999996887207,2|8,0:0|0:0,0:0:0:0:
274,151,142441,6,0,P|308:93|415:142,1,203.999993774414,2|2,0:0|0:0,0:0:0:0:
466,333,142941,2,0,L|482:219,1,101.999996887207,10|0,0:0|0:0,0:0:0:0:
480,231,143191,1,2,0:0:0:0:
480,231,143274,1,2,3:2:0:0:
373,290,143441,2,0,P|318:305|264:288,1,101.999996887207,2|8,0:0|0:0,0:0:0:0:
190,242,143774,5,2,0:0:0:0:
41,337,143941,1,2,3:2:0:0:
47,168,144108,1,2,0:0:0:0:
41,337,144274,1,10,0:0:0:0:
190,242,144441,6,0,P|256:203|332:220,1,152.999995330811,2|0,0:0|0:0,0:0:0:0:
401,253,144774,1,2,0:0:0:0:
488,160,144941,1,10,0:0:0:0:
364,29,145108,6,0,B|281:43|281:43|252:25|252:25|167:39,1,203.999993774414,6|0,3:2|3:2,0:0:0:0:
105,209,145608,1,8,0:0:0:0:
12,59,145774,1,0,3:2:0:0:
216,151,145941,5,8,0:0:0:0:
27,265,146108,1,8,0:0:0:0:
27,265,146191,1,8,0:0:0:0:
27,265,146274,2,0,L|14:216,1,50.9999984436036,8|8,0:0|0:0,0:0:0:0:
111,129,146441,1,8,0:0:0:0:
111,129,146524,1,8,0:0:0:0:
111,129,146608,6,0,P|174:157|238:103,1,152.999995330811,6|0,3:2|0:0,0:0:0:0:
276,30,146941,1,10,0:0:0:0:
422,131,147108,2,0,P|362:129|316:106,1,101.999996887207,2|0,0:0|3:2,0:0:0:0:
90,51,147441,2,0,P|150:49|196:26,1,101.999996887207,2|8,0:0|0:0,0:0:0:0:
225,192,147774,6,0,B|208:339|208:339|179:285,1,203.999993774414,2|2,0:0|0:0,0:0:0:0:
27,219,148274,2,0,P|80:202|135:211,1,101.999996887207,10|0,0:0|0:0,0:0:0:0:
125,207,148524,1,2,0:0:0:0:
125,207,148608,1,2,3:2:0:0:
302,327,148774,2,0,L|313:225,1,101.999996887207,2|8,0:0|0:0,0:0:0:0:
493,174,149108,5,2,0:0:0:0:
391,97,149274,2,0,L|402:198,1,101.999996887207,2|0,3:2|0:0,0:0:0:0:
402,198,149524,1,2,0:0:0:0:
402,198,149608,1,10,0:0:0:0:
302,327,149774,1,2,0:0:0:0:
251,172,149941,5,2,3:2:0:0:
407,303,150108,1,2,0:0:0:0:
201,351,150274,1,10,0:0:0:0:
414,211,150441,6,0,P|463:180|386:94,1,203.999993774414,2|2,0:0|0:0,0:0:0:0:
235,71,150941,2,0,L|252:179,1,101.999996887207,10|0,0:0|0:0,0:0:0:0:
201,351,151274,1,2,3:1:0:0:
59,372,151441,1,2,0:1:0:0:
5,237,151608,2,0,P|-2:190|18:138,1,101.999996887207,10|2,0:1|0:0,0:0:0:0:
157,92,151941,6,0,B|242:70|229:120|314:91,1,152.999995330811,6|0,3:2|0:0,0:0:0:0:
377,46,152274,1,10,0:0:0:0:
482,166,152441,2,0,P|427:161|384:124,1,101.999996887207,2|0,0:0|3:2,0:0:0:0:
197,176,152774,2,0,L|214:286,1,101.999996887207,2|8,0:0|0:0,0:0:0:0:
394,357,153108,6,0,P|456:368|429:265,1,203.999993774414,2|2,0:0|0:0,0:0:0:0:
255,353,153608,2,0,P|204:364|158:343,1,101.999996887207,10|0,0:0|0:0,0:0:0:0:
168,127,153941,1,2,3:2:0:0:
286,167,154108,2,0,L|303:277,1,101.999996887207,2|8,0:0|0:0,0:0:0:0:
159,344,154441,1,2,0:0:0:0:
74,208,154608,6,0,P|134:204|165:116,1,152.999995330811,14|0,0:0|0:0,0:0:0:0:
146,5,154941,2,0,P|119:72|168:126,1,152.999995330811,10|0,0:0|0:0,0:0:0:0:
286,167,155274,2,0,P|240:111|169:126,1,152.999995330811,10|0,0:0|0:0,0:0:0:0:
74,208,155608,1,10,0:0:0:0:
148,364,155774,6,0,L|352:384,1,203.999993774414,14|10,0:0|0:0,0:0:0:0:
512,288,156274,1,10,0:0:0:0:
352,192,156441,1,10,0:0:0:0:
512,96,156608,1,10,0:0:0:0:
148,19,157108,6,0,L|352:0,1,203.999993774414,10|10,0:0|0:0,0:0:0:0:
512,96,157608,1,10,0:0:0:0:
352,192,157775,1,10,0:0:0:0:
512,288,157942,1,10,0:0:0:0:
148,364,158441,6,0,L|352:384,1,203.999993774414,10|10,0:0|0:0,0:0:0:0:
512,288,158941,1,10,0:0:0:0:
352,192,159108,1,10,0:0:0:0:
512,96,159275,1,10,0:0:0:0:
46,88,170608,6,0,L|54:42,1,42.5,6|0,3:2|3:2,0:0:0:0:
130,102,170941,2,0,L|138:56,1,42.5,10|0,0:0|3:2,0:0:0:0:
221,74,171274,1,2,3:2:0:0:
221,74,171441,2,0,L|213:115,1,42.5,2|8,3:2|0:0,0:0:0:0:
156,221,171774,6,0,P|195:206|231:249,1,85,2|0,3:2|3:2,0:0:0:0:
218,315,172274,2,0,L|211:357,1,42.5,10|0,0:0|0:0,0:0:0:0:
133,301,172608,2,0,L|126:343,2,42.5,2|2|10,3:2|3:2|0:0,0:0:0:0:
0,338,173108,6,0,L|15:254,1,85,2|0,3:2|3:2,0:0:0:0:
60,161,173608,2,0,P|83:163|108:155,1,42.5,10|0,0:0|0:0,0:0:0:0:
49,72,173941,1,2,3:2:0:0:
49,72,174108,2,0,P|69:67|90:69,1,42.5,2|8,3:2|0:0,0:0:0:0:
180,102,174441,5,2,3:2:0:0:
306,27,174774,1,2,3:2:0:0:
438,107,175108,1,2,3:2:0:0:
306,27,175441,1,2,3:2:0:0:
180,102,175774,6,0,L|188:198,1,85,6|2,0:3|3:2,0:0:0:0:
266,246,176274,1,10,0:0:0:0:
266,246,176441,2,0,P|308:235|356:249,1,85,2|2,3:2|3:2,0:0:0:0:
347,339,176941,1,10,0:0:0:0:
347,339,177108,2,0,P|305:350|257:336,2,85,2|2|2,3:2|3:2|3:2,0:0:0:0:
458,212,178108,2,0,L|449:161,1,42.5,2|10,3:2|0:0,0:0:0:0:
485,105,178441,6,0,P|443:120|400:109,1,85,2|0,3:2|3:2,0:0:0:0:
311,77,178941,2,0,L|264:86,1,42.5,10|0,0:0|3:2,0:0:0:0:
321,162,179274,2,0,L|274:171,1,42.5,2|0,3:2|3:2,0:0:0:0:
197,140,179608,1,10,0:0:0:0:
78,61,179774,6,0,L|92:207,1,136,14|0,0:0|3:2,0:0:0:0:
90,196,180191,1,0,3:2:0:0:
90,196,180274,1,8,0:0:0:0:
223,249,180441,1,8,0:0:0:0:
101,328,180608,6,0,P|116:325|135:314,1,34,10|2,0:0|0:0,0:0:0:0:
306,346,180774,2,0,P|291:343|272:332,1,34,10|2,0:0|0:0,0:0:0:0:
223,179,180941,1,10,0:0:0:0:
223,179,181024,1,2,0:0:0:0:
223,179,181108,2,0,L|216:218,1,34,10|2,0:0|0:0,0:0:0:0:
101,328,181274,6,0,P|41:324|13:219,2,170,6|10|2,3:2|0:0|3:2,0:0:0:0:
267,263,182108,2,0,L|277:353,1,85,2|8,3:2|0:0,0:0:0:0:
220,177,182441,6,0,B|312:149|296:201|390:170,1,170,2|0,3:2|3:2,0:0:0:0:
354,1,182941,2,0,L|339:93,1,85,10|0,0:0|0:0,0:0:0:0:
481,185,183274,1,2,3:2:0:0:
323,249,183441,1,2,3:2:0:0:
386,171,183608,1,10,0:0:0:0:
226,68,183774,6,0,P|178:43|145:137,1,170,6|0,3:2|3:2,0:0:0:0:
209,258,184274,2,0,L|229:164,1,85,10|0,0:0|0:0,0:0:0:0:
330,120,184608,1,2,3:2:0:0:
330,120,184774,2,0,L|347:203,1,85,2|8,3:2|0:0,0:0:0:0:
452,356,185108,6,0,P|432:305|362:295,1,127.5,14|0,0:0|0:0,0:0:0:0:
365,293,185441,1,10,0:0:0:0:
227,369,185608,1,10,0:0:0:0:
125,223,185774,6,0,L|106:357,1,127.5,6|0,3:2|0:0,0:0:0:0:
107,349,186108,1,10,0:0:0:0:
229,217,186274,1,10,0:0:0:0:
26,184,186441,6,0,L|1:358,1,170,6|2,3:2|3:2,0:0:0:0:
125,223,186941,1,10,0:0:0:0:
227,369,187108,2,0,P|294:368|289:274,1,170,2|2,3:2|3:2,0:0:0:0:
239,170,187608,1,10,0:0:0:0:
410,121,187774,6,0,P|402:145|397:168,1,42.5,2|0,3:2|0:0,0:0:0:0:
240,127,188108,6,0,L|238:176,1,42.5,2|0,3:2|0:0,0:0:0:0:
81,160,188441,6,0,P|91:217|100:295,1,127.5,6|0,3:2|0:0,0:0:0:0:
100,287,188774,1,8,0:0:0:0:
176,375,188941,1,8,0:0:0:0:
360,208,189108,6,0,P|418:186|476:276,1,170,6|2,3:2|3:2,0:0:0:0:
387,356,189608,1,10,0:0:0:0:
312,292,189774,1,2,0:0:0:0:
181,351,189941,5,2,3:2:0:0:
360,208,190108,1,2,3:2:0:0:
147,163,190274,1,10,0:0:0:0:
279,364,190441,6,0,L|259:232,1,127.5,6|0,3:2|0:0,0:0:0:0:
259,237,190774,1,8,0:0:0:0:
360,106,190941,1,8,0:0:0:0:
490,195,191108,1,8,0:0:0:0:
487,110,191274,6,0,P|466:112|441:126,1,42.5,10|2,0:0|0:0,0:0:0:0:
361,189,191441,2,0,P|340:187|315:173,1,42.5,10|2,0:0|0:0,0:0:0:0:
254,81,191608,1,10,0:0:0:0:
234,73,191691,1,2,0:0:0:0:
213,69,191774,1,2,0:0:0:0:
191,69,191858,1,2,0:0:0:0:
170,74,191941,5,10,0:0:0:0:
96,263,192108,1,10,0:0:0:0:
19,77,192274,1,10,0:0:0:0:
96,263,192441,1,10,0:0:0:0:
170,74,192608,1,10,0:0:0:0:
170,74,193108,6,0,P|257:54|300:121,1,170,10|10,0:0|0:0,0:0:0:0:
410,205,193608,1,10,0:0:0:0:
443,58,193774,1,10,0:0:0:0:
410,205,193941,1,10,0:0:0:0:
410,205,194608,5,10,0:0:0:0:
318,221,194774,1,10,0:0:0:0:
225,238,194941,1,10,0:0:0:0:
133,255,195108,1,10,0:0:0:0:
41,274,195274,1,10,0:0:0:0:
225,238,195608,5,2,0:0:0:0:
410,205,195774,2,0,P|435:144|353:84,2,170,10|8|8,0:0|0:0|0:0,0:0:0:0:
328,262,196608,1,10,0:0:0:0:
328,262,196691,1,2,0:0:0:0:
328,262,196774,2,0,L|317:218,1,42.5,2|2,0:0|0:0,0:0:0:0:
214,196,196941,2,0,L|225:240,3,42.5,2|2|2|2,0:0|0:0|0:0|0:0,0:0:0:0:
244,315,197274,5,10,0:0:0:0:
181,86,197441,1,10,0:0:0:0:
41,274,197608,1,10,0:0:0:0:
181,86,197774,1,10,0:0:0:0:
244,315,197941,1,10,0:0:0:0:
244,315,198441,6,0,P|308:353|381:288,1,170,10|10,0:0|0:0,0:0:0:0:
397,156,198941,1,10,0:0:0:0:
507,262,199108,1,10,0:0:0:0:
397,156,199274,1,10,0:0:0:0:
397,156,199941,5,10,0:0:0:0:
305,140,200107,1,10,0:0:0:0:
212,123,200274,1,10,0:0:0:0:
120,106,200441,1,10,0:0:0:0:
28,87,200607,1,10,0:0:0:0:
212,123,200941,5,2,0:0:0:0:
397,156,201108,2,0,P|440:115|402:20,2,170,10|8|8,0:0|0:0|0:0,0:0:0:0:
294,181,201941,1,10,0:0:0:0:
294,181,202024,1,10,0:3:0:0:
294,181,202108,2,0,L|306:136,1,42.5,6|6,0:3|0:3,0:0:0:0:
222,81,202274,2,0,L|211:122,3,42.5,14|2|2|2,0:0|0:0|0:0|0:0,0:0:0:0:
205,225,202608,6,0,P|163:235|114:227,1,85,6|0,3:2|0:0,0:0:0:0:
23,122,202941,2,0,L|30:213,1,85,10|0,0:0|0:0,0:0:0:0:
139,340,203274,2,0,P|191:327|193:214,1,170,2|8,3:2|0:0,0:0:0:0:
155,138,203774,1,2,0:0:0:0:
267,54,203941,6,0,L|248:145,1,85,2|0,3:2|3:2,0:0:0:0:
328,250,204274,1,10,0:0:0:0:
328,250,204441,2,0,B|418:230|403:281|494:252,1,170,2|0,3:2|3:2,0:0:0:0:
343,346,204941,2,0,P|298:344|264:321,1,85,8|2,0:0|0:0,0:0:0:0:
152,246,205274,6,0,L|250:226,1,85,2|0,3:2|0:0,0:0:0:0:
235,229,205524,1,2,0:0:0:0:
235,229,205608,1,8,0:0:0:0:
326,85,205774,1,2,0:0:0:0:
242,34,205941,6,0,P|226:76|230:120,1,85,2|0,3:2|3:2,0:0:0:0:
228,115,206191,1,2,0:0:0:0:
228,115,206274,1,8,0:0:0:0:
347,201,206441,1,2,0:0:0:0:
485,90,206608,6,0,B|434:60|434:60|320:86,2,170,2|8|2,3:2|0:0|3:2,0:0:0:0:
480,261,207441,1,14,0:0:0:0:
480,261,207608,2,0,L|468:345,1,85,14|2,0:0|0:0,0:0:0:0:
317,346,207941,5,6,3:2:0:0:
192,326,208108,1,2,0:0:0:0:
67,306,208274,1,10,0:0:0:0:
331,262,208441,6,0,L|316:349,2,85,2|2|2,0:0|3:2|3:2,0:0:0:0:
206,242,208941,2,0,L|191:329,2,85,10|2|2,0:0|0:0|3:2,0:0:0:0:
81,222,209441,2,0,L|66:309,2,85,2|10|2,0:0|0:0|0:0,0:0:0:0:
191,325,209941,6,0,L|206:242,1,85,2|0,3:2|3:2,0:0:0:0:
316,345,210274,2,0,L|331:262,1,85,10|0,0:0|0:0,0:0:0:0:
202,138,210608,6,0,P|125:134|118:47,1,170,6|8,3:2|0:0,0:0:0:0:
258,20,211108,1,2,0:0:0:0:
258,20,211191,1,2,0:0:0:0:
258,20,211274,2,0,B|354:1|326:57|427:30,1,170,2|8,3:2|0:0,0:0:0:0:
487,182,211774,5,2,0:0:0:0:
487,182,211941,1,2,3:2:0:0:
374,213,212108,2,0,L|387:124,1,85,2|8,0:0|0:0,0:0:0:0:
221,38,212441,5,2,0:0:0:0:
221,38,212608,1,2,3:2:0:0:
189,132,212774,1,2,0:0:0:0:
189,132,212941,2,0,L|273:119,1,85,10|2,0:0|0:0,0:0:0:0:
491,86,213274,5,14,0:0:0:0:
374,213,213441,1,2,3:2:0:0:
345,46,213608,1,2,3:2:0:0:
502,253,213774,6,0,P|450:230|368:327,1,187.000005706787,14|2,0:0|3:2,0:0:0:0:
237,371,214274,1,10,0:0:0:0:
121,237,214441,2,0,L|258:272,1,140.25000428009,6|0,3:2|0:0,0:0:0:0:
256,271,214774,5,10,0:0:0:0:
196,123,214941,1,10,0:0:0:0:
47,183,215108,1,10,0:0:0:0:
107,332,215274,1,14,0:0:0:0:
196,123,215441,5,10,0:0:0:0:
230,109,215524,1,8,0:0:0:0:
267,106,215608,1,10,0:0:0:0:
304,109,215691,1,8,0:0:0:0:
339,120,215774,1,10,0:0:0:0:
368,143,215858,1,8,0:0:0:0:
390,177,215941,6,0,P|336:168|313:75,1,152.999995330811,6|0,3:2|0:0,0:0:0:0:
361,18,216274,1,10,0:0:0:0:
495,136,216441,2,0,L|485:245,1,101.999996887207,2|0,0:0|3:2,0:0:0:0:
402,380,216774,2,0,L|392:278,1,101.999996887207,2|8,0:0|0:0,0:0:0:0:
259,149,217108,6,0,B|181:121|108:145|108:145|152:178,1,203.999993774414,2|2,0:0|0:0,0:0:0:0:
223,346,217608,2,0,L|213:227,1,101.999996887207,10|0,0:0|0:0,0:0:0:0:
28,193,217941,1,2,3:2:0:0:
29,282,218108,2,0,P|84:287|129:266,1,101.999996887207,2|8,0:0|0:0,0:0:0:0:
259,149,218441,5,2,0:0:0:0:
337,291,218608,2,0,P|393:294|431:264,1,101.999996887207,2|0,3:2|0:0,0:0:0:0:
428,267,218858,1,2,0:0:0:0:
428,267,218941,1,10,0:0:0:0:
486,125,219108,1,2,0:0:0:0:
361,206,219274,5,2,3:2:0:0:
454,39,219441,1,2,0:0:0:0:
512,226,219608,1,10,0:0:0:0:
348,54,219774,6,0,P|270:26|164:81,1,203.999993774414,2|2,0:0|0:0,0:0:0:0:
49,239,220274,2,0,L|32:132,1,101.999996887207,10|0,0:0|0:0,0:0:0:0:
72,38,220608,5,2,3:2:0:0:
265,125,220774,1,8,0:0:0:0:
262,150,220858,1,8,0:0:0:0:
259,175,220941,1,8,0:0:0:0:
257,200,221024,1,8,0:0:0:0:
254,225,221108,1,10,0:0:0:0:
251,250,221191,1,8,0:0:0:0:
248,275,221274,6,0,P|314:259|375:317,1,152.999995330811,6|0,3:2|0:0,0:0:0:0:
436,377,221608,1,10,0:0:0:0:
512,210,221774,2,0,P|471:238|456:288,1,101.999996887207,2|0,0:0|3:2,0:0:0:0:
279,336,222108,2,0,P|333:336|374:310,1,101.999996887207,2|8,0:0|0:0,0:0:0:0:
360,136,222441,6,0,L|154:168,1,203.999993774414,2|2,0:0|0:0,0:0:0:0:
57,153,222941,2,0,L|162:167,1,101.999996887207,10|0,0:0|0:0,0:0:0:0:
308,223,223274,1,2,3:2:0:0:
360,136,223441,2,0,P|375:80|355:39,1,101.999996887207,2|8,0:0|0:0,0:0:0:0:
210,16,223774,5,2,0:0:0:0:
158,166,223941,2,0,L|178:319,1,152.999995330811,2|0,3:2|0:0,0:0:0:0:
242,373,224274,1,10,0:0:0:0:
381,183,224441,6,0,P|451:169|479:281,1,203.999993774414,2|2,0:0|0:0,0:0:0:0:
407,382,224941,1,10,0:0:0:0:
255,284,225108,6,0,B|179:301|179:301|153:284|153:284|59:301,1,203.999993774414,6|0,3:2|3:2,0:0:0:0:
3,151,225608,2,0,P|-10:101|6:53,1,101.999996887207,8|0,0:0|3:2,0:0:0:0:
131,165,225941,5,8,0:0:0:0:
246,40,226108,1,8,0:0:0:0:
246,40,226191,1,8,0:0:0:0:
246,40,226274,1,8,0:0:0:0:
364,160,226441,1,8,0:0:0:0:
364,160,226524,1,8,0:0:0:0:
364,160,226608,6,0,P|426:158|444:77,1,152.999995330811,6|0,3:2|0:0,0:0:0:0:
397,14,226941,1,10,0:0:0:0:
260,139,227108,2,0,L|277:253,1,101.999996887207,2|0,0:0|3:2,0:0:0:0:
418,252,227441,2,0,L|401:366,1,101.999996887207,2|8,0:0|0:0,0:0:0:0:
251,369,227774,6,0,P|159:333|67:384,1,203.999993774414,2|2,0:0|0:0,0:0:0:0:
7,194,228274,2,0,P|57:192|103:213,1,101.999996887207,10|0,0:0|0:0,0:0:0:0:
103,213,228524,1,2,0:0:0:0:
103,213,228608,1,2,3:2:0:0:
244,255,228774,2,0,L|232:149,1,101.999996887207,2|8,0:0|0:0,0:0:0:0:
181,71,229108,5,2,0:0:0:0:
344,177,229274,2,0,P|408:192|463:126,1,152.999995330811,2|2,3:2|0:0,0:0:0:0:
462,133,229608,2,0,L|445:24,1,101.999996887207,10|0,0:0|0:0,0:0:0:0:
269,31,229941,6,0,L|253:131,1,101.999996887207,2|0,3:2|0:0,0:0:0:0:
220,230,230274,1,10,0:0:0:0:
6,188,230441,2,0,B|160:161|160:161|138:183|132:207,1,203.999993774414,2|2,0:0|0:0,0:0:0:0:
320,246,230941,2,0,L|212:228,1,101.999996887207,10|0,0:0|0:0,0:0:0:0:
131,291,231274,1,2,3:1:0:0:
256,384,231441,1,2,0:1:0:0:
397,300,231608,2,0,P|414:245|397:195,1,101.999996887207,10|2,0:1|0:0,0:0:0:0:
308,93,231941,6,0,L|320:256,1,152.999995330811,6|0,3:2|0:0,0:0:0:0:
309,331,232274,1,10,0:0:0:0:
138,306,232441,2,0,P|186:279|245:278,1,101.999996887207,2|0,0:0|3:2,0:0:0:0:
402,361,232774,2,0,P|351:356|308:330,1,101.999996887207,2|8,0:0|0:0,0:0:0:0:
308,93,233108,6,0,B|441:65|441:65|504:98,1,203.999993774414,2|2,0:0|0:0,0:0:0:0:
452,275,233608,2,0,L|433:163,1,101.999996887207,10|0,0:0|0:0,0:0:0:0:
326,4,233941,1,2,3:2:0:0:
308,93,234108,2,0,L|290:193,1,101.999996887207,2|8,0:0|0:0,0:0:0:0:
347,330,234441,1,2,0:0:0:0:
195,272,234608,6,0,P|209:213|301:198,1,152.999995330811,14|0,0:0|0:0,0:0:0:0:
406,236,234941,2,0,P|335:250|290:193,1,152.999995330811,10|0,0:0|0:0,0:0:0:0:
271,70,235274,2,0,P|318:124|291:192,1,152.999995330811,10|0,0:0|0:0,0:0:0:0:
195,272,235608,1,10,0:0:0:0:
29,77,235774,6,0,P|42:176|57:291,1,203.999993774414,14|10,0:0|0:0,0:0:0:0:
155,371,236274,1,10,0:0:0:0:
256,288,236441,1,10,0:0:0:0:
357,371,236608,1,10,0:0:0:0:
483,77,237108,6,0,P|470:176|455:291,1,203.999993774414,10|10,0:0|0:0,0:0:0:0:
357,371,237608,1,10,0:0:0:0:
256,288,237775,1,10,0:0:0:0:
155,371,237942,1,10,0:0:0:0:
29,77,238441,6,0,P|42:178|55:279,1,203.999993774414,10|10,0:0|0:0,0:0:0:0:
155,371,238941,1,10,0:0:0:0:
256,288,239108,1,10,0:0:0:0:
357,371,239274,6,0,B|427:358|475:293|446:214|401:196|401:196|424:228|418:268,1,305.999990661621,14|2,0:0|0:0,0:0:0:0:
390,273,239691,1,2,0:0:0:0:
360,279,239774,1,2,0:0:0:0:
329,276,239858,1,2,0:0:0:0:
303,264,239941,5,14,0:0:0:0:
205,118,240108,1,0,3:2:0:0:
162,280,240274,1,10,0:0:0:0:
301,159,240441,1,0,3:2:0:0:
125,71,240608,2,0,P|112:119|125:164,1,93.5000028533936,10|0,0:0|3:2,0:0:0:0:
221,214,240941,1,8,0:0:0:0:
379,41,241108,6,0,L|284:62,1,93.5000028533936,2|8,3:2|0:0,0:0:0:0:
205,118,241441,1,2,3:2:0:0:
33,50,241608,2,0,L|128:71,1,93.5000028533936,10|0,0:0|3:2,0:0:0:0:
298,176,241941,5,10,0:0:0:0:
407,125,242108,5,2,3:1:0:0:
490,212,242274,5,10,0:1:0:0:
432,317,242441,5,2,3:1:0:0:
314,295,242608,5,14,0:0:0:0:
407,125,242774,1,0,3:2:0:0:
432,317,242941,1,10,0:0:0:0:
298,176,243108,1,0,3:2:0:0:
490,212,243274,2,0,P|445:233|396:227,1,93.5000028533936,10|0,0:0|3:2,0:0:0:0:
298,176,243608,1,8,0:0:0:0:
419,32,243774,6,0,L|405:137,1,93.5000028533936,2|8,3:2|0:0,0:0:0:0:
312,272,244108,1,2,3:2:0:0:
173,106,244274,2,0,L|187:211,1,93.5000028533936,10|0,0:0|3:2,0:0:0:0:
371,341,244608,6,0,P|441:357|393:303,2,191.250007295609,14|14|14,0:0|0:0|0:0,0:0:0:0:
312,272,245274,5,14,0:0:0:0:
138,298,245441,1,0,3:2:0:0:
293,174,245608,1,10,0:0:0:0:
258,372,245774,1,0,3:2:0:0:
106,216,245941,2,0,P|154:211|198:233,1,93.5000028533936,10|0,0:0|3:2,0:0:0:0:
277,286,246274,1,8,0:0:0:0:
384,155,246441,6,0,L|282:176,1,93.5000028533936,2|8,3:2|0:0,0:0:0:0:
197,90,246774,1,2,3:2:0:0:
389,37,246941,2,0,L|297:18,1,93.5000028533936,10|0,0:0|3:2,0:0:0:0:
77,94,247274,5,10,0:0:0:0:
46,211,247441,5,2,3:1:0:0:
146,277,247607,5,10,0:1:0:0:
240,202,247774,5,2,3:1:0:0:
197,90,247941,5,14,0:0:0:0:
46,211,248108,1,0,3:2:0:0:
240,202,248274,1,10,0:0:0:0:
77,94,248441,1,0,3:2:0:0:
146,277,248608,5,10,0:0:0:0:
300,115,248774,1,0,3:2:0:0:
77,94,248941,1,10,0:0:0:0:
341,203,249108,6,0,P|390:154|362:44,1,187.000005706787,2|0,3:2|3:2,0:0:0:0:
152,7,249608,2,0,L|170:113,1,93.5000028533936,12|0,0:0|3:2,0:0:0:0:
238,307,249941,5,2,3:2:0:0:
127,302,250108,1,10,0:0:0:0:
127,302,250191,1,10,0:0:0:0:
127,302,250274,2,0,P|127:331|135:355,1,46.7500014266968,10|10,0:0|0:0,0:0:0:0:
346,317,250441,2,0,P|346:288|338:264,1,46.7500014266968,10|10,0:0|0:0,0:0:0:0:
265,214,250608,6,0,P|331:224|391:182,2,136,2|2|2,0:0|0:0|0:0,0:0:0:0:
256,192,251358,12,0,252608,0:0:0:0:
