osu file format v14

[General]
AudioFilename: audio.mp3
AudioLeadIn: 0
PreviewTime: 71338
Countdown: 0
SampleSet: Soft
StackLeniency: 0.7
Mode: 0
LetterboxInBreaks: 0
WidescreenStoryboard: 1

[Editor]
Bookmarks: 12755,159921,170588,252588
DistanceSpacing: 0.9
BeatDivisor: 4
GridSize: 32
TimelineZoom: 2

[Metadata]
Title:Atashi Kawaii Sengen!!!
TitleUnicode:アタシ♡カワイイ♡宣言!!!
Artist:Himesaka Noa (CV: Kito Akari)
ArtistUnicode:姫坂乃愛 (CV: 鬼頭明里)
Creator:[Karcher]
Version:Hard!!!
Source:私に天使が舞い降りた!
Tags:わたてん japanese anime pop jpop j-pop wataten an angel flew down to me watashi ni tenshi ga maiorita 天使のうたごえ no utagoe キャラクターソング character song Kitou
BeatmapID:3278792
BeatmapSetID:1605689

[Difficulty]
HPDrainRate:5
CircleSize:3.5
OverallDifficulty:7
ApproachRate:8
SliderMultiplier:1.4
SliderTickRate:1

[Events]
//Background and Video events
0,0,"BG.jpg",0,0
//Break Periods
2,106724,107858
2,159941,169858
//Storyboard Layer 0 (Background)
//Storyboard Layer 1 (Fail)
//Storyboard Layer 2 (Pass)
//Storyboard Layer 3 (Foreground)
//Storyboard Layer 4 (Overlay)
//Storyboard Sound Samples

[TimingPoints]
609,333.333333333333,4,2,1,65,1,0
13275,333.333333333333,4,2,1,65,1,0
13275,-142.857142857143,4,2,1,65,0,0
18608,-117.647058823529,4,2,1,70,0,0
22774,-100,4,2,1,75,0,0
23941,-100,4,2,1,80,0,1
28608,-83.3333333333333,4,2,1,90,0,0
29274,-100,4,2,1,80,0,1
34608,-125,4,2,1,55,0,0
44024,-125,4,2,1,5,0,0
44108,-125,4,2,1,55,0,0
45274,-111.111111111111,4,2,1,60,0,0
55941,-111.111111111111,4,2,1,70,0,0
59774,-133.333333333333,4,2,1,70,0,0
61274,-100,4,2,1,75,0,0
61524,-100,4,2,1,5,0,0
61608,-100,4,2,1,75,0,0
63941,-90.9090909090909,4,2,1,80,0,0
69274,-90.9090909090909,4,2,1,85,0,0
71941,-83.3333333333333,4,2,1,90,0,1
76524,-83.3333333333333,4,2,1,5,0,1
76608,-83.3333333333333,4,2,1,90,0,1
90858,-83.3333333333333,4,2,1,5,0,1
90941,-83.3333333333333,4,2,1,90,0,1
91191,-83.3333333333333,4,2,1,5,0,1
91274,-83.3333333333333,4,2,1,90,0,1
91524,-83.3333333333333,4,2,1,5,0,1
91608,-83.3333333333333,4,2,1,90,0,1
95274,-83.3333333333333,4,2,1,90,0,0
95941,-100,4,2,1,80,0,1
100608,-76.9230769230769,4,2,1,90,0,0
101274,-100,4,2,1,80,0,1
106608,-100,4,2,1,50,0,0
108608,-100,4,2,1,65,0,0
109274,-133.333333333333,4,2,2,60,0,0
118608,-133.333333333333,4,2,1,65,0,0
119941,-125,4,2,1,70,0,0
124858,-125,4,2,1,5,0,0
124941,-125,4,2,1,70,0,0
125191,-125,4,2,1,5,0,0
125274,-125,4,2,1,75,0,0
127941,-100,4,2,1,80,0,0
133274,-90.9090909090909,4,2,1,85,0,0
135941,-83.3333333333333,4,2,1,90,0,1
140524,-83.3333333333333,4,2,1,5,0,1
140608,-83.3333333333333,4,2,1,90,0,1
154858,-83.3333333333333,4,2,1,5,0,1
154941,-83.3333333333333,4,2,1,90,0,1
155191,-83.3333333333333,4,2,1,5,0,1
155274,-83.3333333333333,4,2,1,90,0,1
155524,-83.3333333333333,4,2,1,5,0,1
155608,-83.3333333333333,4,2,1,90,0,1
159274,-83.3333333333333,4,2,1,90,0,0
170608,-125,4,2,1,60,0,0
179774,-125,4,2,1,65,0,0
180608,-125,4,2,1,70,0,0
181274,-100,4,2,1,75,0,0
191941,-90.9090909090909,4,2,1,90,0,0
202608,-100,4,2,1,85,0,0
213274,-90.9090909090909,4,2,1,90,0,0
215941,-83.3333333333333,4,2,1,95,0,1
220524,-83.3333333333333,4,2,1,5,0,1
220608,-83.3333333333333,4,2,1,95,0,1
234858,-83.3333333333333,4,2,1,5,0,1
234941,-83.3333333333333,4,2,1,95,0,1
235191,-83.3333333333333,4,2,1,5,0,1
235274,-83.3333333333333,4,2,1,95,0,1
235524,-83.3333333333333,4,2,1,5,0,1
235608,-83.3333333333333,4,2,1,95,0,1
239274,-66.6666666666667,4,2,1,95,0,0
239941,-90.9090909090909,4,2,1,80,0,1
244608,-71.4285714285714,4,2,1,90,0,0
245274,-90.9090909090909,4,2,1,80,0,1
250608,-125,4,2,1,50,0,0
252608,-125,4,2,1,5,0,0

[Colours]
Combo1 : 121,125,162
Combo2 : 247,203,159
Combo3 : 171,118,118
Combo4 : 89,86,105

[HitObjects]
75,101,13275,6,0,B|158:70|141:132|226:96,1,146.999995513916,6|2,3:2|0:0,0:0:0:0:
304,66,13941,2,0,P|368:89|376:175,1,146.999995513916,4|2,3:2|0:0,0:0:0:0:
310,220,14608,2,0,L|152:248,1,146.999995513916,4|0,3:2|0:0,0:0:0:0:
78,277,15274,2,0,P|54:228|97:143,1,146.999995513916,6|2,3:2|0:0,0:0:0:0:
187,205,15941,6,0,L|206:356,1,146.999995513916,6|2,3:2|0:0,0:0:0:0:
293,318,16608,2,0,B|376:296|361:342|445:311,1,146.999995513916,6|2,3:2|0:0,0:0:0:0:
498,243,17274,2,0,P|511:179|439:149,1,146.999995513916,4|0,3:2|0:0,0:0:0:0:
355,155,17941,2,0,L|324:158,3,24.4999992523194,2|2|2|2,0:0|0:0|0:0|0:0,0:0:0:0:
286,170,18274,2,0,L|255:173,3,24.4999992523194,2|2|2|2,0:0|0:0|0:0|0:0,0:0:0:0:
206,187,18608,5,6,3:2:0:0:
117,139,18774,1,8,0:0:0:0:
117,139,18858,1,8,0:0:0:0:
117,139,18941,1,10,0:0:0:0:
43,208,19108,2,0,L|6:198,2,29.7500005674362,10|8|8,0:0|0:0|0:0,0:0:0:0:
86,299,19441,2,0,L|65:336,2,29.7500005674362,10|8|8,0:0|0:0|0:0,0:0:0:0:
187,286,19774,5,10,0:0:0:0:
187,286,19858,1,8,0:0:0:0:
187,286,19941,1,8,0:0:0:0:
206,187,20108,2,0,L|189:153,2,29.7500005674362,10|8|10,0:0|0:0|0:0,0:0:0:0:
306,174,20441,2,0,L|330:150,2,29.7500005674362,8|8|10,0:0|0:0|0:0,0:0:0:0:
349,265,20774,2,0,L|380:279,2,29.7500005674362,10|8|8,0:0|0:0|0:0,0:0:0:0:
275,334,21108,1,10,0:0:0:0:
275,334,21191,1,8,0:0:0:0:
275,334,21274,5,2,3:2:0:0:
268,337,22774,1,14,0:0:0:0:
176,290,22941,1,10,0:0:0:0:
90,346,23108,1,10,0:0:0:0:
3,293,23274,2,0,P|0:232|75:203,1,140,14|2,0:0|0:0,0:0:0:0:
268,337,23941,6,0,P|311:342|346:328,1,70,14|0,0:0|3:2,0:0:0:0:
327,236,24274,2,0,P|283:230|248:244,1,70,10|0,0:0|3:2,0:0:0:0:
179,297,24608,2,0,B|106:317|106:317|32:285,1,140,10|8,0:0|0:0,0:0:0:0:
38,193,25108,6,0,L|47:114,1,70,2|8,3:2|0:0,0:0:0:0:
147,138,25441,1,2,3:2:0:0:
147,138,25608,2,0,L|139:207,1,70,10|0,0:0|3:2,0:0:0:0:
179,297,25941,5,10,0:0:0:0:
270,332,26108,1,2,3:1:0:0:
347,269,26274,1,10,0:1:0:0:
256,229,26441,1,2,3:1:0:0:
179,297,26608,6,0,P|143:298|104:280,1,70,14|0,0:0|3:2,0:0:0:0:
89,189,26941,2,0,P|125:188|164:206,1,70,10|0,0:0|3:2,0:0:0:0:
256,229,27274,2,0,B|330:207|317:244|395:220,1,140,10|8,0:0|0:0,0:0:0:0:
498,130,27774,6,0,L|485:45,1,70,2|8,3:2|0:0,0:0:0:0:
394,44,28108,1,2,3:2:0:0:
394,44,28274,2,0,L|404:114,1,70,10|0,0:0|3:2,0:0:0:0:
393,220,28608,6,0,P|449:255|419:312,2,125.999996154785,14|14|14,0:0|0:0|0:0,0:0:0:0:
330,294,29274,6,0,P|287:304|241:294,1,70,14|0,0:0|3:2,0:0:0:0:
212,215,29608,2,0,P|177:212|143:222,1,70,10|0,0:0|3:2,0:0:0:0:
97,308,29941,2,0,P|58:264|57:185,1,140,10|8,0:0|0:0,0:0:0:0:
134,125,30441,6,0,P|177:103|204:76,1,70,2|8,3:2|0:0,0:0:0:0:
269,26,30774,1,2,3:2:0:0:
269,26,30941,2,0,P|296:47|328:62,1,70,10|0,0:0|3:2,0:0:0:0:
308,158,31274,5,10,0:0:0:0:
225,221,31441,1,2,3:1:0:0:
131,184,31607,1,10,0:1:0:0:
211,121,31774,1,2,3:1:0:0:
308,158,31941,6,0,P|350:151|382:157,1,70,14|0,0:0|3:2,0:0:0:0:
428,238,32274,2,0,P|393:244|359:240,1,70,10|0,0:0|3:2,0:0:0:0:
263,264,32608,2,0,L|271:341,1,70,10|0,0:0|3:2,0:0:0:0:
178,361,32941,1,10,0:0:0:0:
178,361,33108,6,0,B|95:341|132:389|36:365,1,140,2|0,3:2|3:2,0:0:0:0:
6,274,33608,1,12,0:0:0:0:
155,115,33941,5,2,3:2:0:0:
257,176,34108,1,10,0:0:0:0:
257,176,34191,1,10,0:0:0:0:
257,176,34274,2,0,L|295:171,3,35,10|10|10|10,0:0|0:0|0:0|0:0,0:0:0:0:
338,161,34608,5,6,3:2:0:0:
428,125,34774,1,2,0:0:0:0:
428,125,34941,2,0,P|435:159|431:192,1,56,10|2,0:0|0:0,0:0:0:0:
370,251,35274,2,0,P|363:285|371:319,2,56,2|2|10,0:0|0:0|0:0,0:0:0:0:
338,161,35774,6,0,P|284:145|230:168,1,112,2|2,3:2|0:0,0:0:0:0:
158,221,36274,1,10,0:0:0:0:
158,221,36441,1,2,0:0:0:0:
72,262,36608,2,0,P|62:223|69:192,1,56,2|2,0:0|0:0,0:0:0:0:
121,133,36941,1,10,0:0:0:0:
121,133,37108,6,0,B|181:116|171:152|231:132,1,112,2|2,3:2|0:0,0:0:0:0:
318,90,37608,1,10,0:0:0:0:
318,90,37774,1,2,0:0:0:0:
402,133,37941,2,0,B|418:185|418:185|406:242,1,112,2|10,0:0|0:0,0:0:0:0:
385,334,38441,6,0,P|418:340|440:333,1,56,2|0,3:2|3:2,0:0:0:0:
315,270,38774,2,0,L|204:291,1,112,2|0,0:0|0:0,0:0:0:0:
117,327,39274,2,0,L|113:354,2,28,8|8|2,0:0|0:0|3:2,0:0:0:0:
48,259,39608,1,10,0:0:0:0:
95,180,39774,1,10,0:0:0:0:
95,180,39858,1,8,0:0:0:0:
95,180,39941,5,6,3:2:0:0:
188,195,40108,2,0,L|245:182,1,56,2|8,0:0|0:0,0:0:0:0:
315,121,40441,2,0,P|294:165|325:230,1,112,2|2,0:0|0:0,0:0:0:0:
401,262,40941,2,0,P|432:254|461:257,1,56,10|2,0:0|0:0,0:0:0:0:
506,175,41274,5,2,3:2:0:0:
462,90,41441,2,0,L|404:102,1,56,2|8,0:0|0:0,0:0:0:0:
315,121,41774,2,0,P|250:117|215:64,1,112,2|0,0:0|0:0,0:0:0:0:
137,49,42274,1,8,0:0:0:0:
60,106,42441,1,2,0:0:0:0:
60,106,42608,6,0,L|71:167,1,56,2|0,3:2|0:0,0:0:0:0:
51,254,42941,2,0,P|91:255|116:243,1,56,10|0,0:0|0:0,0:0:0:0:
164,175,43274,1,2,3:2:0:0:
164,175,43441,2,0,P|190:167|218:170,1,56,2|8,0:0|0:0,0:0:0:0:
294,228,43774,6,0,P|310:288|324:350,1,112,14|10,0:0|0:0,0:0:0:0:
416,366,44274,1,10,0:0:0:0:
416,366,44441,1,6,3:2:0:0:
499,315,44608,2,0,L|489:251,1,56,2|8,0:0|0:0,0:0:0:0:
397,236,44941,2,0,L|407:172,1,56,10|8,0:0|0:0,0:0:0:0:
486,119,45274,5,4,3:2:0:0:
399,77,45441,1,2,0:0:0:0:
399,77,45608,2,0,L|333:90,1,62.9999980773926,10|0,0:0|0:0,0:0:0:0:
274,168,45941,2,0,L|203:154,1,62.9999980773926,2|2,3:2|0:0,0:0:0:0:
117,121,46274,1,10,0:0:0:0:
22,84,46441,2,0,P|15:119|25:159,1,62.9999980773926,2|0,0:0|3:2,0:0:0:0:
89,217,46774,6,0,P|96:252|86:292,2,62.9999980773926,2|10|2,0:0|0:0|0:0,0:0:0:0:
117,121,47274,1,2,3:2:0:0:
117,121,47441,1,2,0:0:0:0:
201,176,47608,1,10,0:0:0:0:
276,109,47774,6,0,P|317:83|354:139,1,125.999996154785,2|2,0:0|0:0,0:0:0:0:
422,210,48274,2,0,P|437:235|403:256,1,62.9999980773926,10|2,0:0|0:0,0:0:0:0:
338,319,48608,1,2,3:2:0:0:
338,319,48774,2,0,P|312:334|291:300,1,62.9999980773926,2|8,0:0|0:0,0:0:0:0:
249,221,49108,6,0,P|186:222|141:282,1,125.999996154785,2|2,0:0|0:0,0:0:0:0:
53,308,49608,1,8,0:0:0:0:
10,216,49774,2,0,L|20:151,1,62.9999980773926,2|0,0:0|3:2,0:0:0:0:
29,52,50108,2,0,P|61:64|97:57,1,62.9999980773926,2|8,0:0|0:0,0:0:0:0:
177,117,50441,1,2,0:0:0:0:
177,117,50608,6,0,B|261:98|242:148|326:120,2,125.999996154785,0|8|0,3:2|0:0|3:2,0:0:0:0:
98,179,51441,2,0,L|113:257,2,62.9999980773926,2|10|2,0:0|0:0|0:0,0:0:0:0:
0,193,51941,1,2,3:2:0:0:
0,193,52108,2,0,L|15:271,1,62.9999980773926,2|8,0:0|0:0,0:0:0:0:
84,324,52441,2,0,P|126:277|186:281,1,125.999996154785,2|0,0:0|0:0,0:0:0:0:
263,351,52941,1,8,0:0:0:0:
354,297,53108,1,2,0:0:0:0:
354,297,53274,6,0,L|361:234,1,62.9999980773926,2|0,3:2|0:0,0:0:0:0:
462,236,53608,2,0,L|455:173,1,62.9999980773926,10|0,0:0|0:0,0:0:0:0:
373,122,53941,1,2,3:2:0:0:
373,122,54108,2,0,P|336:138|287:136,1,62.9999980773926,2|8,0:0|0:0,0:0:0:0:
233,201,54441,6,0,P|258:155|220:93,1,125.999996154785,2|0,0:0|0:0,0:0:0:0:
141,40,54941,2,0,L|129:110,1,62.9999980773926,10|0,0:0|0:0,0:0:0:0:
23,117,55274,1,2,3:2:0:0:
23,117,55441,2,0,L|47:257,1,125.999996154785,2|0,0:0|0:0,0:0:0:0:
142,314,55941,5,14,0:0:0:0:
142,314,56108,1,8,0:0:0:0:
377,268,57274,5,8,0:0:0:0:
377,268,57441,1,8,0:0:0:0:
119,142,58608,5,10,0:0:0:0:
119,142,58775,1,8,0:0:0:0:
354,96,59774,6,0,P|408:94|422:182,1,157.500006008148,6|2,3:2|0:0,0:0:0:0:
282,260,60608,6,0,L|246:257,3,26.2500010013581,10|8|8|4,0:0|0:0|0:3|0:3,0:0:0:0:
209,241,60941,2,0,L|173:238,3,26.2500010013581,2|0|0|0,3:2|3:2|3:2|3:2,0:0:0:0:
132,217,61274,6,0,P|105:171|119:120,1,105,6|0,3:2|0:0,0:0:0:0:
161,94,61608,2,0,L|232:106,1,70,10|2,0:0|0:0,0:0:0:0:
316,174,61941,1,2,3:2:0:0:
316,174,62108,1,2,3:2:0:0:
341,72,62274,1,10,0:0:0:0:
422,138,62441,6,0,L|409:280,1,140,2|2,3:2|3:2,0:0:0:0:
366,373,62941,1,10,0:0:0:0:
182,270,63274,2,0,P|216:214|297:203,1,140,2|8,3:2|0:0,0:0:0:0:
390,201,63774,1,2,0:0:0:0:
490,155,63941,6,0,P|422:163|394:75,1,154.000004699707,6|10,3:2|0:0,0:0:0:0:
297,34,64441,2,0,B|204:12|244:75|139:52,1,154.000004699707,2|0,0:0|0:0,0:0:0:0:
48,16,64941,1,8,0:0:0:0:
0,146,65108,6,0,L|22:302,1,154.000004699707,2|2,0:0|0:0,0:0:0:0:
116,359,65608,1,10,0:0:0:0:
116,359,65774,1,2,0:0:0:0:
184,275,65941,2,0,P|224:258|261:259,1,77.0000023498536,2|0,3:2|3:2,0:0:0:0:
315,349,66274,2,0,P|355:366|392:365,1,77.0000023498536,10|0,0:0|0:0,0:0:0:0:
493,288,66608,6,0,L|472:128,1,154.000004699707,6|8,3:2|0:0,0:0:0:0:
385,198,67108,1,2,0:0:0:0:
385,198,67274,1,2,3:2:0:0:
282,162,67441,2,0,P|277:208|290:248,1,77.0000023498536,2|8,3:2|0:0,0:0:0:0:
369,303,67774,5,2,0:0:0:0:
369,303,67941,1,2,3:2:0:0:
385,198,68108,2,0,P|390:152|377:112,1,77.0000023498536,2|8,0:0|0:0,0:0:0:0:
295,67,68441,5,2,0:0:0:0:
295,67,68608,1,2,3:2:0:0:
196,104,68774,2,0,L|117:92,2,77.0000023498536,2|10|2,3:2|0:0|3:2,0:0:0:0:
292,190,69274,6,0,L|280:276,1,77.0000023498536,14|2,0:0|3:2,0:0:0:0:
259,372,69608,1,2,3:2:0:0:
379,312,69774,2,0,L|400:159,1,154.000004699707,14|2,0:0|3:2,0:0:0:0:
314,94,70274,1,10,0:0:0:0:
406,38,70441,1,6,3:2:0:0:
406,38,70774,5,10,0:0:0:0:
314,94,70941,1,10,0:0:0:0:
232,23,71108,1,10,0:0:0:0:
138,75,71274,1,10,0:0:0:0:
138,75,71941,6,0,P|73:81|98:179,1,167.999994873047,6|10,3:2|0:0,0:0:0:0:
182,181,72441,2,0,P|226:170|267:182,1,83.9999974365235,2|0,0:0|3:2,0:0:0:0:
357,232,72774,2,0,L|367:149,1,83.9999974365235,2|8,0:0|0:0,0:0:0:0:
492,127,73108,6,0,L|473:294,1,167.999994873047,2|2,0:0|0:0,0:0:0:0:
361,360,73608,2,0,P|318:367|279:355,1,83.9999974365235,10|0,0:0|0:0,0:0:0:0:
184,301,73941,1,2,3:2:0:0:
87,335,74108,2,0,L|79:251,1,83.9999974365235,2|8,0:0|0:0,0:0:0:0:
152,169,74441,5,2,0:0:0:0:
257,197,74608,2,0,P|335:159|411:182,1,167.999994873047,2|10,3:2|0:0,0:0:0:0:
500,241,75108,1,2,0:0:0:0:
372,286,75274,2,0,L|387:372,2,83.9999974365235,2|2|10,3:2|0:0|0:0,0:0:0:0:
420,171,75774,6,0,P|467:120|412:37,1,167.999994873047,2|2,0:0|0:0,0:0:0:0:
290,10,76274,2,0,P|204:17|113:27,1,167.999994873047,10|2,0:0|3:2,0:0:0:0:
23,94,76774,1,8,0:0:0:0:
23,94,76858,1,8,0:0:0:0:
23,94,76941,2,0,L|26:138,3,41.9999987182618,8|8|10|8,0:0|0:0|0:0|0:0,0:0:0:0:
35,190,77274,6,0,P|107:156|150:232,1,167.999994873047,6|10,3:2|0:0,0:0:0:0:
220,302,77774,2,0,P|264:304|292:270,1,83.9999974365235,2|0,0:0|3:2,0:0:0:0:
325,172,78108,2,0,L|308:85,1,83.9999974365235,2|8,0:0|0:0,0:0:0:0:
420,30,78441,6,0,L|452:194,1,167.999994873047,2|2,0:0|0:0,0:0:0:0:
398,311,78941,2,0,P|353:308|318:327,1,83.9999974365235,10|0,0:0|0:0,0:0:0:0:
219,370,79274,1,2,3:2:0:0:
123,337,79441,2,0,P|111:297|120:252,1,83.9999974365235,2|8,0:0|0:0,0:0:0:0:
205,189,79774,5,2,0:0:0:0:
101,115,79941,2,0,P|39:109|16:205,1,167.999994873047,2|10,3:2|0:0,0:0:0:0:
83,300,80441,2,0,B|171:273|156:331|246:299,1,167.999994873047,2|2,0:0|0:0,0:0:0:0:
325,222,80941,1,10,0:0:0:0:
383,323,81108,6,0,L|365:146,1,167.999994873047,6|0,3:2|3:2,0:0:0:0:
332,51,81608,2,0,P|291:49|252:71,1,83.9999974365235,8|0,0:0|3:2,0:0:0:0:
180,147,81941,1,8,0:0:0:0:
70,150,82108,2,0,L|56:194,2,41.9999987182618,8|8|8,0:0|0:0|0:0,0:0:0:0:
33,57,82441,1,8,0:0:0:0:
33,57,82524,1,8,0:0:0:0:
33,57,82608,6,0,B|122:35|105:88|200:53,1,167.999994873047,6|10,3:2|0:0,0:0:0:0:
300,17,83108,2,0,L|388:25,1,83.9999974365235,2|0,0:0|3:2,0:0:0:0:
464,98,83441,2,0,P|489:57|490:14,1,83.9999974365235,2|8,0:0|0:0,0:0:0:0:
359,120,83774,6,0,L|389:298,1,167.999994873047,2|2,0:0|0:0,0:0:0:0:
490,358,84274,2,0,L|500:260,1,83.9999974365235,10|0,0:0|0:0,0:0:0:0:
411,203,84608,1,2,3:2:0:0:
411,203,84774,2,0,L|318:194,1,83.9999974365235,2|8,0:0|0:0,0:0:0:0:
240,126,85108,5,2,0:0:0:0:
210,230,85274,2,0,P|168:238|125:219,1,83.9999974365235,2|0,3:2|0:0,0:0:0:0:
83,207,85524,1,2,0:0:0:0:
83,207,85608,2,0,L|74:115,1,83.9999974365235,10|0,0:0|0:0,0:0:0:0:
5,3,85941,2,0,L|170:33,1,167.999994873047,2|10,3:2|0:0,0:0:0:0:
217,132,86441,6,0,P|234:202|295:164,1,167.999994873047,2|2,0:0|0:0,0:0:0:0:
423,162,86941,2,0,P|453:181|462:146,1,83.9999974365235,10|0,0:0|0:0,0:0:0:0:
358,64,87274,5,2,3:1:0:0:
358,64,87441,1,2,0:1:0:0:
358,64,87608,1,10,0:1:0:0:
295,164,87774,5,2,0:0:0:0:
197,113,87941,2,0,P|120:109|74:206,1,167.999994873047,6|10,3:2|0:0,0:0:0:0:
74,286,88441,2,0,L|87:373,1,83.9999974365235,2|0,0:0|3:2,0:0:0:0:
188,328,88774,2,0,L|175:244,1,83.9999974365235,2|8,0:0|0:0,0:0:0:0:
71,177,89108,6,0,P|158:192|189:119,1,167.999994873047,2|2,0:0|0:0,0:0:0:0:
274,37,89608,2,0,L|365:52,1,83.9999974365235,10|0,0:0|0:0,0:0:0:0:
414,143,89941,1,2,3:2:0:0:
362,229,90108,2,0,P|350:274|357:313,1,83.9999974365235,2|8,0:0|0:0,0:0:0:0:
428,381,90441,5,2,0:0:0:0:
276,380,90608,2,0,P|212:378|157:333,1,125.999996154785,14|0,0:0|0:0,0:0:0:0:
148,285,90941,2,0,P|212:283|267:238,1,125.999996154785,10|0,0:0|0:0,0:0:0:0:
278,191,91274,2,0,P|214:189|159:144,1,125.999996154785,10|0,0:0|0:0,0:0:0:0:
147,96,91608,1,10,0:0:0:0:
234,31,91774,6,0,L|404:52,1,167.999994873047,14|10,0:0|0:0,0:0:0:0:
464,146,92274,1,10,0:0:0:0:
464,146,92441,1,10,0:0:0:0:
382,219,92608,1,10,0:0:0:0:
400,51,93108,6,0,L|234:31,1,167.999994873047,10|10,0:0|0:0,0:0:0:0:
169,120,93608,1,10,0:0:0:0:
169,120,93775,1,10,0:0:0:0:
207,222,93942,1,10,0:0:0:0:
234,31,94441,6,0,L|404:52,1,167.999994873047,10|10,0:0|0:0,0:0:0:0:
464,146,94941,1,10,0:0:0:0:
464,146,95108,1,10,0:0:0:0:
382,219,95275,1,10,0:0:0:0:
382,219,95941,6,0,P|346:209|304:221,1,70,14|0,0:0|3:2,0:0:0:0:
311,320,96274,2,0,P|344:329|378:323,1,70,10|0,0:0|3:2,0:0:0:0:
474,278,96608,2,0,L|456:130,1,140,10|8,0:0|0:0,0:0:0:0:
365,87,97108,6,0,P|326:97|294:90,1,70,2|8,3:2|0:0,0:0:0:0:
219,29,97441,1,2,3:2:0:0:
219,29,97608,2,0,P|184:23|151:33,1,70,10|0,0:0|3:2,0:0:0:0:
94,121,97941,5,10,0:0:0:0:
150,209,98108,1,2,3:1:0:0:
253,193,98274,1,10,0:1:0:0:
196,103,98441,1,2,3:1:0:0:
94,121,98608,6,0,P|57:127|19:115,1,70,14|0,0:0|3:2,0:0:0:0:
31,13,98941,2,0,P|68:7|106:19,1,70,10|0,0:0|3:2,0:0:0:0:
189,68,99274,2,0,L|337:45,1,140,10|8,0:0|0:0,0:0:0:0:
447,66,99774,6,0,P|400:63|370:146,1,140,2|2,3:2|3:2,0:0:0:0:
449,202,100274,2,0,L|442:284,1,70,10|0,0:0|3:2,0:0:0:0:
356,340,100608,6,0,P|303:350|256:281,2,136.499993751526,14|14|14,0:0|0:0|0:0,0:0:0:0:
443,271,101274,6,0,L|449:202,1,70,14|0,0:0|3:2,0:0:0:0:
347,232,101608,2,0,L|341:162,1,70,10|0,0:0|3:2,0:0:0:0:
421,94,101941,2,0,P|355:120|309:72,1,140,10|8,0:0|0:0,0:0:0:0:
224,16,102441,6,0,P|189:28|162:54,1,70,2|8,3:2|0:0,0:0:0:0:
92,125,102774,1,2,3:2:0:0:
92,125,102941,2,0,P|127:137|154:163,1,70,10|0,0:0|3:2,0:0:0:0:
176,261,103274,5,10,0:0:0:0:
100,334,103441,1,2,3:1:0:0:
2,304,103608,1,10,0:1:0:0:
74,231,103774,1,2,3:1:0:0:
176,261,103941,6,0,P|214:272|247:261,1,70,14|0,0:0|3:2,0:0:0:0:
347,257,104274,2,0,P|337:218|311:195,1,70,10|0,0:0|3:2,0:0:0:0:
258,110,104608,2,0,P|229:137|222:171,1,70,10|0,0:0|3:2,0:0:0:0:
176,261,104941,1,10,0:0:0:0:
176,261,105108,6,0,P|117:299|56:273,1,140,2|0,3:2|3:2,0:0:0:0:
14,186,105608,1,12,0:0:0:0:
150,45,105941,5,2,3:2:0:0:
243,100,106108,1,10,0:0:0:0:
243,100,106191,1,10,0:0:0:0:
243,100,106274,2,0,L|281:94,3,35,10|2|10|2,0:0|0:0|0:0|0:0,0:0:0:0:
254,63,108608,6,0,P|270:56|290:54,3,35,2|2|2|2,1:2|0:0|1:2|0:0,0:0:0:0:
332,59,108941,2,0,P|349:60|367:69,3,35,2|2|2|2,1:2|0:0|0:0|0:0,0:0:0:0:
399,97,109274,5,2,3:2:0:0:
462,167,109441,2,0,P|412:155|356:188,1,105.000004005432,2|2,0:0|0:0,0:0:0:0:
257,332,110108,1,2,0:0:0:0:
257,332,110191,1,2,0:0:0:0:
257,332,110274,2,0,L|198:327,1,52.5000020027161,10|2,0:0|0:0,0:0:0:0:
117,366,110608,5,2,3:2:0:0:
64,287,110774,2,0,L|77:175,1,105.000004005432,2|2,0:0|0:0,0:0:0:0:
137,110,111274,1,2,3:2:0:0:
137,110,111441,1,2,0:0:0:0:
218,158,111608,1,10,0:0:0:0:
218,158,111774,2,0,P|252:160|278:148,1,52.5000020027161,2|2,0:0|3:2,0:0:0:0:
331,82,112108,6,0,P|356:74|381:77,2,52.5000020027161,2|10|2,0:0|0:0|0:0,0:0:0:0:
364,170,112608,2,0,L|381:286,1,105.000004005432,2|10,3:2|0:0,0:0:0:0:
336,358,113108,1,2,0:0:0:0:
484,240,113441,2,0,L|468:136,1,105.000004005432,2|2,0:0|0:0,0:0:0:0:
396,75,113941,1,2,3:2:0:0:
364,170,114108,1,2,0:0:0:0:
364,170,114191,1,2,0:0:0:0:
364,170,114274,2,0,P|330:176|308:171,1,52.5000020027161,10|2,0:0|0:0,0:0:0:0:
245,104,114608,5,2,3:2:0:0:
167,157,114774,2,0,P|185:103|162:45,1,105.000004005432,2|2,0:0|0:0,0:0:0:0:
57,209,115441,2,0,L|67:270,2,52.5000020027161,2|10|2,0:0|0:0|0:0,0:0:0:0:
80,117,115941,5,2,3:2:0:0:
167,153,116108,2,0,B|224:141|224:141|273:158,1,105.000004005432,2|2,0:0|0:0,0:0:0:0:
355,321,116774,2,0,L|323:328,2,26.2500010013581,2|2|10,0:0|0:0|0:0,0:0:0:0:
445,358,117108,1,2,0:0:0:0:
482,271,117274,6,0,P|449:262|416:270,1,52.5000020027161,2|2,3:2|0:0,0:0:0:0:
355,321,117608,2,0,P|328:322|304:314,1,52.5000020027161,10|2,0:0|0:0,0:0:0:0:
246,238,117941,1,2,3:2:0:0:
246,238,118108,2,0,P|190:230|146:275,1,105.000004005432,2|2,0:0|0:0,0:0:0:0:
69,342,118608,5,10,0:0:0:0:
69,342,119274,2,0,L|72:303,3,26.2500010013581,10|10|10|6,0:0|0:0|0:3|0:3,0:0:0:0:
93,273,119608,2,0,L|96:234,3,26.2500010013581,2|2|2|2,3:2|3:2|3:2|3:2,0:0:0:0:
125,206,119941,6,0,B|183:188|181:222|237:200,1,112,6|0,3:2|0:0,0:0:0:0:
326,158,120441,1,2,0:0:0:0:
246,95,120608,1,10,0:0:0:0:
246,95,120774,2,0,L|239:39,1,56,2|0,0:0|0:0,0:0:0:0:
358,10,121108,6,0,P|408:31|470:13,1,112,2|0,0:0|3:2,0:0:0:0:
508,107,121608,2,0,L|501:171,1,56,2|0,0:0|3:2,0:0:0:0:
401,156,121941,2,0,L|408:220,1,56,8|0,0:0|0:0,0:0:0:0:
495,260,122274,2,0,L|488:324,1,56,2|0,3:2|0:0,0:0:0:0:
377,358,122608,6,0,P|339:326|267:318,1,112,2|0,3:2|0:0,0:0:0:0:
189,363,123108,1,2,3:2:0:0:
134,278,123274,1,10,0:0:0:0:
134,278,123441,2,0,L|141:219,1,56,2|0,3:2|0:0,0:0:0:0:
245,160,123774,6,0,P|298:152|318:86,1,112,6|0,3:2|0:0,0:0:0:0:
231,57,124274,2,0,L|165:66,1,56,2|0,0:0|0:0,0:0:0:0:
82,22,124608,2,0,P|69:56|82:110,1,84,10|0,0:0|0:0,0:0:0:0:
100,146,124941,2,0,P|111:180|108:214,1,56,10|0,0:0|0:0,0:0:0:0:
81,299,125274,5,14,0:2:0:0:
81,299,125441,1,2,0:0:0:0:
165,353,125608,2,0,P|202:352|231:338,1,56,10|2,0:2|0:0,0:0:0:0:
266,255,125941,2,0,L|256:195,2,56,10|2|2,0:2|0:0|0:0,0:0:0:0:
365,269,126441,6,0,L|345:149,1,112,14|2,0:2|0:0,0:0:0:0:
264,99,126941,1,10,0:0:0:0:
264,99,127108,1,2,0:0:0:0:
340,34,127274,2,0,B|399:25,1,56,10|0,0:0|0:0,0:0:0:0:
432,220,127774,1,10,0:2:0:0:
432,220,127858,1,8,0:0:0:0:
432,220,127941,6,0,L|291:190,1,140,2|10,3:2|0:0,0:0:0:0:
195,158,128441,1,2,3:2:0:0:
195,158,128524,1,0,3:2:0:0:
195,158,128608,2,0,P|186:197|195:232,2,70,0|0|8,3:2|3:2|0:0,0:0:0:0:
315,98,129108,6,0,L|451:127,1,140,2|0,0:0|0:0,0:0:0:0:
501,220,129608,1,10,0:0:0:0:
438,303,129774,1,10,0:3:0:0:
438,303,129858,1,8,0:3:0:0:
438,303,129941,2,0,P|430:337|439:373,1,70,2|0,3:2|3:2,0:0:0:0:
332,370,130274,2,0,P|339:336|331:302,1,70,10|0,0:0|3:2,0:0:0:0:
247,237,130608,6,0,B|172:227|194:262|97:239,1,140,6|10,3:2|0:0,0:0:0:0:
10,218,131108,1,2,0:0:0:0:
10,218,131191,1,2,0:0:0:0:
10,218,131274,2,0,L|24:298,1,70,2|2,3:2|0:0,0:0:0:0:
82,382,131608,2,0,P|116:371|149:385,1,70,10|2,0:0|0:0,0:0:0:0:
200,292,131941,5,2,3:2:0:0:
315,306,132108,1,2,0:0:0:0:
315,306,132191,1,2,0:0:0:0:
315,306,132274,2,0,L|308:266,3,35,10|2|2|2,0:0|0:0|0:0|0:0,0:0:0:0:
315,218,132608,2,0,L|308:178,3,35,2|2|2|2,3:2|0:0|3:2|0:0,0:0:0:0:
317,131,132941,2,0,L|310:91,3,35,10|2|2|2,0:0|0:0|0:0|0:0,0:0:0:0:
323,40,133274,6,0,P|280:45|244:29,2,77.0000023498536,14|2|2,0:0|3:2|3:2,0:0:0:0:
436,91,133774,2,0,L|416:260,1,154.000004699707,14|2,0:0|3:2,0:0:0:0:
328,304,134274,1,10,0:0:0:0:
235,247,134441,1,6,3:2:0:0:
235,247,134774,5,10,0:0:0:0:
328,304,134941,1,10,0:0:0:0:
417,243,135108,1,10,0:0:0:0:
507,300,135274,1,10,0:0:0:0:
506,168,135441,5,2,3:2:0:0:
506,168,135524,1,0,3:2:0:0:
506,168,135608,2,0,P|460:162|434:138,1,77.0000023498536,14|2,0:0|0:0,0:0:0:0:
379,40,135941,6,0,L|208:68,1,167.999994873047,6|10,3:2|0:0,0:0:0:0:
111,27,136441,2,0,P|103:76|114:115,1,83.9999974365235,2|0,0:0|3:2,0:0:0:0:
200,171,136774,2,0,P|208:220|197:259,1,83.9999974365235,2|8,0:0|0:0,0:0:0:0:
76,324,137108,6,0,B|170:293|152:357|238:328,1,167.999994873047,2|2,0:0|0:0,0:0:0:0:
322,232,137608,2,0,L|404:248,1,83.9999974365235,10|0,0:0|0:0,0:0:0:0:
495,308,137941,1,2,3:2:0:0:
505,207,138108,2,0,P|494:162|504:120,1,83.9999974365235,2|8,0:0|0:0,0:0:0:0:
463,32,138441,5,2,0:0:0:0:
354,123,138608,2,0,P|222:96|169:88,1,167.999994873047,2|10,3:2|0:0,0:0:0:0:
136,177,139108,1,2,0:0:0:0:
42,81,139274,2,0,P|24:42|16:0,2,83.9999974365235,2|2|10,3:2|0:0|0:0,0:0:0:0:
1,180,139774,6,0,L|30:355,1,167.999994873047,2|2,0:0|0:0,0:0:0:0:
159,378,140274,2,0,P|226:371|263:275,1,167.999994873047,10|2,0:0|3:2,0:0:0:0:
343,199,140774,1,8,0:0:0:0:
343,199,140858,1,8,0:0:0:0:
343,199,140941,2,0,L|339:152,3,41.9999987182618,8|8|10|8,0:0|0:0|0:0|0:0,0:0:0:0:
338,106,141274,6,0,P|271:135|215:57,1,167.999994873047,6|10,3:2|0:0,0:0:0:0:
293,10,141774,2,0,P|340:2|378:11,1,83.9999974365235,2|0,0:0|3:2,0:0:0:0:
433,92,142108,2,0,P|474:99|516:85,1,83.9999974365235,2|8,0:0|0:0,0:0:0:0:
338,106,142441,6,0,L|366:298,1,167.999994873047,2|2,0:0|0:0,0:0:0:0:
498,327,142941,2,0,L|484:243,1,83.9999974365235,10|0,0:0|0:0,0:0:0:0:
485,244,143191,1,2,0:0:0:0:
485,244,143274,1,2,3:2:0:0:
407,339,143441,2,0,P|368:354|326:343,1,83.9999974365235,2|8,0:0|0:0,0:0:0:0:
252,290,143774,5,2,0:0:0:0:
142,246,143941,2,0,P|104:261|63:287,2,83.9999974365235,2|2|10,3:2|0:0|0:0,0:0:0:0:
230,167,144441,2,0,P|310:200|402:207,1,167.999994873047,2|2,0:0|0:0,0:0:0:0:
480,145,144941,1,10,0:0:0:0:
399,47,145108,6,0,B|369:150|369:150|389:207,1,167.999994873047,6|0,3:2|3:2,0:0:0:0:
480,267,145608,2,0,P|431:308|321:293,1,167.999994873047,8|8,0:0|0:0,0:0:0:0:
238,227,146108,1,8,0:0:0:0:
238,227,146191,1,8,0:0:0:0:
238,227,146274,2,0,L|188:236,3,41.9999987182618,8|8|8|8,0:0|0:0|0:0|0:0,0:0:0:0:
142,246,146608,6,0,P|97:283|16:218,1,167.999994873047,6|10,3:2|0:0,0:0:0:0:
14,120,147108,2,0,L|98:136,1,83.9999974365235,2|0,0:0|3:2,0:0:0:0:
204,153,147441,2,0,L|286:137,1,83.9999974365235,2|8,0:0|0:0,0:0:0:0:
367,196,147774,6,0,P|323:131|371:68,1,167.999994873047,2|2,0:0|0:0,0:0:0:0:
492,115,148274,2,0,L|479:208,1,83.9999974365235,10|0,0:0|0:0,0:0:0:0:
480,198,148524,1,2,0:0:0:0:
480,198,148608,1,2,3:2:0:0:
413,283,148774,2,0,P|373:295|330:286,1,83.9999974365235,2|8,0:0|0:0,0:0:0:0:
264,200,149108,5,2,0:0:0:0:
173,260,149274,2,0,P|157:212|161:179,1,83.9999974365235,2|2,3:2|0:0,0:0:0:0:
231,95,149608,1,10,0:0:0:0:
231,95,149774,1,2,0:0:0:0:
338,115,149941,2,0,L|422:134,2,83.9999974365235,2|2|10,3:2|0:0|0:0,0:0:0:0:
275,7,150441,6,0,P|209:62|111:40,1,167.999994873047,2|2,0:0|0:0,0:0:0:0:
11,8,150941,2,0,L|30:91,1,83.9999974365235,10|0,0:0|0:0,0:0:0:0:
120,169,151274,5,2,3:1:0:0:
120,169,151441,1,2,0:1:0:0:
120,169,151608,1,10,0:1:0:0:
50,252,151774,5,2,0:0:0:0:
135,320,151941,2,0,B|230:301|213:345|310:315,1,167.999994873047,6|10,3:2|0:0,0:0:0:0:
407,342,152441,2,0,P|411:300|396:262,1,83.9999974365235,2|0,0:0|3:2,0:0:0:0:
301,206,152774,2,0,P|296:164|311:126,1,83.9999974365235,2|8,0:0|0:0,0:0:0:0:
403,49,153108,6,0,P|450:24|501:117,1,167.999994873047,2|2,0:0|0:0,0:0:0:0:
427,197,153608,2,0,L|438:289,1,83.9999974365235,10|0,0:0|0:0,0:0:0:0:
372,368,153941,1,2,3:2:0:0:
281,323,154108,2,0,P|241:337|193:328,1,83.9999974365235,2|8,0:0|0:0,0:0:0:0:
112,380,154441,5,2,0:0:0:0:
25,286,154608,2,0,P|89:280|142:238,1,125.999996154785,14|0,0:0|0:0,0:0:0:0:
158,189,154941,2,0,P|94:183|41:141,1,125.999996154785,10|0,0:0|0:0,0:0:0:0:
20,93,155274,2,0,P|84:87|137:45,1,125.999996154785,10|0,0:0|0:0,0:0:0:0:
176,11,155608,1,10,0:0:0:0:
288,67,155774,6,0,L|266:245,1,167.999994873047,14|10,0:0|0:0,0:0:0:0:
324,336,156274,1,10,0:0:0:0:
324,336,156441,1,10,0:0:0:0:
441,348,156608,1,10,0:0:0:0:
491,81,157108,6,0,L|512:248,1,167.999994873047,10|10,0:0|0:0,0:0:0:0:
441,348,157608,1,10,0:0:0:0:
441,348,157774,1,10,0:0:0:0:
324,336,157941,1,10,0:0:0:0:
288,67,158441,6,0,L|266:245,1,167.999994873047,10|10,0:0|0:0,0:0:0:0:
324,336,158941,1,10,0:0:0:0:
324,336,159108,1,10,0:0:0:0:
441,348,159274,1,10,0:0:0:0:
89,312,170608,6,0,P|35:281|41:220,2,112,6|10|2,3:2|0:0|3:2,0:0:0:0:
171,275,171441,1,2,3:2:0:0:
334,347,171774,6,0,B|388:357|388:357|447:340,1,112,2|0,3:2|3:2,0:0:0:0:
491,265,172274,1,10,0:0:0:0:
452,89,172608,2,0,P|461:56|476:32,2,56,2|2|10,3:2|3:2|0:0,0:0:0:0:
496,167,173108,6,0,P|442:140|380:156,1,112,2|0,3:2|3:2,0:0:0:0:
334,216,173608,1,10,0:0:0:0:
173,149,173941,1,2,3:2:0:0:
173,149,174108,2,0,L|106:158,1,56,2|8,3:2|0:0,0:0:0:0:
44,210,174441,6,0,P|26:158|44:106,3,112,2|2|2|2,3:2|3:2|3:2|3:2,0:0:0:0:
210,38,175774,6,0,L|335:52,1,112,6|2,0:3|3:2,0:0:0:0:
403,85,176274,1,10,0:0:0:0:
313,155,176441,6,0,L|188:169,1,112,2|2,3:2|3:2,0:0:0:0:
126,215,176941,1,10,0:0:0:0:
223,283,177108,6,0,P|247:333|209:373,2,112,2|2|2,3:2|3:2|3:2,0:0:0:0:
50,332,178108,2,0,P|38:307|57:287,1,56,2|10,3:2|0:0,0:0:0:0:
137,252,178441,6,0,L|128:138,1,112,2|0,3:2|3:2,0:0:0:0:
86,60,178941,2,0,P|117:50|144:52,1,56,10|0,0:0|3:2,0:0:0:0:
213,102,179274,2,0,P|240:102|267:93,1,56,2|0,3:2|3:2,0:0:0:0:
318,18,179608,1,10,0:0:0:0:
381,107,179774,6,0,L|373:235,1,112,14|0,0:0|3:2,0:0:0:0:
374,218,180191,1,0,3:2:0:0:
374,218,180274,1,8,0:0:0:0:
322,299,180441,1,8,0:0:0:0:
246,240,180608,5,8,0:0:0:0:
246,240,180774,1,8,0:0:0:0:
187,316,180941,1,8,0:0:0:0:
187,316,181107,1,8,0:0:0:0:
90,246,181274,6,0,P|83:183|150:136,2,140,6|10|2,3:2|0:0|3:2,0:0:0:0:
173,319,182108,1,2,3:2:0:0:
173,319,182274,1,8,0:0:0:0:
255,210,182441,6,0,B|335:187|328:225|396:202,1,140,2|0,3:2|3:2,0:0:0:0:
487,249,182941,2,0,P|494:209|488:179,1,70,10|0,0:0|0:0,0:0:0:0:
418,105,183274,2,0,P|411:65|417:35,2,70,2|2|10,3:2|3:2|0:0,0:0:0:0:
380,217,183774,6,0,B|315:238|322:200|242:223,1,140,6|0,3:2|3:2,0:0:0:0:
146,265,184274,2,0,P|139:225|145:195,1,70,10|0,0:0|0:0,0:0:0:0:
223,125,184608,1,2,3:2:0:0:
223,125,184774,1,2,3:2:0:0:
175,31,184941,1,8,0:0:0:0:
63,93,185108,6,0,B|29:130|29:130|56:225,1,140,14|10,0:0|0:0,0:0:0:0:
134,282,185608,1,10,0:0:0:0:
34,373,185774,6,0,B|105:349|97:394|172:370,1,140,6|10,3:2|0:0,0:0:0:0:
232,284,186274,1,10,0:0:0:0:
327,357,186441,6,0,P|318:293|315:213,1,140,6|2,3:2|3:2,0:0:0:0:
387,141,186941,1,10,0:0:0:0:
284,121,187108,2,0,L|138:150,1,140,2|2,3:2|3:2,0:0:0:0:
64,214,187608,1,10,0:0:0:0:
40,102,187774,5,2,3:2:0:0:
227,224,188108,1,2,3:2:0:0:
392,73,188441,2,0,P|329:88|274:40,1,140,6|8,3:2|0:0,0:0:0:0:
189,103,188941,1,8,0:0:0:0:
119,23,189108,6,0,P|59:27|41:109,1,140,6|2,3:2|3:2,0:0:0:0:
105,177,189608,1,10,0:0:0:0:
105,177,189774,1,2,0:0:0:0:
13,260,189941,2,0,L|29:329,1,70,2|2,3:2|3:2,0:0:0:0:
119,381,190274,1,10,0:0:0:0:
212,291,190441,6,0,P|262:276|345:305,1,140,6|8,3:2|0:0,0:0:0:0:
430,370,190941,1,8,0:0:0:0:
430,370,191108,1,8,0:0:0:0:
495,289,191274,2,0,L|491:250,3,35,10|2|10|2,0:0|0:0|0:0|0:0,0:0:0:0:
470,205,191608,2,0,L|466:166,3,35,10|2|2|2,0:0|0:0|0:0|0:0,0:0:0:0:
451,120,191941,5,10,0:0:0:0:
354,167,192108,1,10,0:0:0:0:
250,137,192274,1,10,0:0:0:0:
160,197,192441,1,10,0:0:0:0:
63,149,192608,1,10,0:0:0:0:
262,290,193108,6,0,L|249:136,1,154.000004699707,10|10,0:0|0:0,0:0:0:0:
346,86,193608,1,10,0:0:0:0:
346,86,193774,1,10,0:0:0:0:
451,120,193941,1,10,0:0:0:0:
249,136,194608,5,10,0:0:0:0:
249,136,194775,1,10,0:0:0:0:
154,96,194941,1,10,0:0:0:0:
154,96,195108,1,10,0:0:0:0:
63,149,195274,1,10,0:0:0:0:
249,136,195608,5,2,0:0:0:0:
249,136,195774,2,0,L|408:122,2,154.000004699707,10|8|8,0:0|0:0|0:0,0:0:0:0:
154,96,196608,2,0,L|148:53,2,38.5000011749268,10|2|2,0:0|0:0|0:0,0:0:0:0:
50,66,196941,2,0,L|54:111,3,38.5000011749268,2|2|2|2,0:0|0:0|0:0|0:0,0:0:0:0:
63,149,197274,5,10,0:0:0:0:
160,197,197441,1,10,0:0:0:0:
250,137,197608,1,10,0:0:0:0:
354,167,197774,1,10,0:0:0:0:
451,120,197941,1,10,0:0:0:0:
262,290,198441,6,0,L|249:136,1,154.000004699707,10|10,0:0|0:0,0:0:0:0:
153,86,198941,1,10,0:0:0:0:
153,86,199107,1,10,0:0:0:0:
63,149,199274,1,10,0:0:0:0:
249,136,199941,5,10,0:0:0:0:
249,136,200107,1,10,0:0:0:0:
349,92,200274,1,10,0:0:0:0:
349,92,200441,1,10,0:0:0:0:
451,120,200608,1,10,0:0:0:0:
249,136,200941,5,2,0:0:0:0:
249,136,201108,2,0,L|95:148,2,154.000004699707,10|8|8,0:0|0:0|0:0,0:0:0:0:
342,190,201941,2,0,L|334:228,3,38.5000011749268,10|10|6|6,0:0|0:3|0:3|0:3,0:0:0:0:
340,281,202274,2,0,L|332:319,3,38.5000011749268,14|2|2|2,0:0|0:0|0:0|0:0,0:0:0:0:
333,368,202608,6,0,P|298:358|263:351,1,70,6|0,3:2|0:0,0:0:0:0:
208,262,202941,2,0,P|170:273|139:278,1,70,10|0,0:0|0:0,0:0:0:0:
79,192,203274,2,0,P|125:143|199:153,1,140,2|8,3:2|0:0,0:0:0:0:
288,190,203774,1,2,0:0:0:0:
288,190,203941,2,0,L|446:212,1,140,2|10,3:2|0:0,0:0:0:0:
499,143,204441,2,0,B|509:54|509:54|492:6,1,140,2|0,3:2|3:2,0:0:0:0:
418,71,204941,1,8,0:0:0:0:
418,71,205108,1,2,0:0:0:0:
305,12,205274,6,0,P|250:2|200:17,2,105,2|2|2,3:2|0:0|0:0,0:0:0:0:
309,110,205941,2,0,P|258:123|207:113,2,105,2|2|2,3:2|0:0|0:0,0:0:0:0:
390,53,206608,6,0,P|439:39|492:108,2,140,2|8|2,3:2|0:0|3:2,0:0:0:0:
398,150,207441,1,14,0:0:0:0:
407,247,207608,2,0,L|416:331,1,70,14|2,0:0|0:0,0:0:0:0:
310,342,207941,6,0,P|274:350|235:366,2,70,6|2|10,3:2|0:0|0:0,0:0:0:0:
284,247,208441,2,0,P|244:256|206:270,2,70,2|2|2,0:0|3:2|3:2,0:0:0:0:
354,178,208941,1,10,0:0:0:0:
354,178,209108,2,0,P|392:182|428:194,1,70,2|2,0:0|3:2,0:0:0:0:
370,81,209441,1,2,0:0:0:0:
370,81,209608,2,0,P|407:86|441:98,1,70,10|2,0:0|0:0,0:0:0:0:
261,114,209941,6,0,L|248:182,1,70,2|0,3:2|3:2,0:0:0:0:
293,269,210274,2,0,L|304:340,1,70,10|0,0:0|0:0,0:0:0:0:
193,273,210608,6,0,B|125:298|125:298|58:273,1,140,6|8,3:2|0:0,0:0:0:0:
65,164,211108,1,2,0:0:0:0:
65,164,211191,1,2,0:0:0:0:
65,164,211274,2,0,B|133:139|133:139|200:164,1,140,2|8,3:2|0:0,0:0:0:0:
285,220,211774,5,2,0:0:0:0:
285,220,211941,1,2,3:2:0:0:
374,180,212108,2,0,L|387:106,1,70,2|8,0:0|0:0,0:0:0:0:
314,43,212441,5,2,0:0:0:0:
314,43,212608,1,2,3:2:0:0:
222,78,212774,2,0,L|209:146,2,70,2|10|2,0:0|0:0|0:0,0:0:0:0:
314,43,213274,6,0,P|353:47|390:32,2,77.0000023498536,14|2|2,0:0|3:2|3:2,0:0:0:0:
203,86,213774,2,0,L|31:114,1,154.000004699707,14|2,0:0|3:2,0:0:0:0:
19,214,214274,1,10,0:0:0:0:
72,307,214441,1,6,3:2:0:0:
72,307,214774,5,10,0:0:0:0:
19,214,214941,1,10,0:0:0:0:
51,110,215108,1,10,0:0:0:0:
8,11,215274,1,14,0:0:0:0:
138,22,215441,5,10,0:0:0:0:
138,22,215524,1,8,0:0:0:0:
138,22,215608,2,0,L|178:26,3,38.5000011749268,10|8|10|8,0:0|0:0|0:0|0:0,0:0:0:0:
219,60,215941,6,0,P|278:32|353:104,1,167.999994873047,6|10,3:2|0:0,0:0:0:0:
333,198,216441,2,0,L|353:291,1,83.9999974365235,2|0,0:0|3:2,0:0:0:0:
458,262,216774,2,0,L|440:179,1,83.9999974365235,2|8,0:0|0:0,0:0:0:0:
350,90,217108,6,0,P|274:106|226:195,1,167.999994873047,2|2,0:0|0:0,0:0:0:0:
223,305,217608,2,0,P|175:314|135:306,1,83.9999974365235,10|0,0:0|0:0,0:0:0:0:
33,329,217941,1,2,3:2:0:0:
1,233,218108,2,0,L|15:148,1,83.9999974365235,2|8,0:0|0:0,0:0:0:0:
104,195,218441,5,2,0:0:0:0:
182,99,218608,2,0,B|277:74|254:140|346:109,1,167.999994873047,2|10,3:2|0:0,0:0:0:0:
430,57,219108,1,2,0:0:0:0:
503,170,219274,2,0,L|486:260,2,83.9999974365235,2|2|10,3:2|0:0|0:0,0:0:0:0:
390,203,219774,6,0,P|323:213|245:139,1,167.999994873047,2|2,0:0|0:0,0:0:0:0:
258,26,220274,2,0,P|173:39|83:51,1,167.999994873047,10|2,0:0|3:2,0:0:0:0:
37,154,220774,1,8,0:0:0:0:
37,154,220858,1,8,0:0:0:0:
37,154,220941,2,0,L|41:199,3,41.9999987182618,8|8|10|8,0:0|0:0|0:0|0:0,0:0:0:0:
49,245,221274,6,0,P|103:225|147:311,1,167.999994873047,6|10,3:2|0:0,0:0:0:0:
239,368,221774,2,0,P|281:376|320:360,1,83.9999974365235,2|0,0:0|3:2,0:0:0:0:
354,257,222108,2,0,P|392:242|433:250,1,83.9999974365235,2|8,0:0|0:0,0:0:0:0:
505,354,222441,6,0,L|482:186,1,167.999994873047,2|2,0:0|0:0,0:0:0:0:
392,99,222941,2,0,L|301:121,1,83.9999974365235,10|0,0:0|0:0,0:0:0:0:
223,185,223274,1,2,3:2:0:0:
127,131,223441,2,0,P|112:176|119:221,1,83.9999974365235,2|8,0:0|0:0,0:0:0:0:
171,306,223774,5,2,0:0:0:0:
223,185,223941,2,0,B|306:168|306:168|384:199,1,167.999994873047,2|10,3:2|0:0,0:0:0:0:
476,111,224441,2,0,L|320:50,1,167.999994873047,2|2,0:0|0:0,0:0:0:0:
220,70,224941,1,10,0:0:0:0:
113,17,225108,6,0,P|162:52|139:159,1,167.999994873047,6|0,3:2|3:2,0:0:0:0:
60,225,225608,2,0,L|76:318,1,83.9999974365235,8|0,0:0|3:2,0:0:0:0:
177,364,225941,1,8,0:0:0:0:
265,285,226108,2,0,L|253:238,2,41.9999987182618,8|8|8,0:0|0:0|0:0,0:0:0:0:
363,349,226441,1,8,0:0:0:0:
363,349,226524,1,8,0:0:0:0:
363,349,226608,6,0,P|422:360|456:263,1,167.999994873047,6|10,3:2|0:0,0:0:0:0:
384,198,227108,2,0,P|372:156|381:110,1,83.9999974365235,2|0,0:0|3:2,0:0:0:0:
475,67,227441,2,0,P|487:109|478:155,1,83.9999974365235,2|8,0:0|0:0,0:0:0:0:
462,275,227774,6,0,P|410:241|318:300,1,167.999994873047,2|2,0:0|0:0,0:0:0:0:
231,372,228274,2,0,L|137:362,1,83.9999974365235,10|0,0:0|0:0,0:0:0:0:
38,369,228608,1,2,3:2:0:0:
38,369,228774,2,0,P|31:325|44:285,1,83.9999974365235,2|8,0:0|0:0,0:0:0:0:
146,253,229108,5,2,0:0:0:0:
262,301,229274,2,0,P|307:310|350:291,1,83.9999974365235,2|0,3:2|0:0,0:0:0:0:
377,255,229524,1,2,0:0:0:0:
377,255,229608,2,0,P|421:243|459:257,1,83.9999974365235,10|0,0:0|0:0,0:0:0:0:
505,129,229941,2,0,L|327:103,1,167.999994873047,2|10,3:2|0:0,0:0:0:0:
250,166,230441,6,0,P|222:99|160:145,1,167.999994873047,2|2,0:0|0:0,0:0:0:0:
56,149,230941,2,0,P|30:122|9:153,1,83.9999974365235,10|0,0:0|0:0,0:0:0:0:
119,243,231274,5,2,3:1:0:0:
119,243,231441,1,2,0:1:0:0:
119,243,231608,1,10,0:1:0:0:
160,141,231774,5,2,0:0:0:0:
250,225,231941,2,0,B|344:203|326:259|420:226,1,167.999994873047,6|10,3:2|0:0,0:0:0:0:
487,146,232441,2,0,P|498:98|487:61,1,83.9999974365235,2|0,0:0|3:2,0:0:0:0:
380,55,232774,2,0,P|369:103|380:140,1,83.9999974365235,2|8,0:0|0:0,0:0:0:0:
427,243,233108,6,0,B|338:274|356:218|262:240,1,167.999994873047,2|2,0:0|0:0,0:0:0:0:
205,349,233608,2,0,P|158:360|123:354,1,83.9999974365235,10|0,0:0|0:0,0:0:0:0:
32,293,233941,1,2,3:2:0:0:
59,187,234108,2,0,P|103:191|145:172,1,83.9999974365235,2|8,0:0|0:0,0:0:0:0:
247,191,234441,5,2,0:0:0:0:
331,82,234608,2,0,P|393:87|443:123,1,125.999996154785,14|0,0:0|0:0,0:0:0:0:
464,179,234941,2,0,P|401:184|351:220,1,125.999996154785,10|0,0:0|0:0,0:0:0:0:
325,274,235275,2,0,P|387:279|437:315,1,125.999996154785,10|0,0:0|0:0,0:0:0:0:
469,365,235609,1,10,0:0:0:0:
348,383,235774,6,0,L|178:362,1,167.999994873047,14|10,0:0|0:0,0:0:0:0:
118,268,236274,1,10,0:0:0:0:
118,268,236441,1,10,0:0:0:0:
200,195,236608,1,10,0:0:0:0:
181,362,237108,6,0,L|348:383,1,167.999994873047,10|10,0:0|0:0,0:0:0:0:
435,316,237608,1,10,0:0:0:0:
435,316,237774,1,10,0:0:0:0:
379,220,237941,1,10,0:0:0:0:
348,383,238441,6,0,L|178:362,1,167.999994873047,10|10,0:0|0:0,0:0:0:0:
118,268,238941,1,10,0:0:0:0:
118,268,239108,1,10,0:0:0:0:
200,195,239274,6,0,P|250:135|156:104,1,210.000008010865,14|2,0:0|0:0,0:0:0:0:
41,256,239941,6,0,L|135:270,1,77.0000023498536,14|0,0:0|3:2,0:0:0:0:
217,307,240274,2,0,L|293:295,1,77.0000023498536,10|0,0:0|3:2,0:0:0:0:
378,227,240608,1,10,0:0:0:0:
378,227,240774,1,0,3:2:0:0:
471,281,240941,1,8,0:0:0:0:
456,159,241108,6,0,P|385:181|336:110,1,154.000004699707,2|2,3:2|3:2,0:0:0:0:
297,27,241608,2,0,L|216:37,1,77.0000023498536,10|0,0:0|3:2,0:0:0:0:
154,140,241941,5,10,0:0:0:0:
259,118,242108,1,2,3:1:0:0:
327,200,242274,1,10,0:1:0:0:
221,223,242441,1,2,3:1:0:0:
154,140,242608,6,0,L|74:130,1,77.0000023498536,14|0,0:0|3:2,0:0:0:0:
7,213,242941,2,0,P|-1:256|7:298,1,77.0000023498536,10|0,0:0|3:2,0:0:0:0:
90,352,243274,2,0,B|171:327|166:374|249:339,1,154.000004699707,10|8,0:0|0:0,0:0:0:0:
317,248,243774,6,0,P|257:260|257:362,1,154.000004699707,2|2,3:2|3:2,0:0:0:0:
347,354,244274,2,0,L|436:336,1,77.0000023498536,10|0,0:0|3:2,0:0:0:0:
488,252,244608,6,0,P|516:173|463:148,2,146.999995513916,14|14|14,0:0|0:0|0:0,0:0:0:0:
422,338,245274,6,0,L|347:354,1,77.0000023498536,14|0,0:0|3:2,0:0:0:0:
249,306,245608,2,0,L|173:290,1,77.0000023498536,10|0,0:0|3:2,0:0:0:0:
69,319,245941,1,10,0:0:0:0:
69,319,246108,1,0,3:2:0:0:
15,226,246274,1,8,0:0:0:0:
118,134,246441,6,0,P|176:96|250:128,1,154.000004699707,2|2,3:2|3:2,0:0:0:0:
312,213,246941,2,0,P|352:220|386:203,1,77.0000023498536,10|0,0:0|3:2,0:0:0:0:
428,92,247274,5,10,0:0:0:0:
341,25,247441,1,2,3:1:0:0:
243,71,247608,1,10,0:1:0:0:
332,129,247774,1,2,3:1:0:0:
428,92,247941,6,0,P|469:88|506:101,1,77.0000023498536,14|0,0:0|3:2,0:0:0:0:
506,207,248274,2,0,L|487:287,1,77.0000023498536,10|0,0:0|3:2,0:0:0:0:
401,347,248608,2,0,P|318:332|253:286,1,154.000004699707,10|10,0:0|0:0,0:0:0:0:
204,201,249108,1,2,3:2:0:0:
133,311,249274,6,0,P|86:315|55:298,1,77.0000023498536,8|0,0:0|3:2,0:0:0:0:
12,204,249608,2,0,P|29:142|50:45,1,154.000004699707,12|2,0:0|3:2,0:0:0:0:
172,93,250108,1,10,0:0:0:0:
172,93,250191,1,10,0:0:0:0:
172,93,250274,2,0,L|217:84,3,38.5000011749268,10|10|10|10,0:0|0:0|0:0|0:0,0:0:0:0:
248,77,250608,6,0,P|307:76|345:34,2,112,2|2|2,0:0|0:0|0:0,0:0:0:0:
256,192,251358,12,0,252608,0:0:0:0:
