osu file format v14

[General]
AudioFilename: audio.mp3
AudioLeadIn: 0
PreviewTime: 108465
Countdown: 0
SampleSet: Soft
StackLeniency: 0.4
Mode: 0
LetterboxInBreaks: 0
WidescreenStoryboard: 1

[Editor]
Bookmarks: 7313,24008,40704,57399,74095,90791,103312,108008,109573,126269,132790,149486,168268,172442,184964,201660,210007,216268
DistanceSpacing: 0.9
BeatDivisor: 4
GridSize: 4
TimelineZoom: 2.599999

[Metadata]
Title:Yuudachi no Ribbon
TitleUnicode:夕立のりぼん
Artist:Himeringo
ArtistUnicode:ひめりんご
Creator:Rumia-
Version:Insane
Source:
Tags:Mir [ C u r i ] SolarFox Akitoshi Corinn みきとP MikitoP vocaloid utaite cover
BeatmapID:1277156
BeatmapSetID:604411

[Difficulty]
HPDrainRate:6
CircleSize:4
OverallDifficulty:8
ApproachRate:9
SliderMultiplier:1.6
SliderTickRate:1

[Events]
//Background and Video events
0,0,"bege.png",0,0
//Break Periods
2,90990,102712
2,168468,171320
//Storyboard Layer 0 (Background)
//Storyboard Layer 1 (Fail)
//Storyboard Layer 2 (Pass)
//Storyboard Layer 3 (Foreground)
//Storyboard Layer 4 (Overlay)
//Storyboard Sound Samples

[TimingPoints]
792,260.869565217391,4,2,1,45,1,0
792,-133.333333333333,4,2,1,45,0,0
3922,-133.333333333333,4,2,1,55,0,0
6270,-200,4,2,1,40,0,0
7052,-133.333333333333,4,2,1,50,0,0
7313,260.869565217391,4,2,1,70,1,0
7313,-100,4,2,1,70,0,0
21921,-200,4,2,1,50,0,0
22965,-200,4,2,1,70,0,0
24008,-133.333333333333,4,2,1,60,0,0
39660,-133.333333333333,4,2,1,70,0,0
40965,-133.333333333333,4,2,1,60,0,0
55052,-133.333333333333,4,2,1,70,0,0
56878,-133.333333333333,4,2,1,40,0,0
57399,-100,4,2,1,77,0,1
74095,-133.333333333333,4,2,1,60,0,0
103312,-100,4,2,1,65,0,0
105399,-100,4,2,1,70,0,0
108791,-200,4,2,1,70,0,0
109052,-200,4,2,1,40,0,0
109573,-100,4,2,1,77,0,1
126269,-133.333333333333,4,2,1,60,0,0
131747,260.869565217391,4,2,1,70,1,0
131747,-200,4,2,1,70,0,0
132790,-100,4,2,1,50,0,0
133051,-133.333333333333,4,2,1,50,0,0
148312,-100,4,2,1,50,0,0
148703,-133.333333333333,4,2,1,50,0,0
149486,-100,4,2,1,70,0,0
157833,-133.333333333333,4,2,1,60,0,0
164094,-100,4,2,1,70,0,0
167225,-200,4,2,1,70,0,0
168268,-200,4,2,1,40,0,0
171920,-200,4,2,1,60,0,0
172181,-83.3333333333333,4,2,1,80,0,0
172442,-100,4,2,1,77,0,1
200616,-83.3333333333333,4,2,1,77,0,1
201660,-100,4,2,1,60,0,0
216268,-200,4,2,1,60,0,0
217833,-133.333333333333,4,2,1,60,0,0
218355,-100,4,2,1,60,0,0
219399,-200,4,2,1,60,0,0
219920,-133.333333333333,4,2,1,60,0,0
220442,-133.333333333333,4,2,1,60,0,0
221355,-100,4,2,1,60,0,0
221746,-133.333333333333,4,2,1,60,0,0

[Colours]
Combo1 : 140,206,242
Combo2 : 128,64,64
Combo3 : 0,128,255
Combo4 : 255,128,128

[HitObjects]
108,164,531,6,0,P|118:202|122:242,1,80,0|0,0:0|0:0,0:0:0:0:
200,344,792,6,0,P|204:280|216:224,1,120.000004577637,2|0,0:0|0:0,0:0:0:0:
152,67,1183,2,0,P|205:102|248:141,1,120.000004577637,2|0,0:0|0:0,0:0:0:0:
415,164,1574,2,0,P|358:193|303:210,1,120.000004577637,2|0,0:0|0:0,0:0:0:0:
216,224,1965,1,0,0:0:0:0:
248,140,2096,2,0,P|252:104|252:68,1,60.0000022888184,0|0,0:0|0:0,0:0:0:0:
160,160,2357,6,0,L|150:40,1,120.000004577637,2|0,0:0|0:0,0:0:0:0:
216,224,2748,2,0,L|117:292,1,120.000004577637,2|0,0:0|0:0,0:0:0:0:
248,140,3139,2,0,L|356:191,1,120.000004577637,2|0,0:0|0:0,0:0:0:0:
456,176,3531,1,8,0:0:0:0:
420,268,3661,2,0,P|408:304|404:336,1,60.0000022888184,8|0,3:0|3:0,0:0:0:0:
249,335,3922,6,0,B|245:275|245:275|213:219,1,120.000004577637,12|0,3:2|0:0,0:0:0:0:
101,196,4313,2,0,B|154:222|154:222|219:222,1,120.000004577637,10|0,0:0|0:0,0:0:0:0:
307,151,4705,2,0,B|252:176|252:176|211:226,1,120.000004577637,2|0,3:2|0:0,0:0:0:0:
168,303,5096,1,8,0:0:0:0:
176,132,5226,1,8,0:0:0:0:
176,132,5487,6,0,P|160:68|120:16,1,120.000004577637,8|2,3:0|0:0,0:0:0:0:
120,208,5878,2,0,P|72:248|50:302,1,120.000004577637,4|2,3:0|0:0,0:0:0:0:
224,220,6270,2,0,B|264:208|264:208|296:228|296:228|332:208|332:208|388:224,1,160,12|0,0:0|0:0,0:0:0:0:
288,68,7052,2,0,L|292:140,1,60.0000022888184,8|0,3:0|0:0,0:0:0:0:
308,255,7313,6,0,B|257:230|257:230|208:250|208:250|157:226,1,160,4|8,3:2|0:0,0:0:0:0:
58,160,7704,2,0,B|144:122|144:122|209:157,1,160,0|2,0:0|3:2,0:0:0:0:
288,40,8095,1,8,0:0:0:0:
278,197,8226,6,0,B|286:141|286:141|278:101|278:101|290:25,1,160,2|2,3:0|3:2,0:0:0:0:
368,96,8617,2,0,L|456:112,1,80,8|0,0:0|0:0,0:0:0:0:
364,240,8878,2,0,L|456:228,2,80,0|2|8,3:0|3:2|0:0,0:0:0:0:
200,184,9269,1,0,0:0:0:0:
276,124,9399,6,0,B|288:180|288:180|272:284,1,160,2|8,3:2|0:0,0:0:0:0:
176,344,9791,1,0,0:0:0:0:
108,268,9921,2,0,P|64:264|16:272,2,80,0|2|8,3:0|3:2|0:0,0:0:0:0:
196,244,10312,6,0,B|208:180|208:180|184:68,1,160,2|0,3:2|3:0,0:0:0:0:
108,268,10704,1,8,0:0:0:0:
368,304,10965,2,0,L|356:220,1,80,0|0,3:0|3:0,0:0:0:0:
452,180,11226,2,0,L|444:136,3,40,8|8|8|8,0:0|0:0|0:0|0:0,0:0:0:0:
456,208,11486,6,0,B|398:202|398:202|356:224|356:224|280:208,1,160,4|8,3:2|0:0,0:0:0:0:
200,68,11878,2,0,B|240:40|240:40|224:184,1,160,0|0,0:0|3:0,0:0:0:0:
218,240,12269,1,10,0:0:0:0:
317,53,12399,6,0,L|301:225,1,160,0|0,0:0|3:0,0:0:0:0:
276,332,12791,2,0,P|316:316|368:320,1,80,8|0,0:0|0:0,0:0:0:0:
492,252,13052,2,0,P|452:251|415:236,1,80,0|0,3:0|3:0,0:0:0:0:
352,148,13312,1,8,0:0:0:0:
312,240,13443,1,8,0:0:0:0:
276,332,13573,6,0,B|220:324|220:324|176:340|176:340|112:328,1,160,2|10,3:2|0:0,0:0:0:0:
20,204,13965,2,0,B|80:164|80:164|148:236,1,160,0|0,3:0|3:0,0:0:0:0:
183,125,14356,1,8,0:0:0:0:
140,227,14486,6,0,B|184:271|184:271|268:191,1,160,4|0,3:2|3:0,0:0:0:0:
284,28,14878,2,0,L|292:120,1,80,8|0,0:0|0:0,0:0:0:0:
348,200,15139,2,0,P|388:200|440:184,1,80,0|0,3:0|3:0,0:0:0:0:
424,336,15399,2,0,P|368:320|316:320,1,80,8|2,0:0|3:0,0:0:0:0:
272,240,15660,6,0,P|264:172|336:108,1,160,4|8,3:2|0:0,0:0:0:0:
392,280,16052,2,0,L|392:372,2,80,0|0|0,0:0|3:0|3:0,0:0:0:0:
296,332,16443,6,0,P|232:328|180:236,1,160,8|0,0:0|0:0,0:0:0:0:
150,163,16834,1,0,0:0:0:0:
150,163,16965,2,0,P|86:131|46:135,1,80,8|0,0:0|0:0,0:0:0:0:
244,184,17226,2,0,P|303:144|320:107,1,80,0|2,3:0|3:2,0:0:0:0:
179,254,17486,2,0,P|183:325|206:358,1,80,8|0,0:0|0:0,0:0:0:0:
344,352,17747,6,0,L|360:188,1,160,0|8,3:0|0:0,0:0:0:0:
404,116,18139,2,0,B|312:88|336:144|240:120,1,160,0|0,0:0|3:0,0:0:0:0:
284,40,18530,1,8,0:0:0:0:
220,208,18660,6,0,P|180:176|188:60,1,160,2|0,3:2|3:0,0:0:0:0:
284,40,19052,1,8,0:0:0:0:
209,287,19312,2,0,P|213:243|221:199,1,80,0|0,3:0|3:0,0:0:0:0:
76,328,19573,2,0,P|72:284|64:240,1,80,8|8,0:0|0:0,0:0:0:0:
20,144,19834,6,0,B|72:112|72:112|176:140,1,160,4|8,3:2|0:0,0:0:0:0:
284,40,20226,1,0,0:0:0:0:
248,148,20356,2,0,P|236:200|244:240,1,80,0|0,3:0|3:0,0:0:0:0:
292,324,20617,1,8,0:0:0:0:
372,244,20747,6,0,L|356:80,1,160,2|0,3:2|3:0,0:0:0:0:
480,188,21139,2,0,L|468:284,1,80,8|0,0:0|0:0,0:0:0:0:
380,356,21399,1,0,3:0:0:0:
380,356,21530,1,0,3:0:0:0:
288,272,21660,1,8,0:0:0:0:
288,272,21791,1,8,0:0:0:0:
192,352,21921,6,0,P|132:360|72:316,1,120,6|0,0:0|0:0,0:0:0:0:
148,148,22443,2,0,L|152:280,1,120,2|0,0:0|0:0,0:0:0:0:
48,216,22965,5,10,3:2:0:0:
148,148,23095,1,0,3:0:0:0:
148,148,23356,5,0,3:0:0:0:
233,256,23486,1,8,0:0:0:0:
316,140,23617,1,0,3:0:0:0:
316,140,23878,5,8,0:0:0:0:
424,204,24008,2,0,L|412:328,1,120.000004577637,4|8,3:2|0:0,0:0:0:0:
240,316,24530,6,0,L|232:240,2,60.0000022888184,0|0|0,3:0|3:0|0:0,0:0:0:0:
292,196,24921,2,0,P|244:172|172:196,1,120.000004577637,2|0,3:2|0:0,0:0:0:0:
112,248,25312,2,0,L|40:244,1,60.0000022888184,10|0,0:0|0:0,0:0:0:0:
52,131,25573,2,0,L|112:128,2,60.0000022888184,0|0|10,3:0|3:0|0:0,0:0:0:0:
264,172,26095,6,0,P|268:108|284:36,1,120.000004577637,0|8,3:0|0:0,0:0:0:0:
456,192,26617,2,0,L|452:120,2,60.0000022888184,0|0|8,3:0|3:0|0:0,0:0:0:0:
452,292,27008,2,0,P|392:268|328:276,1,120.000004577637,2|0,3:2|3:0,0:0:0:0:
305,172,27399,2,0,L|317:108,1,60.0000022888184,8|0,0:0|0:0,0:0:0:0:
245,256,27660,2,0,L|183:277,1,60.0000022888184,0|0,3:0|3:0,0:0:0:0:
337,272,27921,2,0,L|386:314,1,60.0000022888184,8|0,0:0|0:0,0:0:0:0:
224,172,28182,6,0,L|248:36,1,120.000004577637,2|8,3:2|0:0,0:0:0:0:
232,348,28704,2,0,L|296:332,2,60.0000022888184,0|0|8,3:0|3:0|0:0,0:0:0:0:
152,300,29095,2,0,B|104:312|104:312|28:296,1,120.000004577637,2|0,3:2|3:0,0:0:0:0:
44,200,29486,2,0,L|52:116,1,60.0000022888184,8|0,0:0|0:0,0:0:0:0:
144,208,29747,2,0,L|152:128,1,60.0000022888184,0|0,3:0|3:0,0:0:0:0:
240,36,30008,2,0,L|245:95,1,60.0000022888184,8|0,0:0|3:0,0:0:0:0:
340,28,30269,6,0,L|356:164,1,120.000004577637,2|8,3:2|0:0,0:0:0:0:
372,236,30660,1,0,0:0:0:0:
296,196,30791,2,0,P|284:248|292:272,1,60.0000022888184,0|0,3:0|3:0,0:0:0:0:
356,332,31052,1,8,0:0:0:0:
452,296,31182,2,0,P|464:244|448:176,1,120.000004577637,2|0,3:2|3:0,0:0:0:0:
388,88,31573,2,0,L|308:96,1,60.0000022888184,10|0,0:0|0:0,0:0:0:0:
296,196,31834,2,0,L|212:188,1,60.0000022888184,0|0,3:0|3:0,0:0:0:0:
156,176,32095,1,10,0:0:0:0:
156,176,32226,1,10,0:0:0:0:
184,264,32356,6,0,L|201:382,1,120.000004577637,4|8,3:2|0:0,0:0:0:0:
440,288,32878,2,0,P|448:264|480:224,1,60.0000022888184,8|10,0:0|0:0,0:0:0:0:
424,152,33139,2,0,P|399:157|348:149,1,60.0000022888184,8|8,3:0|3:0,0:0:0:0:
312,232,33399,2,0,P|343:282|354:341,1,120.000004577637,0|8,3:2|0:0,0:0:0:0:
200,40,33921,2,0,L|192:116,1,60.0000022888184,0|0,3:0|3:0,0:0:0:0:
100,180,34182,2,0,L|108:104,1,60.0000022888184,8|10,0:0|0:0,0:0:0:0:
160,252,34443,6,0,P|100:276|32:248,1,120.000004577637,2|0,3:2|3:0,0:0:0:0:
280,144,34965,2,0,L|265:225,1,60.0000022888184,8|0,0:0|3:0,0:0:0:0:
251,63,35226,2,0,L|187:9,1,60.0000022888184,8|10,3:0|3:2,0:0:0:0:
332,80,35486,2,0,P|368:64|448:80,1,120.000004577637,2|8,3:2|0:0,0:0:0:0:
480,168,35878,1,0,0:0:0:0:
384,216,36008,2,0,L|388:128,1,60.0000022888184,0|0,3:0|3:0,0:0:0:0:
280,84,36269,2,0,L|277:143,1,60.0000022888184,10|10,0:0|0:0,0:0:0:0:
300,292,36530,6,0,B|256:280|256:280|176:292,1,120.000004577637,4|8,3:2|0:0,0:0:0:0:
88,324,36921,1,0,0:0:0:0:
48,232,37052,2,0,P|44:188|44:164,1,60.0000022888184,0|0,3:0|3:0,0:0:0:0:
136,184,37312,1,8,0:0:0:0:
184,92,37443,6,0,P|212:44|268:8,1,120.000004577637,2|0,3:2|3:0,0:0:0:0:
296,184,37834,2,0,L|220:176,1,60.0000022888184,8|0,0:0|0:0,0:0:0:0:
352,96,38095,1,0,3:0:0:0:
352,96,38226,1,0,0:0:0:0:
384,180,38356,2,0,L|368:256,1,60.0000022888184,8|8,0:0|0:0,0:0:0:0:
376,332,38617,6,0,P|312:320|240:336,1,120.000004577637,0|8,3:0|0:0,0:0:0:0:
168,192,39139,1,0,3:0:0:0:
164,276,39269,2,0,L|160:352,2,60.0000022888184,8|0|0,0:0|0:0|3:0,0:0:0:0:
168,192,39660,6,0,L|48:204,1,120.000004577637,10|10,0:0|0:0,0:0:0:0:
252,32,40182,1,10,0:0:0:0:
260,120,40312,1,8,0:0:0:0:
272,208,40443,1,10,0:0:0:0:
284,296,40573,1,8,0:0:0:0:
384,356,40704,6,0,L|400:216,1,120.000004577637,4|8,3:2|0:0,0:0:0:0:
260,120,41226,2,0,L|268:40,2,60.0000022888184,0|0|8,3:0|3:0|0:0,0:0:0:0:
240,212,41617,2,0,P|196:196|112:220,1,120.000004577637,2|0,3:2|3:0,0:0:0:0:
92,304,42008,2,0,L|56:364,1,60.0000022888184,8|0,0:0|0:0,0:0:0:0:
125,210,42269,2,0,L|91:148,1,60.0000022888184,0|0,3:0|3:0,0:0:0:0:
180,288,42530,2,0,L|249:289,1,60.0000022888184,10|0,0:0|0:0,0:0:0:0:
320,216,42791,6,0,P|332:164|312:80,2,120.000004577637,0|8|0,3:0|0:0|3:0,0:0:0:0:
239,289,43443,2,0,L|320:308,1,60.0000022888184,0|8,3:0|0:0,0:0:0:0:
404,316,43704,2,0,P|428:272|440:200,1,120.000004577637,2|0,3:2|3:0,0:0:0:0:
432,96,44095,2,0,P|424:68|408:32,1,60.0000022888184,8|0,0:0|0:0,0:0:0:0:
336,108,44356,2,0,P|307:100|268:96,1,60.0000022888184,0|0,3:0|3:0,0:0:0:0:
288,192,44617,2,0,P|267:212|244:244,1,60.0000022888184,10|0,0:0|0:0,0:0:0:0:
160,236,44878,6,0,L|166:355,1,120.000004577637,0|8,3:2|0:0,0:0:0:0:
344,344,45399,1,0,3:0:0:0:
432,320,45530,2,0,P|464:300|480:276,1,60.0000022888184,0|8,3:0|0:0,0:0:0:0:
408,224,45791,2,0,L|424:88,1,120.000004577637,2|0,3:2|3:0,0:0:0:0:
320,20,46182,2,0,L|332:104,1,60.0000022888184,8|0,0:0|0:0,0:0:0:0:
256,180,46443,1,0,3:0:0:0:
256,180,46573,1,0,3:0:0:0:
228,32,46704,2,0,L|240:116,1,60.0000022888184,8|0,0:0|3:0,0:0:0:0:
256,180,46965,6,0,L|240:252,1,60.0000022888184,2|0,3:2|0:0,0:0:0:0:
168,348,47226,2,0,L|152:216,1,120.000004577637,8|0,0:0|3:0,0:0:0:0:
140,128,47617,1,8,3:0:0:0:
72,188,47747,1,8,0:0:0:0:
153,228,47878,6,0,P|217:232|273:184,1,120.000004577637,2|0,3:2|3:0,0:0:0:0:
300,124,48269,2,0,L|296:44,1,60.0000022888184,10|0,0:0|0:0,0:0:0:0:
412,128,48530,2,0,L|416:48,1,60.0000022888184,0|0,3:0|3:0,0:0:0:0:
344,200,48791,1,8,0:0:0:0:
456,248,48921,1,8,0:0:0:0:
350,319,49052,6,0,L|342:179,1,120.000004577637,4|8,3:2|0:0,0:0:0:0:
240,40,49573,1,0,3:0:0:0:
168,96,49704,2,0,P|136:100|92:92,2,60.0000022888184,8|8|0,3:0|3:0|3:0,0:0:0:0:
256,128,50095,2,0,L|236:272,1,120.000004577637,2|8,3:2|0:0,0:0:0:0:
64,352,50617,2,0,L|52:276,1,60.0000022888184,0|0,3:0|3:0,0:0:0:0:
168,176,50878,2,0,L|160:248,1,60.0000022888184,0|8,0:0|0:0,0:0:0:0:
228,332,51139,6,0,P|276:324|320:260,1,120.000004577637,2|8,3:2|0:0,0:0:0:0:
336,92,51660,2,0,L|348:28,1,60.0000022888184,0|8,3:0|3:0,0:0:0:0:
396,168,51921,2,0,L|460:152,1,60.0000022888184,0|8,3:0|3:0,0:0:0:0:
272,172,52182,2,0,L|144:128,1,120.000004577637,2|8,3:2|0:0,0:0:0:0:
100,216,52573,1,0,0:0:0:0:
152,288,52704,2,0,L|224:264,1,60.0000022888184,2|0,3:2|3:0,0:0:0:0:
272,172,52965,2,0,L|264:92,1,60.0000022888184,8|8,0:0|0:0,0:0:0:0:
169,13,53226,6,0,L|157:145,1,120.000004577637,4|8,3:2|0:0,0:0:0:0:
272,344,53747,1,0,3:0:0:0:
344,200,53878,2,0,P|352:240|356:276,1,60.0000022888184,0|8,3:0|0:0,0:0:0:0:
440,344,54139,2,0,P|448:288|464:224,1,120.000004577637,2|0,3:2|3:0,0:0:0:0:
448,80,54530,2,0,P|412:100|380:108,1,60.0000022888184,8|0,0:0|0:0,0:0:0:0:
292,116,54791,2,0,P|263:106|238:90,1,60.0000022888184,0|0,3:0|3:0,0:0:0:0:
344,200,55052,2,0,P|334:228|318:253,1,60.0000022888184,12|0,0:0|0:0,0:0:0:0:
232,344,55312,6,0,L|224:264,1,60.0000022888184,10|2,0:0|3:0,0:0:0:0:
108,268,55573,2,0,L|100:188,1,60.0000022888184,10|0,0:0|3:0,0:0:0:0:
225,159,55834,2,0,L|220:100,1,60.0000022888184,10|0,0:0|3:0,0:0:0:0:
349,259,56095,2,0,L|344:200,1,60.0000022888184,10|8,0:0|0:0,0:0:0:0:
440,352,56356,6,0,L|460:280,1,60.0000022888184,12|0,0:0|0:0,0:0:0:0:
440,172,56617,2,0,L|448:40,2,120.000004577637,8|2|0,0:0|0:0|0:0,0:0:0:0:
308,332,57399,6,0,P|236:304|144:336,1,160,4|8,3:2|0:0,0:0:0:0:
68,268,57791,1,0,0:0:0:0:
168,192,57921,2,0,P|184:152|188:88,1,80,0|2,3:0|3:2,0:0:0:0:
304,128,58182,2,0,P|310:167|325:204,1,80,8|2,0:0|3:2,0:0:0:0:
468,304,58443,6,0,L|492:132,1,160,0|8,0:0|0:0,0:0:0:0:
400,140,58834,1,0,0:0:0:0:
360,52,58965,2,0,P|308:28|264:36,1,80,0|2,3:0|3:2,0:0:0:0:
252,228,59226,2,0,P|291:225|325:204,1,80,8|0,0:0|0:0,0:0:0:0:
168,24,59486,6,0,L|181:183,2,160,2|8|0,3:2|0:0|3:0,0:0:0:0:
12,144,60139,1,2,3:2:0:0:
88,88,60269,2,0,L|96:176,1,80,8|2,0:0|3:2,0:0:0:0:
36,296,60530,6,0,P|88:272|192:296,1,160,0|8,0:2|0:0,0:0:0:0:
280,336,60921,1,0,0:0:0:0:
280,220,61052,2,0,P|292:172|296:132,1,80,0|0,3:0|3:0,0:0:0:0:
372,264,61312,2,0,P|384:216|388:176,1,80,2|2,0:0|0:0,0:0:0:0:
460,328,61573,6,0,P|476:252|484:156,1,160,6|8,3:2|0:0,0:0:0:0:
424,52,61965,1,0,0:0:0:0:
387,185,62095,2,0,P|347:213|303:225,1,80,0|2,3:0|3:2,0:0:0:0:
200,156,62356,2,0,P|184:116|184:60,1,80,10|2,0:0|3:2,0:0:0:0:
331,63,62617,2,0,L|315:247,1,160,0|0,0:0|3:0,0:0:0:0:
216,272,63008,1,2,3:2:0:0:
228,156,63139,6,0,P|224:104|236:60,1,80,0|0,3:0|0:0,0:0:0:0:
317,222,63399,2,0,P|364:244|396:276,1,80,8|2,0:0|0:0,0:0:0:0:
216,272,63660,2,0,P|172:301|128:313,1,80,2|0,3:2|0:0,0:0:0:0:
68,144,63921,2,0,P|105:158|137:182,1,80,8|0,0:0|0:0,0:0:0:0:
56,348,64182,2,0,P|51:296|64:252,2,80,0|2|8,3:0|3:2|0:0,0:0:0:0:
216,272,64573,6,0,B|228:208|228:208|208:96,1,160,2|0,3:2|3:0,0:0:0:0:
140,40,64965,2,0,P|128:80|128:132,1,80,8|0,0:0|0:0,0:0:0:0:
288,92,65226,2,0,P|297:132|323:177,1,80,0|0,3:0|3:0,0:0:0:0:
456,248,65486,2,0,L|476:204,3,40,8|8|8|8,0:0|0:0|0:0|0:0,0:0:0:0:
444,268,65747,6,0,B|392:252|392:252|344:276|344:276|268:264,1,160,4|8,3:2|0:0,0:0:0:0:
160,224,66139,1,0,0:0:0:0:
256,108,66269,2,0,L|248:196,1,80,0|2,3:0|3:2,0:0:0:0:
228,324,66530,1,8,0:0:0:0:
160,224,66660,6,0,L|148:60,1,160,0|0,3:0|3:0,0:0:0:0:
76,236,67052,2,0,P|88:276|136:308,1,80,8|0,0:0|0:0,0:0:0:0:
248,187,67312,2,0,P|264:147|304:115,1,80,2|0,3:2|3:0,0:0:0:0:
396,272,67573,1,8,0:0:0:0:
396,272,67834,6,0,L|408:104,2,160,2|8|0,3:2|0:0|3:0,0:0:0:0:
228,312,68486,1,0,3:0:0:0:
316,164,68617,1,10,0:0:0:0:
180,236,68747,6,0,P|240:220|312:288,1,160,0|0,0:0|3:0,0:0:0:0:
128,320,69139,2,0,L|44:312,1,80,8|0,0:0|0:0,0:0:0:0:
40,176,69399,2,0,L|124:168,1,80,0|0,3:0|3:0,0:0:0:0:
224,152,69660,2,0,P|232:104|232:64,1,80,8|0,0:0|0:0,0:0:0:0:
396,144,69921,6,0,P|360:160|324:200,1,80,2|0,3:2|0:0,0:0:0:0:
288,304,70182,1,12,0:0:0:0:
288,304,70443,6,0,P|321:326|376:342,1,80,2|0,3:2|0:0,0:0:0:0:
460,264,70704,1,12,0:0:0:0:
196,148,70965,6,0,L|188:60,1,80,0|0,3:0|0:0,0:0:0:0:
40,252,71226,2,0,L|32:164,1,80,8|0,0:0|0:0,0:0:0:0:
224,180,71486,2,0,L|216:92,1,80,0|0,3:0|3:0,0:0:0:0:
68,284,71747,2,0,L|60:196,1,80,8|0,0:0|0:0,0:0:0:0:
216,99,72008,6,0,B|197:98|169:118|169:118|121:94|121:94|93:110|69:110,1,160,2|8,3:2|0:0,0:0:0:0:
128,196,72399,1,0,0:0:0:0:
224,180,72530,1,0,3:0:0:0:
188,272,72660,2,0,L|180:360,2,80,8|8|0,0:0|0:0|3:0,0:0:0:0:
224,180,73052,5,8,0:0:0:0:
304,144,73182,2,0,P|368:144|428:228,1,160,0|0,3:0|0:0,0:0:0:0:
452,304,73573,1,8,0:0:0:0:
364,340,73704,2,0,L|192:328,1,160,0|0,3:0|0:0,0:0:0:0:
120,316,74095,5,4,3:2:0:0:
64,168,74356,2,0,P|116:144|184:172,1,120.000004577637,10|0,0:0|3:0,0:0:0:0:
236,224,74747,1,0,3:0:0:0:
241,130,74878,1,8,0:0:0:0:
236,224,75008,2,0,L|228:352,1,120.000004577637,2|0,3:2|3:0,0:0:0:0:
312,336,75399,2,0,L|316:264,1,60.0000022888184,10|0,0:0|0:0,0:0:0:0:
152,264,75660,2,0,L|156:192,1,60.0000022888184,0|0,3:0|3:0,0:0:0:0:
320,184,75921,2,0,L|324:112,1,60.0000022888184,8|0,0:0|0:0,0:0:0:0:
248,44,76182,6,0,P|196:28|136:56,1,120.000004577637,2|8,3:2|0:0,0:0:0:0:
323,124,76704,2,0,P|295:156|287:188,1,60.0000022888184,0|0,3:0|3:0,0:0:0:0:
384,68,76965,1,8,0:0:0:0:
368,192,77095,2,0,L|356:336,1,120.000004577637,2|0,3:2|3:0,0:0:0:0:
420,356,77486,2,0,P|444:328|472:316,1,60.0000022888184,8|0,0:0|0:0,0:0:0:0:
284,280,77747,2,0,P|260:252|232:240,2,60.0000022888184,0|0|10,3:0|3:0|0:0,0:0:0:0:
84,324,78269,6,0,L|204:332,1,120.000004577637,0|10,3:0|0:0,0:0:0:0:
234,116,78791,1,0,3:0:0:0:
160,168,78921,2,0,L|72:160,1,60.0000022888184,0|8,3:0|0:0,0:0:0:0:
76,60,79182,2,0,L|212:32,1,120.000004577637,2|0,3:2|3:0,0:0:0:0:
280,176,79573,2,0,P|284:204|288:240,1,60.0000022888184,8|2,0:0|0:0,0:0:0:0:
348,128,79834,2,0,P|372:144|396:168,1,60.0000022888184,0|0,3:0|3:0,0:0:0:0:
392,44,80095,2,0,P|424:40|460:44,1,60.0000022888184,8|0,0:0|0:0,0:0:0:0:
348,128,80356,6,0,P|304:108|228:120,2,120.000004577637,2|8|0,3:2|0:0|3:0,0:0:0:0:
368,224,81008,2,0,L|364:296,1,60.0000022888184,0|8,3:0|0:0,0:0:0:0:
208,312,81269,2,0,L|216:184,1,120.000004577637,2|0,3:2|3:0,0:0:0:0:
292,224,81660,2,0,L|288:292,1,60.0000022888184,8|0,0:0|0:0,0:0:0:0:
128,344,81921,2,0,L|132:284,1,60.0000022888184,0|0,3:0|0:0,0:0:0:0:
192,176,82182,1,8,0:0:0:0:
108,208,82312,1,8,0:0:0:0:
158,94,82443,6,0,P|214:90|274:142,1,120.000004577637,4|10,3:2|0:0,0:0:0:0:
424,320,82965,2,0,L|484:332,1,60.0000022888184,0|0,3:0|3:0,0:0:0:0:
332,264,83226,2,0,L|272:272,1,60.0000022888184,8|8,3:0|3:0,0:0:0:0:
416,232,83486,2,0,P|428:172|420:104,1,120.000004577637,2|8,3:2|0:0,0:0:0:0:
216,48,84008,2,0,P|216:100|220:120,1,60.0000022888184,0|0,3:0|3:0,0:0:0:0:
344,196,84269,2,0,P|347:166|345:136,1,60.0000022888184,8|8,0:0|0:0,0:0:0:0:
232,208,84530,6,0,P|188:192|100:212,1,120.000004577637,2|8,3:2|0:0,0:0:0:0:
56,280,84921,1,0,0:0:0:0:
56,280,85052,2,0,L|64:348,1,60.0000022888184,0|8,3:0|3:0,0:0:0:0:
172,288,85312,2,0,L|180:356,1,60.0000022888184,0|8,3:0|3:0,0:0:0:0:
300,352,85573,2,0,L|316:228,1,120.000004577637,2|8,3:2|0:0,0:0:0:0:
376,156,85965,1,2,0:0:0:0:
315,232,86095,2,0,P|263:236|247:232,1,60.0000022888184,0|0,3:0|3:0,0:0:0:0:
376,156,86356,2,0,P|428:152|444:156,1,60.0000022888184,8|8,0:0|0:0,0:0:0:0:
296,92,86617,6,0,P|256:104|176:72,1,120.000004577637,4|8,3:2|0:0,0:0:0:0:
248,20,87008,1,0,0:0:0:0:
112,24,87139,2,0,B|104:80|104:80|120:156,1,120.000004577637,0|8,3:0|0:0,0:0:0:0:
168,232,87530,2,0,B|116:220|116:220|28:240,1,120.000004577637,2|0,3:2|3:0,0:0:0:0:
128,360,87921,2,0,L|196:352,1,60.0000022888184,8|0,0:0|0:0,0:0:0:0:
248,256,88182,2,0,L|316:264,1,60.0000022888184,2|0,3:2|3:0,0:0:0:0:
412,280,88443,1,8,0:0:0:0:
352,360,88573,1,8,0:0:0:0:
388,196,88704,6,0,P|440:196|492:260,1,120.000004577637,4|8,3:2|0:0,0:0:0:0:
248,256,89226,1,0,3:0:0:0:
260,160,89356,2,0,L|268:88,2,60.0000022888184,10|0|0,0:0|0:0|3:0,0:0:0:0:
248,256,89747,6,0,P|192:240|120:272,1,120.000004577637,10|8,0:0|0:0,0:0:0:0:
336,352,90269,1,8,0:0:0:0:
352,276,90399,1,8,0:0:0:0:
364,200,90529,1,8,0:0:0:0:
380,124,90660,1,8,0:0:0:0:
392,48,90790,5,4,3:2:0:0:
184,76,103312,6,0,P|260:48|340:84,1,160,4|8,3:2|0:0,0:0:0:0:
392,152,103704,2,0,P|440:156|480:144,2,80,0|0|0,0:0|3:0|3:0,0:0:0:0:
330,75,104095,1,8,0:0:0:0:
300,168,104226,6,0,P|288:228|308:328,1,160,2|0,3:2|3:0,0:0:0:0:
208,192,104617,2,0,L|128:204,1,80,8|0,0:0|0:0,0:0:0:0:
208,312,104878,2,0,L|128:308,1,80,0|0,3:0|3:0,0:0:0:0:
40,256,105139,1,12,0:0:0:0:
40,256,105399,6,0,L|60:76,1,160,4|0,3:2|3:0,0:0:0:0:
190,42,105791,2,0,L|212:208,1,160,8|0,0:0|3:0,0:0:0:0:
244,344,106182,2,0,P|264:312|304:276,1,80,8|0,0:0|0:0,0:0:0:0:
448,220,106443,6,0,L|292:184,1,160,12|0,0:0|3:0,0:0:0:0:
360,60,106834,2,0,B|432:51|432:51|460:144,1,160,8|0,0:0|3:0,0:0:0:0:
212,232,107226,2,0,P|208:180|216:144,1,80,8|0,0:0|3:0,0:0:0:0:
296,300,107486,6,0,L|272:396,1,80,10|0,0:0|3:0,0:0:0:0:
213,152,107747,2,0,L|112:128,1,80,10|0,0:0|3:0,0:0:0:0:
352,88,108008,2,0,L|371:10,1,80,10|0,0:0|3:0,0:0:0:0:
424,228,108269,2,0,L|525:252,1,80,14|0,0:0|3:0,0:0:0:0:
312,200,108530,1,12,3:2:0:0:
312,200,108791,6,0,L|220:204,2,80,8|2|0,3:0|0:0|0:0,0:0:0:0:
148,36,109573,6,0,P|124:120|164:200,1,160,4|8,3:2|0:0,0:0:0:0:
232,268,109965,1,0,0:0:0:0:
312,200,110095,2,0,L|304:92,1,80,2|2,3:0|3:2,0:0:0:0:
140,288,110356,2,0,L|148:380,1,80,8|2,0:0|3:2,0:0:0:0:
308,312,110617,6,0,P|360:304|412:208,1,160,0|8,0:0|0:0,0:0:0:0:
404,104,111008,1,2,0:0:0:0:
303,40,111139,2,0,L|307:144,1,80,0|0,3:0|3:0,0:0:0:0:
208,200,111399,2,0,L|212:292,1,80,10|2,0:0|0:0,0:0:0:0:
40,320,111660,6,0,L|48:156,1,160,0|8,3:0|0:0,0:0:0:0:
100,44,112052,1,0,0:0:0:0:
186,123,112182,2,0,P|202:171|210:219,1,80,2|2,3:2|3:2,0:0:0:0:
276,40,112443,2,0,P|325:50|371:67,1,80,8|2,0:0|3:2,0:0:0:0:
280,288,112704,6,0,P|300:228|372:152,1,160,2|8,0:0|0:0,0:0:0:0:
448,208,113095,1,0,0:0:0:0:
452,328,113226,2,0,P|416:348|356:352,1,80,0|0,3:0|3:0,0:0:0:0:
280,192,113486,2,0,P|324:204|360:240,1,80,10|0,0:0|0:0,0:0:0:0:
200,352,113747,6,0,L|184:180,1,160,4|8,3:2|0:0,0:0:0:0:
172,92,114139,1,0,0:0:0:0:
304,40,114269,2,0,L|288:136,1,80,0|2,3:0|3:2,0:0:0:0:
185,192,114530,2,0,P|137:200|97:188,1,80,8|2,0:0|3:2,0:0:0:0:
64,308,114791,6,0,P|100:320|148:364,1,80,2|0,0:0|0:0,0:0:0:0:
240,352,115052,2,0,P|248:272|268:192,1,160,8|0,0:0|3:0,0:0:0:0:
300,108,115443,1,0,3:0:0:0:
185,192,115573,2,0,P|177:148|181:104,1,80,10|0,0:0|0:0,0:0:0:0:
332,268,115834,6,0,P|336:308|336:356,1,80,2|0,3:2|0:0,0:0:0:0:
416,192,116095,2,0,P|439:224|463:266,1,80,8|2,0:0|0:0,0:0:0:0:
436,68,116356,2,0,P|472:84|514:108,1,80,0|0,3:0|3:0,0:0:0:0:
348,120,116617,6,0,P|296:184|220:216,1,160,8|0,0:0|0:0,0:0:0:0:
132,152,117008,1,0,3:0:0:0:
196,32,117139,2,0,P|224:64|268:84,1,80,10|0,0:0|0:0,0:0:0:0:
226,214,117399,2,0,P|218:266|198:310,1,80,0|2,3:0|3:2,0:0:0:0:
112,360,117660,1,8,0:0:0:0:
116,240,117791,1,2,3:2:0:0:
208,291,117921,6,0,P|288:283|368:295,1,160,4|8,3:2|0:0,0:0:0:0:
456,344,118312,1,0,0:0:0:0:
480,240,118443,2,0,P|492:196|496:144,1,80,0|0,3:0|3:0,0:0:0:0:
366,294,118704,5,8,0:0:0:0:
384,184,118834,2,0,P|386:104|378:24,1,160,2|0,3:2|3:0,0:0:0:0:
208,112,119226,2,0,P|168:128|128:160,1,80,10|0,0:0|0:0,0:0:0:0:
304,84,119486,1,0,3:0:0:0:
272,192,119617,2,0,P|272:240|284:308,1,80,0|10,3:0|0:0,0:0:0:0:
360,352,119878,1,0,0:0:0:0:
208,368,120008,6,0,L|200:268,1,80,2|0,3:2|0:0,0:0:0:0:
72,252,120269,2,0,L|64:152,1,80,8|0,0:0|0:0,0:0:0:0:
237,127,120530,2,0,L|248:48,2,80,0|2|8,3:0|3:2|0:0,0:0:0:0:
148,212,120921,6,0,L|132:40,1,160,0|0,0:0|3:0,0:0:0:0:
232,216,121312,2,0,L|212:304,1,80,10|0,0:0|0:0,0:0:0:0:
112,316,121573,1,0,3:0:0:0:
148,212,121704,1,0,3:0:0:0:
214,294,121834,2,0,P|274:314|306:310,1,80,10|0,0:0|0:0,0:0:0:0:
120,112,122095,6,0,P|80:148|60:200,1,80,2|0,3:2|0:0,0:0:0:0:
40,264,122356,1,12,0:0:0:0:
296,216,122617,6,0,P|296:152|284:108,1,80,2|0,3:2|0:0,0:0:0:0:
272,36,122878,1,12,0:0:0:0:
60,184,123139,6,0,P|52:224|52:276,1,80,2|0,3:2|0:0,0:0:0:0:
144,248,123399,2,0,P|152:288|176:328,1,80,10|0,0:0|0:0,0:0:0:0:
244,264,123660,2,0,P|292:300|332:312,1,80,0|0,3:0|3:0,0:0:0:0:
340,216,123921,2,0,P|400:216|432:200,1,80,10|0,0:0|3:0,0:0:0:0:
384,128,124182,6,0,P|440:92|496:8,1,160,2|8,3:2|0:0,0:0:0:0:
388,304,124704,2,0,P|425:305|481:317,2,80,0|8|8,3:0|0:0|0:0,0:0:0:0:
296,228,125095,1,0,3:0:0:0:
200,316,125226,6,0,P|176:248|204:144,1,160,8|0,0:0|0:0,0:0:0:0:
264,68,125617,1,2,3:2:0:0:
192,164,125747,2,0,L|108:152,1,80,8|0,0:0|3:0,0:0:0:0:
48,264,126008,1,8,0:0:0:0:
156,352,126139,1,8,0:0:0:0:
268,276,126269,6,0,L|288:144,1,120.000004577637,12|2,0:0|3:2,0:0:0:0:
360,292,126660,2,0,L|380:160,1,120.000004577637,10|2,0:0|3:2,0:0:0:0:
448,316,127052,2,0,L|468:184,1,120.000004577637,10|0,0:0|0:0,0:0:0:0:
460,76,127443,1,8,0:0:0:0:
377,173,127573,2,0,L|364:256,1,60.0000022888184,8|0,0:0|0:0,0:0:0:0:
292,192,127834,6,0,P|248:204|164:176,1,120.000004577637,10|2,0:0|0:0,0:0:0:0:
320,104,128226,2,0,P|331:59|397:1,1,120.000004577637,10|2,0:0|0:0,0:0:0:0:
377,173,128617,2,0,P|409:205|427:291,1,120.000004577637,10|0,0:0|0:0,0:0:0:0:
340,352,129008,1,0,3:0:0:0:
340,352,129139,2,0,L|328:276,1,60.0000022888184,8|0,3:0|3:0,0:0:0:0:
248,200,129399,6,0,L|216:328,1,120.000004577637,12|2,0:0|3:2,0:0:0:0:
152,244,129791,2,0,L|57:152,1,120.000004577637,10|2,0:0|3:2,0:0:0:0:
144,112,130182,2,0,L|270:75,1,120.000004577637,10|0,0:0|0:0,0:0:0:0:
352,56,130573,1,8,0:0:0:0:
352,56,130704,2,0,L|344:132,1,60.0000022888184,8|0,0:0|0:0,0:0:0:0:
256,296,130965,5,12,0:0:0:0:
148,120,131356,1,8,0:0:0:0:
345,115,131747,2,0,B|325:183|349:231|349:231|369:275|353:355,1,240,0|0,0:0|0:0,0:0:0:0:
136,344,132790,6,0,L|144:240,1,80,4|0,3:2|0:0,0:0:0:0:
136,72,133051,2,0,P|148:128|160:152,1,60.0000022888184,8|0,0:0|0:0,0:0:0:0:
248,200,133312,2,0,P|256:152|256:120,1,60.0000022888184,0|2,3:0|3:2,0:0:0:0:
268,40,133573,1,8,0:0:0:0:
364,48,133703,6,0,P|364:108|376:180,1,120.000004577637,2|0,3:2|3:0,0:0:0:0:
472,252,134094,2,0,P|448:248|408:252,1,60.0000022888184,8|0,0:0|0:0,0:0:0:0:
324,300,134355,2,0,L|332:363,2,60.0000022888184,0|2|8,3:0|3:2|0:0,0:0:0:0:
300,192,134747,1,2,0:0:0:0:
240,272,134877,6,0,P|188:300|124:292,1,120.000004577637,0|8,3:0|0:0,0:0:0:0:
60,228,135268,1,0,0:0:0:0:
60,228,135399,2,0,L|64:144,1,60.0000022888184,0|0,3:0|3:0,0:0:0:0:
148,64,135660,2,0,L|156:152,1,60.0000022888184,8|2,0:0|3:2,0:0:0:0:
172,216,135920,6,0,P|208:196|236:120,1,120.000004577637,0|8,0:0|0:0,0:0:0:0:
232,36,136312,1,0,0:0:0:0:
328,68,136442,2,0,L|324:140,1,60.0000022888184,0|2,3:0|3:2,0:0:0:0:
304,288,136703,2,0,L|300:360,1,60.0000022888184,8|0,0:0|0:0,0:0:0:0:
264,212,136964,6,0,P|324:204|388:256,1,120.000004577637,4|8,3:2|0:0,0:0:0:0:
440,328,137355,1,0,0:0:0:0:
440,328,137486,2,0,L|456:252,1,60.0000022888184,0|2,3:0|3:2,0:0:0:0:
456,172,137747,2,0,L|444:104,1,60.0000022888184,8|2,0:0|3:2,0:0:0:0:
376,40,138007,6,0,P|320:52|256:32,1,120.000004577637,0|8,0:0|0:0,0:0:0:0:
188,96,138399,1,0,0:0:0:0:
188,96,138529,2,0,P|196:144|192:168,1,60.0000022888184,2|0,3:2|3:0,0:0:0:0:
80,100,138790,2,0,P|79:70|86:41,1,60.0000022888184,8|0,0:0|0:0,0:0:0:0:
112,184,139051,6,0,P|52:192|0:152,1,120.000004577637,0|8,3:0|0:0,0:0:0:0:
245,84,139573,2,0,P|215:84|188:96,2,60.0000022888184,0|2|8,3:0|3:2|0:0,0:0:0:0:
320,152,139964,2,0,P|336:96|328:24,1,120.000004577637,4|0,3:2|0:0,0:0:0:0:
380,208,140355,2,0,P|416:196|440:176,1,60.0000022888184,8|0,0:0|0:0,0:0:0:0:
468,316,140616,2,0,P|432:300|392:300,1,60.0000022888184,0|2,3:0|3:2,0:0:0:0:
320,284,140877,1,8,0:0:0:0:
320,284,141138,6,0,L|196:316,1,120.000004577637,4|8,3:2|0:0,0:0:0:0:
264,200,141529,2,0,P|276:148|264:80,1,120.000004577637,0|0,0:0|3:0,0:0:0:0:
208,16,141920,1,8,0:0:0:0:
128,64,142051,6,0,P|80:68|24:28,1,120.000004577637,2|0,3:2|0:0,0:0:0:0:
24,188,142442,2,0,L|88:176,1,60.0000022888184,8|0,0:0|0:0,0:0:0:0:
188,140,142703,1,0,3:0:0:0:
188,140,142833,1,0,3:2:0:0:
232,232,142964,2,0,L|220:304,1,60.0000022888184,8|2,0:0|0:0,0:0:0:0:
336,296,143225,6,0,L|328:164,1,120.000004577637,0|8,3:0|0:0,0:0:0:0:
480,44,143747,2,0,P|452:72|420:84,1,60.0000022888184,0|0,3:0|3:0,0:0:0:0:
348,72,144007,1,8,0:0:0:0:
420,172,144138,6,0,L|412:304,1,120.000004577637,2|0,3:2|3:0,0:0:0:0:
312,344,144529,2,0,P|280:340|236:344,1,60.0000022888184,8|0,0:0|0:0,0:0:0:0:
176,264,144790,1,0,3:0:0:0:
176,264,144920,1,2,3:2:0:0:
264,220,145051,2,0,L|256:144,1,60.0000022888184,8|2,0:0|0:0,0:0:0:0:
184,36,145312,6,0,L|172:168,1,120.000004577637,4|8,3:2|0:0,0:0:0:0:
36,272,145833,2,0,P|68:264|120:280,1,60.0000022888184,0|2,3:0|3:2,0:0:0:0:
164,344,146094,2,0,P|196:352|248:336,1,60.0000022888184,8|2,0:0|3:2,0:0:0:0:
284,280,146355,6,0,L|276:140,1,120.000004577637,0|8,0:0|0:0,0:0:0:0:
283,60,146746,2,0,P|335:80|367:144,1,120.000004577637,0|2,0:0|3:2,0:0:0:0:
468,184,147138,2,0,P|436:204|412:232,1,60.0000022888184,8|0,0:0|0:0,0:0:0:0:
368,312,147399,1,0,3:0:0:0:
368,312,147529,6,0,P|308:320|236:304,1,120.000004577637,0|0,0:0|0:0,0:0:0:0:
184,224,147920,2,0,L|192:136,2,60.0000022888184,0|2|8,3:0|3:2|0:0,0:0:0:0:
100,312,148312,6,0,L|80:144,1,160,6|0,3:2|3:0,0:0:0:0:
64,60,148703,1,8,0:0:0:0:
64,60,148964,2,0,L|136:68,1,60.0000022888184,0|0,3:0|3:0,0:0:0:0:
224,64,149225,2,0,L|284:44,1,60.0000022888184,8|0,0:0|0:0,0:0:0:0:
376,40,149486,6,0,L|364:148,1,80,12|0,0:0|0:0,0:0:0:0:
348,264,149746,2,0,L|336:372,1,80,8|0,0:0|0:0,0:0:0:0:
504,192,150007,2,0,P|472:204|424:204,1,80,8|2,0:0|3:2,0:0:0:0:
294,180,150268,2,0,P|262:156|234:116,1,80,8|2,0:0|3:2,0:0:0:0:
168,40,150529,6,0,L|156:220,1,160,8|10,0:0|0:0,0:0:0:0:
148,324,150920,1,0,3:0:0:0:
88,252,151051,2,0,P|36:228|0:228,1,80,8|2,0:0|3:2,0:0:0:0:
220,260,151312,2,0,P|272:236|308:236,1,80,8|2,0:0|0:0,0:0:0:0:
388,332,151573,6,0,L|408:168,1,160,4|8,3:2|0:0,0:0:0:0:
416,72,151964,1,0,0:0:0:0:
332,124,152094,2,0,P|288:112|248:92,1,80,0|2,3:0|3:2,0:0:0:0:
224,240,152355,2,0,P|260:236|304:240,1,80,8|0,0:0|3:0,0:0:0:0:
172,68,152616,6,0,P|164:152|144:228,1,160,2|8,0:0|0:0,0:0:0:0:
64,308,153007,1,2,0:0:0:0:
48,208,153138,2,0,P|44:160|48:124,1,80,0|0,3:0|3:0,0:0:0:0:
145,225,153399,2,0,P|169:177|193:149,1,80,8|0,0:0|0:0,0:0:0:0:
304,348,153660,6,0,L|216:336,1,80,12|0,0:0|0:0,0:0:0:0:
272,160,153920,2,0,L|352:176,1,80,8|0,0:0|0:0,0:0:0:0:
388,268,154181,1,8,0:0:0:0:
444,184,154312,2,0,P|448:108|420:28,1,160,2|2,3:2|3:2,0:0:0:0:
300,80,154703,6,0,P|248:72|148:104,1,160,0|10,0:0|0:0,0:0:0:0:
60,136,155094,1,0,0:0:0:0:
148,104,155225,2,0,P|200:108|236:124,1,80,0|0,3:0|3:0,0:0:0:0:
380,196,155486,2,0,P|344:208|292:204,1,80,12|0,0:0|0:0,0:0:0:0:
225,118,155746,6,0,B|208:188|208:188|221:294,1,160,8|8,0:0|0:0,0:0:0:0:
292,352,156138,1,0,0:0:0:0:
356,272,156268,2,0,P|372:232|380:192,1,80,8|2,0:0|3:2,0:0:0:0:
384,96,156529,2,0,P|380:56|360:16,1,80,8|0,0:0|3:0,0:0:0:0:
233,38,156790,6,0,L|221:146,1,80,10|0,0:0|3:0,0:0:0:0:
284,220,157051,2,0,B|216:196|216:196|112:224,1,160,0|8,3:0|0:0,0:0:0:0:
52,264,157442,1,0,3:0:0:0:
52,264,157573,2,0,L|61:351,1,80,8|8,0:0|0:0,0:0:0:0:
192,304,157833,6,0,P|220:256|220:176,1,120.000004577637,4|10,3:2|0:0,0:0:0:0:
332,36,158355,1,0,3:0:0:0:
404,92,158486,2,0,P|436:96|480:88,2,60.0000022888184,0|8|0,3:0|0:0|3:0,0:0:0:0:
316,124,158877,2,0,L|336:268,1,120.000004577637,2|8,0:0|0:0,0:0:0:0:
364,340,159268,1,2,0:0:0:0:
420,256,159399,2,0,L|432:180,1,60.0000022888184,0|0,3:0|3:0,0:0:0:0:
244,196,159660,2,0,L|256:268,1,60.0000022888184,8|2,0:0|0:0,0:0:0:0:
268,108,159921,6,0,P|204:112|160:168,1,120.000004577637,2|8,3:2|0:0,0:0:0:0:
144,324,160442,2,0,L|80:308,1,60.0000022888184,0|2,3:0|3:2,0:0:0:0:
177,208,160703,2,0,L|165:144,1,60.0000022888184,8|2,0:0|3:2,0:0:0:0:
291,265,160964,1,8,0:0:0:0:
291,265,161094,2,0,L|371:233,1,60.0000022888184,2|0,3:2|0:0,0:0:0:0:
380,138,161355,1,8,0:0:0:0:
380,138,161486,2,0,L|308:114,1,60.0000022888184,8|8,0:0|0:0,0:0:0:0:
232,96,161747,2,0,L|226:155,1,60.0000022888184,2|8,3:2|3:0,0:0:0:0:
144,24,162008,6,0,L|133:143,1,120.000004577637,8|12,3:0|0:0,0:0:0:0:
240,344,162529,1,0,0:0:0:0:
304,208,162660,2,0,P|312:248|316:284,1,60.0000022888184,0|0,3:0|0:0,0:0:0:0:
400,352,162921,6,0,P|408:296|424:232,1,120.000004577637,0|0,3:0|3:0,0:0:0:0:
432,112,163312,2,0,P|396:132|364:140,1,60.0000022888184,8|0,0:0|0:0,0:0:0:0:
272,112,163573,2,0,P|243:102|218:86,1,60.0000022888184,0|0,3:0|3:0,0:0:0:0:
304,208,163834,2,0,P|294:236|278:261,1,60.0000022888184,8|0,0:0|3:0,0:0:0:0:
96,248,164094,6,0,P|128:248|176:272,1,80,12|0,0:0|0:0,0:0:0:0:
276,372,164355,1,2,3:2:0:0:
290,286,164486,2,0,L|306:190,1,80,12|0,0:0|0:0,0:0:0:0:
184,360,164746,1,2,3:2:0:0:
171,267,164877,2,0,L|155:171,1,80,0|0,0:0|0:0,0:0:0:0:
84,112,165138,6,0,P|164:80|232:108,1,160,12|2,0:0|3:2,0:0:0:0:
312,184,165529,2,0,P|348:156|376:44,1,160,12|2,0:0|3:2,0:0:0:0:
312,184,165920,2,0,P|312:248|316:272,1,80,8|2,0:0|0:0,0:0:0:0:
416,356,166181,6,0,P|432:300|436:260,1,80,8|0,0:0|3:0,0:0:0:0:
314,263,166442,2,0,P|314:204|308:165,1,80,8|0,0:0|3:0,0:0:0:0:
192,280,166703,2,0,P|177:223|161:186,1,80,8|0,0:0|3:0,0:0:0:0:
92,356,166964,2,0,P|63:305|38:273,1,80,8|0,0:0|3:0,0:0:0:0:
100,104,167225,5,10,3:0:0:0:
100,104,167486,2,0,L|98:22,2,80,10|0|0,3:2|0:0|0:0,0:0:0:0:
100,104,168268,5,2,0:0:0:0:
316,248,171920,6,0,L|309:307,1,60,2|0,0:0|0:0,0:0:0:0:
308,344,172181,6,0,P|248:320|156:344,1,143.999995605469,8|0,3:0|0:0,0:0:0:0:
136,344,172442,6,0,P|132:292|140:148,1,160,0|0,3:0|0:0,0:0:0:0:
152,52,172833,1,0,0:0:0:0:
80,112,172964,2,0,P|56:156|48:200,1,80,0|2,3:0|3:2,0:0:0:0:
224,196,173225,2,0,P|220:156|204:120,1,80,8|2,0:0|3:2,0:0:0:0:
360,40,173486,6,0,P|328:100|324:200,1,160,0|8,0:0|0:0,0:0:0:0:
360,288,173877,1,0,0:0:0:0:
428,204,174007,2,0,P|456:180|504:168,1,80,0|2,3:0|0:0,0:0:0:0:
322,190,174268,2,0,P|287:177|252:142,1,80,0|0,0:0|0:0,0:0:0:0:
360,288,174529,6,0,P|366:324|356:384,1,80,0|0,3:0|0:0,0:0:0:0:
188,368,174790,2,0,P|180:320|192:256,1,80,8|0,0:0|0:0,0:0:0:0:
192,204,175051,1,2,3:0:0:0:
272,320,175181,1,2,3:2:0:0:
320,192,175312,1,10,0:0:0:0:
104,236,175442,6,0,P|112:160|184:112,1,160,0|0,0:0|3:0,0:0:0:0:
276,100,175833,2,0,L|264:12,1,80,10|0,0:0|0:0,0:0:0:0:
320,192,176094,1,0,3:0:0:0:
320,192,176225,1,0,3:0:0:0:
368,104,176355,2,0,L|380:16,1,80,8|8,0:0|0:0,0:0:0:0:
457,233,176616,6,0,B|426:224|414:196|414:196|350:228|309:181,1,160,4|8,3:2|0:0,0:0:0:0:
240,124,177007,1,0,0:0:0:0:
212,344,177138,2,0,P|256:320|304:320,1,80,0|2,3:0|3:2,0:0:0:0:
124,344,177399,1,8,0:0:0:0:
152,248,177529,6,0,P|164:188|160:72,1,160,0|2,3:0|3:2,0:0:0:0:
40,148,177920,2,0,P|32:188|36:248,1,80,8|0,0:0|0:0,0:0:0:0:
152,248,178181,2,0,P|196:284|236:292,1,80,0|2,3:0|3:2,0:0:0:0:
292,116,178442,2,0,P|255:130|226:158,1,80,8|0,0:0|0:0,0:0:0:0:
316,304,178703,6,0,P|316:264|296:196,1,80,0|0,3:0|0:0,0:0:0:0:
176,32,178964,2,0,L|164:120,1,80,8|0,0:0|0:0,0:0:0:0:
148,248,179225,1,0,3:0:0:0:
148,248,179355,2,0,P|192:216|232:208,1,80,2|8,3:2|0:0,0:0:0:0:
334,132,179616,6,0,B|298:108|298:108|310:256,1,160,0|2,3:0|3:2,0:0:0:0:
416,344,180007,2,0,P|424:288|436:252,1,80,8|0,0:0|0:0,0:0:0:0:
307,224,180268,1,0,0:0:0:0:
440,172,180399,1,2,3:2:0:0:
280,120,180529,2,0,P|244:140|220:172,1,80,8|0,0:0|0:0,0:0:0:0:
176,332,180790,6,0,P|124:336|88:324,1,80,0|2,3:0|0:0,0:0:0:0:
68,208,181051,1,12,0:0:0:0:
4,288,181181,1,0,0:0:0:0:
148,256,181312,2,0,P|156:212|148:160,1,80,0|2,3:0|0:0,0:0:0:0:
144,48,181573,2,0,P|184:64|232:48,1,80,12|0,0:0|0:0,0:0:0:0:
368,128,181833,6,0,P|312:124|280:140,1,80,0|2,3:0|0:0,0:0:0:0:
148,256,182094,2,0,P|208:252|244:260,1,80,8|2,0:0|0:0,0:0:0:0:
304,360,182355,1,0,3:0:0:0:
416,280,182486,1,0,3:0:0:0:
332,196,182616,2,0,L|316:288,1,80,8|2,0:0|0:0,0:0:0:0:
476,352,182877,6,0,P|492:328|500:264,1,80,0|0,3:0|0:0,0:0:0:0:
488,168,183138,2,0,P|452:180|400:176,1,80,8|0,0:0|0:0,0:0:0:0:
332,104,183399,1,0,3:0:0:0:
248,160,183529,1,8,0:0:0:0:
332,104,183660,1,0,0:0:0:0:
300,252,183790,1,2,0:0:0:0:
248,160,183920,6,0,P|236:100|248:52,1,80,0|0,3:0|0:0,0:0:0:0:
392,232,184181,2,0,P|384:296|368:328,1,80,8|0,0:0|0:0,0:0:0:0:
264,348,184442,1,8,0:0:0:0:
188,328,184573,1,8,0:0:0:0:
112,312,184703,1,8,0:0:0:0:
36,288,184833,1,8,0:0:0:0:
36,164,184964,6,0,B|100:184|100:184|136:136|200:112,1,160,4|8,3:2|0:0,0:0:0:0:
112,312,185355,1,0,0:0:0:0:
200,232,185486,2,0,P|260:196|304:192,1,80,0|2,3:0|3:2,0:0:0:0:
308,352,185746,2,0,L|216:344,1,80,8|2,0:0|3:2,0:0:0:0:
360,264,186007,6,0,P|424:248|496:304,1,160,0|8,0:0|0:0,0:0:0:0:
412,344,186399,1,0,0:0:0:0:
480,172,186529,2,0,L|492:84,1,80,2|0,3:2|3:0,0:0:0:0:
368,168,186790,2,0,L|360:80,1,80,8|0,0:0|0:0,0:0:0:0:
288,256,187051,6,0,P|248:244|156:308,1,160,2|8,3:2|0:0,0:0:0:0:
244,336,187442,1,0,0:0:0:0:
136,196,187573,2,0,L|108:112,1,80,0|2,3:0|3:2,0:0:0:0:
236,160,187833,2,0,L|232:68,1,80,8|2,0:0|3:2,0:0:0:0:
336,40,188094,6,0,P|380:28|472:88,1,160,0|8,0:0|0:0,0:0:0:0:
384,120,188486,1,0,0:0:0:0:
436,192,188616,2,0,P|380:208|324:192,1,80,0|2,3:0|3:2,0:0:0:0:
284,144,188877,2,0,L|292:84,3,40,8|2|2|2,0:0|0:0|0:0|0:0,0:0:0:0:
276,188,189138,6,0,B|220:168|220:168|172:192|172:192|108:172,1,160,4|8,3:2|0:0,0:0:0:0:
160,96,189529,1,0,0:0:0:0:
224,256,189660,2,0,P|232:304|228:352,1,80,0|2,3:0|3:2,0:0:0:0:
276,188,189920,1,8,0:0:0:0:
336,304,190051,1,2,3:2:0:0:
368,152,190181,6,0,P|319:92|242:91,1,160,0|8,0:0|0:0,0:0:0:0:
176,168,190573,1,0,0:0:0:0:
96,148,190703,2,0,P|60:120|40:80,1,80,2|0,3:2|0:0,0:0:0:0:
176,168,190964,1,8,0:0:0:0:
176,168,191225,6,0,P|164:224|148:248,1,80,2|0,3:2|0:0,0:0:0:0:
128,348,191486,2,0,P|180:344|228:356,1,80,8|0,0:0|0:0,0:0:0:0:
330,234,191746,1,0,3:0:0:0:
246,274,191877,1,2,3:2:0:0:
256,182,192007,1,8,0:0:0:0:
394,298,192138,6,0,P|418:234|370:154,1,160,2|0,3:2|3:0,0:0:0:0:
208,72,192529,2,0,P|168:104|152:132,1,80,8|0,0:0|0:0,0:0:0:0:
128,228,192790,2,0,P|84:196|64:164,1,80,0|2,3:0|3:2,0:0:0:0:
224,192,193051,1,8,0:0:0:0:
224,192,193312,6,0,L|208:308,1,80,4|0,3:2|0:0,0:0:0:0:
356,352,193573,2,0,L|344:272,1,80,8|0,0:0|0:0,0:0:0:0:
236,352,193833,2,0,P|180:352|148:332,1,80,0|2,3:0|3:2,0:0:0:0:
64,352,194094,1,8,0:0:0:0:
112,256,194225,6,0,P|128:212|120:96,1,160,0|0,0:0|3:0,0:0:0:0:
68,24,194616,1,8,0:0:0:0:
232,196,194877,2,0,P|280:220|328:212,1,80,0|2,3:0|3:2,0:0:0:0:
304,124,195138,2,0,P|340:112|376:80,1,80,8|0,0:0|0:0,0:0:0:0:
468,188,195399,6,0,L|492:16,2,160,0|8|0,3:0|0:0|3:0,0:0:0:0:
392,280,196051,2,0,L|400:372,1,80,2|8,3:2|0:0,0:0:0:0:
296,244,196312,2,0,P|276:172|300:88,1,160,0|0,0:0|3:0,0:0:0:0:
384,96,196703,2,0,P|392:140|384:188,1,80,8|0,0:0|0:0,0:0:0:0:
296,244,196964,6,0,L|216:240,1,80,0|2,3:0|3:2,0:0:0:0:
300,352,197225,2,0,L|208:360,1,80,8|0,0:0|0:0,0:0:0:0:
112,252,197486,5,0,3:0:0:0:
120,360,197616,1,2,0:0:0:0:
112,252,197746,2,0,L|104:144,1,80,12|4,0:0|0:0,0:0:0:0:
216,148,198007,5,0,3:0:0:0:
208,256,198137,1,2,0:0:0:0:
216,148,198268,2,0,L|221:68,1,80,12|0,0:0|0:0,0:0:0:0:
416,48,198529,6,0,L|408:144,1,80,0|0,3:0|3:0,0:0:0:0:
222,227,198790,2,0,L|215:147,1,80,8|2,0:0|0:0,0:0:0:0:
400,208,199051,2,0,L|392:304,1,80,0|0,3:0|3:0,0:0:0:0:
238,383,199312,2,0,L|231:303,1,80,8|2,0:0|0:0,0:0:0:0:
215,147,199573,6,0,P|159:179|59:151,1,160,0|8,3:0|0:0,0:0:0:0:
136,72,199964,1,0,0:0:0:0:
215,147,200094,2,0,P|239:191|247:231,1,80,0|8,3:0|0:0,0:0:0:0:
136,340,200355,2,0,P|140:292|152:248,1,80,2|0,0:0|3:0,0:0:0:0:
232,336,200616,5,8,0:0:0:0:
320,348,200746,2,0,B|440:372|440:372|392:304,1,191.999994140625,2|0,0:0|3:0,0:0:0:0:
235,249,201138,5,8,0:0:0:0:
147,261,201268,2,0,B|27:285|27:285|75:217,1,191.999994140625,2|0,0:0|0:0,0:0:0:0:
256,56,201660,6,0,B|248:116|248:116|264:164|264:164|252:232,1,160,4|8,3:2|0:0,0:0:0:0:
192,328,202051,2,0,B|168:264|168:264|184:168,1,160,0|2,0:0|3:2,0:0:0:0:
291,92,202442,1,8,0:0:0:0:
144,96,202573,6,0,B|197:82|197:82|245:110|245:110|316:84,1,160,2|0,3:2|3:0,0:0:0:0:
183,173,202964,2,0,L|192:268,1,80,8|0,0:0|0:0,0:0:0:0:
304,244,203225,2,0,L|312:148,2,80,0|2|8,3:0|3:2|0:0,0:0:0:0:
248,344,203616,1,2,0:2:0:0:
368,320,203746,6,0,B|384:272|384:272|392:156,1,160,0|8,3:0|0:0,0:0:0:0:
384,60,204138,1,0,0:0:0:0:
312,120,204268,2,0,P|272:124|232:120,1,80,0|2,3:0|3:2,0:0:0:0:
164,48,204529,6,0,B|144:104|144:104|152:212,1,160,8|0,0:0|0:0,0:0:0:0:
188,292,204920,1,0,3:0:0:0:
240,200,205051,2,0,L|232:116,1,80,8|0,0:0|0:0,0:0:0:0:
64,244,205312,2,0,L|56:160,1,80,0|0,3:0|3:0,0:0:0:0:
195,331,205573,2,8,L|187:287,3,40
204,360,205833,6,0,B|262:366|262:366|304:344|304:344|380:360,1,160,4|8,3:2|0:0,0:0:0:0:
240,200,206225,1,2,0:0:0:0:
360,200,206355,2,0,P|368:160|368:108,2,80,0|0|8,3:0|0:0|0:0,0:0:0:0:
292,280,206746,1,2,3:2:0:0:
240,200,206877,6,0,P|280:184|332:188,1,80,0|0,0:0|3:0,0:0:0:0:
316,376,207138,2,0,P|276:375|239:360,1,80,8|2,0:0|0:0,0:0:0:0:
392,244,207399,2,0,L|380:348,1,80,0|0,3:0|3:0,0:0:0:0:
168,328,207660,2,0,L|180:228,1,80,8|2,0:0|0:0,0:0:0:0:
296,164,207920,6,0,B|240:174|240:174|196:158|196:158|140:166,1,160,0|8,3:0|0:0,0:0:0:0:
276,64,208312,1,2,0:0:0:0:
376,120,208443,2,0,B|386:160|386:160|368:228,1,80,0|0,3:0|3:0,0:0:0:0:
177,325,208703,2,0,B|166:287|166:287|177:247,1,80,8|2,0:0|3:2,0:0:0:0:
276,64,208964,6,0,L|292:240,1,160,0|8,3:0|0:0,0:0:0:0:
304,320,209355,1,2,0:0:0:0:
380,248,209486,2,0,P|420:248|472:232,1,80,0|0,3:0|3:0,0:0:0:0:
290,223,209746,2,0,P|234:207|182:207,1,80,8|8,0:0|0:0,0:0:0:0:
116,60,210007,6,0,L|112:244,1,160,4|8,3:2|0:0,0:0:0:0:
96,320,210399,2,0,P|52:324|8:308,2,80,2|0|2,0:0|3:0|3:2,0:0:0:0:
187,271,210790,2,0,P|231:255|335:295,1,160,8|0,0:0|0:0,0:0:0:0:
384,204,211181,1,2,3:2:0:0:
384,204,211312,2,0,P|353:139|319:117,1,80,8|0,0:0|0:0,0:0:0:0:
427,278,211573,2,0,P|498:282|534:264,1,80,0|2,3:0|3:2,0:0:0:0:
333,293,211833,2,0,P|292:351|290:391,1,80,8|2,0:0|0:0,0:0:0:0:
235,173,212094,6,0,P|303:209|399:197,1,160,0|8,3:0|0:0,0:0:0:0:
228,284,212486,2,0,B|136:256|160:312|64:288,1,160,0|0,3:0|3:0,0:0:0:0:
148,188,212877,1,8,0:0:0:0:
256,372,213007,2,0,P|308:314|298:238,1,160,0|0,0:0|3:0,0:0:0:0:
248,116,213399,1,8,0:0:0:0:
248,116,213659,2,0,P|252:72|260:28,1,80,0|0,3:0|3:0,0:0:0:0:
368,32,213920,2,0,P|374:71|378:111,1,80,8|0,0:0|3:0,0:0:0:0:
464,204,214181,6,0,B|408:184|408:184|304:208,1,160,0|12,3:0|0:0,0:0:0:0:
224,184,214573,1,0,0:0:0:0:
248,280,214703,2,0,P|260:332|252:372,2,80,0|0|12,3:0|3:0|0:0,0:0:0:0:
224,184,215094,2,0,L|60:200,1,160,0|0,3:0|0:0,0:0:0:0:
80,300,215486,2,0,L|168:292,1,80,8|8,0:0|0:0,0:0:0:0:
248,280,215746,1,8,0:0:0:0:
248,280,215877,5,0,3:0:0:0:
378,317,216007,1,8,3:0:0:0:
378,317,216138,1,8,3:0:0:0:
448,188,216268,6,0,L|436:64,1,120,4|0,3:2|0:0,0:0:0:0:
324,32,216790,2,0,L|320:124,1,80,2|0,0:0|0:0,0:0:0:0:
260,234,217181,1,0,3:0:0:0:
236,144,217311,5,8,0:0:0:0:
260,234,217442,2,0,L|252:322,1,80,0|0,3:0|3:0,0:0:0:0:
320,111,217833,5,8,0:0:0:0:
361,218,217964,2,0,L|349:338,1,120.000004577637,0|8,3:0|0:0,0:0:0:0:
236,144,218355,6,0,P|232:92|312:16,1,160,4|8,3:2|0:0,0:0:0:0:
224,320,218877,1,0,3:0:0:0:
132,360,219007,1,8,0:0:0:0:
60,292,219138,2,0,L|64:200,1,80,0|0,3:0|3:0,0:0:0:0:
132,80,219399,5,8,0:0:0:0:
184,160,219529,2,0,L|180:252,1,80,0|0,3:0|3:0,0:0:0:0:
224,64,219920,5,8,0:0:0:0:
276,144,220051,2,0,L|270:269,1,120.000004577637,0|0,3:0|3:0,0:0:0:0:
272,360,220442,5,8,0:0:0:0:
312,64,220703,1,2,0:0:0:0:
356,304,220964,2,0,P|404:296|428:284,2,60.0000022888184,2|0|2,0:0|0:0|0:0,0:0:0:0:
272,263,221355,6,0,P|208:243|116:271,1,160,0|0,3:0|0:0,0:0:0:0:
44,336,221746,6,0,B|36:252|36:252|52:220|52:220|36:188|36:188|48:104,1,240.000009155274,4|0,3:2|0:0,0:0:0:0:
