osu file format v14

[General]
AudioFilename: audio.mp3
AudioLeadIn: 0
PreviewTime: 108465
Countdown: 0
SampleSet: Soft
StackLeniency: 0.4
Mode: 0
LetterboxInBreaks: 0
WidescreenStoryboard: 1

[Editor]
Bookmarks: 7313,24008,40704,57399,74095,90791,103312,108008,109573,126269,132790,149486,168268,172442,184964,201660,210007,216268
DistanceSpacing: 1.3
BeatDivisor: 4
GridSize: 32
TimelineZoom: 2.599999

[Metadata]
Title:Yuudachi no Ribbon
TitleUnicode:夕立のりぼん
Artist:Himeringo
ArtistUnicode:ひめりんご
Creator:Rumia-
Version:Hard
Source:
Tags:Mir [ C u r i ] SolarFox Akitoshi Corinn みきとP MikitoP vocaloid utaite cover
BeatmapID:1538018
BeatmapSetID:604411

[Difficulty]
HPDrainRate:6
CircleSize:3.6
OverallDifficulty:6
ApproachRate:8
SliderMultiplier:1.3
SliderTickRate:1

[Events]
//Background and Video events
0,0,"bege.png",0,0
//Break Periods
2,90991,102562
2,132790,148736
//Storyboard Layer 0 (Background)
//Storyboard Layer 1 (Fail)
//Storyboard Layer 2 (Pass)
//Storyboard Layer 3 (Foreground)
//Storyboard Sound Samples

[TimingPoints]
792,260.869565217391,4,2,1,45,1,0
792,-133.333333333333,4,2,1,45,0,0
3922,-133.333333333333,4,2,1,55,0,0
6270,-200,4,2,1,40,0,0
7052,-133.333333333333,4,2,1,50,0,0
7313,260.869565217391,4,2,1,70,1,0
7319,-100,4,2,1,70,0,0
21921,-100,4,2,1,50,0,0
22965,-100,4,2,1,70,0,0
24008,-100,4,2,1,60,0,0
39660,-100,4,2,1,70,0,0
40965,-100,4,2,1,60,0,0
55052,-100,4,2,1,70,0,0
56878,-100,4,2,1,40,0,0
57399,-83.3333333333333,4,2,1,77,0,1
74095,-100,4,2,1,60,0,0
103312,-100,4,2,1,65,0,0
105399,-100,4,2,1,70,0,0
108791,-100,4,2,1,70,0,0
109052,-100,4,2,1,40,0,0
109573,-83.3333333333333,4,2,1,77,0,1
126269,-100,4,2,1,60,0,0
131747,260.869565217391,4,2,1,70,1,0
131747,-100,4,2,1,70,0,0
132790,-100,4,2,1,50,0,0
133051,-100,4,2,1,50,0,0
148312,-100,4,2,1,50,0,0
148703,-100,4,2,1,50,0,0
149486,-100,4,2,1,70,0,0
157833,-100,4,2,1,60,0,0
164094,-100,4,2,1,70,0,0
168268,-100,4,2,1,40,0,0
171920,-100,4,2,1,60,0,0
172181,-100,4,2,1,80,0,0
172442,-83.3333333333333,4,2,1,77,0,1
200616,-83.3333333333333,4,2,1,77,0,1
201660,-100,4,2,1,60,0,0

[Colours]
Combo1 : 140,206,242
Combo2 : 128,64,64
Combo3 : 0,128,255
Combo4 : 255,128,128

[HitObjects]
322,145,7313,6,0,L|336:12,1,130,4|8,3:2|0:0,0:0:0:0:
215,18,7704,2,0,L|228:147,1,130,0|2,0:0|3:2,0:0:0:0:
272,220,8095,2,0,L|265:297,1,65,8|2,0:0|3:0,0:0:0:0:
204,344,8356,2,0,P|166:347|133:336,2,65,0|2|8,0:0|3:2|0:0,0:0:0:0:
110,202,8878,2,0,L|102:126,2,65,0|2|8,3:0|3:2|0:0,0:0:0:0:
278,231,9399,6,0,B|332:249|332:249|412:223,1,130,2|8,3:2|0:0,0:0:0:0:
488,216,9791,2,0,L|484:304,2,65,0|0|2,0:0|3:0|3:2,0:0:0:0:
436,148,10182,2,0,L|300:128,1,130,8|0,0:0|0:0,0:0:0:0:
164,36,10704,2,0,L|172:100,1,65,8|0,0:0|0:0,0:0:0:0:
88,116,10965,2,0,L|97:180,2,65,0|0|8,3:0|3:0|0:0,0:0:0:0:
128,276,11486,6,0,P|182:271|223:191,1,130,4|8,3:2|0:0,0:0:0:0:
224,128,11878,2,0,P|185:74|118:66,1,130,0|0,0:0|3:0,0:0:0:0:
140,148,12269,1,10,0:0:0:0:
140,148,12399,2,0,L|278:140,1,130,0|0,0:0|3:0,0:0:0:0:
336,84,12791,2,0,P|340:45|341:11,1,65,8|0,0:0|0:0,0:0:0:0:
424,24,13052,2,0,P|425:56|428:88,2,65,0|0|8,3:0|3:0|0:0,0:0:0:0:
492,180,13573,6,0,P|428:168|364:184,1,130,2|10,3:2|0:0,0:0:0:0:
312,252,13965,2,0,B|264:275|264:275|188:256,1,130,0|0,3:0|3:0,0:0:0:0:
124,312,14356,1,8,0:0:0:0:
124,312,14486,2,0,P|106:248|143:188,1,130,4|0,3:2|3:0,0:0:0:0:
179,122,14878,1,8,0:0:0:0:
340,108,15139,2,0,L|408:97,2,65,0|0|8,3:0|3:0|0:0,0:0:0:0:
272,60,15530,1,2,3:0:0:0:
272,60,15660,6,0,P|290:120|270:188,1,130,4|8,3:2|0:0,0:0:0:0:
196,224,16052,2,0,P|137:197|73:204,1,130,0|0,0:0|3:0,0:0:0:0:
52,288,16443,1,8,0:0:0:0:
52,288,16573,2,0,L|192:312,1,130,2|0,3:2|0:0,0:0:0:0:
260,276,16965,1,8,0:0:0:0:
260,276,17226,2,0,P|269:314|261:342,2,65,0|2|8,3:0|3:2|0:0,0:0:0:0:
300,200,17617,1,0,0:0:0:0:
360,260,17747,6,0,P|384:207|360:140,1,130,0|8,3:0|0:0,0:0:0:0:
320,72,18139,2,0,L|254:66,1,65,0|0,0:0|3:0,0:0:0:0:
180,104,18399,2,0,L|114:98,1,65,0|8,3:0|0:0,0:0:0:0:
62,31,18660,2,0,P|31:90|64:165,1,130,2|0,3:2|3:0,0:0:0:0:
124,192,19052,2,0,L|193:199,1,65,8|0,0:0|0:0,0:0:0:0:
176,280,19312,2,0,L|112:287,1,65,0|0,3:0|3:0,0:0:0:0:
48,232,19573,1,8,0:0:0:0:
48,232,19704,1,8,0:0:0:0:
124,192,19834,6,0,L|259:202,1,130,4|8,3:2|0:0,0:0:0:0:
336,176,20226,2,0,P|365:117|321:42,1,130,0|0,0:0|3:0,0:0:0:0:
276,112,20617,1,8,0:0:0:0:
276,112,20747,2,0,L|265:249,1,130,2|0,3:2|3:0,0:0:0:0:
312,312,21139,2,0,L|307:398,1,65,8|0,0:0|0:0,0:0:0:0:
224,384,21399,2,0,L|227:319,1,65,0|0,3:0|3:0,0:0:0:0:
160,268,21660,1,8,0:0:0:0:
160,268,21791,1,8,0:0:0:0:
220,204,21921,6,0,B|276:192|330:237|330:237|368:256|424:240,1,195,6|0,0:0|0:0,0:0:0:0:
454,176,22443,1,2,0:0:0:0:
454,176,22573,2,0,P|489:230|463:308,1,130
400,340,22965,1,10,3:2:0:0:
400,340,23095,2,0,L|258:326,1,130,0|0,3:0|3:0,0:0:0:0:
192,296,23486,1,8,0:0:0:0:
192,296,23616,2,0,L|334:282,1,130,0|8,3:0|0:0,0:0:0:0:
376,220,24008,6,0,L|381:82,1,130,4|8,3:2|0:0,0:0:0:0:
228,16,24530,1,0,3:0:0:0:
228,16,24660,2,0,L|228:106,1,65,0|0,3:0|0:0,0:0:0:0:
244,164,24921,2,0,P|185:137|123:150,1,130,2|0,3:2|0:0,0:0:0:0:
51,187,25312,2,0,P|20:165|-9:123,1,65,10|0,0:0|0:0,0:0:0:0:
7,59,25573,2,0,P|42:43|93:39,1,65,0|0,3:0|3:0,0:0:0:0:
135,87,25834,2,0,P|132:124|110:170,1,65,10|0,0:0|0:0,0:0:0:0:
51,187,26095,6,0,L|55:331,1,130,0|8,3:0|0:0,0:0:0:0:
219,358,26617,2,0,P|187:352|154:356,2,65,0|0|8,3:0|3:0|0:0,0:0:0:0:
294,319,27008,2,0,P|350:335|426:315,1,130,2|0,3:2|3:0,0:0:0:0:
469,251,27399,2,0,L|477:179,1,65,8|0,0:0|0:0,0:0:0:0:
479,101,27660,2,0,L|475:33,2,65,0|0|8,3:0|3:0|0:0,0:0:0:0:
316,156,28182,6,0,P|300:84|344:16,1,130,2|8,3:2|0:0,0:0:0:0:
390,190,28704,2,0,P|397:153|380:111,2,65,0|0|8,3:0|3:0|0:0,0:0:0:0:
321,239,29095,2,0,L|181:231,1,130,2|0,3:2|3:0,0:0:0:0:
107,217,29486,2,0,P|99:173|107:129,1,65,8|0,0:0|0:0,0:0:0:0:
181,126,29747,2,0,P|189:82|181:38,2,65,0|0|8,3:0|3:0|0:0,0:0:0:0:
241,284,30269,6,0,P|293:236|361:236,1,130,2|8,3:2|0:0,0:0:0:0:
500,188,30791,1,0,3:0:0:0:
500,188,30921,2,0,L|416:188,2,65,0|8|2,3:0|0:0|3:2,0:0:0:0:
360,92,31443,1,0,3:0:0:0:
360,92,31573,2,0,L|353:156,1,65,10|0,0:0|0:0,0:0:0:0:
344,240,31834,2,0,L|337:304,1,65,0|0,3:0|3:0,0:0:0:0:
268,356,32095,1,10,0:0:0:0:
268,356,32226,1,10,0:0:0:0:
212,292,32356,6,0,P|128:284|76:304,1,130,4|8,3:2|0:0,0:0:0:0:
52,132,32878,2,0,L|48:60,1,65,8|10,0:0|0:0,0:0:0:0:
132,56,33139,2,0,L|136:121,1,65,8|8,3:0|3:0,0:0:0:0:
212,152,33399,2,0,L|224:12,1,130,0|8,3:2|0:0,0:0:0:0:
380,88,33921,2,0,L|452:84,1,65,0|0,3:0|3:0,0:0:0:0:
456,168,34182,2,0,L|391:172,1,65,8|10,0:0|0:0,0:0:0:0:
360,248,34442,6,0,L|489:259,1,130,2|0,3:2|3:0,0:0:0:0:
360,164,34965,2,0,P|352:112|356:80,1,65,8|0,0:0|3:0,0:0:0:0:
440,144,35226,2,0,P|440:176|433:208,1,65,8|10,3:0|3:2,0:0:0:0:
360,248,35486,2,0,L|220:236,1,130,2|8,3:2|0:0,0:0:0:0:
64,108,36008,2,0,P|60:72|60:36,2,65,0|0|10,3:0|3:0|0:0,0:0:0:0:
80,192,36399,1,10,0:0:0:0:
80,192,36530,6,0,B|136:164|136:164|208:176,1,130,4|8,3:2|0:0,0:0:0:0:
348,264,37052,2,0,L|345:328,1,65,0|0,3:0|3:0,0:0:0:0:
428,328,37312,1,8,0:0:0:0:
428,328,37443,2,0,L|432:172,1,130,2|0,3:2|3:0,0:0:0:0:
412,116,37834,2,0,L|332:100,1,65,8|0,0:0|0:0,0:0:0:0:
296,36,38095,2,0,L|216:52,1,65,0|0,3:0|0:0,0:0:0:0:
152,72,38356,1,8,0:0:0:0:
152,72,38486,1,8,0:0:0:0:
100,140,38617,6,0,B|164:160|164:160|240:104,1,130,0|8,3:0|0:0,0:0:0:0:
384,108,39139,2,0,P|392:144|394:172,1,65,0|8,3:0|0:0,0:0:0:0:
452,232,39399,2,0,P|440:267|428:292,1,65,0|0,0:0|3:0,0:0:0:0:
364,348,39660,2,0,L|220:340,1,130,10|10,0:0|0:0,0:0:0:0:
72,288,40182,1,10,0:0:0:0:
72,288,40312,1,8,0:0:0:0:
60,204,40443,2,0,L|49:139,1,65,10|8,0:0|0:0,0:0:0:0:
88,64,40704,6,0,P|136:36|216:48,1,130,4|8,3:2|0:0,0:0:0:0:
366,107,41226,2,0,L|360:172,2,65,0|0|8,3:0|3:0|0:0,0:0:0:0:
400,28,41617,2,0,B|456:64|456:64|444:156,1,130,2|0,3:2|3:0,0:0:0:0:
424,208,42008,2,0,P|396:240|352:244,1,65,8|0,0:0|0:0,0:0:0:0:
296,216,42269,2,0,P|282:175|300:135,1,65,0|0,3:0|3:0,0:0:0:0:
352,100,42530,2,0,P|393:108|419:144,1,65,10|0,0:0|0:0,0:0:0:0:
424,208,42791,6,0,L|404:352,1,130,0|8,3:0|0:0,0:0:0:0:
264,244,43312,2,0,L|268:164,2,65,0|0|8,3:0|3:0|0:0,0:0:0:0:
220,316,43704,2,0,P|140:288|60:320,1,130,2|0,3:2|3:0,0:0:0:0:
28,248,44095,2,0,P|16:204|12:160,1,65,8|0,0:0|0:0,0:0:0:0:
88,148,44356,2,0,P|87:102|95:58,2,65,0|0|10,3:0|3:0|0:0,0:0:0:0:
212,32,44878,6,0,P|284:12|348:44,1,130,0|8,3:2|0:0,0:0:0:0:
464,136,45399,2,0,L|456:200,2,65,0|0|8,3:0|3:0|0:0,0:0:0:0:
388,100,45791,2,0,L|368:260,1,130,2|0,3:2|3:0,0:0:0:0:
328,300,46182,2,0,P|288:296|256:308,1,65,8|0,0:0|0:0,0:0:0:0:
200,356,46443,2,0,P|160:360|128:348,2,65,0|0|8,3:0|3:0|0:0,0:0:0:0:
56,264,46965,6,0,P|40:220|36:184,1,65,2|0,3:2|0:0,0:0:0:0:
72,124,47226,2,0,P|116:108|152:104,1,65,8|0,0:0|0:0,0:0:0:0:
216,120,47486,2,0,P|232:164|236:200,1,65,0|0,3:0|3:0,0:0:0:0:
182,246,47747,1,8,0:0:0:0:
182,246,47878,2,0,P|138:262|50:262,1,130,2|0,3:2|3:0,0:0:0:0:
40,180,48269,2,0,P|28:136|24:84,1,65,10|0,0:0|0:0,0:0:0:0:
108,96,48530,2,0,P|119:51|142:4,1,65,0|0,3:0|3:0,0:0:0:0:
200,80,48791,1,8,0:0:0:0:
200,80,48921,1,8,0:0:0:0:
280,56,49052,6,0,B|348:60|348:60|392:120,1,130,4|8,3:2|0:0,0:0:0:0:
352,276,49573,2,0,P|344:232|356:196,1,65,0|8,3:0|3:0,0:0:0:0:
428,240,49834,2,0,P|436:284|424:320,1,65,8|0,3:0|3:0,0:0:0:0:
368,356,50095,2,0,L|228:344,1,130,2|8,3:2|0:0,0:0:0:0:
152,352,50486,1,0,0:0:0:0:
152,352,50617,2,0,P|112:344|80:320,1,65,0|0,3:0|3:0,0:0:0:0:
48,260,50878,1,0,0:0:0:0:
48,260,51008,1,8,0:0:0:0:
100,192,51139,6,0,B|160:168|160:168|232:184,1,130,2|8,3:2|0:0,0:0:0:0:
304,204,51530,1,0,0:0:0:0:
304,204,51660,2,0,P|344:184|368:160,1,65,0|8,3:0|3:0,0:0:0:0:
400,96,51921,1,0,3:0:0:0:
400,96,52052,1,8,3:0:0:0:
340,36,52182,6,0,L|192:16,1,130,2|8,3:2|0:0,0:0:0:0:
128,40,52573,1,0,0:0:0:0:
128,40,52704,2,0,L|140:120,1,65,2|0,3:2|3:0,0:0:0:0:
68,156,52965,2,0,L|80:236,1,65,8|8,0:0|0:0,0:0:0:0:
76,304,53226,1,4,3:2:0:0:
76,304,53486,6,0,P|136:284|212:304,1,130,8|0,0:0|3:0,0:0:0:0:
272,340,53878,2,0,P|328:340|348:332,1,65,0|8,3:0|0:0,0:0:0:0:
404,288,54139,2,0,P|424:240|368:248,1,130,2|0,3:2|3:0,0:0:0:0:
368,246,54530,1,8,0:0:0:0:
368,246,54791,2,0,P|356:200|356:164,1,65,0|0,3:0|3:0,0:0:0:0:
352,96,55052,1,12,0:0:0:0:
352,96,55312,6,0,P|320:68|284:48,1,65,10|2,0:0|3:0,0:0:0:0:
264,132,55573,2,0,P|222:123|181:124,1,65,10|0,0:0|3:0,0:0:0:0:
212,208,55834,2,0,P|171:221|136:242,1,65,10|0,0:0|3:0,0:0:0:0:
208,296,56095,2,0,P|180:327|160:363,1,65,10|8,0:0|0:0,0:0:0:0:
84,340,56356,5,12,0:0:0:0:
84,340,56617,2,0,L|64:192,2,130,8|2|0,0:0|0:0|0:0,0:0:0:0:
288,336,57399,6,0,P|376:348|428:280,1,155.999995239258,4|8,3:2|0:0,0:0:0:0:
432,204,57791,1,0,0:0:0:0:
432,204,57921,2,0,L|344:196,1,77.999997619629,0|2,3:0|3:2,0:0:0:0:
288,120,58182,2,0,P|260:164|256:192,1,77.999997619629,8|2,0:0|3:2,0:0:0:0:
260,292,58443,6,0,P|268:329|291:360,1,77.999997619629,0|0,0:0|3:0,0:0:0:0:
392,356,58704,2,0,P|420:312|424:284,1,77.999997619629,8|0,0:0|0:0,0:0:0:0:
420,184,58965,2,0,P|411:146|296:112,1,155.999995239258,0|8,3:0|0:0,0:0:0:0:
140,80,59486,6,0,P|120:28|188:56,1,155.999995239258,2|8,3:2|0:0,0:0:0:0:
220,140,59878,1,8,0:0:0:0:
220,140,60008,2,0,P|204:180|176:220,1,77.999997619629,0|2,3:0|3:2,0:0:0:0:
260,276,60269,2,0,P|226:302|181:323,1,77.999997619629,8|2,0:0|3:2,0:0:0:0:
72,336,60530,6,0,P|44:268|52:176,1,155.999995239258,0|8,0:2|0:0,0:0:0:0:
100,100,60921,1,0,0:0:0:0:
100,100,61052,2,0,P|88:56|88:16,1,77.999997619629,0|0,3:0|3:0,0:0:0:0:
184,56,61312,2,0,P|182:94|171:132,1,77.999997619629,2|2,0:0|0:0,0:0:0:0:
136,228,61573,6,0,L|316:216,1,155.999995239258,6|8,3:2|0:0,0:0:0:0:
379,270,61965,1,0,0:0:0:0:
379,270,62095,2,0,L|362:372,1,77.999997619629,0|2,3:0|3:2,0:0:0:0:
467,354,62356,2,0,L|479:277,1,77.999997619629,10|2,0:0|3:2,0:0:0:0:
486,175,62617,6,0,P|457:111|353:94,1,155.999995239258,0|0,0:0|3:0,0:0:0:0:
184,154,63139,2,0,P|91:164|35:121,1,155.999995239258,0|8,3:0|0:0,0:0:0:0:
58,55,63530,1,2,0:0:0:0:
58,55,63660,6,0,P|45:113|43:140,1,77.999997619629,2|0,3:2|0:0,0:0:0:0:
89,222,63921,2,0,P|102:280|104:307,1,77.999997619629,8|0,0:0|0:0,0:0:0:0:
204,284,64182,2,0,L|209:189,2,77.999997619629,0|2|8,3:0|3:2|0:0,0:0:0:0:
297,327,64573,2,0,P|358:312|437:365,1,155.999995239258,2|0,3:2|3:0,0:0:0:0:
468,262,64965,2,0,P|453:201|451:155,1,77.999997619629,8|0,0:0|0:0,0:0:0:0:
457,84,65226,1,0,3:0:0:0:
457,84,65486,2,0,L|385:104,3,38.9999988098145,8|8|8|8,0:0|0:0|0:0|0:0,0:0:0:0:
370,108,65747,6,0,P|331:59|237:53,1,155.999995239258,4|8,3:2|0:0,0:0:0:0:
87,182,66269,1,0,3:0:0:0:
170,238,66399,2,0,P|187:177|177:138,1,77.999997619629,2|8,3:2|0:0,0:0:0:0:
87,182,66660,2,0,P|74:259|117:336,1,155.999995239258,0|0,3:0|3:0,0:0:0:0:
212,352,67052,2,0,L|294:344,1,77.999997619629,8|0,0:0|0:0,0:0:0:0:
353,266,67312,2,0,L|435:274,1,77.999997619629,2|0,3:2|3:0,0:0:0:0:
490,356,67573,1,8,0:0:0:0:
483,153,67834,6,0,P|442:143|392:155,1,77.999997619629,2|0,3:2|0:0,0:0:0:0:
315,192,68095,2,0,P|298:109|313:37,1,155.999995239258,8|0,0:0|3:0,0:0:0:0:
210,44,68486,1,0,3:0:0:0:
210,44,68617,1,10,0:0:0:0:
110,59,68747,2,0,L|94:223,1,155.999995239258,0|0,0:0|3:0,0:0:0:0:
171,282,69139,2,0,L|161:365,1,77.999997619629,8|0,0:0|0:0,0:0:0:0:
74,287,69399,2,0,P|81:234|100:208,2,77.999997619629,0|0|8,3:0|3:0|0:0,0:0:0:0:
282,340,69921,6,0,P|304:282|282:202,1,116.999996429443,2|0,3:2|0:0,0:0:0:0:
263,189,70182,2,0,L|159:191,1,77.999997619629,12|0,0:0|0:0,0:0:0:0:
83,181,70443,2,0,P|61:123|83:43,1,116.999996429443,2|0,3:2|0:0,0:0:0:0:
102,30,70704,2,0,L|206:32,1,77.999997619629,12|0,0:0|0:0,0:0:0:0:
281,38,70965,6,0,L|268:128,1,77.999997619629,0|0,3:0|0:0,0:0:0:0:
368,140,71226,2,0,L|355:230,1,77.999997619629,8|0,0:0|0:0,0:0:0:0:
257,200,71486,2,0,L|244:290,1,77.999997619629,0|0,3:0|3:0,0:0:0:0:
344,302,71747,2,0,L|331:392,1,77.999997619629,8|0,0:0|0:0,0:0:0:0:
432,356,72008,6,0,P|441:264|404:213,1,155.999995239258,2|8,3:2|0:0,0:0:0:0:
207,173,72530,2,0,L|127:178,2,77.999997619629,0|8|8,3:0|0:0|0:0,0:0:0:0:
269,253,72921,1,0,3:0:0:0:
308,167,73052,1,8,0:0:0:0:
282,69,73182,2,0,P|332:69|402:160,1,155.999995239258,0|0,3:0|0:0,0:0:0:0:
385,233,73573,1,8,0:0:0:0:
313,314,73704,2,0,P|289:249|315:156,1,155.999995239258,0|0,3:0|0:0,0:0:0:0:
282,69,74095,6,0,B|240:64|214:46|214:46|181:64|140:69,1,130,4|10,3:2|0:0,0:0:0:0:
50,195,74617,2,0,L|41:125,2,65,0|0|8,3:0|3:0|0:0,0:0:0:0:
81,273,75008,2,0,P|130:252|204:275,1,130,2|0,3:2|3:0,0:0:0:0:
267,325,75399,2,0,P|285:277|290:242,1,65,10|0,0:0|0:0,0:0:0:0:
365,229,75660,2,0,P|362:174|354:147,2,65,0|0|8,3:0|3:0|0:0,0:0:0:0:
289,77,76182,6,0,P|268:142|293:220,1,130,2|8,3:2|0:0,0:0:0:0:
402,319,76704,2,0,L|476:311,2,65,0|0|8,3:0|3:0|0:0,0:0:0:0:
322,349,77095,2,0,P|280:319|199:332,1,130,2|0,3:2|3:0,0:0:0:0:
131,369,77486,1,8,0:0:0:0:
45,223,77747,2,0,L|36:146,2,65,0|0|10,3:0|3:0|0:0,0:0:0:0:
74,57,78269,6,0,P|129:76|202:61,1,130,0|10,3:0|0:0,0:0:0:0:
356,124,78791,2,0,L|366:51,2,65,0|0|8,3:0|3:0|0:0,0:0:0:0:
285,171,79182,2,0,P|332:160|401:199,1,130,2|0,3:2|3:0,0:0:0:0:
442,271,79573,2,0,L|514:269,1,65,8|2,0:0|0:0,0:0:0:0:
471,346,79834,2,0,P|418:349|391:329,2,65,0|0|8,3:0|3:0|0:0,0:0:0:0:
301,361,80356,6,0,L|289:217,1,130,2|8,3:2|0:0,0:0:0:0:
192,92,80878,2,0,L|201:28,2,65,0|0|8,3:0|3:0|0:0,0:0:0:0:
175,175,81269,2,0,P|123:151|45:168,1,130,2|0,3:2|3:0,0:0:0:0:
30,244,81660,2,0,L|41:320,1,65,8|0,0:0|0:0,0:0:0:0:
122,290,81921,2,0,L|133:366,1,65,0|0,3:0|0:0,0:0:0:0:
211,327,82182,1,8,0:0:0:0:
211,327,82312,1,8,0:0:0:0:
258,256,82443,6,0,L|395:269,1,130,4|10,3:2|0:0,0:0:0:0:
292,127,82965,2,0,P|283:75|285:47,2,65,0|0|8,3:0|3:0|3:0,0:0:0:0:
362,174,83356,1,8,3:0:0:0:
362,174,83486,2,0,L|497:166,1,130,2|8,3:2|0:0,0:0:0:0:
388,300,84008,2,0,L|297:289,1,65,0|0,3:0|3:0,0:0:0:0:
253,339,84269,2,0,L|163:334,1,65,8|8,0:0|0:0,0:0:0:0:
125,276,84530,6,0,P|117:210|141:129,2,130,2|8|0,3:2|0:0|3:0,0:0:0:0:
185,335,85182,1,8,3:0:0:0:
185,335,85312,2,0,L|263:333,1,65,0|8,3:0|3:0,0:0:0:0:
315,278,85573,6,0,P|322:204|310:137,2,130,2|8|0,3:2|0:0|3:0,0:0:0:0:
373,340,86226,1,0,3:0:0:0:
373,340,86356,2,0,L|455:339,1,65,8|8,0:0|0:0,0:0:0:0:
476,263,86617,6,0,L|337:248,1,130,4|8,3:2|0:0,0:0:0:0:
190,183,87139,1,0,3:0:0:0:
190,183,87269,2,0,P|170:117|197:58,1,130,2|2,3:2|3:2,0:0:0:0:
252,122,87660,6,0,L|332:121,2,65,0|0|8,0:0|3:0|0:0,0:0:0:0:
95,187,88182,2,0,P|86:226|83:257,1,65,2|0,3:2|3:0,0:0:0:0:
136,317,88443,1,8,0:0:0:0:
136,317,88573,1,8,0:0:0:0:
209,359,88704,2,0,L|349:347,1,130,4|8,3:2|0:0,0:0:0:0:
449,219,89226,1,0,3:0:0:0:
449,219,89356,2,0,P|458:173|463:146,2,65,10|0|0,0:0|0:0|3:0,0:0:0:0:
381,270,89747,6,0,L|306:259,1,65,10|0,0:0|0:0,0:0:0:0:
264,191,90008,2,0,L|189:202,1,65,8|0,0:0|0:0,0:0:0:0:
132,253,90269,1,8,0:0:0:0:
132,253,90399,2,0,P|90:257|53:248,2,65,8|8|8,0:0|0:0|0:0,0:0:0:0:
200,201,90791,1,4,3:2:0:0:
175,121,103312,5,4,3:2:0:0:
175,121,103573,2,0,P|230:97|294:122,1,130,8|0,0:0|3:0,0:0:0:0:
338,192,103965,1,0,3:0:0:0:
338,192,104226,2,0,L|321:332,1,130,2|0,3:2|3:0,0:0:0:0:
241,347,104617,1,8,0:0:0:0:
241,347,104747,2,0,L|257:213,1,130,0|0,0:0|3:0,0:0:0:0:
268,133,105139,1,12,0:0:0:0:
268,133,105399,6,0,P|197:151|135:130,1,130,4|0,3:2|3:0,0:0:0:0:
195,67,105791,2,0,P|266:49|328:70,1,130,8|0,0:0|3:0,0:0:0:0:
358,139,106182,2,0,L|346:223,1,65,8|0,0:0|0:0,0:0:0:0:
334,287,106443,6,0,B|248:268|248:268|205:284,1,130,12|0,0:0|3:0,0:0:0:0:
136,327,106834,2,0,B|96:341|96:341|10:322,1,130,8|0,0:0|3:0,0:0:0:0:
24,238,107226,1,8,0:0:0:0:
24,238,107486,2,0,L|96:247,1,65,10|0,0:0|3:0,0:0:0:0:
151,188,107747,2,0,L|215:179,1,65,10|0,0:0|3:0,0:0:0:0:
207,95,108008,2,0,L|142:103,1,65,10|0,0:0|3:0,0:0:0:0:
272,31,108269,2,0,L|344:40,1,65,14|0,0:0|3:0,0:0:0:0:
387,127,108530,5,12,3:2:0:0:
387,127,108791,2,0,P|443:111|480:50,2,130,8|2|0,3:0|0:0|0:0,0:0:0:0:
217,16,109573,6,0,L|228:179,1,155.999995239258,4|8,3:2|0:0,0:0:0:0:
230,274,109965,1,0,0:0:0:0:
230,274,110095,2,0,P|163:291|72:274,1,155.999995239258,2|8,3:0|0:0,0:0:0:0:
45,180,110486,1,2,3:2:0:0:
45,180,110617,2,0,L|32:91,2,77.999997619629,0|0|8,0:0|0:0|0:0,0:0:0:0:
231,117,111139,2,0,L|217:194,2,77.999997619629,0|0|10,3:0|3:0|0:0,0:0:0:0:
265,21,111530,1,2,0:0:0:0:
265,21,111660,6,0,P|315:58|330:149,1,155.999995239258,0|8,3:0|0:0,0:0:0:0:
296,242,112052,1,0,0:0:0:0:
296,242,112182,2,0,P|232:233|232:152,1,155.999995239258,2|8,3:2|0:0,0:0:0:0:
330,146,112573,1,2,3:2:0:0:
330,146,112704,6,0,P|353:172|376:222,1,77.999997619629,2|0,0:0|0:0,0:0:0:0:
427,296,112965,2,0,P|445:257|467:222,1,77.999997619629,8|0,0:0|0:0,0:0:0:0:
479,130,113226,1,0,3:0:0:0:
479,130,113486,2,0,L|400:146,1,77.999997619629,10|0,0:0|0:0,0:0:0:0:
326,78,113747,6,0,P|247:111|176:81,1,155.999995239258,4|8,3:2|0:0,0:0:0:0:
90,46,114139,1,0,0:0:0:0:
90,46,114269,2,0,P|52:117|60:196,1,155.999995239258,0|8,3:0|0:0,0:0:0:0:
109,277,114660,1,2,3:2:0:0:
109,277,114791,2,0,L|188:255,1,77.999997619629,2|0,0:0|0:0,0:0:0:0:
245,336,115052,2,0,L|330:339,1,77.999997619629,8|0,0:0|0:0,0:0:0:0:
423,344,115312,2,0,P|444:274|422:189,1,155.999995239258,0|10,3:0|0:0,0:0:0:0:
350,125,115704,1,0,0:0:0:0:
350,125,115834,6,0,P|333:165|327:203,1,77.999997619629,2|0,3:2|0:0,0:0:0:0:
227,217,116095,2,0,P|200:182|170:158,1,77.999997619629,8|2,0:0|0:0,0:0:0:0:
216,67,116356,2,0,P|259:61|295:47,1,77.999997619629,0|0,3:0|3:0,0:0:0:0:
392,43,116617,1,8,0:0:0:0:
455,121,116747,2,0,P|441:197|434:296,1,155.999995239258,2|0,3:2|3:0,0:0:0:0:
369,354,117139,2,0,P|350:306|322:272,1,77.999997619629,10|0,0:0|0:0,0:0:0:0:
262,213,117399,2,0,P|261:162|270:117,2,77.999997619629,0|2|8,3:0|3:2|0:0,0:0:0:0:
211,302,117791,1,2,3:2:0:0:
211,302,117921,6,0,L|120:310,1,77.999997619629,4|0,3:2|0:0,0:0:0:0:
44,259,118182,2,0,P|37:221|43:153,1,77.999997619629,8|0,0:0|0:0,0:0:0:0:
74,86,118443,1,0,3:0:0:0:
74,86,118573,1,0,3:0:0:0:
152,151,118704,6,0,P|174:92|139:9,1,155.999995239258,8|0,0:0|0:0,0:0:0:0:
74,86,119095,1,0,3:0:0:0:
74,86,119226,2,0,P|52:145|63:191,1,77.999997619629,10|0,0:0|0:0,0:0:0:0:
113,239,119486,2,0,L|202:233,1,77.999997619629,0|0,3:0|3:0,0:0:0:0:
288,262,119747,2,0,P|297:314|288:370,1,77.999997619629,10|0,0:0|0:0,0:0:0:0:
195,319,120008,6,0,L|187:155,1,155.999995239258,2|8,3:2|0:0,0:0:0:0:
362,58,120530,2,0,P|404:45|440:42,2,77.999997619629,0|2|8,3:0|3:2|0:0,0:0:0:0:
275,112,120921,2,0,P|317:119|379:214,1,155.999995239258,0|0,0:0|3:0,0:0:0:0:
367,307,121312,2,0,L|363:386,1,77.999997619629,10|0,0:0|0:0,0:0:0:0:
456,343,121573,2,0,L|463:255,1,77.999997619629,0|0,3:0|3:0,0:0:0:0:
378,206,121834,2,0,L|385:118,1,77.999997619629,10|0,0:0|0:0,0:0:0:0:
327,43,122095,6,0,P|269:71|196:49,1,116.999996429443,2|0,3:2|0:0,0:0:0:0:
175,35,122356,2,0,L|193:147,1,77.999997619629,12|0,0:0|0:0,0:0:0:0:
79,132,122617,6,0,P|137:104|210:126,1,116.999996429443,2|0,3:2|0:0,0:0:0:0:
231,140,122878,2,0,L|213:28,1,77.999997619629,12|0,0:0|0:0,0:0:0:0:
309,109,123139,2,0,P|311:158|297:204,1,77.999997619629,2|0,3:2|0:0,0:0:0:0:
349,276,123399,2,0,P|398:274|444:288,1,77.999997619629,10|0,0:0|0:0,0:0:0:0:
502,213,123660,2,0,P|500:164|514:118,1,77.999997619629,0|0,3:0|3:0,0:0:0:0:
461,45,123921,2,0,P|412:47|366:33,1,77.999997619629,10|0,0:0|3:0,0:0:0:0:
309,109,124182,6,0,L|141:92,2,155.999995239258,2|8|0,3:2|0:0|3:0,0:0:0:0:
382,179,124834,1,8,0:0:0:0:
382,179,124965,2,0,P|400:143|405:93,1,77.999997619629,8|0,0:0|3:0,0:0:0:0:
336,30,125226,5,8,0:0:0:0:
336,30,125356,2,0,P|253:45|226:131,1,155.999995239258,0|2,3:0|3:2,0:0:0:0:
281,189,125747,1,8,0:0:0:0:
281,189,125878,2,0,P|335:183|308:107,1,155.999995239258,0|8,3:0|0:0,0:0:0:0:
223,103,126269,6,0,B|149:80|149:80|200:63,1,130,12|2,0:0|3:2,0:0:0:0:
280,39,126660,2,0,B|354:62|354:62|303:79,1,130,10|2,0:0|3:2,0:0:0:0:
282,161,127052,2,0,L|272:309,1,130,10|0,0:0|0:0,0:0:0:0:
352,321,127443,1,8,0:0:0:0:
352,321,127573,2,0,L|357:254,1,65,8|0,0:0|0:0,0:0:0:0:
412,191,127834,6,0,P|360:172|287:203,1,130,10|2,0:0|0:0,0:0:0:0:
253,121,128226,2,0,P|295:85|305:6,1,130,10|2,0:0|0:0,0:0:0:0:
392,17,128617,2,0,P|401:71|464:119,1,130,10|0,0:0|0:0,0:0:0:0:
483,197,129008,1,0,3:0:0:0:
483,197,129139,2,0,L|470:277,1,65,8|0,3:0|3:0,0:0:0:0:
399,304,129399,6,0,B|341:280|341:280|279:310,1,130,12|2,0:0|3:2,0:0:0:0:
244,231,129791,2,0,B|304:202|304:202|298:133,1,130,10|2,0:0|3:2,0:0:0:0:
383,135,130182,2,0,B|380:201|380:201|441:225,1,130,10|0,0:0|0:0,0:0:0:0:
466,150,130573,1,8,0:0:0:0:
466,150,130704,2,0,L|469:58,1,65,8|0,0:0|0:0,0:0:0:0:
384,43,130965,5,12,0:0:0:0:
155,152,131356,1,8,0:0:0:0:
345,318,131747,1,0,0:0:0:0:
73,337,149486,6,0,P|55:283|70:197,1,130,12|8,0:0|0:0,0:0:0:0:
213,133,150007,2,0,P|225:77|225:61,2,65,8|2|8,0:0|3:2|0:0,0:0:0:0:
137,93,150399,1,2,3:2:0:0:
137,93,150529,2,0,P|128:157|172:217,1,130,8|10,0:0|0:0,0:0:0:0:
328,240,151051,2,0,L|397:236,1,65,8|2,0:0|3:2,0:0:0:0:
391,321,151312,2,0,L|326:324,1,65,8|2,0:0|0:0,0:0:0:0:
256,275,151573,6,0,P|249:207|308:157,1,130,4|8,3:2|0:0,0:0:0:0:
362,123,151964,1,0,0:0:0:0:
362,123,152094,2,0,L|444:120,2,65,0|2|8,3:0|3:2|0:0,0:0:0:0:
213,41,152616,6,0,L|217:113,1,65,2|0,0:0|0:0,0:0:0:0:
144,151,152877,2,0,L|148:223,2,65,8|2|0,0:0|0:0|3:0,0:0:0:0:
109,73,153268,1,0,3:0:0:0:
109,73,153399,2,0,L|35:69,1,65,8|0,0:0|0:0,0:0:0:0:
42,154,153660,6,0,L|50:306,1,130,12|8,0:0|0:0,0:0:0:0:
216,304,154181,2,0,L|220:227,2,65,8|2|8,0:0|3:2|0:0,0:0:0:0:
295,334,154573,2,0,L|302:198,1,130,2|0,3:2|3:0,0:0:0:0:
311,119,154964,2,0,L|375:132,1,65,10|0,0:0|0:0,0:0:0:0:
418,204,155225,2,0,L|405:268,1,65,0|0,3:0|3:0,0:0:0:0:
329,306,155486,2,0,L|265:293,1,65,12|0,0:0|0:0,0:0:0:0:
235,214,155746,6,0,P|203:238|189:331,1,130,8|8,0:0|0:0,0:0:0:0:
95,178,156268,2,0,L|23:175,2,65,8|2|8,0:0|3:2|0:0,0:0:0:0:
240,90,156790,2,0,L|239:13,1,65,10|0,0:0|3:0,0:0:0:0:
323,21,157051,2,0,L|323:85,1,65,0|0,3:0|0:0,0:0:0:0:
341,168,157312,1,8,0:0:0:0:
341,168,157442,2,0,L|405:160,2,65,0|8|8,3:0|0:0|0:0,0:0:0:0:
356,250,157833,6,0,P|394:277|477:259,1,130,4|10,3:2|0:0,0:0:0:0:
341,168,158355,2,0,L|345:90,2,65,0|0|8,3:0|3:0|0:0,0:0:0:0:
360,336,158877,2,0,P|294:320|223:327,1,130,2|8,0:0|0:0,0:0:0:0:
101,230,159399,2,0,P|106:174|109:138,2,65,0|0|8,3:0|3:0|0:0,0:0:0:0:
52,83,159920,6,0,P|108:66|176:93,1,130,2|8,3:2|0:0,0:0:0:0:
231,152,160312,1,0,0:0:0:0:
231,152,160442,2,0,P|266:122|283:102,2,65,0|2|8,3:0|3:2|0:0,0:0:0:0:
163,202,160833,1,2,3:2:0:0:
163,202,160964,6,0,L|169:273,1,65,8|2,0:0|3:2,0:0:0:0:
251,285,161225,2,0,L|245:349,2,65,0|8|8,0:0|0:0|0:0,0:0:0:0:
295,213,161616,1,8,0:0:0:0:
295,213,161746,2,0,P|324:199|368:200,1,65,2|8,3:2|3:0,0:0:0:0:
440,210,162007,5,8,3:0:0:0:
296,120,162268,2,0,L|430:109,1,130,12|0,0:0|0:0,0:0:0:0:
390,31,162660,2,0,L|298:39,1,65,0|0,3:0|0:0,0:0:0:0:
242,53,162920,2,0,P|215:104|232:176,1,130,0|0,3:0|3:0,0:0:0:0:
284,237,163312,2,0,L|355:233,1,65,8|0,0:0|0:0,0:0:0:0:
360,317,163573,2,0,L|295:320,1,65,0|0,3:0|3:0,0:0:0:0:
214,296,163833,1,8,0:0:0:0:
69,208,164094,6,0,P|55:154|81:79,1,130,12|2,0:0|3:2,0:0:0:0:
136,145,164486,2,0,P|150:199|124:274,1,130,12|2,0:0|3:2,0:0:0:0:
69,208,164877,1,0,0:0:0:0:
188,327,165138,6,0,P|242:341|317:315,1,130,12|2,0:0|3:2,0:0:0:0:
251,260,165530,2,0,P|197:246|122:272,1,130,12|2,0:0|3:2,0:0:0:0:
188,327,165921,1,8,0:0:0:0:
354,302,166181,2,0,B|388:296|388:296|423:308,1,65,8|0,0:0|3:0,0:0:0:0:
477,246,166442,2,0,B|471:212|471:212|483:177,1,65,8|0,0:0|3:0,0:0:0:0:
435,111,166703,2,0,B|401:117|401:117|366:105,1,65,8|0,0:0|3:0,0:0:0:0:
312,167,166964,2,0,B|318:201|318:201|306:236,1,65,8|0,0:0|3:0,0:0:0:0:
231,193,167225,5,10,3:0:0:0:
75,259,167486,2,0,P|61:194|80:124,2,130,10|0|0,3:2|0:0|0:0,0:0:0:0:
230,193,168268,1,2,0:0:0:0:
85,55,172181,5,8,3:0:0:0:
85,55,172442,2,0,B|163:77|163:77|243:41,1,155.999995239258,0|0,3:0|0:0,0:0:0:0:
326,10,172833,1,0,0:0:0:0:
326,10,172964,2,0,P|316:56|321:95,1,77.999997619629,0|2,3:0|3:2,0:0:0:0:
418,109,173225,2,0,P|428:155|423:194,1,77.999997619629,8|2,0:0|3:2,0:0:0:0:
351,255,173486,6,0,P|341:301|346:340,2,77.999997619629,0|0|8,0:0|0:0|0:0,0:0:0:0:
148,259,174007,2,0,L|61:252,1,77.999997619629,0|2,3:0|0:0,0:0:0:0:
57,353,174268,2,0,L|134:359,1,77.999997619629,0|0,0:0|0:0,0:0:0:0:
228,318,174529,6,0,P|250:251|196:174,2,155.999995239258,0|8|2,3:0|0:0|3:0,0:0:0:0:
148,259,175181,1,2,3:2:0:0:
148,259,175312,1,10,0:0:0:0:
68,320,175442,6,0,P|46:253|100:176,1,155.999995239258,0|0,0:0|3:0,0:0:0:0:
187,169,175833,2,0,L|269:173,1,77.999997619629,10|0,0:0|0:0,0:0:0:0:
356,129,176094,2,0,P|363:90|360:32,2,77.999997619629,0|0|8,3:0|3:0|0:0,0:0:0:0:
310,339,176616,6,0,P|352:304|462:314,1,155.999995239258,4|8,3:2|0:0,0:0:0:0:
486,211,177007,1,0,0:0:0:0:
486,211,177138,2,0,P|443:207|400:191,1,77.999997619629,0|2,3:0|3:2,0:0:0:0:
369,102,177399,1,8,0:0:0:0:
369,102,177529,2,0,P|294:129|213:95,1,155.999995239258,0|2,3:0|3:2,0:0:0:0:
131,64,177920,2,0,L|115:156,1,77.999997619629,8|0,0:0|0:0,0:0:0:0:
44,212,178181,2,0,L|57:291,2,77.999997619629,0|2|8,3:0|3:2|0:0,0:0:0:0:
181,362,178703,5,0,3:0:0:0:
181,362,178964,2,0,P|217:344|277:337,1,77.999997619629,8|0,0:0|0:0,0:0:0:0:
355,325,179225,1,0,3:0:0:0:
355,325,179355,2,0,P|352:272|361:237,1,77.999997619629,2|8,3:2|0:0,0:0:0:0:
423,170,179616,2,0,P|361:146|278:189,1,155.999995239258,0|2,3:0|3:2,0:0:0:0:
230,268,180007,2,0,L|233:356,1,77.999997619629,8|0,0:0|0:0,0:0:0:0:
131,352,180268,2,0,L|40:350,1,77.999997619629,0|2,0:0|3:2,0:0:0:0:
47,248,180529,2,0,L|124:249,1,77.999997619629,8|0,0:0|0:0,0:0:0:0:
226,261,180790,6,0,P|226:198|165:143,1,116.999996429443,0|0,3:0|0:0,0:0:0:0:
194,156,181051,2,0,L|204:55,1,77.999997619629,12|0,0:0|0:0,0:0:0:0:
294,37,181312,2,0,L|280:163,1,116.999996429443,0|0,3:0|0:0,0:0:0:0:
281,153,181573,2,0,P|325:143|359:157,1,77.999997619629,12|0,0:0|0:0,0:0:0:0:
445,199,181833,6,0,P|437:237|445:283,1,77.999997619629,0|2,3:0|0:0,0:0:0:0:
368,345,182094,2,0,P|330:337|284:345,1,77.999997619629,8|2,0:0|0:0,0:0:0:0:
227,263,182355,2,0,P|235:225|227:179,1,77.999997619629,0|0,3:0|3:0,0:0:0:0:
304,117,182616,2,0,P|342:125|388:117,1,77.999997619629,8|2,0:0|0:0,0:0:0:0:
334,28,182877,6,0,P|253:32|210:109,1,155.999995239258,0|8,3:0|0:0,0:0:0:0:
204,190,183268,1,0,0:0:0:0:
204,190,183399,2,0,P|193:229|205:274,1,77.999997619629,0|8,3:0|0:0,0:0:0:0:
292,307,183660,2,0,P|303:268|291:223,1,77.999997619629,0|2,0:0|0:0,0:0:0:0:
200,265,183920,2,0,L|99:263,1,77.999997619629,0|0,3:0|0:0,0:0:0:0:
20,260,184181,6,0,P|10:218|16:171,1,77.999997619629,8|0,0:0|0:0,0:0:0:0:
98,128,184442,2,0,P|110:86|139:48,1,77.999997619629,8|8,0:0|0:0,0:0:0:0:
231,51,184703,2,0,P|260:82|278:126,1,77.999997619629,8|8,0:0|0:0,0:0:0:0:
370,150,184964,6,0,P|377:229|359:310,1,155.999995239258,4|8,3:2|0:0,0:0:0:0:
282,367,185355,1,0,0:0:0:0:
282,367,185486,2,0,L|125:346,1,155.999995239258,0|8,3:0|0:0,0:0:0:0:
45,286,185877,1,2,3:2:0:0:
45,286,186007,2,0,P|41:235|60:189,2,77.999997619629,0|0|8,0:0|0:0|0:0,0:0:0:0:
214,173,186529,2,0,P|240:97|208:16,1,155.999995239258,2|8,3:2|0:0,0:0:0:0:
150,104,186920,1,0,0:0:0:0:
150,104,187051,6,0,P|124:180|156:261,1,155.999995239258,2|8,3:2|0:0,0:0:0:0:
225,313,187442,1,0,0:0:0:0:
225,313,187573,2,0,L|383:308,1,155.999995239258,0|8,3:0|0:0,0:0:0:0:
462,246,187964,1,2,3:2:0:0:
462,246,188094,2,0,P|471:204|462:166,2,77.999997619629,0|0|8,0:0|0:0|0:0,0:0:0:0:
261,220,188616,2,0,P|219:209|176:227,1,77.999997619629,0|2,3:0|3:2,0:0:0:0:
225,313,188877,2,0,P|267:321|302:306,1,77.999997619629,8|2,0:0|0:0,0:0:0:0:
261,220,189138,6,0,L|268:60,2,155.999995239258,4|8|0,3:2|0:0|3:0,0:0:0:0:
92,333,189920,2,0,P|76:287|78:253,1,77.999997619629,8|2,0:0|3:2,0:0:0:0:
153,191,190181,2,0,P|169:145|167:111,2,77.999997619629,0|0|8,0:0|3:0|0:0,0:0:0:0:
259,364,190703,2,0,P|309:322|395:333,1,155.999995239258,2|8,3:2|0:0,0:0:0:0:
481,279,191094,1,0,0:0:0:0:
481,279,191225,6,0,P|490:226|481:190,1,77.999997619629,2|0,3:2|0:0,0:0:0:0:
395,154,191486,2,0,P|386:207|395:243,1,77.999997619629,8|0,0:0|0:0,0:0:0:0:
485,202,191746,2,0,P|494:149|485:113,2,77.999997619629,0|2|8,3:0|3:2|0:0,0:0:0:0:
390,230,192138,6,0,P|304:214|215:239,1,155.999995239258,2|0,3:2|3:0,0:0:0:0:
159,292,192529,2,0,L|165:378,2,77.999997619629,8|0|0,0:0|0:0|3:0,0:0:0:0:
133,140,192986,1,0,0:0:0:0:
133,140,193311,6,0,L|303:139,2,155.999995239258,4|8|0,3:2|0:0|3:0,0:0:0:0:
46,194,193963,2,0,P|30:158|30:119,1,77.999997619629,2|8,3:2|0:0,0:0:0:0:
133,140,194224,2,0,P|146:217|103:294,1,155.999995239258,0|0,0:0|3:0,0:0:0:0:
187,355,194616,2,0,P|220:313|248:301,1,77.999997619629,8|0,0:0|0:0,0:0:0:0:
339,278,194876,2,0,L|421:286,1,77.999997619629,0|2,3:0|3:2,0:0:0:0:
476,368,195137,1,8,0:0:0:0:
476,368,195268,1,0,0:0:0:0:
416,285,195399,6,0,P|409:243|418:206,1,77.999997619629,0|0,3:0|0:0,0:0:0:0:
486,134,195660,2,0,P|493:92|484:55,1,77.999997619629,8|0,0:0|0:0,0:0:0:0:
391,96,195920,2,0,P|384:54|393:17,2,77.999997619629,0|2|8,3:0|3:2|0:0,0:0:0:0:
486,134,196312,2,0,L|314:111,1,155.999995239258,0|0,0:0|3:0,0:0:0:0:
258,184,196703,2,0,P|223:169|159:190,1,77.999997619629,8|0,0:0|0:0,0:0:0:0:
169,73,196964,2,0,P|207:77|242:62,1,77.999997619629,0|2,3:0|3:2,0:0:0:0:
331,113,197225,1,8,0:0:0:0:
302,313,197485,6,0,P|370:310|432:336,1,116.999996429443,0|0,3:0|0:0,0:0:0:0:
466,316,197746,2,0,L|464:212,1,77.999997619629,12|4,0:0|0:0,0:0:0:0:
444,125,198007,2,0,P|376:128|314:102,1,116.999996429443,0|0,3:0|0:0,0:0:0:0:
280,122,198268,2,0,L|282:226,1,77.999997619629,12|0,0:0|0:0,0:0:0:0:
183,147,198529,6,0,P|181:105|194:69,1,77.999997619629,0|0,3:0|3:0,0:0:0:0:
264,5,198790,2,0,P|306:3|341:16,1,77.999997619629,8|2,0:0|0:0,0:0:0:0:
372,99,199051,2,0,P|374:141|360:176,1,77.999997619629,0|0,3:0|3:0,0:0:0:0:
291,253,199312,2,0,P|249:255|213:241,1,77.999997619629,8|2,0:0|0:0,0:0:0:0:
139,302,199572,6,0,P|130:210|167:159,1,155.999995239258,0|8,3:0|0:0,0:0:0:0:
372,99,200094,2,0,L|452:104,2,77.999997619629,0|8|2,3:0|0:0|0:0,0:0:0:0:
276,135,200485,1,0,3:0:0:0:
292,34,200616,5,8,0:0:0:0:
372,99,200746,2,0,P|373:178|315:245,1,155.999995239258,2|0,0:0|3:0,0:0:0:0:
225,267,201138,5,8,0:0:0:0:
145,202,201268,2,0,P|130:115|202:56,1,155.999995239258,2|0,0:0|0:0,0:0:0:0:
213,145,201660,6,0,L|351:145,1,130,4|8,3:2|0:0,0:0:0:0:
399,208,202051,2,0,P|421:141|399:82,1,130,0|2,0:0|3:2,0:0:0:0:
321,59,202442,2,0,L|241:62,1,65,8|2,0:0|3:2,0:0:0:0:
173,41,202703,2,0,P|170:79|181:112,2,65,0|0|8,0:0|3:0|0:0,0:0:0:0:
257,62,203225,2,0,P|260:24|249:-9,2,65,0|0|8,0:0|3:0|0:0,0:0:0:0:
254,146,203616,1,0,0:0:0:0:
254,146,203746,6,0,B|308:164|308:164|388:138,1,130,0|8,3:0|0:0,0:0:0:0:
452,101,204138,1,0,0:0:0:0:
452,101,204268,2,0,L|448:13,2,65,0|0|2,0:0|3:0|3:2,0:0:0:0:
489,178,204660,2,0,P|425:182|372:125,1,130,8|0,0:0|0:0,0:0:0:0:
347,61,205051,2,0,P|310:55|283:69,1,65,8|0,0:0|0:0,0:0:0:0:
217,116,205312,2,0,P|186:127|153:125,1,65,0|0,3:0|3:0,0:0:0:0:
69,117,205573,2,0,L|77:181,1,65
61,264,205833,6,0,P|115:259|156:179,1,130,4|8,3:2|0:0,0:0:0:0:
239,180,206225,1,2,0:0:0:0:
239,180,206355,2,0,P|200:126|133:118,1,130,0|8,3:0|0:0,0:0:0:0:
80,175,206746,1,2,3:2:0:0:
80,175,206877,2,0,P|75:212|90:259,1,65,0|0,0:0|3:0,0:0:0:0:
152,283,207138,2,0,P|164:243|152:194,1,65,8|2,0:0|0:0,0:0:0:0:
80,238,207399,2,0,P|48:241|16:242,2,65,0|0|8,3:0|3:0|0:0,0:0:0:0:
167,102,207920,6,0,P|141:165|171:230,1,130,0|8,3:0|0:0,0:0:0:0:
226,164,208312,1,2,0:0:0:0:
226,164,208442,2,0,P|252:227|222:292,1,130,0|8,3:0|0:0,0:0:0:0:
160,327,208833,1,2,3:2:0:0:
160,327,208964,2,0,P|151:286|157:246,2,65,0|0|0,3:0|0:0|0:0,0:0:0:0:
322,277,209486,2,0,P|321:309|310:339,2,65,0|0|8,3:0|3:0|0:0,0:0:0:0:
258,220,209877,1,8,0:0:0:0:
201,157,210007,6,0,P|275:129|330:174,1,130,4|8,3:2|0:0,0:0:0:0:
376,212,210399,2,0,P|434:204|475:146,1,130,2|2,0:0|3:2,0:0:0:0:
393,124,210790,1,8,0:0:0:0:
393,124,210920,2,0,P|351:64|286:46,1,130,0|2,0:0|3:2,0:0:0:0:
215,64,211312,1,8,0:0:0:0:
215,64,211573,2,0,P|184:72|152:71,2,65,0|2|8,3:0|3:2|0:0,0:0:0:0:
260,135,211964,1,2,0:0:0:0:
330,87,212094,6,0,P|342:149|309:203,1,130,0|8,3:0|0:0,0:0:0:0:
233,242,212486,2,0,L|167:236,2,65,0|0|0,0:0|3:0|0:0,0:0:0:0:
309,202,212877,1,8,0:0:0:0:
367,141,213007,2,0,P|392:192|369:271,1,130,0|0,0:0|3:0,0:0:0:0:
321,326,213399,2,0,L|256:319,1,65,8|0,0:0|0:0,0:0:0:0:
183,277,213659,2,0,L|119:284,1,65,0|0,3:0|3:0,0:0:0:0:
44,325,213920,1,8,0:0:0:0:
44,325,214051,1,0,3:0:0:0:
17,245,214181,6,0,P|-7:181|27:110,1,130,0|12,3:0|0:0,0:0:0:0:
75,183,214573,2,0,P|93:109|54:49,1,130,0|0,0:0|3:0,0:0:0:0:
146,26,214964,1,12,0:0:0:0:
146,26,215094,2,0,L|283:37,1,130,0|0,3:0|0:0,0:0:0:0:
351,75,215486,2,0,L|346:161,1,65,8|8,0:0|0:0,0:0:0:0:
277,187,215746,2,0,L|280:252,2,65,8|0|8,0:0|3:0|3:0,0:0:0:0:
219,123,216138,1,8,3:0:0:0:
219,123,216268,6,0,B|163:111|109:156|109:156|71:175|15:159,1,195,4|0,3:2|0:0,0:0:0:0:
49,247,216790,1,2,0:0:0:0:
49,247,216920,2,0,P|113:250|176:295,1,130,0|0,0:0|3:0,0:0:0:0:
228,344,217312,1,8,0:0:0:0:
228,344,217442,2,0,L|370:330,1,130,0|0,3:0|3:0,0:0:0:0:
426,281,217833,1,8,0:0:0:0:
426,281,217963,2,0,L|284:267,1,130,0|8,3:0|0:0,0:0:0:0:
224,222,218355,6,0,L|234:84,1,130,4|8,3:2|0:0,0:0:0:0:
67,126,218877,1,0,3:0:0:0:
67,126,219007,2,0,L|75:49,2,65,8|0|0,0:0|3:0|3:0,0:0:0:0:
49,209,219399,5,8,0:0:0:0:
49,209,219529,2,0,L|183:184,1,130,0|0,3:0|3:0,0:0:0:0:
196,102,219920,1,8,0:0:0:0:
196,102,220051,2,0,L|338:74,1,130,0|0,3:0|3:0,0:0:0:0:
394,123,220442,5,8,0:0:0:0:
394,123,220703,1,2,0:0:0:0:
394,123,220964,2,0,L|463:117,2,65,2|0|2,0:0|0:0|0:0,0:0:0:0:
340,191,221355,6,0,P|306:125|328:70,1,130,0|0,3:0|0:0,0:0:0:0:
384,17,221746,1,4,3:2:0:0:
