osu file format v14

[General]
AudioFilename: audio.mp3
AudioLeadIn: 0
PreviewTime: 108465
Countdown: 0
SampleSet: Soft
StackLeniency: 0.4
Mode: 0
LetterboxInBreaks: 0
WidescreenStoryboard: 1

[Editor]
Bookmarks: 201660,210007,216268
DistanceSpacing: 1.2
BeatDivisor: 4
GridSize: 4
TimelineZoom: 2.099999

[Metadata]
Title:Yuudachi no Ribbon
TitleUnicode:夕立のりぼん
Artist:Himeringo
ArtistUnicode:ひめりんご
Creator:Kosaki-kun
Version:Love
Source:
Tags:
BeatmapID:1262155
BeatmapSetID:596973

[Difficulty]
HPDrainRate:5.7
CircleSize:4
OverallDifficulty:8
ApproachRate:9.3
SliderMultiplier:1.9
SliderTickRate:1

[Events]
//Background and Video events
0,0,"BG that's so nice.jpg",0,0
//Break Periods
2,132790,148932
2,168268,171366
//Storyboard Layer 0 (Background)
//Storyboard Layer 1 (Fail)
//Storyboard Layer 2 (Pass)
//Storyboard Layer 3 (Foreground)
//Storyboard Sound Samples

[TimingPoints]
792,260.869565217391,4,2,0,40,1,0
792,-133.333333333333,4,2,0,40,0,0
6270,-142.857142857143,4,2,0,40,0,0
6531,-166.666666666667,4,2,0,40,0,0
6791,-200,4,2,0,40,0,0
7052,-133.333333333333,4,2,0,40,0,0
7313,260.869565217391,4,2,0,40,1,0
7313,-100,4,2,0,40,0,0
21921,-166.666666666667,4,2,0,40,0,0
24008,-133.333333333333,4,2,0,40,0,0
57399,-100,4,2,0,40,0,1
61052,-125,4,2,0,40,0,1
61573,-100,4,2,0,40,0,1
68747,-83.3333333333333,4,2,0,40,0,1
69139,-100,4,2,0,40,0,1
69921,-133.333333333333,4,2,0,40,0,1
70182,-83.3333333333333,4,2,0,40,0,1
70443,-133.333333333333,4,2,0,40,0,1
70704,-83.3333333333333,4,2,0,40,0,1
70965,-100,4,2,0,40,0,1
73052,-111.111111111111,4,2,0,40,0,1
74095,-133.333333333333,4,2,0,40,0,0
103312,-100,4,2,0,40,0,0
105399,-111.111111111111,4,2,0,40,0,0
106182,-100,4,2,0,40,0,0
106443,-111.111111111111,4,2,0,40,0,0
107226,-100,4,2,0,40,0,0
108791,-200,4,2,0,40,0,0
109573,-100,4,2,0,40,0,1
113226,-125,4,2,0,40,0,1
113747,-100,4,2,0,40,0,1
122095,-133.333333333333,4,2,0,40,0,1
122356,-83.3333333333333,4,2,0,40,0,1
122617,-133.333333333333,4,2,0,40,0,1
122878,-83.3333333333333,4,2,0,40,0,1
123139,-100,4,2,0,40,0,1
126269,-133.333333333333,4,2,0,40,0,0
131747,260.869565217391,4,2,0,40,1,0
149486,-100,4,2,0,40,0,0
157573,-133.333333333333,4,2,0,40,0,0
157833,-100,4,2,0,40,0,0
164094,-100,4,2,0,40,0,0
171920,-200,4,2,0,40,0,0
172181,-83.3333333333333,4,2,0,40,0,0
172442,-100,4,2,0,40,0,1
181051,-83.3333333333333,4,2,0,40,0,1
181312,-100,4,2,0,40,0,1
181573,-83.3333333333333,4,2,0,40,0,1
181833,-100,4,2,0,40,0,1
188877,-133.333333333333,4,2,0,40,0,1
189138,-100,4,2,0,40,0,1
197746,-83.3333333333333,4,2,0,40,0,1
198007,-100,4,2,0,40,0,1
198268,-83.3333333333333,4,2,0,40,0,1
198529,-100,4,2,0,40,0,1
200739,-111.111111111111,4,2,0,40,0,1
201660,-100,4,2,0,40,0,0
216268,-200,4,2,0,40,0,0
217833,-133.333333333333,4,2,0,40,0,0
218355,-100,4,2,0,40,0,0
220442,-133.333333333333,4,2,0,40,0,0
221355,-100,4,2,0,40,0,0
221746,-200,4,2,0,40,0,0

[Colours]
Combo1 : 140,206,242
Combo2 : 128,64,64
Combo3 : 0,128,255
Combo4 : 255,128,128

[HitObjects]
296,176,792,6,0,P|231:186|210:112,1,142.500005435944
252,108,1183,2,0,P|291:98|325:97,1,71.2500027179719
187,103,1444,1,0,0:0:0:0:
187,103,1574,6,0,L|42:91,1,142.500005435944
26,195,1965,1,0,0:0:0:0:
26,195,2096,2,0,L|98:203,1,71.2500027179719
191,217,2357,2,0,L|195:294,1,71.2500027179719
256,353,2618,1,0,0:0:0:0:
318,288,2748,6,0,L|321:215,1,71.2500027179719
410,311,3009,1,0,0:0:0:0:
410,311,3139,2,0,L|417:169,1,142.500005435944
325,109,3531,1,0,0:0:0:0:
187,159,3661,1,0,0:0:0:0:
186,159,3922,6,0,P|193:239|274:240,1,178.12500679493
342,210,4313,1,0,0:0:0:0:
400,265,4444,2,0,L|389:335,1,71.2500027179719
274,240,4705,6,0,P|203:235|132:245,1,142.500005435944
43,213,5096,2,0,L|51:283,1,71.2500027179719
115,155,5357,1,0,0:0:0:0:
115,154,5487,2,0,P|189:126|215:201,1,142.500005435944
296,217,5878,6,0,P|297:130|252:68,1,142.500005435944
216,144,6270,6,0,P|237:169|253:198,1,66.4999979705811
360,188,6531,2,0,P|333:193|304:193,1,56.9999982604981
244,276,6791,2,0,P|251:253|262:232,1,47.5
360,188,7052,6,0,L|431:188,1,71.2500027179719
360,188,7313,2,0,L|166:166,1,190
360,188,7704,1,0,0:0:0:0:
242,149,7834,2,0,P|195:159|152:178,1,95
84,228,8095,1,0,0:0:0:0:
242,149,8226,6,0,P|326:168|342:84,1,190
342,85,8617,2,0,L|442:91,1,95
512,161,8878,1,0,0:0:0:0:
413,194,9008,1,0,0:0:0:0:
493,352,9139,2,0,P|498:304|493:257,1,95
391,302,9399,6,0,P|346:297|296:298,1,95
121,243,9660,2,0,P|171:238|218:238,1,95
391,173,9921,2,0,P|343:166|296:168,1,95
180,92,10182,1,0,0:0:0:0:
179,92,10312,6,0,P|267:84|295:168,1,190
200,232,10704,2,0,L|208:326,1,95
228,216,10965,1,0,0:0:0:0:
300,128,11095,1,0,0:0:0:0:
284,240,11226,1,0,0:0:0:0:
220,148,11356,1,0,0:0:0:0:
223,331,11486,6,0,P|317:313|414:319,1,190
434,203,11878,1,0,0:0:0:0:
320,235,12008,2,0,L|306:140,1,95
291,41,12269,1,0,0:0:0:0:
208,106,12399,6,0,P|122:96|92:186,1,190
4,197,12791,2,0,P|3:149|12:100,1,95
164,166,13052,1,0,0:0:0:0:
208,208,13182,1,0,0:0:0:0:
239,250,13312,2,0,P|240:305|235:349,1,95
54,358,13573,6,0,P|142:327|234:343,1,190
376,373,13965,1,0,0:0:0:0:
376,373,14095,2,0,L|396:271,1,95
418,181,14356,1,0,0:0:0:0:
274,130,14486,6,0,B|294:262|294:262|327:204,1,190
202,199,14878,2,0,P|155:189|99:192,1,95
6,221,15139,2,0,P|10:172|21:121,1,95
123,95,15399,1,0,0:0:0:0:
94,281,15529,1,0,0:0:0:0:
212,177,15660,6,0,B|301:205|301:205|403:191,1,190
467,128,16052,1,0,0:0:0:0:
467,128,16182,2,0,L|482:221,1,95
418,281,16443,1,0,0:0:0:0:
307,114,16573,6,0,L|114:134,1,190
3,102,16965,2,0,L|15:196,1,95
94,281,17226,1,0,0:0:0:0:
94,281,17356,1,0,0:0:0:0:
179,366,17486,2,0,P|179:316|190:271,1,95
321,272,17747,6,0,P|333:318|333:366,1,95
190,272,18008,2,0,L|79:264,1,95
321,272,18269,2,0,L|432:264,1,95
422,159,18530,1,0,0:0:0:0:
300,83,18660,6,0,P|333:165|422:159,1,190
512,221,19052,2,0,L|505:315,1,95
385,350,19312,1,0,0:0:0:0:
236,330,19443,1,0,0:0:0:0:
376,323,19573,1,0,0:0:0:0:
228,302,19704,1,0,0:0:0:0:
278,185,19834,6,0,B|214:177|148:200|148:200|164:167|170:131,1,190
60,58,20226,1,0,0:0:0:0:
60,58,20356,2,0,L|71:165,1,95
11,258,20617,1,0,0:0:0:0:
75,341,20747,6,0,P|166:315|259:327,1,190
352,343,21139,2,0,L|360:248,1,95
432,166,21399,1,0,0:0:0:0:
432,166,21530,1,0,0:0:0:0:
280,206,21660,1,0,0:0:0:0:
476,264,21791,1,0,0:0:0:0:
389,73,21921,5,0,0:0:0:0:
389,73,22965,5,0,0:0:0:0:
294,96,23095,2,0,P|238:100|181:89,1,113.999996520996
93,213,23486,5,0,0:0:0:0:
188,190,23617,2,0,P|244:186|300:197,1,113.999996520996
382,247,24008,5,0,0:0:0:0:
159,301,24269,1,0,0:0:0:0:
300,349,24530,1,0,0:0:0:0:
300,349,24660,2,0,P|303:313|303:278,1,71.2500027179719
158,161,24921,6,0,P|146:231|159:303,1,142.500005435944
248,204,25312,2,0,P|284:196|326:195,1,71.2500027179719
419,139,25573,1,0,0:0:0:0:
419,139,25704,1,0,0:0:0:0:
419,139,25834,2,0,P|427:184|428:222,1,71.2500027179719
323,89,26095,6,0,P|288:80|253:76,1,71.2500027179719
178,12,26356,2,0,P|165:45|158:80,1,71.2500027179719
68,89,26617,2,0,P|75:124|88:158,2,71.2500027179719
157,80,27008,6,0,P|225:101|295:88,1,142.500005435944
395,50,27399,2,0,P|395:91|386:133,1,71.2500027179719
311,183,27660,1,0,0:0:0:0:
311,183,27791,1,0,0:0:0:0:
413,286,27921,2,0,P|403:251|399:216,1,71.2500027179719
255,260,28182,6,0,P|193:251|113:255,1,142.500005435944
17,285,28573,1,0,0:0:0:0:
37,187,28704,2,0,L|12:109,2,71.2500027179719
128,140,29095,6,0,P|200:137|255:90,1,142.500005435944
382,165,29486,2,0,L|303:158,1,71.2500027179719
460,102,29747,1,0,0:0:0:0:
460,102,29878,1,0,0:0:0:0:
475,201,30008,2,0,L|513:262,1,71.2500027179719
399,253,30269,6,0,P|383:285|371:319,1,71.2500027179719
213,265,30530,2,0,P|252:270|285:270,1,71.2500027179719
118,313,30791,1,0,0:0:0:0:
118,313,30921,1,0,0:0:0:0:
92,209,31052,1,0,0:0:0:0:
188,155,31182,6,0,P|121:111|61:100,1,142.500005435944
165,45,31573,2,0,P|206:49|252:46,1,71.2500027179719
336,29,31834,1,0,0:0:0:0:
297,118,31965,1,0,0:0:0:0:
384,158,32095,1,0,0:0:0:0:
423,69,32226,1,0,0:0:0:0:
481,198,32356,6,0,P|445:260|434:330,1,142.500005435944
434,330,32878,2,0,P|398:326|362:325,1,71.2500027179719
268,352,33139,2,0,P|259:318|255:281,1,71.2500027179719
171,212,33399,6,0,P|159:289|155:353,1,142.500005435944
155,353,33921,2,0,P|120:348|83:349,1,71.2500027179719
0,223,34182,2,0,P|4:258|6:294,1,71.2500027179719
111,239,34443,6,0,L|259:223,1,142.500005435944
336,297,34834,1,0,0:0:0:0:
336,297,34965,2,0,P|347:263|351:218,1,71.2500027179719
288,82,35226,2,0,P|300:127|314:149,1,71.2500027179719
512,189,35486,6,0,P|465:139|398:153,1,142.500005435944
398,153,36008,2,0,L|392:224,1,71.2500027179719
299,139,36269,2,0,L|292:209,1,71.2500027179719
199,173,36530,6,0,B|130:158|130:158|57:171,1,142.500005435944
59,170,37052,2,0,L|77:252,1,71.2500027179719
47,337,37312,1,0,0:0:0:0:
47,337,37443,6,0,P|119:325|195:335,1,142.500005435944
325,281,37834,2,0,L|254:273,1,71.2500027179719
430,298,38095,2,0,P|426:267|410:230,1,71.2500027179719
323,182,38356,1,0,0:0:0:0:
506,252,38486,1,0,0:0:0:0:
483,142,38617,6,0,L|412:134,1,71.2500027179719
323,182,38878,2,0,B|264:188|219:169|219:169|239:186|249:208,1,142.500005435944
178,243,39269,2,0,P|187:278|192:313,1,71.2500027179719
97,164,39530,1,0,0:0:0:0:
97,164,39660,6,0,P|88:198|83:233,1,71.2500027179719
178,103,39921,2,0,P|213:97|248:86,1,71.2500027179719
76,63,40182,2,0,P|41:52|6:46,1,71.2500027179719
203,191,40443,1,0,0:0:0:0:
153,13,40573,1,0,0:0:0:0:
247,86,40704,6,0,P|322:80|389:86,1,142.500005435944
461,246,41226,1,0,0:0:0:0:
461,246,41356,2,0,L|467:175,1,71.2500027179719
323,244,41617,6,0,P|381:291|363:352,1,142.500005435944
226,269,42008,2,0,P|222:235|227:188,1,71.2500027179719
317,139,42269,1,0,0:0:0:0:
317,139,42399,1,0,0:0:0:0:
415,192,42530,2,0,P|421:234|419:272,1,71.2500027179719
418,84,42791,6,0,L|487:101,1,71.2500027179719
247,121,43052,2,0,L|317:139,1,71.2500027179719
151,98,43312,1,0,0:0:0:0:
151,98,43443,1,0,0:0:0:0:
80,181,43573,1,0,0:0:0:0:
80,181,43704,6,0,L|60:326,1,142.500005435944
225,261,44095,2,0,P|191:262|154:271,1,71.2500027179719
241,354,44356,1,0,0:0:0:0:
241,354,44486,1,0,0:0:0:0:
319,295,44617,2,0,P|326:255|323:213,1,71.2500027179719
417,300,44878,6,0,P|454:294|491:293,1,71.2500027179719
446,130,45139,2,0,P|441:173|443:201,1,71.2500027179719
283,136,45399,2,0,P|318:135|353:141,2,71.2500027179719
183,64,45791,6,0,P|158:131|174:198,1,142.500005435944
280,256,46182,2,0,L|285:327,1,71.2500027179719
170,373,46443,1,0,0:0:0:0:
170,373,46573,1,0,0:0:0:0:
69,314,46704,2,0,L|78:243,1,71.2500027179719
216,192,46965,6,0,L|209:263,1,71.2500027179719
318,249,47226,2,0,L|389:240,1,71.2500027179719
318,135,47486,2,0,L|392:143,2,71.2500027179719
216,192,47878,6,0,P|146:176|74:192,1,142.500005435944
55,123,48269,2,0,L|77:191,1,71.2500027179719
117,303,48530,1,0,0:0:0:0:
216,192,48660,1,0,0:0:0:0:
256,334,48791,1,0,0:0:0:0:
117,303,48921,1,0,0:0:0:0:
377,297,49052,6,0,P|308:289|255:334,1,142.500005435944
465,346,49573,2,0,L|478:269,1,71.2500027179719
453,171,49834,1,0,0:0:0:0:
347,196,49965,1,0,0:0:0:0:
251,143,50095,6,0,P|184:162|123:128,1,142.500005435944
35,184,50617,2,0,L|27:266,1,71.2500027179719
120,229,50878,2,0,L|113:307,1,71.2500027179719
204,260,51139,6,0,P|274:245|345:248,1,142.500005435944
345,248,51660,2,0,L|355:318,1,71.2500027179719
452,371,51921,1,0,0:0:0:0:
355,318,52052,1,0,0:0:0:0:
465,259,52182,6,0,L|479:115,1,142.500005435944
478,117,52704,2,0,L|408:103,1,71.2500027179719
298,82,52965,1,0,0:0:0:0:
372,0,53095,1,0,0:0:0:0:
298,82,53226,6,0,L|317:230,1,142.500005435944
166,143,53747,2,0,P|130:138|94:138,1,71.2500027179719
208,63,54008,1,0,0:0:0:0:
95,138,54139,6,0,L|75:279,1,142.500005435944
202,263,54530,2,0,P|195:231|192:192,1,71.2500027179719
361,202,54791,1,0,0:0:0:0:
361,202,54921,1,0,0:0:0:0:
361,202,55052,2,0,P|325:205|290:212,1,71.2500027179719
437,249,55312,6,0,P|446:215|454:163,1,71.2500027179719
320,63,55573,2,0,P|310:96|303:149,1,71.2500027179719
75,249,55834,6,0,P|65:215|58:163,1,71.2500027179719
192,63,56095,2,0,P|201:96|209:149,1,71.2500027179719
149,264,56356,5,0,0:0:0:0:
363,120,56617,1,0,0:0:0:0:
363,120,57399,6,0,B|298:124|298:124|222:109|222:109|236:131|238:158,1,190
226,267,57791,1,0,0:0:0:0:
335,223,57921,2,0,P|382:216|436:215,1,95
237,153,58182,2,0,L|142:162,1,95
46,173,58442,5,0,0:0:0:0:
226,267,58573,1,0,0:0:0:0:
237,153,58704,2,0,P|297:123|375:138,1,142.5
369,134,58965,2,0,L|349:38,1,95
482,130,59226,2,0,L|462:226,1,95
440,339,59486,5,0,0:0:0:0:
440,339,59617,1,0,0:0:0:0:
319,287,59747,2,0,P|272:278|225:281,1,95
132,176,60008,1,0,0:0:0:0:
150,332,60139,1,0,0:0:0:0:
319,287,60269,2,0,L|339:195,1,95
369,77,60530,5,0,0:0:0:0:
247,199,60660,1,0,0:0:0:0:
417,242,60791,1,0,0:0:0:0:
417,242,61052,6,0,P|381:233|340:237,1,76
287,169,61312,2,0,P|270:202|263:241,1,76
372,152,61573,6,0,P|313:79|230:100,1,190
113,154,61965,1,0,0:0:0:0:
113,154,62095,2,0,L|101:53,1,95
229,100,62356,2,0,L|217:201,1,95
130,268,62617,5,0,0:0:0:0:
168,104,62747,1,0,0:0:0:0:
320,188,62878,2,0,P|272:188|226:195,1,95
130,268,63139,2,0,L|23:258,1,95
217,334,63399,2,0,L|314:345,1,95
414,351,63660,5,0,0:0:0:0:
467,233,63791,1,0,0:0:0:0:
321,191,63921,2,0,L|313:81,1,95
224,72,64182,1,0,0:0:0:0:
407,166,64312,1,0,0:0:0:0:
260,328,64443,1,0,0:0:0:0:
320,191,64573,6,0,P|239:152|164:216,1,190
109,112,64965,2,0,L|15:94,1,95
252,244,65226,1,0,0:0:0:0:
252,244,65356,1,0,0:0:0:0:
402,139,65486,2,0,P|395:190|397:233,1,95
477,337,65747,6,0,P|477:244|397:232,1,190
271,280,66139,1,0,0:0:0:0:
271,280,66269,2,0,L|260:180,1,95
193,326,66530,1,0,0:0:0:0:
352,339,66660,6,0,B|363:198|363:198|397:232,1,190
249,91,67052,2,0,L|260:185,1,95
397,232,67312,1,0,0:0:0:0:
260,185,67443,1,0,0:0:0:0:
384,125,67573,2,0,P|430:112|481:106,1,95
260,185,67834,6,0,P|166:179|89:232,1,190
42,107,68226,1,0,0:0:0:0:
168,140,68356,2,0,L|181:46,1,95
89,231,68617,1,0,0:0:0:0:
177,267,68747,6,0,B|264:259|346:275|346:275|319:256|305:231,1,227.999993041992
436,229,69139,2,0,P|443:281|438:324,1,95
295,355,69399,1,0,0:0:0:0:
295,355,69530,1,0,0:0:0:0:
306,233,69661,2,0,P|298:183|302:139,1,95
395,132,69921,6,0,L|466:135,1,71.2500027179719
337,52,70182,2,0,L|216:44,1,113.999996520996
39,139,70443,6,0,L|128:144,1,71.2500027179719
306,233,70704,2,0,L|193:226,1,113.999996520996
402,202,70965,6,0,P|413:252|412:296,1,95
306,233,71226,2,0,P|257:217|218:195,1,95
326,136,71486,2,0,P|363:101|402:79,1,95
227,76,71747,2,0,P|179:80|132:73,1,95
4,209,72008,6,0,B|38:164|48:94|48:94|63:130|84:147,1,190
113,281,72399,1,0,0:0:0:0:
219,195,72530,1,0,0:0:0:0:
219,195,72660,1,0,0:0:0:0:
369,260,72791,2,0,P|321:265|274:261,1,95
322,122,73052,5,0,0:0:0:0:
369,260,73182,2,0,B|390:220|439:210|439:210|468:242|468:286,1,170.999994781494
219,195,73573,5,0,0:0:0:0:
105,234,73704,2,0,B|90:189|45:178|45:178|7:212|8:255,1,170.999994781494
219,195,74095,6,0,L|361:181,1,142.500005435944
398,72,74617,2,0,L|469:64,2,71.2500027179719
360,181,75008,6,0,P|347:241|391:311,1,142.500005435944
434,231,75399,2,0,P|468:221|516:218,1,71.2500027179719
277,294,75660,2,0,P|239:287|206:272,1,71.2500027179719
75,240,75921,2,0,L|87:324,1,71.2500027179719
209,273,76182,6,0,L|186:120,1,142.500005435944
170,23,76573,1,0,0:0:0:0:
87,98,76704,2,0,P|51:98|16:107,2,71.2500027179719
187,132,77095,6,0,P|265:135|345:119,1,142.500005435944
320,194,77486,2,0,L|329:114,1,71.2500027179719
339,38,77747,1,0,0:0:0:0:
250,53,77878,1,0,0:0:0:0:
399,186,78008,2,0,L|469:177,1,71.2500027179719
381,315,78269,6,0,L|238:295,1,142.500005435944
140,343,78660,1,0,0:0:0:0:
29,315,78791,2,0,L|17:244,2,71.2500027179719
140,343,79182,6,0,L|118:202,1,142.500005435944
295,238,79573,2,0,P|259:240|224:238,1,71.2500027179719
378,137,79834,1,0,0:0:0:0:
378,137,79965,1,0,0:0:0:0:
378,137,80095,2,0,P|391:176|395:216,1,71.2500027179719
270,133,80356,6,0,P|290:69|357:38,1,142.500005435944
181,55,80878,1,0,0:0:0:0:
181,55,81008,1,0,0:0:0:0:
132,192,81139,1,0,0:0:0:0:
269,132,81269,6,0,P|340:133|406:159,1,142.500005435944
406,159,81660,2,0,L|428:91,1,71.2500027179719
432,250,81921,2,0,L|502:231,1,71.2500027179719
418,342,82182,1,0,0:0:0:0:
418,342,82247,1,0,0:0:0:0:
418,342,82312,1,0,0:0:0:0:
300,260,82443,6,0,P|228:244|155:252,1,142.500005435944
82,324,82965,2,0,P|67:289|57:251,1,71.2500027179719
108,171,83226,1,0,0:0:0:0:
208,325,83356,1,0,0:0:0:0:
300,260,83486,6,0,P|316:188|308:115,1,142.500005435944
309,120,84008,1,0,0:0:0:0:
309,120,84138,1,0,0:0:0:0:
215,47,84269,1,0,0:0:0:0:
215,47,84399,1,0,0:0:0:0:
384,53,84530,6,0,P|396:123|379:199,1,142.500005435944
382,193,85052,2,0,P|345:186|298:189,1,71.2500027179719
130,193,85312,2,0,P|167:186|214:189,1,71.2500027179719
127,332,85573,6,0,P|114:262|129:192,1,142.500005435944
277,305,85965,1,0,0:0:0:0:
277,305,86095,2,0,L|198:278,1,71.2500027179719
374,249,86356,2,0,L|305:225,1,71.2500027179719
459,339,86617,6,0,L|485:193,1,142.500005435944
507,86,87008,1,0,0:0:0:0:
392,180,87139,2,0,P|359:173|311:175,2,71.2500027179719
251,118,87530,6,0,P|228:174|142:185,1,142.500005435944
19,173,87921,2,0,L|34:255,1,71.2500027179719
108,67,88182,2,0,L|95:137,1,71.2500027179719
249,23,88443,1,0,0:0:0:0:
177,120,88573,1,0,0:0:0:0:
372,118,88704,6,0,P|336:110|302:107,1,71.2500027179719
457,171,88965,2,0,P|454:207|463:257,1,71.2500027179719
359,222,89226,1,0,0:0:0:0:
291,295,89356,2,0,L|139:289,1,142.500005435944
148,289,89747,6,0,P|142:250|129:205,1,71.2500027179719
264,28,90008,2,0,P|253:66|249:111,1,71.2500027179719
283,192,90269,1,0,0:0:0:0:
442,161,90399,1,0,0:0:0:0:
341,90,90530,1,0,0:0:0:0:
323,292,90660,1,0,0:0:0:0:
446,262,90791,6,0,P|380:249|321:298,1,142.500005435944
323,292,91312,2,0,L|247:296,1,71.2500027179719
117,357,91573,1,0,0:0:0:0:
158,262,91704,6,0,P|174:195|156:123,1,142.500005435944
294,49,92095,2,0,L|222:46,1,71.2500027179719
224,132,92356,1,0,0:0:0:0:
358,126,92486,1,0,0:0:0:0:
442,58,92617,2,0,P|451:97|452:145,1,71.2500027179719
349,263,92878,6,0,B|336:192|336:192|348:165|358:126,1,142.500005435944
422,201,93269,1,0,0:0:0:0:
256,243,93399,1,0,0:0:0:0:
256,243,93530,2,0,P|224:233|176:227,1,71.2500027179719
0,172,93791,6,0,P|70:180|137:159,1,142.500005435944
106,262,94182,2,0,P|95:296|88:337,1,71.2500027179719
274,329,94443,1,0,0:0:0:0:
186,305,94573,1,0,0:0:0:0:
347,277,94704,2,0,P|385:278|427:293,1,71.2500027179719
463,214,94965,6,0,P|393:193|319:196,1,142.500005435944
402,109,95356,1,0,0:0:0:0:
235,173,95486,2,0,P|238:212|253:250,1,71.2500027179719
301,108,95747,2,0,P|297:69|285:37,1,71.2500027179719
208,83,96008,6,0,P|138:97|67:94,1,142.500005435944
128,189,96399,1,0,0:0:0:0:
46,271,96530,2,0,P|31:241|21:186,1,71.2500027179719
196,206,96791,2,0,P|162:192|127:188,1,71.2500027179719
152,316,97052,6,0,L|301:290,1,142.500005435944
406,332,97573,2,0,P|418:297|422:256,1,71.2500027179719
312,120,97834,2,0,P|308:161|314:201,1,71.2500027179719
512,145,98095,6,0,P|455:180|379:146,1,142.500005435944
241,74,98617,2,0,L|319:62,1,71.2500027179719
220,162,98878,1,0,0:0:0:0:
117,45,99008,1,0,0:0:0:0:
131,200,99139,6,0,B|147:230|166:243|166:243|148:285|144:327,1,142.500005435944
287,236,99660,2,0,P|258:263|238:291,1,71.2500027179719
330,312,99921,1,0,0:0:0:0:
483,269,100052,1,0,0:0:0:0:
375,235,100182,6,0,P|374:191|277:150,1,142.500005435944
296,144,100704,2,0,P|259:134|218:128,2,71.2500027179719
167,67,101095,1,0,0:0:0:0:
351,71,101226,6,0,P|337:126|329:219,1,142.500005435944
416,320,101617,1,0,0:0:0:0:
416,320,101747,2,0,P|383:312|341:310,1,71.2500027179719
234,333,102008,1,0,0:0:0:0:
328,211,102139,1,0,0:0:0:0:
171,273,102269,6,0,B|120:270|120:270|80:283|80:283|17:278,1,142.500005435944
95,362,102660,1,0,0:0:0:0:
95,362,102791,1,0,0:0:0:0:
125,195,102921,1,0,0:0:0:0:
125,195,103052,2,0,L|211:182,1,71.2500027179719
214,181,103247,1,0,0:0:0:0:
235,177,103312,6,0,B|296:169|296:169|316:196|338:213|338:213|372:206|404:214,1,190
502,269,103704,1,0,0:0:0:0:
463,140,103834,2,0,P|423:128|369:124,1,95
206,91,104095,1,0,0:0:0:0:
99,222,104226,6,0,P|180:250|234:166,1,190
17,172,104617,2,0,L|27:267,1,95
159,173,104878,1,0,0:0:0:0:
159,173,105008,1,0,0:0:0:0:
208,337,105139,1,0,0:0:0:0:
208,337,105399,6,0,B|246:328|272:311|272:311|310:331|310:331|338:317|366:320,1,170.999994781494
442,276,105791,2,0,P|434:349|367:321,1,170.999994781494
369,227,106182,2,0,L|375:132,1,95
304,47,106443,6,0,B|266:56|240:73|240:73|202:53|202:53|174:67|146:64,1,170.999994781494
69,107,106835,2,0,P|77:34|144:62,1,170.999994781494
143,157,107226,2,0,L|150:253,1,95
88,156,107486,5,0,0:0:0:0:
152,336,107617,1,0,0:0:0:0:
328,104,107747,1,0,0:0:0:0:
368,316,107878,1,0,0:0:0:0:
64,174,108008,1,0,0:0:0:0:
64,174,108139,1,0,0:0:0:0:
283,135,108269,2,0,P|261:177|248:223,1,95
397,229,108530,5,0,0:0:0:0:
397,229,108791,2,0,L|365:41,1,190
365,41,109573,6,0,B|319:37|281:56|281:56|227:44|227:44|240:66|240:89,1,190
286,267,109965,1,0,0:0:0:0:
177,223,110095,2,0,P|224:206|264:181,1,95
78,179,110356,2,0,P|71:235|74:276,1,95
151,127,110616,5,0,0:0:0:0:
232,348,110747,1,0,0:0:0:0:
394,200,110878,2,0,P|334:170|256:185,1,142.5
281,88,111139,2,0,L|261:181,1,95
438,133,111400,2,0,L|455:229,1,95
477,336,111660,5,0,0:0:0:0:
477,336,111791,1,0,0:0:0:0:
277,293,111921,2,0,P|323:283|371:287,1,95
390,195,112182,1,0,0:0:0:0:
356,381,112313,1,0,0:0:0:0:
201,341,112443,2,0,P|190:295|201:244,1,95
95,293,112704,5,0,0:0:0:0:
273,227,112834,1,0,0:0:0:0:
130,98,112965,1,0,0:0:0:0:
130,98,113226,6,0,P|169:91|207:93,1,76
281,148,113486,2,0,P|292:111|295:73,1,76
194,182,113747,6,0,P|195:276|274:319,1,190
412,352,114139,1,0,0:0:0:0:
412,352,114269,2,0,L|424:251,1,95
273,227,114530,2,0,L|285:131,1,95
436,168,114791,5,0,0:0:0:0:
328,304,114921,1,0,0:0:0:0:
199,181,115052,2,0,P|153:173|104:173,1,95
294,103,115313,2,0,L|401:93,1,95
168,55,115573,2,0,L|71:66,1,95
294,103,115834,6,0,P|299:50|273:14,1,95
199,181,116095,2,0,L|192:275,1,95
84,341,116356,1,0,0:0:0:0:
84,341,116486,1,0,0:0:0:0:
96,163,116617,1,0,0:0:0:0:
191,275,116747,6,0,P|282:232|363:257,1,190
498,343,117139,2,0,L|487:240,1,95
334,164,117400,1,0,0:0:0:0:
297,331,117530,1,0,0:0:0:0:
419,197,117660,2,0,P|420:149|414:102,1,95
312,62,117921,6,0,P|229:97|166:33,1,190
103,129,118313,1,0,0:0:0:0:
171,260,118443,2,0,L|182:160,1,95
249,296,118704,1,0,0:0:0:0:
352,318,118834,6,0,B|343:252|357:189|357:189|342:221|323:238,1,190,0|0,0:1|0:1,0:1:0:0:
438,109,119226,2,0,P|451:162|458:218,1,95
479,300,119486,1,0,0:0:0:0:
479,300,119617,1,0,0:0:0:0:
323,238,119747,2,0,P|277:225|226:219,1,95
21,258,120008,6,0,B|136:228|136:228|147:263|174:287,1,190
187,142,120400,1,0,0:0:0:0:
323,238,120530,2,0,P|335:291|336:332,1,95
244,361,120791,1,0,0:0:0:0:
440,363,120921,6,0,B|469:279|419:269|442:175,1,190
325,143,121313,2,0,P|318:195|323:238,1,95
442,175,121573,1,0,0:0:0:0:
442,175,121704,1,0,0:0:0:0:
250,125,121835,2,0,L|151:117,1,95
43,196,122095,6,0,L|50:266,1,71.2500027179719
245,263,122356,2,0,P|198:229|145:238,1,113.999996520996
313,188,122617,6,0,P|342:167|377:164,1,71.2500027179719
483,99,122878,2,0,L|470:217,1,113.999996520996
455,346,123139,6,0,L|465:252,1,95
305,91,123399,2,0,L|295:185,1,95
280,320,123660,6,0,L|290:226,1,95
112,173,123921,2,0,P|160:174|206:184,1,95
34,235,124182,6,0,P|9:169|77:81,1,190
184,316,124573,1,0,0:0:0:0:
240,112,124704,1,0,0:0:0:0:
184,316,124834,1,0,0:0:0:0:
384,240,124965,2,0,P|433:244|479:241,1,95
400,356,125226,5,0,0:0:0:0:
356,157,125356,2,0,P|282:158|238:50,1,190
140,168,125747,1,0,0:0:0:0:
120,40,125878,1,0,0:0:0:0:
28,136,126008,1,0,0:0:0:0:
235,65,126139,1,0,0:0:0:0:
192,236,126269,6,0,L|48:226,1,142.500005435944
250,175,126660,2,0,P|270:214|279:248,1,71.2500027179719
231,308,126921,1,0,0:0:0:0:
390,315,127052,6,0,P|364:256|374:174,1,142.500005435944
443,114,127443,2,0,L|512:98,1,71.2500027179719
348,82,127704,1,0,0:0:0:0:
348,82,127834,2,0,L|193:57,1,142.500005435944
277,240,128226,1,0,0:0:0:0:
277,240,128617,6,0,L|262:87,1,142.500005435944
85,140,129008,2,0,L|10:127,2,71.2500027179719
139,268,129399,6,0,B|178:258|208:242|208:242|241:237|277:240,1,142.500005435944
354,325,129791,1,0,0:0:0:0:
354,325,130182,6,0,P|385:259|376:188,1,142.500005435944
276,239,130573,1,0,0:0:0:0:
480,296,130704,1,0,0:0:0:0:
320,55,130965,6,0,P|343:115|403:92,1,142.500005435944
320,55,131356,2,0,P|249:51|180:68,1,142.500005435944
83,174,131747,5,0,0:0:0:0:
57,139,149486,6,0,P|103:123|161:130,1,95
304,259,149746,2,0,P|260:277|209:267,1,95
119,220,150007,2,0,L|134:321,1,95
245,172,150268,2,0,L|260:71,1,95
423,183,150529,6,0,P|335:149|245:172,1,190
142,109,150920,1,0,0:0:0:0:
353,56,151051,2,0,L|340:150,1,95
461,293,151312,2,0,L|473:196,1,95
347,304,151573,6,0,P|300:294|253:298,1,95
151,311,151833,2,0,P|104:310|51:294,1,95
195,213,152094,2,0,P|202:165|222:108,1,95
312,72,152355,2,0,P|358:63|403:49,1,95
216,120,152616,6,0,L|105:102,1,95
348,188,152877,1,0,0:0:0:0:
312,72,153007,1,0,0:0:0:0:
214,234,153138,2,0,L|204:335,1,95
380,341,153399,1,0,0:0:0:0:
380,341,153660,6,0,P|298:316|204:352,1,190
63,297,154051,1,0,0:0:0:0:
63,297,154181,2,0,L|59:198,1,95
174,89,154442,1,0,0:0:0:0:
234,277,154573,1,0,0:0:0:0:
335,159,154703,6,0,P|289:172|242:177,1,95
438,184,154964,2,0,P|478:223|504:267,1,95
407,85,155225,1,0,0:0:0:0:
407,85,155355,1,0,0:0:0:0:
367,253,155486,2,0,L|343:364,1,95
235,289,155746,6,0,B|186:283|149:265|149:265|97:271|52:294,1,190
0,365,156138,1,0,0:0:0:0:
16,215,156268,2,0,P|63:192|112:181,1,95
235,93,156529,2,0,L|219:192,1,95
210,296,156790,5,0,0:0:0:0:
306,249,156920,1,0,0:0:0:0:
403,288,157051,2,0,P|405:239|393:189,1,95
306,98,157312,1,0,0:0:0:0:
432,67,157442,1,0,0:0:0:0:
306,98,157573,2,0,L|232:92,1,71.2500027179719
84,35,157833,6,0,B|102:172|102:172|120:141|140:130,1,190
111,266,158225,1,0,0:0:0:0:
184,204,158355,2,0,P|202:256|200:297,1,95
25,265,158616,1,0,0:0:0:0:
25,265,158746,1,0,0:0:0:0:
142,364,158877,6,0,P|220:329|326:338,1,190
322,336,159399,2,0,P|324:284|333:237,1,95
474,273,159660,2,0,P|481:227|480:179,1,95
331,241,159920,6,0,L|126:221,1,190
67,297,160312,1,0,0:0:0:0:
130,128,160442,2,0,L|140:222,1,95
23,203,160703,1,0,0:0:0:0:
0,45,160833,1,0,0:0:0:0:
130,128,160964,6,0,L|327:99,1,190
433,38,161355,1,0,0:0:0:0:
433,38,161486,2,0,P|424:84|427:131,1,95
505,217,161746,1,0,0:0:0:0:
389,362,161877,1,0,0:0:0:0:
392,244,162007,5,0,0:0:0:0:
509,334,162138,1,0,0:0:0:0:
365,240,162268,2,0,L|270:230,1,95
182,218,162529,1,0,0:0:0:0:
365,360,162660,2,0,L|270:350,1,95
90,309,162920,6,0,P|176:305|182:218,1,190
0,192,163312,2,0,L|93:173,1,95
174,27,163573,2,0,P|164:76|175:121,1,95
358,181,163833,2,0,L|265:162,1,95
476,230,164094,6,0,P|438:151|358:182,1,190
301,258,164486,2,0,B|244:259|244:259|201:241|201:241|169:260|120:267,1,190
32,243,164877,1,0,0:0:0:0:
32,243,165138,6,0,P|69:321|149:290,1,190
206,214,165530,2,0,B|263:213|263:213|306:231|306:231|338:212|387:205,1,190
476,230,165921,1,0,0:0:0:0:
476,230,166051,1,0,0:0:0:0:
476,230,166181,6,0,L|490:338,1,95
371,111,166442,2,0,P|384:158|388:208,1,95
141,111,166703,2,0,P|128:158|124:208,1,95
36,230,166964,2,0,L|22:338,1,95
256,324,167225,5,0,0:0:0:0:
256,60,167486,1,0,0:0:0:0:
256,60,171920,6,0,L|185:70,1,71.25
311,112,172181,6,0,P|352:77|403:95,1,113.999996520996
376,179,172442,6,0,P|285:156|193:176,1,190
129,280,172833,1,0,0:0:0:0:
275,334,172964,2,0,P|266:287|274:240,1,95
453,306,173225,2,0,P|403:293|353:293,1,95
275,334,173486,5,0,0:0:0:0:
129,280,173616,1,0,0:0:0:0:
230,178,173746,2,0,P|230:225|219:270,1,95
33,336,174007,2,0,P|36:288|48:242,1,95
101,96,174268,2,0,P|117:140|126:194,1,95
199,123,174529,6,0,L|401:115,1,190
502,205,174920,1,0,0:0:0:0:
502,205,175051,2,0,P|502:158|514:106,1,95
373,224,175312,1,0,0:0:0:0:
421,324,175442,6,0,B|355:327|355:327|303:294|303:294|233:302,1,190
85,242,175833,2,0,L|179:232,1,95
132,353,176094,1,0,0:0:0:0:
289,272,176225,1,0,0:0:0:0:
121,155,176355,2,0,L|24:146,1,95
179,231,176616,6,0,B|253:213|253:213|315:220|315:220|296:198|294:153,1,190
376,312,177007,1,0,0:0:0:0:
381,163,177138,2,0,P|391:118|391:61,1,95
205,140,177399,1,0,0:0:0:0:
303,22,177529,6,0,B|226:51|226:51|179:28|179:28|154:35|117:30,1,190
205,140,177920,2,0,L|221:241,1,95
240,360,178181,1,0,0:0:0:0:
136,276,178312,1,0,0:0:0:0:
320,288,178442,2,0,L|422:267,1,95
431,118,178703,6,0,P|339:93|323:178,1,190
110,114,179225,1,0,0:0:0:0:
110,114,179355,1,0,0:0:0:0:
236,69,179486,1,0,0:0:0:0:
209,191,179616,2,0,B|195:260|200:312|200:312|174:269|158:255,1,190
297,257,180007,2,0,P|345:247|393:250,1,95
512,192,180268,2,0,P|468:190|412:174,1,95
357,330,180529,1,0,0:0:0:0:
357,330,180790,6,0,L|347:229,1,95
407,63,181051,2,0,L|419:177,1,113.999996520996
274,289,181312,1,0,0:0:0:0:
435,370,181442,1,0,0:0:0:0:
200,356,181573,2,0,L|187:237,1,113.999996520996
56,104,181833,6,0,L|65:197,1,95
209,148,182094,2,0,P|255:139|303:144,1,95
404,192,182355,2,0,L|414:99,1,95
322,261,182616,2,0,L|312:356,1,95
160,337,182877,6,0,P|174:247|104:190,1,190
61,293,183268,1,0,0:0:0:0:
105,191,183399,1,0,0:0:0:0:
105,191,183464,1,0,0:0:0:0:
105,191,183529,2,0,P|151:179|198:175,1,95
307,202,183790,1,0,0:0:0:0:
307,202,183920,6,0,P|357:203|405:196,1,95
474,129,184181,2,0,P|492:181|490:222,1,95
428,312,184442,5,0,0:0:0:0:
345,121,184573,1,0,0:0:0:0:
256,273,184703,5,0,0:0:0:0:
474,129,184833,1,0,0:0:0:0:
346,38,184964,6,0,B|293:55|293:55|259:85|259:85|224:51|174:48,1,190
73,144,185355,1,0,0:0:0:0:
181,246,185486,2,0,P|174:199|180:149,1,95
76,241,185746,2,0,L|90:351,1,95
234,331,186007,5,0,0:0:0:0:
304,156,186138,1,0,0:0:0:0:
406,276,186268,2,0,P|357:269|309:271,1,95
483,338,186529,2,0,L|497:244,1,95
404,88,186790,2,0,L|418:181,1,95
304,156,187051,6,0,B|236:172|192:124|192:124|208:160|204:208,1,190
268,64,187442,1,0,0:0:0:0:
119,199,187573,2,0,P|113:248|114:300,1,95
244,376,187833,1,0,0:0:0:0:
244,376,187964,1,0,0:0:0:0:
353,335,188094,6,0,B|376:206|376:206|357:231|334:248,1,190
243,275,188616,2,0,P|232:226|227:177,1,95
315,76,188877,2,0,P|319:120|312:167,1,71.2500027179719
227,181,189138,6,0,B|135:166|135:166|42:195,1,190
83,63,189529,1,0,0:0:0:0:
83,63,189660,2,0,L|177:77,1,95
410,163,189920,2,0,L|301:144,1,95
227,181,190181,5,0,0:0:0:0:
306,256,190312,1,0,0:0:0:0:
410,163,190442,2,0,L|398:69,1,95
512,192,190703,1,0,0:0:0:0:
512,192,190833,1,0,0:0:0:0:
399,264,190964,2,0,P|352:254|305:255,1,95
227,181,191225,6,0,P|211:231|205:275,1,95
334,147,191486,2,0,P|315:103|272:60,1,95
101,201,191746,1,0,0:0:0:0:
148,72,191877,1,0,0:0:0:0:
227,181,192007,1,0,0:0:0:0:
29,104,192138,6,0,P|49:193|22:294,1,190
221,342,192529,2,0,P|179:337|126:345,1,95
322,364,192790,1,0,0:0:0:0:
372,196,192920,1,0,0:0:0:0:
495,313,193051,2,0,P|447:311|389:294,1,95
335,97,193312,6,0,B|336:165|326:229|326:229|346:201|384:191,1,190
472,180,193703,1,0,0:0:0:0:
254,148,193833,2,0,P|208:144|148:150,1,95
75,317,194094,1,0,0:0:0:0:
0,238,194225,6,0,P|91:219|173:262,1,190
268,343,194616,2,0,P|277:294|277:248,1,95
165,54,194877,2,0,P|156:103|162:159,1,95
291,102,195138,2,0,P|337:95|385:93,1,95
465,279,195399,6,0,P|371:263|366:179,1,190
173,262,195920,1,0,0:0:0:0:
173,262,196050,2,0,L|167:369,1,95
74,281,196312,6,0,P|91:195|191:176,1,190
316,131,196703,2,0,P|287:89|255:58,1,95
320,234,196964,2,0,P|293:275|276:321,1,95
407,177,197225,2,0,P|458:175|501:163,1,95
316,131,197486,6,0,P|274:120|213:126,1,95
136,186,197746,2,0,L|119:69,1,113.999996520996
296,240,198007,6,0,L|281:337,1,95
144,348,198268,2,0,P|87:326|31:334,1,113.999996520996
168,164,198529,6,0,P|169:212|185:256,1,95
213,66,198790,2,0,P|166:63|107:77,1,95
318,101,199051,2,0,P|317:53|301:9,1,95
345,202,199312,2,0,P|383:174|415:139,1,95
418,327,199573,6,0,P|339:302|223:314,1,190
127,368,199964,1,0,0:0:0:0:
156,254,200094,2,0,P|164:207|156:148,1,95
31,100,200355,1,0,0:0:0:0:
40,288,200486,1,0,0:0:0:0:
5,81,200616,5,0,0:0:0:0:
159,160,200746,2,0,B|212:157|212:157|245:173|245:173|281:153|322:153,1,170.999994781494
480,180,201138,5,0,0:0:0:0:
312,276,201268,1,0,0:0:0:0:
488,212,201399,5,0,0:0:0:0:
341,64,201529,1,0,0:0:0:0:
341,64,201594,1,0,0:0:0:0:
341,64,201660,6,0,B|411:55|465:73|465:73|429:81|394:99,1,190
250,74,202051,1,0,0:0:0:0:
250,73,202181,2,0,P|203:81|155:77,1,95
59,61,202442,1,0,0:0:0:0:
132,195,202573,6,0,P|232:182|308:230,1,190
396,308,202964,2,0,P|411:263|413:215,1,95
204,277,203225,2,0,P|199:332|211:381,1,95
406,336,203486,2,0,P|363:326|300:322,1,95
110,290,203746,6,0,P|160:279|207:276,1,95
413,215,204007,2,0,P|370:205|307:201,1,95
101,170,204268,2,0,P|144:160|207:156,1,95
335,86,204529,1,0,0:0:0:0:
194,155,204660,6,0,P|176:244|234:321,1,190
329,180,205051,2,0,L|334:85,1,95
415,246,205312,1,0,0:0:0:0:
415,246,205442,1,0,0:0:0:0:
263,223,205573,1,0,0:0:0:0:
421,128,205703,1,0,0:0:0:0:
466,330,205833,6,0,B|426:324|393:329|393:329|349:302|349:302|316:307|284:304,1,190
103,330,206225,1,0,0:0:0:0:
103,330,206355,2,0,L|86:228,1,95
192,82,206616,2,0,L|184:185,1,95
180,268,206877,5,0,0:0:0:0:
180,268,207007,1,0,0:0:0:0:
3,174,207138,2,0,P|48:166|104:142,1,95
316,153,207399,2,0,P|269:145|222:129,1,95
432,134,207660,2,0,P|477:152|513:183,1,95
388,226,207920,6,0,B|402:354|402:354|413:317|438:289,1,190
496,363,208312,1,0,0:0:0:0:
496,363,208377,1,0,0:0:0:0:
496,363,208442,1,0,0:0:0:0:
304,268,208573,1,0,0:0:0:0:
404,132,208703,2,0,L|387:229,1,95
360,350,208964,5,0,0:0:0:0:
246,183,209094,1,0,0:0:0:0:
232,332,209225,1,0,0:0:0:0:
387,225,209355,1,0,0:0:0:0:
126,355,209486,6,0,L|137:257,1,95
8,223,209746,2,0,L|-1:121,1,95
187,75,210007,6,0,B|55:57|55:57|80:79|84:105,1,190
150,183,210399,1,0,0:0:0:0:
268,155,210529,2,0,L|366:134,1,95
175,62,210790,1,0,0:0:0:0:
290,181,210920,6,0,B|415:155|415:155|410:184|416:218,1,190
502,281,211312,2,0,P|509:239|503:177,1,95
326,260,211573,1,0,0:0:0:0:
365,96,211703,1,0,0:0:0:0:
236,162,211833,2,0,L|141:172,1,95
44,275,212094,2,0,L|141:265,1,95
320,354,212355,2,0,P|328:312|326:258,1,95
141,171,212616,2,0,P|135:220|139:267,1,95
235,210,212877,1,0,0:0:0:0:
235,210,213007,6,0,L|427:193,1,190
323,93,213399,2,0,L|228:102,1,95
141,171,213660,2,0,L|45:180,1,95
235,210,213920,1,0,0:0:0:0:
357,281,214051,1,0,0:0:0:0:
357,281,214116,1,0,0:0:0:0:
357,281,214181,6,0,P|323:199|235:210,1,190
188,344,214573,1,0,0:0:0:0:
188,344,214703,2,0,L|282:336,1,95
87,247,214964,1,0,0:0:0:0:
87,247,215094,6,0,P|183:227|279:228,1,190
406,339,215486,2,0,P|421:288|417:224,1,95
415,224,215681,1,0,0:0:0:0:
403,207,215746,1,0,0:0:0:0:
339,278,215877,1,0,0:0:0:0:
498,215,216007,1,0,0:0:0:0:
498,215,216268,6,0,L|395:207,1,95
255,213,216660,1,0,0:0:0:0:
255,213,216790,2,0,P|247:180|247:148,1,47.5
359,133,217051,2,0,P|334:156|306:172,1,47.5
231,76,217312,5,0,0:0:0:0:
231,76,217442,2,0,P|263:85|291:101,1,47.5
145,131,217703,1,0,0:0:0:0:
133,25,217833,1,0,0:0:0:0:
145,131,217964,2,0,L|159:272,1,142.500005435944
243,339,218355,6,0,P|257:299|254:242,1,95
375,138,218616,2,0,P|367:191|377:240,1,95
156,284,218877,1,0,0:0:0:0:
444,56,219007,1,0,0:0:0:0:
360,352,219138,1,0,0:0:0:0:
240,52,219268,1,0,0:0:0:0:
345,344,219399,5,0,0:0:0:0:
345,344,219529,2,0,B|253:372|253:323|157:349,1,190
59,297,219920,1,0,0:0:0:0:
59,297,220051,2,0,L|50:191,1,95
40,109,220312,1,0,0:0:0:0:
223,156,220442,5,0,0:0:0:0:
40,109,220703,1,0,0:0:0:0:
223,156,220964,5,0,0:0:0:0:
114,186,221094,1,0,0:0:0:0:
223,156,221225,1,0,0:0:0:0:
305,71,221355,6,0,P|329:159|406:115,1,190
493,98,221746,6,0,B|502:151|480:189|480:189|492:221|492:221|481:252|485:282,1,190
