osu file format v14

[General]
AudioFilename: audio.mp3
AudioLeadIn: 0
PreviewTime: 71220
Countdown: 0
SampleSet: Soft
StackLeniency: 0.7
Mode: 0
LetterboxInBreaks: 0
WidescreenStoryboard: 1

[Editor]
Bookmarks: 24456,34275,43002,53911,71366,88820,99729,117184,143366,152093,160820,169547
DistanceSpacing: 0.8
BeatDivisor: 4
GridSize: 8
TimelineZoom: 3.599999

[Metadata]
Title:Yotsuya-san ni Yoroshiku
TitleUnicode:四ツ谷さんによろしく
Artist:Himeringo
ArtistUnicode:ひめりんご
Creator:Nevo
Version:amb1's Insane
Source:
Tags:amb1d3x hishiro chizuru milan- nexusqi hooni japanese rock utaite cover addy2607 KaedeharaKazuha eight JRock J-Rock
BeatmapID:2306926
BeatmapSetID:1100637

[Difficulty]
HPDrainRate:6
CircleSize:3.8
OverallDifficulty:8
ApproachRate:9
SliderMultiplier:1.6
SliderTickRate:1

[Events]
//Background and Video events
0,0,"primary.jpg",0,0
//Break Periods
2,143556,151483
//Storyboard Layer 0 (Background)
//Storyboard Layer 1 (Fail)
//Storyboard Layer 2 (Pass)
//Storyboard Layer 3 (Foreground)
//Storyboard Layer 4 (Overlay)
//Storyboard Sound Samples

[TimingPoints]
2629,272.727272727273,4,2,1,40,1,0
20083,291.26213592233,4,2,1,40,1,0
20083,-181.818181818181,4,2,1,40,0,0
21248,288.461538461538,4,2,1,40,1,0
21248,-400,4,2,1,40,0,0
23356,272.727272727273,4,2,1,40,1,0
23356,-333.333333333333,4,2,1,40,0,0
23628,-166.666666666667,4,2,1,40,0,0
23901,-111.111111111111,4,2,1,40,0,0
24174,-83.3333333333333,4,2,1,40,0,0
24446,-100,4,2,1,40,0,0
25537,-133.333333333333,4,2,2,60,0,0
34265,-100,4,2,1,75,0,0
51719,-100,4,2,1,70,0,0
53901,-142.857142857143,4,2,1,60,0,0
69719,-125,4,2,1,60,0,0
71356,-79.9999999999999,4,2,1,85,0,1
88537,-79.9999999999999,4,2,1,85,0,1
88810,-100,4,2,1,75,0,0
97537,-133.333333333333,4,2,1,75,0,0
99719,-142.857142857143,4,2,1,60,0,0
115537,-111.111111111111,4,2,1,60,0,0
117174,-90.9090909090909,4,2,1,65,0,0
125901,-166.666666666667,4,2,1,65,0,0
126174,-71.4285714285714,4,2,1,85,0,1
128083,-133.333333333333,4,2,1,85,0,1
128356,-71.4285714285714,4,2,1,85,0,1
129992,-133.333333333333,4,2,1,85,0,1
130265,-62.5,4,2,1,85,0,1
130674,-71.4285714285714,4,2,1,85,0,1
143356,-74.074074074074,4,2,2,60,0,0
152083,-100,4,2,1,75,0,0
160810,-83.3333333333333,4,2,1,75,0,0
167356,-200,4,2,1,75,0,0
169537,-200,4,2,2,60,0,0

[Colours]
Combo1 : 129,104,86
Combo2 : 107,129,107
Combo3 : 150,147,142

[HitObjects]
47,152,20083,6,0,P|87:136|131:139,1,88.000002685547,2|2,0:0|0:0,0:0:0:0:
215,81,20665,2,0,P|248:107|268:147,1,88.000002685547,2|2,0:0|0:0,0:0:0:0:
343,198,21248,2,0,P|336:240|312:277,2,80,2|2|2,0:0|0:0|0:0,0:0:0:0:
15,357,23356,5,0,3:0:0:0:
30,356,23492,1,0,3:0:0:0:
74,328,23628,5,4,0:3:0:0:
90,329,23764,1,4,0:3:0:0:
155,369,23901,5,8,0:3:0:0:
187,367,24037,1,8,0:3:0:0:
237,310,24174,5,8,0:0:0:0:
301,314,24310,1,8,0:0:0:0:
384,376,24446,6,0,L|399:200,1,160,0|2,3:0|0:3,0:0:0:0:
397,216,24856,1,2,0:3:0:0:
303,153,24992,2,0,L|312:264,1,80,0|2,3:0|0:3,0:0:0:0:
400,112,25265,1,8,0:3:0:0:
128,16,25537,6,0,L|117:135,1,120.000004577637,2|10,3:2|0:0,0:0:0:0:
117,135,25946,1,10,0:0:0:0:
182,207,26083,2,0,L|187:266,1,60.0000022888184,2|10,0:0|0:0,0:0:0:0:
150,383,26356,1,0,0:0:0:0:
90,334,26492,6,0,L|221:346,1,120.000004577637,10|10,0:0|0:0,0:0:0:0:
290,378,26901,2,0,L|361:371,1,60.0000022888184,2|8,0:0|0:0,0:0:0:0:
422,298,27174,2,0,L|350:291,1,60.0000022888184,2|8,0:0|0:0,0:0:0:0:
297,230,27446,1,2,0:0:0:0:
297,230,27583,1,0,3:0:0:0:
377,124,27719,6,0,B|374:160|374:160|397:185|408:231,2,90.0000034332277,10|8|10,3:2|0:0|0:0,0:0:0:0:
377,124,28265,1,2,0:0:0:0:
327,51,28401,2,0,L|239:58,1,60.0000022888184,10|2,0:0|0:0,0:0:0:0:
211,145,28674,2,0,P|154:160|105:129,1,120.000004577637,10|10,0:0|0:0,0:0:0:0:
25,64,29083,2,0,L|18:135,1,60.0000022888184,2|10,0:0|0:0,0:0:0:0:
66,202,29356,1,2,0:0:0:0:
3,284,29492,2,0,L|0:254,2,30.0000011444092,8|2|2,3:2|0:3|0:3,0:0:0:0:
60,344,29765,1,0,3:0:0:0:
167,274,29901,6,0,L|302:286,1,120.000004577637,10|0,3:2|0:0,0:0:0:0:
286,284,30310,1,10,0:0:0:0:
411,232,30446,2,0,L|351:237,1,60.0000022888184,2|10,0:0|0:0,0:0:0:0:
426,340,30719,1,0,0:0:0:0:
497,292,30856,6,0,P|513:221|489:158,1,120.000004577637,10|10,0:0|0:0,0:0:0:0:
439,88,31265,2,0,L|351:95,1,60.0000022888184,2|8,0:0|0:0,0:0:0:0:
318,152,31537,2,0,L|230:144,1,60.0000022888184,2|8,0:0|0:0,0:0:0:0:
189,73,31810,1,2,0:0:0:0:
189,73,31946,1,0,3:0:0:0:
101,172,32083,6,0,B|97:149|92:133|92:133|95:118|95:118|86:99|92:76,2,90.0000034332277,10|8|10,3:2|0:0|0:0,0:0:0:0:
101,172,32628,1,2,0:0:0:0:
63,264,32765,2,0,L|150:256,1,60.0000022888184,10|2,0:0|0:0,0:0:0:0:
209,179,33037,6,0,P|249:163|331:189,1,120.000004577637,10|10,0:0|0:0,0:0:0:0:
393,269,33446,1,2,0:0:0:0:
457,191,33583,1,10,0:0:0:0:
497,308,33719,1,10,0:0:0:0:
511,0,34265,6,0,L|351:13,1,160,4|8,3:1|0:0,0:0:0:0:
351,13,34674,1,2,0:0:0:0:
308,125,34810,2,0,P|232:112|214:101,1,80,10|0,3:2|3:0,0:0:0:0:
105,15,35083,2,0,P|144:15|182:28,1,80,8|2,0:0|3:2,0:0:0:0:
195,239,35356,6,0,P|133:193|145:118,1,160,10|8,0:0|0:0,0:0:0:0:
145,118,35765,1,2,0:0:0:0:
286,144,35901,2,0,L|292:223,1,80,10|2,3:2|3:2,0:0:0:0:
370,268,36174,2,0,L|363:347,1,80,10|2,0:0|0:0,0:0:0:0:
151,384,36446,6,0,P|213:338|207:258,1,160,6|8,3:2|0:0,0:0:0:0:
209,262,36856,1,2,0:0:0:0:
53,312,36992,2,0,P|0:257|15:160,1,160,10|10,3:2|0:0,0:0:0:0:
4,177,37401,1,2,3:2:0:0:
83,86,37537,2,0,L|186:95,1,80,10|0,0:0|3:0,0:0:0:0:
256,57,37810,2,0,L|248:136,1,80,10|0,0:0|0:0,0:0:0:0:
391,208,38083,2,0,L|312:202,1,80,10|0,3:2|3:0,0:0:0:0:
433,300,38356,2,0,L|536:309,1,80,10|0,0:0|0:0,0:0:0:0:
313,378,38628,6,0,P|283:305|216:264,1,160,6|8,3:2|0:0,0:0:0:0:
216,264,39037,1,2,0:0:0:0:
52,315,39174,2,0,P|52:238|72:220,1,80,10|0,3:2|3:0,0:0:0:0:
16,163,39446,2,0,P|82:125|108:132,1,80,8|2,0:0|3:2,0:0:0:0:
222,178,39719,2,0,P|178:140|259:95,1,160,10|8,0:0|0:0,0:0:0:0:
236,82,40128,1,2,0:0:0:0:
337,201,40265,2,0,L|345:105,1,80,10|2,3:2|3:2,0:0:0:0:
440,51,40537,2,0,L|446:130,1,80,10|2,0:0|0:0,0:0:0:0:
512,286,40810,6,0,B|460:260|460:260|360:283,1,160,6|8,3:2|0:0,0:0:0:0:
240,365,41219,1,2,0:0:0:0:
173,311,41356,2,0,P|158:251|217:157,1,160,2|10,3:2|0:0,0:0:0:0:
201,167,41765,1,2,3:2:0:0:
140,28,41901,6,0,L|28:37,1,80,10|0,0:0|3:0,0:0:0:0:
215,84,42174,2,0,L|326:93,1,80,8|0,0:0|0:0,0:0:0:0:
131,152,42446,1,0,3:0:0:0:
127,181,42583,1,8,0:3:0:0:
224,207,42719,1,8,0:0:0:0:
225,222,42787,1,8,0:0:0:0:
227,237,42856,1,8,0:0:0:0:
230,252,42924,1,8,0:0:0:0:
233,270,42992,6,0,P|296:304|371:266,1,160,4|8,3:1|0:0,0:0:0:0:
370,269,43401,1,2,0:0:0:0:
457,198,43537,2,0,L|466:301,1,80,10|0,3:2|3:0,0:0:0:0:
303,225,43810,2,0,L|309:145,1,80,8|2,0:0|3:2,0:0:0:0:
411,40,44083,6,0,L|307:30,1,80,10|0,0:0|3:0,0:0:0:0:
256,90,44356,2,0,L|152:99,1,80,8|2,0:0|0:0,0:0:0:0:
102,35,44628,1,10,3:2:0:0:
62,27,44765,1,2,3:2:0:0:
40,110,44901,1,10,0:0:0:0:
0,118,45038,1,2,0:0:0:0:
122,171,45174,6,0,P|163:215|114:320,1,160,6|8,3:2|0:0,0:0:0:0:
140,304,45583,1,2,0:0:0:0:
236,384,45719,2,0,L|243:296,1,80,10|0,3:2|3:0,0:0:0:0:
323,248,45992,2,0,L|329:327,1,80,10|2,0:0|3:2,0:0:0:0:
436,382,46265,6,0,P|441:327|464:286,1,80,10|0,0:0|3:0,0:0:0:0:
493,162,46537,2,0,P|506:200|508:240,1,80,10|0,0:0|0:0,0:0:0:0:
377,156,46810,1,10,3:2:0:0:
382,121,46946,1,0,3:0:0:0:
454,63,47083,1,10,0:0:0:0:
449,28,47219,1,0,0:0:0:0:
302,0,47356,6,0,B|251:-9|251:-9|145:43,1,160,6|8,3:2|0:0,0:0:0:0:
153,38,47765,1,2,0:0:0:0:
89,149,47901,2,0,L|81:61,1,80,10|0,3:2|3:0,0:0:0:0:
181,210,48174,2,0,L|188:122,1,80,8|2,0:0|3:2,0:0:0:0:
90,280,48446,6,0,L|177:287,1,80,10|0,0:0|3:0,0:0:0:0:
233,354,48719,2,0,L|320:346,1,80,8|2,0:0|0:0,0:0:0:0:
426,289,48992,1,10,3:2:0:0:
434,323,49128,1,2,3:2:0:0:
353,217,49265,1,10,0:0:0:0:
345,251,49401,1,2,0:0:0:0:
453,149,49537,6,0,P|410:91|297:96,1,160,6|8,3:2|0:0,0:0:0:0:
327,80,49946,1,2,0:0:0:0:
226,162,50083,1,2,3:2:0:0:
175,76,50219,1,0,3:0:0:0:
221,170,50356,1,10,0:0:0:0:
170,84,50492,1,2,3:2:0:0:
35,161,50628,6,0,L|26:256,1,80,10|0,0:0|3:0,0:0:0:0:
124,262,50901,2,0,L|132:357,1,80,8|0,0:0|0:0,0:0:0:0:
242,369,51174,2,0,P|280:378|317:365,1,80,0|8,3:0|0:3,0:0:0:0:
386,297,51446,1,8,0:0:0:0:
402,296,51515,1,8,0:0:0:0:
417,298,51583,1,8,0:0:0:0:
431,304,51651,1,8,0:0:0:0:
444,312,51719,6,0,L|458:146,1,160,0|0,3:0|3:0,0:0:0:0:
457,152,52128,1,8,0:3:0:0:
416,67,52265,1,0,3:0:0:0:
379,64,52401,1,4,0:3:0:0:
344,64,52537,1,0,3:0:0:0:
146,254,52810,6,0,P|276:241|334:332,2,240,0|0|0,3:0|3:0|3:0,0:0:0:0:
0,94,53901,6,0,B|68:77|61:192|150:167,1,167.999994873047,2|8,3:2|0:3,0:0:0:0:
160,162,54378,1,8,0:3:0:0:
160,162,54446,2,0,L|231:157,1,55.9999982910157,8|0,0:0|3:0,0:0:0:0:
256,56,54719,1,10,0:0:0:0:
256,56,54856,1,2,0:0:0:0:
322,114,54992,2,0,L|315:193,1,55.9999982910157,2|0,3:2|3:0,0:0:0:0:
228,214,55265,2,0,L|223:158,1,55.9999982910157,10|0,0:0|3:0,0:0:0:0:
308,264,55537,2,0,L|303:319,1,55.9999982910157,2|0,0:0|3:0,0:0:0:0:
198,384,55810,1,10,0:0:0:0:
41,278,56083,6,0,P|84:248|86:169,1,111.999996582031,2|2,3:2|0:3,0:0:0:0:
42,72,56492,1,8,0:3:0:0:
116,112,56628,2,0,L|170:104,1,55.9999982910157,8|0,0:0|3:0,0:0:0:0:
231,44,56901,1,10,0:0:0:0:
231,44,57037,1,2,0:0:0:0:
304,104,57174,6,0,L|297:183,2,55.9999982910157,0|0|8,3:0|3:0|0:0,0:0:0:0:
380,52,57583,1,2,3:0:0:0:
380,52,57719,1,2,0:3:0:0:
445,108,57856,1,2,3:0:0:0:
494,0,57992,1,8,0:0:0:0:
485,240,58265,6,0,B|407:277|404:210|322:245,1,167.999994873047,2|8,3:2|0:3,0:0:0:0:
300,260,58742,1,8,0:3:0:0:
300,260,58810,2,0,L|293:331,1,55.9999982910157,8|0,0:0|3:0,0:0:0:0:
228,203,59083,1,10,0:0:0:0:
228,203,59219,1,2,0:0:0:0:
183,307,59356,2,0,P|155:307|128:299,1,55.9999982910157,2|0,3:2|3:0,0:0:0:0:
51,302,59628,2,0,P|36:277|30:250,1,55.9999982910157,10|0,0:0|3:0,0:0:0:0:
112,162,59901,2,0,L|106:225,1,55.9999982910157,2|0,0:0|3:0,0:0:0:0:
35,126,60174,1,10,0:0:0:0:
160,11,60446,6,0,P|223:5|276:44,1,111.999996582031,2|2,3:2|0:3,0:0:0:0:
331,183,60856,1,8,0:3:0:0:
359,96,60992,2,0,L|279:102,1,55.9999982910157,8|0,0:0|3:0,0:0:0:0:
188,166,61265,2,0,L|268:172,1,55.9999982910157,10|2,0:0|0:0,0:0:0:0:
336,193,61537,6,0,L|340:239,5,27.9999991455078,10|8|8|8|8|8,3:2|0:3|0:3|0:3|0:3|0:3,0:0:0:0:
290,278,61946,2,0,L|285:324,5,27.9999991455078,8|8|8|8|8|8,3:2|0:3|0:3|0:3|0:3|0:3,0:0:0:0:
338,366,62356,1,8,3:2:0:0:
512,237,62628,6,0,P|507:155|445:102,1,167.999994873047,2|8,3:2|0:3,0:0:0:0:
416,95,63106,1,8,0:3:0:0:
416,95,63174,2,0,L|410:31,1,55.9999982910157,8|0,0:0|3:0,0:0:0:0:
332,136,63446,1,10,0:0:0:0:
332,136,63583,1,2,0:0:0:0:
280,54,63719,2,0,P|253:51|226:57,1,55.9999982910157,2|0,3:2|3:0,0:0:0:0:
170,129,63992,2,0,P|142:132|115:126,1,55.9999982910157,10|0,0:0|3:0,0:0:0:0:
35,76,64265,2,0,L|29:139,1,55.9999982910157,2|0,0:0|3:0,0:0:0:0:
78,203,64537,2,0,L|83:266,1,55.9999982910157,10|0,0:0|0:0,0:0:0:0:
32,376,64810,6,0,P|74:342|129:347,1,111.999996582031,2|2,3:2|0:3,0:0:0:0:
251,384,65219,1,8,0:3:0:0:
322,353,65356,2,0,L|328:281,1,55.9999982910157,8|0,0:0|3:0,0:0:0:0:
286,172,65628,1,10,0:0:0:0:
456,288,65901,6,0,L|450:224,2,55.9999982910157,2|0|8,3:2|3:0|0:0,0:0:0:0:
368,352,66310,1,2,3:0:0:0:
368,352,66446,2,0,L|373:288,1,55.9999982910157,2|2,0:0|3:0,0:0:0:0:
275,260,66719,1,10,0:0:0:0:
275,260,66856,1,2,0:0:0:0:
198,316,66992,6,0,L|186:188,1,111.999996582031,0|2,3:0|0:0,0:0:0:0:
103,177,67401,1,8,0:3:0:0:
103,177,67469,1,8,0:3:0:0:
103,177,67537,2,0,L|110:108,1,55.9999982910157,8|0,0:0|3:0,0:0:0:0:
180,52,67810,1,8,0:0:0:0:
232,193,68083,6,0,L|312:181,1,55.9999982910157,0|0,3:0|3:0,0:0:0:0:
350,132,68356,2,0,L|430:144,1,55.9999982910157,8|0,0:0|3:0,0:0:0:0:
494,169,68628,2,0,L|485:113,1,55.9999982910157,2|0,0:0|3:0,0:0:0:0:
423,50,68901,1,10,0:0:0:0:
423,50,69037,1,2,0:0:0:0:
333,164,69174,6,0,P|224:165|211:153,1,111.999996582031,2|2,3:2|0:3,0:0:0:0:
129,97,69583,1,8,0:3:0:0:
129,97,69651,1,8,0:0:0:0:
129,97,69719,2,0,L|134:160,1,64,8|0,0:0|3:0,0:0:0:0:
89,273,69992,1,10,0:0:0:0:
288,213,70265,5,10,0:0:0:0:
303,209,70333,1,8,0:0:0:0:
318,209,70401,1,8,0:0:0:0:
333,213,70469,1,8,0:0:0:0:
345,221,70537,1,8,0:0:0:0:
358,230,70606,1,8,0:0:0:0:
373,234,70674,1,10,0:0:0:0:
442,0,71219,5,2,0:0:0:0:
509,56,71356,2,0,P|462:108|324:82,1,200,4|8,3:1|0:0,0:0:0:0:
109,121,71765,1,2,0:0:0:0:
42,177,71902,2,0,P|89:229|227:203,1,200,2|8,3:2|0:0,0:0:0:0:
385,229,72310,1,2,0:0:0:0:
452,285,72447,2,0,P|405:337|267:311,1,200,2|8,3:2|0:0,0:0:0:0:
283,327,72856,1,2,0:0:0:0:
122,283,72992,1,2,3:2:0:0:
114,193,73128,1,2,3:2:0:0:
203,185,73265,1,10,0:0:0:0:
211,275,73401,1,2,0:0:0:0:
333,229,73537,6,0,L|350:29,1,200,6|8,3:2|0:0,0:0:0:0:
349,29,73946,1,2,0:0:0:0:
266,122,74083,1,2,3:2:0:0:
222,47,74219,1,2,3:2:0:0:
96,148,74356,1,10,0:0:0:0:
133,62,74492,1,2,0:0:0:0:
226,195,74628,6,0,P|222:245|118:313,1,150,2|0,3:2|0:0,0:0:0:0:
69,348,74901,2,0,P|114:326|225:382,1,150,10|0,0:0|0:0,0:0:0:0:
265,384,75174,2,0,P|223:355|216:231,1,150,2|0,3:2|0:0,0:0:0:0:
267,113,75446,1,10,0:0:0:0:
286,107,75515,1,8,0:0:0:0:
305,107,75583,1,8,0:0:0:0:
324,112,75651,1,8,0:0:0:0:
340,123,75719,6,0,P|418:121|443:10,1,200,6|8,3:2|0:0,0:0:0:0:
447,17,76128,1,2,0:0:0:0:
322,0,76265,2,0,L|194:11,1,100,2|0,3:2|3:0,0:0:0:0:
150,73,76537,1,8,0:0:0:0:
150,73,76674,1,2,0:0:0:0:
66,1,76810,6,0,P|30:46|41:200,1,200,2|8,3:2|0:0,0:0:0:0:
30,182,77219,1,2,0:0:0:0:
211,215,77356,1,2,3:2:0:0:
203,125,77492,1,2,3:2:0:0:
114,133,77628,1,10,0:0:0:0:
121,223,77765,1,2,0:0:0:0:
265,291,77901,6,0,P|330:239|324:112,1,200,6|8,3:2|0:0,0:0:0:0:
335,129,78310,1,2,0:0:0:0:
474,28,78446,2,0,P|425:112|454:204,1,200,2|10,3:2|0:0,0:0:0:0:
454,204,78856,1,2,0:0:0:0:
395,339,78992,6,0,L|331:344,5,50,10|8|8|8|4|4,3:2|0:0|0:3|0:3|0:3|0:3,0:0:0:0:
271,380,79401,2,0,L|225:375,10,25,8|8|8|8|8|8|8|8|8|8|8,3:2|0:3|0:3|0:3|0:3|0:3|0:3|0:3|0:3|0:3|0:3,0:0:0:0:
179,314,79810,1,8,3:2:0:0:
159,315,79878,1,8,0:0:0:0:
139,317,79946,1,10,0:0:0:0:
118,319,80015,1,8,0:0:0:0:
98,321,80083,6,0,L|80:121,1,200,4|8,3:1|0:0,0:0:0:0:
259,74,80492,1,2,0:0:0:0:
187,38,80628,2,0,L|169:237,1,200,2|8,3:2|0:0,0:0:0:0:
345,317,81037,1,2,0:0:0:0:
273,353,81173,2,0,L|255:153,1,200,2|8,3:2|0:0,0:0:0:0:
255,153,81583,1,2,0:0:0:0:
383,119,81719,1,2,3:2:0:0:
342,204,81856,1,2,3:2:0:0:
481,283,81992,1,10,0:0:0:0:
440,198,82129,1,2,0:0:0:0:
307,288,82265,6,0,P|221:283|162:180,1,200,6|8,3:2|0:0,0:0:0:0:
162,194,82674,1,2,0:0:0:0:
242,52,82810,1,2,3:2:0:0:
297,130,82946,1,2,3:2:0:0:
164,100,83083,1,10,0:0:0:0:
164,100,83219,1,2,0:0:0:0:
254,32,83356,6,0,P|303:35|394:140,1,150,2|0,3:2|0:0,0:0:0:0:
413,109,83628,2,0,P|427:155|362:278,1,150,10|0,0:0|0:0,0:0:0:0:
397,285,83901,2,0,P|363:321|224:325,1,150,2|0,3:2|0:0,0:0:0:0:
201,282,84174,1,10,0:0:0:0:
181,283,84242,1,8,0:0:0:0:
161,285,84310,1,8,0:0:0:0:
140,287,84379,1,8,0:0:0:0:
120,289,84447,6,0,P|126:208|231:161,1,200,6|8,3:2|0:0,0:0:0:0:
351,249,84856,1,2,0:0:0:0:
428,211,84992,2,0,P|420:135|293:92,1,200,2|8,3:2|0:0,0:0:0:0:
146,153,85401,1,2,0:0:0:0:
87,91,85537,2,0,P|162:66|244:159,1,200,2|8,3:2|0:0,0:0:0:0:
242,143,85946,1,2,0:0:0:0:
211,322,86083,1,2,3:2:0:0:
203,232,86219,1,2,3:2:0:0:
292,224,86356,1,10,0:0:0:0:
300,314,86492,1,2,0:0:0:0:
444,231,86628,6,0,L|388:226,1,50,10|0,3:2|0:0,0:0:0:0:
46,96,87174,6,0,L|101:91,1,50,10|0,3:2|0:0,0:0:0:0:
415,0,87719,6,0,L|420:49,5,50,10|0|8|0|0|0,3:2|3:0|3:0|3:0|3:0|3:0,0:0:0:0:
368,104,88128,2,0,L|363:159,5,50,10|0|0|0|0|0,3:2|3:0|3:0|3:0|3:0|3:0,0:0:0:0:
432,260,88537,1,8,3:2:0:0:
320,367,88810,6,0,P|277:321|160:329,1,160,4|8,3:1|0:0,0:0:0:0:
184,315,89219,1,2,0:0:0:0:
82,384,89356,2,0,L|73:288,1,80,10|0,3:2|3:0,0:0:0:0:
148,160,89628,2,0,L|141:239,1,80,8|2,0:0|3:2,0:0:0:0:
52,82,89901,6,0,P|124:48|197:82,1,160,10|8,0:0|0:0,0:0:0:0:
193,78,90310,1,2,0:0:0:0:
244,188,90446,2,0,L|339:179,1,80,10|2,3:2|3:2,0:0:0:0:
371,102,90719,2,0,L|466:110,1,80,10|2,0:0|0:0,0:0:0:0:
474,298,90992,6,0,P|484:234|395:238,1,160,6|8,3:2|0:0,0:0:0:0:
310,353,91401,1,2,0:0:0:0:
230,323,91537,2,0,P|236:275|331:241,1,160,10|10,3:2|0:0,0:0:0:0:
330,240,91946,1,2,3:2:0:0:
304,102,92083,6,0,P|268:86|223:90,1,80,10|0,0:0|3:0,0:0:0:0:
88,144,92356,2,0,P|105:108|137:84,1,80,10|0,0:0|0:0,0:0:0:0:
41,219,92628,2,0,P|45:257|71:294,1,80,10|0,3:2|3:0,0:0:0:0:
99,372,92901,2,0,P|134:387|179:383,1,80,10|0,0:0|0:0,0:0:0:0:
315,199,93174,6,0,L|329:366,1,160,6|8,3:2|0:0,0:0:0:0:
328,358,93583,1,2,0:0:0:0:
397,280,93719,2,0,P|431:259|470:259,1,80,10|0,3:2|3:0,0:0:0:0:
512,173,93992,2,0,P|484:144|446:134,1,80,8|2,0:0|3:2,0:0:0:0:
264,131,94265,6,0,P|335:90|317:13,1,160,10|8,0:0|0:0,0:0:0:0:
325,22,94674,1,2,0:0:0:0:
206,0,94810,2,0,L|102:9,1,80,10|2,3:2|3:2,0:0:0:0:
36,83,95083,2,0,L|139:92,1,80,10|2,0:0|0:0,0:0:0:0:
176,243,95356,6,0,P|193:183|286:148,1,160,6|8,3:2|0:0,0:0:0:0:
399,284,95765,1,2,0:0:0:0:
462,230,95901,2,0,P|409:192|305:229,1,160,2|10,3:2|0:0,0:0:0:0:
321,211,96310,1,2,3:2:0:0:
309,343,96446,6,0,L|213:334,1,80,10|0,0:0|3:0,0:0:0:0:
201,255,96719,2,0,L|105:263,1,80,8|0,0:0|0:0,0:0:0:0:
24,310,96992,2,0,P|38:273|37:232,1,80,0|0,3:0|0:0,0:0:0:0:
1,156,97265,1,8,0:0:0:0:
0,139,97334,1,8,0:0:0:0:
3,125,97402,1,8,0:0:0:0:
10,111,97470,1,8,0:0:0:0:
19,98,97538,6,0,P|81:84|162:83,1,120.000004577637,0|0,3:0|3:0,0:0:0:0:
137,81,97946,1,8,0:3:0:0:
217,152,98083,1,0,3:0:0:0:
217,152,98219,1,4,0:3:0:0:
266,40,98356,1,0,3:0:0:0:
504,378,98628,5,0,3:0:0:0:
78,234,99037,5,0,3:0:0:0:
65,231,99446,1,8,3:0:0:0:
24,342,99719,6,0,P|87:329|146:357,1,111.999996582031,2|8,3:2|0:3,0:0:0:0:
172,377,100196,1,8,0:3:0:0:
172,377,100265,2,0,L|177:313,1,55.9999982910157,8|0,0:0|3:0,0:0:0:0:
287,310,100537,1,10,0:0:0:0:
287,310,100674,1,2,0:0:0:0:
356,369,100810,2,0,L|419:363,1,55.9999982910157,2|0,3:2|3:0,0:0:0:0:
487,291,101083,2,0,L|423:285,1,55.9999982910157,10|0,0:0|3:0,0:0:0:0:
342,186,101356,2,0,L|347:249,1,55.9999982910157,2|0,0:0|3:0,0:0:0:0:
440,158,101628,1,10,0:0:0:0:
320,17,101901,6,0,P|271:13|239:66,1,111.999996582031,2|2,3:2|0:3,0:0:0:0:
161,141,102310,1,8,0:3:0:0:
161,141,102446,2,0,L|154:84,1,55.9999982910157,8|0,0:0|3:0,0:0:0:0:
91,25,102719,1,10,0:0:0:0:
91,25,102855,1,2,0:0:0:0:
50,110,102992,6,0,L|44:172,2,55.9999982910157,0|0|8,3:0|3:0|0:0,0:0:0:0:
110,228,103401,1,2,3:0:0:0:
110,228,103537,1,2,0:3:0:0:
30,292,103674,1,2,3:0:0:0:
104,384,103810,1,8,0:0:0:0:
253,248,104083,6,0,B|315:231|308:338|394:322,1,167.999994873047,2|8,3:2|0:3,0:0:0:0:
390,322,104560,1,8,0:3:0:0:
390,322,104628,2,0,L|385:377,1,55.9999982910157,8|0,0:0|3:0,0:0:0:0:
474,279,104901,1,10,0:0:0:0:
474,279,105037,1,2,0:0:0:0:
397,210,105174,2,0,L|403:143,1,55.9999982910157,2|0,3:2|3:0,0:0:0:0:
477,110,105446,2,0,L|471:43,1,55.9999982910157,10|0,0:0|3:0,0:0:0:0:
390,10,105719,2,0,P|356:8|330:17,1,55.9999982910157,2|0,0:0|3:0,0:0:0:0:
281,84,105992,2,0,P|247:85|221:76,1,55.9999982910157,10|0,0:0|0:0,0:0:0:0:
113,25,106265,6,0,P|138:68|131:143,1,111.999996582031,2|2,3:2|0:3,0:0:0:0:
136,128,106674,1,8,0:3:0:0:
57,185,106810,2,0,L|48:248,1,55.9999982910157,8|0,0:0|3:0,0:0:0:0:
165,239,107083,2,0,L|171:308,1,55.9999982910157,10|2,0:0|0:0,0:0:0:0:
125,371,107356,6,0,L|155:378,5,27.9999991455078,10|8|8|8|8|8,3:2|0:3|0:3|0:3|0:3|0:3,0:0:0:0:
231,345,107765,2,0,L|263:343,5,27.9999991455078,8|8|8|8|8|8,3:2|0:3|0:3|0:3|0:3|0:3,0:0:0:0:
379,384,108174,1,8,3:2:0:0:
473,233,108446,6,0,P|410:247|330:174,1,167.999994873047,2|8,3:2|0:3,0:0:0:0:
333,186,108924,1,8,0:3:0:0:
333,186,108992,2,0,L|389:178,1,55.9999982910157,8|0,0:0|3:0,0:0:0:0:
298,102,109265,1,10,0:0:0:0:
298,102,109401,1,2,0:0:0:0:
226,168,109537,2,0,L|159:160,1,55.9999982910157,2|0,3:2|3:0,0:0:0:0:
96,82,109810,2,0,L|163:76,1,55.9999982910157,10|0,0:0|3:0,0:0:0:0:
92,178,110083,2,0,P|77:194|65:229,1,55.9999982910157,2|0,0:0|3:0,0:0:0:0:
22,298,110356,2,0,P|28:318|56:343,1,55.9999982910157,10|0,0:0|0:0,0:0:0:0:
153,301,110628,6,0,P|232:285|270:306,1,111.999996582031,2|2,3:2|0:3,0:0:0:0:
257,296,111037,1,8,0:3:0:0:
349,363,111174,2,0,L|352:298,1,55.9999982910157,8|0,0:0|3:0,0:0:0:0:
444,285,111446,2,0,L|438:225,1,55.9999982910157,10|0,0:0|0:0,0:0:0:0:
351,166,111719,2,0,L|345:221,2,55.9999982910157,2|0|8,3:2|3:0|0:0,0:0:0:0:
426,92,112128,1,2,3:0:0:0:
426,92,112265,2,0,P|406:81|373:76,1,55.9999982910157,2|2,0:0|3:0,0:0:0:0:
286,93,112537,1,10,0:0:0:0:
286,93,112674,1,2,0:0:0:0:
259,5,112810,6,0,L|147:15,1,111.999996582031,0|2,3:0|0:0,0:0:0:0:
76,72,113219,1,8,0:3:0:0:
76,72,113287,1,8,0:3:0:0:
76,72,113356,2,0,P|68:104|69:137,1,55.9999982910157,8|0,0:0|3:0,0:0:0:0:
114,212,113628,1,8,0:0:0:0:
174,372,113901,6,0,L|246:360,1,55.9999982910157,0|0,3:0|3:0,0:0:0:0:
300,309,114174,2,0,L|363:317,1,55.9999982910157,8|0,0:0|3:0,0:0:0:0:
447,339,114446,2,0,L|435:275,1,55.9999982910157,2|0,0:0|3:0,0:0:0:0:
368,218,114719,1,10,0:0:0:0:
368,218,114855,1,2,0:0:0:0:
461,127,114992,6,0,P|430:138|345:101,1,111.999996582031,2|2,3:2|0:3,0:0:0:0:
284,57,115401,1,8,0:3:0:0:
284,57,115469,1,0,0:0:0:0:
284,57,115537,2,0,L|276:134,1,71.9999978027344,8|0,0:0|3:0,0:0:0:0:
329,294,115810,1,10,0:0:0:0:
37,372,116083,5,10,0:0:0:0:
38,357,116151,1,8,0:0:0:0:
39,342,116219,1,8,0:0:0:0:
40,327,116287,1,8,0:0:0:0:
42,312,116356,1,8,0:0:0:0:
43,297,116424,1,8,0:0:0:0:
44,282,116492,1,10,0:0:0:0:
309,201,117037,6,0,P|293:207|280:223,1,35.9999989013672,2|0,3:2|3:0,0:0:0:0:
438,195,117174,2,0,P|402:170|265:209,1,176.000005371094,6|0,3:2|3:0,0:0:0:0:
100,193,117583,2,0,L|108:237,1,44.0000013427735,2|0,3:2|3:0,0:0:0:0:
86,24,117719,2,0,B|61:71|61:71|78:197,1,176.000005371094,10|2,0:0|0:3,0:0:0:0:
379,255,118128,2,0,P|371:234|356:218,1,44.0000013427735,2|0,3:2|3:0,0:0:0:0:
399,384,118265,2,0,P|421:345|373:201,1,176.000005371094,2|0,0:0|3:0,0:0:0:0:
257,217,118674,2,0,L|252:268,1,44.0000013427735,2|0,3:2|3:0,0:0:0:0:
288,143,118810,2,0,L|280:230,1,88.000002685547,10|2,0:0|0:0,0:0:0:0:
180,297,119083,2,0,L|172:384,1,88.000002685547,2|2,0:0|0:0,0:0:0:0:
37,204,119356,6,0,P|65:122|38:41,1,176.000005371094,2|2,3:2|0:0,0:0:0:0:
292,111,119765,2,0,P|315:108|341:119,1,44.0000013427735,2|0,3:2|3:3,0:0:0:0:
168,153,119901,2,0,P|226:101|351:107,1,176.000005371094,10|2,0:0|0:0,0:0:0:0:
154,334,120310,2,0,P|175:342|194:353,1,44.0000013427735,2|0,3:2|3:0,0:0:0:0:
90,295,120446,2,0,P|133:298|172:317,1,88.000002685547,2|0,0:0|3:0,0:0:0:0:
290,246,120719,2,0,P|251:227|208:225,1,88.000002685547,2|2,3:2|0:0,0:0:0:0:
39,218,120992,1,10,0:0:0:0:
23,131,121128,1,8,0:0:0:0:
79,0,121265,1,2,0:0:0:0:
95,87,121401,1,8,0:0:0:0:
188,196,121537,6,0,P|176:110|216:33,1,176.000005371094,6|0,3:2|3:0,0:0:0:0:
413,252,121946,2,0,P|412:279|405:313,1,44.0000013427735,2|0,3:2|3:0,0:0:0:0:
433,109,122083,2,0,P|441:187|434:302,1,176.000005371094,10|8,0:0|0:3,0:0:0:0:
152,350,122492,2,0,L|105:335,1,44.0000013427735,2|0,3:2|3:0,0:0:0:0:
315,341,122628,2,0,B|224:337|224:337|125:304,1,176.000005371094,2|0,0:0|3:0,0:0:0:0:
220,138,123037,2,0,P|244:142|266:150,1,44.0000013427735,2|0,3:2|3:2,0:0:0:0:
141,116,123174,2,0,P|206:106|239:121,1,88.000002685547,10|2,0:0|0:0,0:0:0:0:
27,32,123446,2,0,P|92:42|125:27,1,88.000002685547,2|2,0:0|0:0,0:0:0:0:
293,0,123719,5,2,3:2:0:0:
497,357,124810,5,8,3:0:0:0:
482,356,124946,1,8,0:0:0:0:
438,328,125082,5,0,3:0:0:0:
422,329,125218,1,8,0:0:0:0:
357,369,125356,5,8,3:2:0:0:
341,367,125424,1,0,0:0:0:0:
325,366,125493,1,8,0:0:0:0:
309,364,125561,1,0,0:0:0:0:
279,335,125628,6,0,L|191:342,1,88.000002685547,0|2,3:0|0:0,0:0:0:0:
92,380,125901,2,0,P|86:344|96:310,1,71.9999978027344,2|0,0:0|0:0,0:0:0:0:
95,262,126174,6,0,P|169:269|224:206,1,111.999996582031,12|2,3:2|0:0,0:0:0:0:
356,146,126446,2,0,P|282:139|227:202,1,111.999996582031,2|0,3:2|3:0,0:0:0:0:
252,157,126719,1,8,0:0:0:0:
71,71,126856,1,2,3:2:0:0:
148,25,126992,2,0,B|162:62|162:62|151:165,1,111.999996582031,2|0,0:0|3:0,0:0:0:0:
85,230,127265,6,0,L|125:232,6,27.9999991455078,8|0|0|0|2|0|0,0:0|0:0|0:0|0:0|0:0|0:0|0:0,0:0:0:0:
159,304,127537,1,2,3:2:0:0:
179,303,127605,1,8,0:0:0:0:
199,301,127673,1,10,0:0:0:0:
220,299,127742,1,8,0:0:0:0:
240,297,127810,2,0,P|296:300|344:327,1,111.999996582031,2|2,3:2|0:0,0:0:0:0:
427,384,128083,6,0,P|423:341|457:288,1,90.0000034332277,2|0,0:0|0:0,0:0:0:0:
474,272,128356,6,0,L|459:140,1,111.999996582031,12|2,3:2|0:0,0:0:0:0:
368,90,128628,1,2,3:2:0:0:
368,90,128765,1,2,3:2:0:0:
301,166,128901,1,10,0:0:0:0:
301,166,129037,1,2,3:2:0:0:
208,81,129174,6,0,P|153:93|105:121,1,111.999996582031,2|0,0:0|3:0,0:0:0:0:
14,213,129446,2,0,P|68:225|116:253,1,111.999996582031,10|0,0:0|0:0,0:0:0:0:
200,343,129719,1,2,3:2:0:0:
202,322,129788,1,8,0:0:0:0:
204,302,129856,1,8,0:0:0:0:
205,282,129924,1,8,0:0:0:0:
207,264,129992,6,0,P|256:236|292:239,1,90.0000034332277,2|0,3:2|0:0,0:0:0:0:
325,271,130265,6,0,L|346:15,1,256,6|8,3:2|0:0,0:0:0:0:
148,54,130674,1,2,0:0:0:0:
223,97,130810,2,0,L|244:352,1,223.999993164063,2|8,3:2|0:0,0:0:0:0:
38,308,131219,1,2,0:0:0:0:
113,265,131355,2,0,L|134:9,1,223.999993164063,2|8,3:2|0:0,0:0:0:0:
131,41,131765,1,2,0:0:0:0:
40,99,131901,1,2,3:2:0:0:
40,99,132037,1,2,3:2:0:0:
101,187,132174,2,0,L|132:184,6,27.9999991455078,10|0|0|0|2|0|0,0:0|0:0|0:0|0:0|0:0|0:0|0:0,0:0:0:0:
203,136,132446,6,0,P|281:143|371:253,1,223.999993164063,6|8,3:2|0:0,0:0:0:0:
370,249,132856,1,2,0:0:0:0:
300,343,132992,2,0,L|411:352,1,111.999996582031,2|0,3:2|3:0,0:0:0:0:
275,241,133265,1,10,0:0:0:0:
275,241,133401,1,2,0:0:0:0:
181,331,133537,6,0,L|176:275,5,55.9999982910157,10|8|8|8|4|4,3:2|0:0|0:3|0:3|0:3|0:3,0:0:0:0:
113,223,133946,2,0,L|117:167,5,55.9999982910157,8|8|8|8|8|8,3:2|0:3|0:3|0:3|0:0|0:3,0:0:0:0:
184,108,134356,1,8,3:2:0:0:
203,101,134424,1,8,0:0:0:0:
223,99,134492,1,10,0:0:0:0:
243,101,134560,1,8,0:0:0:0:
259,107,134628,6,0,P|338:117|374:-9,1,223.999993164063,4|8,3:1|0:0,0:0:0:0:
71,61,135037,1,2,0:0:0:0:
157,7,135174,2,0,L|177:238,1,223.999993164063,2|8,3:2|0:0,0:0:0:0:
329,371,135583,1,2,0:0:0:0:
396,315,135719,2,0,P|342:273|198:341,1,223.999993164063,2|8,3:2|0:0,0:0:0:0:
207,320,136128,1,2,0:0:0:0:
120,278,136265,1,2,3:2:0:0:
120,278,136401,1,2,3:2:0:0:
41,343,136537,1,10,0:0:0:0:
41,343,136674,1,2,0:0:0:0:
0,205,136810,6,0,L|225:180,1,223.999993164063,6|8,3:2|0:0,0:0:0:0:
222,180,137219,1,2,0:0:0:0:
291,272,137356,1,2,3:2:0:0:
291,272,137492,1,2,3:2:0:0:
249,357,137628,1,10,0:0:0:0:
249,357,137765,1,2,0:0:0:0:
402,301,137901,6,0,P|404:219|341:167,1,167.999994873047,2|0,3:2|0:0,0:0:0:0:
266,163,138174,2,0,P|336:205|412:177,1,167.999994873047,10|0,0:0|0:0,0:0:0:0:
446,96,138446,2,0,P|373:135|360:215,1,167.999994873047,2|0,3:2|0:0,0:0:0:0:
418,346,138719,1,10,0:0:0:0:
395,348,138787,1,8,0:0:0:0:
372,352,138856,1,8,0:0:0:0:
350,355,138924,1,0,0:0:0:0:
318,357,138992,6,0,L|95:337,1,223.999993164063,6|8,3:2|0:0,0:0:0:0:
40,169,139401,1,2,0:0:0:0:
9,256,139537,2,0,L|232:236,1,223.999993164063,2|8,3:2|0:0,0:0:0:0:
327,73,139946,1,2,0:0:0:0:
358,160,140082,2,0,L|135:140,1,223.999993164063,2|8,3:2|0:0,0:0:0:0:
134,139,140492,1,2,0:0:0:0:
63,56,140628,1,2,3:2:0:0:
63,56,140765,1,2,3:2:0:0:
156,0,140901,2,0,L|203:4,6,27.9999991455078,10|0|0|0|2|0|0,0:0|0:0|0:0|0:0|0:0|0:0|0:0,0:0:0:0:
250,68,141174,6,0,L|306:63,1,55.9999982910157,10|0,3:2|0:0,0:0:0:0:
369,353,141720,6,0,L|314:348,1,55.9999982910157,10|0,3:2|0:0,0:0:0:0:
8,215,142265,6,0,L|66:220,5,55.9999982910157,10|0|0|0|0|0,3:2|3:0|3:0|3:0|3:0|3:0,0:0:0:0:
122,162,142674,2,0,L|177:157,5,55.9999982910157,10|0|0|0|0|0,3:2|3:0|3:0|3:0|3:0|3:0,0:0:0:0:
268,232,143083,1,8,3:2:0:0:
346,57,143356,5,2,3:2:0:0:
1,384,152083,6,0,L|161:371,1,160,4|8,3:1|0:0,0:0:0:0:
161,371,152492,1,2,0:0:0:0:
204,259,152628,2,0,P|280:272|298:283,1,80,10|0,3:2|3:0,0:0:0:0:
407,369,152901,2,0,P|368:369|330:356,1,80,8|2,0:0|3:2,0:0:0:0:
317,145,153174,6,0,P|379:191|367:266,1,160,10|8,0:0|0:0,0:0:0:0:
367,266,153583,1,2,0:0:0:0:
226,240,153719,2,0,L|220:161,1,80,10|2,3:2|3:2,0:0:0:0:
142,116,153992,2,0,L|149:37,1,80,10|2,0:0|0:0,0:0:0:0:
337,13,154264,6,0,L|358:178,1,160,6|8,3:2|0:0,0:0:0:0:
357,171,154674,1,2,0:0:0:0:
387,293,154810,2,0,P|322:251|230:284,1,160,10|10,3:2|0:0,0:0:0:0:
245,270,155219,1,2,3:2:0:0:
173,373,155355,2,0,L|164:270,1,80,10|0,0:0|3:0,0:0:0:0:
87,223,155628,2,0,L|80:302,1,80,10|0,0:0|0:0,0:0:0:0:
176,205,155901,2,0,L|167:102,1,80,10|0,3:2|3:0,0:0:0:0:
85,102,156174,2,0,L|94:-1,1,80,10|0,0:0|0:0,0:0:0:0:
301,7,156446,6,0,P|261:75|270:153,1,160,6|8,3:2|0:0,0:0:0:0:
270,153,156855,1,2,0:0:0:0:
327,241,156992,2,0,P|250:241|232:221,1,80,10|0,3:2|3:0,0:0:0:0:
185,179,157265,2,0,P|108:179|90:199,1,80,8|2,0:0|3:2,0:0:0:0:
17,296,157537,2,0,P|55:252|100:333,1,160,10|8,0:0|0:0,0:0:0:0:
112,310,157946,1,2,0:0:0:0:
209,384,158083,2,0,L|217:288,1,80,10|2,3:2|3:2,0:0:0:0:
310,250,158355,2,0,L|316:329,1,80,10|2,0:0|0:0,0:0:0:0:
428,171,158628,6,0,B|376:145|376:145|276:168,1,160,6|8,3:2|0:0,0:0:0:0:
104,263,159037,1,2,0:0:0:0:
180,293,159174,2,0,P|195:233|136:139,1,160,2|10,3:2|0:0,0:0:0:0:
151,149,159583,1,2,3:2:0:0:
103,34,159719,6,0,L|215:43,1,80,10|0,0:0|3:0,0:0:0:0:
261,104,159992,2,0,L|372:95,1,80,8|0,0:0|0:0,0:0:0:0:
437,73,160264,1,0,3:0:0:0:
433,102,160401,1,8,0:3:0:0:
377,182,160537,1,8,0:0:0:0:
378,197,160605,1,8,0:0:0:0:
380,212,160674,1,8,0:0:0:0:
383,227,160742,1,8,0:0:0:0:
386,245,160810,5,4,3:1:0:0:
322,319,160946,2,0,P|254:299|237:280,1,95.9999970703126,8|0,0:0|3:0,0:0:0:0:
155,121,161219,1,10,0:0:0:0:
165,207,161356,1,2,3:2:0:0:
107,275,161492,2,0,L|114:374,1,95.9999970703126,8|0,0:0|3:0,0:0:0:0:
209,293,161764,1,10,0:0:0:0:
13,283,161901,5,2,3:2:0:0:
51,189,162037,2,0,P|95:184|156:200,1,95.9999970703126,8|0,0:0|3:0,0:0:0:0:
114,34,162310,1,10,0:0:0:0:
183,103,162446,1,2,3:2:0:0:
221,94,162583,1,10,0:0:0:0:
295,145,162719,1,2,3:2:0:0:
330,150,162856,1,10,0:0:0:0:
422,70,162992,5,6,3:2:0:0:
479,128,163128,2,0,L|465:243,1,95.9999970703126,8|0,0:0|3:0,0:0:0:0:
479,329,163401,1,10,0:0:0:0:
383,341,163538,1,2,3:2:0:0:
317,277,163674,2,0,P|270:267|222:271,1,95.9999970703126,8|2,0:0|3:2,0:0:0:0:
184,379,163946,1,10,0:0:0:0:
107,303,164083,5,2,3:2:0:0:
117,270,164219,1,8,0:0:0:0:
159,195,164356,1,2,3:2:0:0:
149,162,164492,1,8,0:0:0:0:
53,118,164628,5,2,3:2:0:0:
147,64,164765,1,8,0:0:0:0:
37,113,164901,1,2,3:2:0:0:
131,59,165038,1,8,0:0:0:0:
244,137,165174,5,6,3:2:0:0:
299,73,165310,2,0,P|345:56|395:69,1,95.9999970703126,8|0,0:0|3:0,0:0:0:0:
490,121,165583,1,10,0:0:0:0:
415,164,165719,2,0,L|405:267,1,95.9999970703126,2|8,3:2|0:0,0:0:0:0:
335,384,165992,2,0,L|326:288,1,95.9999970703126,0|10,3:0|0:0,0:0:0:0:
232,186,166265,5,2,3:2:0:0:
177,272,166401,2,0,P|129:278|69:261,1,95.9999970703126,8|0,0:0|3:0,0:0:0:0:
38,343,166674,1,10,0:0:0:0:
24,193,166810,1,2,3:2:0:0:
38,160,166946,1,10,0:0:0:0:
126,114,167083,1,2,3:2:0:0:
112,81,167219,1,10,0:0:0:0:
26,12,167356,5,2,3:2:0:0:
224,354,167901,1,2,3:2:0:0:
480,129,168446,5,2,0:0:0:0:
476,159,168583,1,8,3:2:0:0:
395,131,168719,5,0,0:0:0:0:
390,173,168856,1,8,0:0:0:0:
310,127,168992,5,0,3:0:0:0:
303,178,169129,1,8,0:0:0:0:
225,109,169265,5,0,3:0:0:0:
222,125,169333,1,8,0:0:0:0:
220,145,169401,1,8,0:0:0:0:
217,164,169469,1,8,0:0:0:0:
215,183,169537,6,0,P|168:208|129:204,1,80,0|0,3:0|3:0,0:0:0:0:
72,161,169946,1,8,0:3:0:0:
19,259,170083,1,0,3:0:0:0:
24,293,170219,1,4,0:3:0:0:
31,330,170356,1,0,3:0:0:0:
432,230,170628,6,0,L|421:349,2,120,0|0|0,3:0|3:0|3:0,0:0:0:0:
