osu file format v14

[General]
AudioFilename: audio.mp3
AudioLeadIn: 0
PreviewTime: 71220
Countdown: 0
SampleSet: Normal
StackLeniency: 0.3
Mode: 0
LetterboxInBreaks: 0
WidescreenStoryboard: 1

[Editor]
Bookmarks: 24456,34275,43002,53911,71366,88820,99729,117184,126174,134628,143366,152093,160820,169547
DistanceSpacing: 0.8
BeatDivisor: 4
GridSize: 32
TimelineZoom: 2.5

[Metadata]
Title:Yotsuya-san ni Yoroshiku
TitleUnicode:四ツ谷さんによろしく
Artist:Himeringo
ArtistUnicode:ひめりんご
Creator:Nevo
Version:Milan-'s Itai Extra
Source:
Tags:amb1d3x hishiro chizuru milan- nexusqi hooni japanese rock utaite cover addy2607 KaedeharaKazuha eight JRock J-Rock
BeatmapID:2447579
BeatmapSetID:1100637

[Difficulty]
HPDrainRate:6
CircleSize:4.5
OverallDifficulty:8.5
ApproachRate:9.5
SliderMultiplier:1.6
SliderTickRate:1

[Events]
//Background and Video events
0,0,"primary.jpg",0,0
//Break Periods
2,25537,33665
2,143356,151558
//Storyboard Layer 0 (Background)
//Storyboard Layer 1 (Fail)
//Storyboard Layer 2 (Pass)
//Storyboard Layer 3 (Foreground)
//Storyboard Layer 4 (Overlay)
//Storyboard Sound Samples

[TimingPoints]
2629,272.727272727273,4,1,0,50,1,0
20083,291.26213592233,4,1,0,50,1,0
21248,288.461538461538,4,1,0,50,1,0
23356,272.727272727273,4,1,0,50,1,0
23356,-200,4,1,0,10,0,0
23628,-166.666666666667,4,1,0,20,0,0
23901,-142.857142857143,4,1,0,30,0,0
24174,-125,4,1,0,40,0,0
24446,-200,4,1,0,50,0,0
34265,-100,4,1,0,60,0,0
34810,-83.3333333333333,4,1,0,60,0,0
35356,-71.4285714285714,4,1,0,60,0,0
35901,-62.5,4,1,0,60,0,0
36446,-100,4,1,0,60,0,0
36992,-83.3333333333333,4,1,0,60,0,0
37537,-71.4285714285714,4,1,0,60,0,0
37810,-66.6666666666667,4,1,0,60,0,0
38083,-62.5,4,1,0,60,0,0
38356,-58.8235294117647,4,1,0,60,0,0
38628,-100,4,1,0,60,0,0
39174,-83.3333333333333,4,1,0,60,0,0
39719,-71.4285714285714,4,1,0,60,0,0
40265,-62.5,4,1,0,60,0,0
40810,-100,4,1,0,60,0,0
41901,-133.333333333333,4,1,0,60,0,0
42446,-200,4,1,0,60,0,0
42992,-100,4,1,0,60,0,0
43537,-83.3333333333333,4,1,0,60,0,0
44083,-71.4285714285714,4,1,0,60,0,0
44628,-62.5,4,1,0,60,0,0
45174,-100,4,1,0,60,0,0
45719,-83.3333333333333,4,1,0,60,0,0
46265,-71.4285714285714,4,1,0,60,0,0
46537,-66.6666666666667,4,1,0,60,0,0
46810,-62.5,4,1,0,60,0,0
47083,-58.8235294117647,4,1,0,60,0,0
47356,-100,4,1,0,60,0,0
47901,-83.3333333333333,4,1,0,60,0,0
48446,-71.4285714285714,4,1,0,60,0,0
48992,-62.5,4,1,0,60,0,0
49537,-100,4,1,0,60,0,0
50628,-133.333333333333,4,1,0,60,0,0
51174,-200,4,1,0,60,0,0
51719,-142.857142857143,4,1,0,50,0,0
52810,-200,4,1,0,40,0,0
53901,-125,4,1,0,40,0,0
54446,-200,4,1,0,50,0,0
58265,-125,4,1,0,40,0,0
58810,-200,4,1,0,50,0,0
62628,-125,4,1,0,40,0,0
63174,-200,4,1,0,50,0,0
66992,-125,4,1,0,40,0,0
67092,-200,4,1,0,50,0,0
70265,-71.4285714285714,4,1,0,50,0,0
70401,-62.5,4,1,0,50,0,0
70537,-55.5555555555556,4,1,0,50,0,0
70674,-50,4,1,0,50,0,0
71356,-100,4,1,0,65,0,0
71901,-83.3333333333333,4,1,0,65,0,0
72446,-71.4285714285714,4,1,0,65,0,0
72992,-62.5,4,1,0,65,0,0
73537,-55.5555555555556,4,1,0,65,0,0
73810,-100,4,1,0,65,0,0
74356,-83.3333333333333,4,1,0,65,0,0
74628,-71.4285714285714,4,1,0,65,0,0
75174,-62.5,4,1,0,65,0,0
75719,-100,4,1,0,65,0,0
76265,-83.3333333333333,4,1,0,65,0,0
76810,-71.4285714285714,4,1,0,65,0,0
77356,-62.5,4,1,0,65,0,0
77901,-55.5555555555556,4,1,0,65,0,0
78310,-71.4285714285714,4,1,0,65,0,0
78992,-71.4285714285714,4,1,0,65,0,0
79128,-66.6666666666667,4,1,0,65,0,0
79265,-62.5,4,1,0,65,0,0
79401,-58.8235294117647,4,1,0,65,0,0
79537,-55.5555555555556,4,1,0,65,0,0
79674,-52.6315789473684,4,1,0,65,0,0
79810,-50,4,1,0,65,0,0
80083,-83.3333333333333,4,1,0,65,0,1
80628,-71.4285714285714,4,1,0,65,0,1
81174,-62.5,4,1,0,65,0,1
81719,-55.5555555555556,4,1,0,65,0,1
82265,-50,4,1,0,65,0,1
82810,-83.3333333333333,4,1,0,65,0,1
83083,-71.4285714285714,4,1,0,65,0,1
83356,-62.5,4,1,0,65,0,1
83901,-55.5555555555556,4,1,0,65,0,1
84446,-83.3333333333333,4,1,0,65,0,1
84992,-71.4285714285714,4,1,0,65,0,1
85537,-62.5,4,1,0,65,0,1
86083,-55.5555555555556,4,1,0,65,0,1
86628,-50,4,1,0,50,0,0
87719,-50,4,1,0,55,0,1
88537,-50,4,1,0,60,0,0
88810,-100,4,1,0,60,0,0
89355,-83.3333333333333,4,1,0,60,0,0
89901,-71.4285714285714,4,1,0,60,0,0
90446,-62.5,4,1,0,60,0,0
90991,-100,4,1,0,60,0,0
91537,-83.3333333333333,4,1,0,60,0,0
92082,-71.4285714285714,4,1,0,60,0,0
92355,-66.6666666666667,4,1,0,60,0,0
92628,-62.5,4,1,0,60,0,0
92901,-58.8235294117647,4,1,0,60,0,0
93173,-100,4,1,0,60,0,0
93719,-83.3333333333333,4,1,0,60,0,0
94264,-71.4285714285714,4,1,0,60,0,0
94810,-62.5,4,1,0,60,0,0
95355,-100,4,1,0,60,0,0
96446,-133.333333333333,4,1,0,60,0,0
96991,-200,4,1,0,60,0,0
97537,-142.857142857143,4,1,0,50,0,0
98628,-200,4,1,0,40,0,0
99719,-125,4,1,0,40,0,0
100264,-200,4,1,0,50,0,0
104083,-125,4,1,0,40,0,0
104628,-200,4,1,0,50,0,0
108446,-125,4,1,0,40,0,0
108992,-200,4,1,0,50,0,0
112810,-125,4,1,0,40,0,0
112910,-200,4,1,0,50,0,0
116083,-71.4285714285714,4,1,0,50,0,0
116219,-62.5,4,1,0,50,0,0
116355,-55.5555555555556,4,1,0,50,0,0
116492,-50,4,1,0,50,0,0
117174,-125,4,1,0,50,0,0
117719,-166.666666666667,4,1,0,50,0,0
118265,-250.000000000001,4,1,0,50,0,0
118810,-166.666666666667,4,1,0,50,0,0
121537,-125,4,1,0,50,0,0
122083,-166.666666666667,4,1,0,50,0,0
122628,-250.000000000001,4,1,0,50,0,0
123174,-166.666666666667,4,1,0,50,0,0
124128,-166.666666666667,4,1,0,40,0,0
124810,-166.666666666667,4,1,0,40,0,0
125083,-142.857142857143,4,1,0,50,0,0
125356,-66.6666666666667,4,1,0,60,0,0
125492,-55.5555555555556,4,1,0,50,0,0
125765,-333.333333333333,4,2,0,40,0,0
126174,-50,4,1,0,65,0,0
126583,-55.5555555555556,4,1,0,65,0,0
126992,-62.5,4,1,0,65,0,0
127537,-55.5555555555556,4,1,0,65,0,0
127674,-52.6315789473684,4,1,0,65,0,0
127810,-50,4,1,0,65,0,0
128083,-333.333333333333,4,1,0,65,0,0
128356,-83.3333333333333,4,1,0,65,0,0
128628,-71.4285714285714,4,1,0,65,0,0
128901,-62.5,4,1,0,65,0,0
129174,-62.5,4,1,0,65,0,0
129446,-71.4285714285714,4,1,0,65,0,0
129719,-55.5555555555556,4,1,0,65,0,0
130265,-100,4,1,0,65,0,0
130810,-83.3333333333333,4,1,0,65,0,0
131356,-71.4285714285714,4,1,0,65,0,0
131901,-62.5,4,1,0,65,0,0
132446,-55.5555555555556,4,1,0,65,0,0
132992,-71.4285714285714,4,1,0,65,0,0
133537,-71.4285714285714,4,1,0,65,0,0
133674,-66.6666666666667,4,1,0,65,0,0
133810,-62.5,4,1,0,65,0,0
133946,-58.8235294117647,4,1,0,65,0,0
134083,-55.5555555555556,4,1,0,65,0,0
134219,-52.6315789473684,4,1,0,65,0,0
134356,-50,4,1,0,65,0,0
134628,-83.3333333333333,4,1,0,65,0,1
135174,-71.4285714285714,4,1,0,65,0,1
135719,-62.5,4,1,0,65,0,1
136265,-55.5555555555556,4,1,0,65,0,1
136810,-50,4,1,0,65,0,1
137356,-83.3333333333333,4,1,0,65,0,1
137628,-71.4285714285714,4,1,0,65,0,1
137901,-62.5,4,1,0,65,0,1
138446,-55.5555555555556,4,1,0,65,0,1
138992,-83.3333333333333,4,1,0,65,0,1
139537,-71.4285714285714,4,1,0,65,0,1
140083,-62.5,4,1,0,65,0,1
140628,-55.5555555555556,4,1,0,65,0,1
141174,-50,4,1,0,50,0,0
142265,-50,4,1,0,55,0,1
143083,-50,4,1,0,50,0,0
152083,-100,4,1,0,60,0,0
152628,-83.3333333333333,4,1,0,60,0,0
153174,-71.4285714285714,4,1,0,60,0,0
153719,-62.5,4,1,0,60,0,0
154265,-100,4,1,0,60,0,0
154810,-83.3333333333333,4,1,0,60,0,0
155356,-71.4285714285714,4,1,0,60,0,0
155628,-66.6666666666667,4,1,0,60,0,0
155901,-62.5,4,1,0,60,0,0
156174,-58.8235294117647,4,1,0,60,0,0
156447,-100,4,1,0,60,0,0
156992,-83.3333333333333,4,1,0,60,0,0
157537,-71.4285714285714,4,1,0,60,0,0
158083,-62.5,4,1,0,60,0,0
158628,-100,4,1,0,60,0,0
159719,-133.333333333333,4,1,0,60,0,0
160265,-200,4,1,0,60,0,0
160810,-71.4285714285714,4,1,0,65,0,0
161219,-83.3333333333333,4,1,0,65,0,0
162992,-71.4285714285714,4,1,0,65,0,0
163401,-83.3333333333333,4,1,0,65,0,0
164083,-66.6666666666667,4,1,0,65,0,0
164356,-62.5,4,1,0,65,0,0
164628,-58.8235294117647,4,1,0,65,0,0
164901,-55.5555555555556,4,1,0,65,0,0
165174,-50,4,1,0,65,0,0
165719,-83.3333333333333,4,1,0,65,0,0
167356,-166.666666666667,4,1,0,40,0,0
168446,-71.4285714285714,4,1,0,65,0,0
169265,-55.5555555555556,4,1,0,65,0,0
169537,-142.857142857143,4,1,0,50,0,0
170628,-200,4,1,0,40,0,0

[Colours]
Combo1 : 237,189,253
Combo2 : 95,233,219
Combo3 : 119,232,17
Combo4 : 255,32,32
Combo5 : 254,145,35
Combo6 : 143,174,197
Combo7 : 108,112,153
Combo8 : 247,226,254

[HitObjects]
18,101,23356,70,0,L|70:111,1,40
69,97,23628,2,0,L|109:131,1,47.9999985351563
125,126,23901,2,0,L|143:179,1,55.9999982910157
164,185,24174,2,0,L|151:249,1,64
133,322,24446,5,4,0:3:0:0:
485,357,24992,102,0,L|470:270,1,80,2|4,0:3|0:3,0:0:0:0:
74,17,34265,118,2,P|151:24|203:83,1,160,6|6,0:0|0:3,0:0:0:0:
203,83,34674,1,0,0:0:0:0:
444,42,34810,6,2,P|356:63|303:150,1,191.999994140625,2|6,0:0|0:3,0:0:0:0:
303,144,35219,1,0,0:0:0:0:
48,139,35356,102,2,P|145:160|206:272,1,223.999993164063,2|6,0:0|0:3,0:0:0:0:
205,261,35765,1,0,0:0:0:0:
460,344,35901,22,0,P|479:285|451:229,1,128,6|0,0:2|0:0,0:0:0:0:
372,234,36174,6,0,P|352:293|380:349,1,128,6|0,0:2|0:0,0:0:0:0:
465,151,36446,70,2,P|388:127|351:62,1,160,6|6,0:0|0:3,0:0:0:0:
350,61,36856,1,0,0:0:0:0:
372,234,36992,6,0,P|295:258|252:364,1,191.999994140625,2|6,0:0|0:3,0:0:0:0:
251,353,37402,1,0,0:0:0:0:
287,160,37537,6,0,P|230:144|198:46,1,167.999994873047,6|0,0:2|2:0,0:0:0:0:
292,227,37810,6,0,P|311:161|424:124,1,180.000006866455,6|0,0:2|2:0,0:0:0:0:
218,230,38083,102,0,P|287:249|325:367,1,192,6|0,0:2|2:0,0:0:0:0:
213,151,38356,6,0,P|192:226|63:268,1,204.000003890991,6|0,0:2|2:0,0:0:0:0:
49,343,38628,70,2,L|36:163,1,160,6|6,0:0|0:3,0:0:0:0:
37,183,39037,1,0,0:0:0:0:
189,0,39174,6,2,L|174:199,1,191.999994140625,2|6,0:0|0:3,0:0:0:0:
174,191,39583,1,0,0:0:0:0:
329,371,39719,102,2,L|309:94,1,223.999993164063,2|6,0:0|0:3,0:0:0:0:
312,147,40128,1,0,0:0:0:0:
511,10,40265,22,0,L|500:148,1,128,6|0,0:2|0:0,0:0:0:0:
423,130,40537,6,0,L|432:2,1,128,6|0,0:2|0:0,0:0:0:0:
512,255,40810,70,2,P|445:212|367:215,1,160,6|6,0:0|0:3,0:0:0:0:
367,215,41219,1,0,0:0:0:0:
346,130,41356,2,2,P|279:172|201:169,1,160,2|6,0:0|0:3,0:0:0:0:
201,169,41765,1,0,0:0:0:0:
99,60,41901,22,0,P|134:77|158:114,1,60.0000022888184,6|0,0:2|0:0,0:0:0:0:
110,162,42174,6,0,P|83:150|62:130,1,60.0000022888184,6|0,0:2|0:0,0:0:0:0:
18,213,42446,102,0,P|75:253|115:311,1,140,6|0,0:2|0:0,0:0:0:0:
110,324,42992,86,2,P|188:317|247:258,1,160,6|6,0:0|0:3,0:0:0:0:
244,263,43401,1,0,0:0:0:0:
482,246,43537,6,2,P|377:244|319:184,1,191.999994140625,2|6,0:0|0:3,0:0:0:0:
320,187,43946,1,0,0:0:0:0:
76,145,44083,102,2,P|198:149|263:70,1,223.999993164063,2|6,0:0|0:3,0:0:0:0:
260,79,44492,1,0,0:0:0:0:
480,15,44628,22,0,P|507:49|494:147,1,128,6|0,0:2|0:0,0:0:0:0:
432,148,44901,6,0,P|405:114|418:16,1,128,6|0,0:2|0:0,0:0:0:0:
482,246,45174,70,2,P|405:270|368:335,1,160,6|6,0:0|0:3,0:0:0:0:
367,336,45584,1,0,0:0:0:0:
355,186,45719,6,2,P|278:162|235:56,1,191.999994140625,2|6,0:0|0:3,0:0:0:0:
234,67,46128,1,0,0:0:0:0:
271,269,46265,6,0,P|214:285|182:383,1,167.999994873047,6|0,0:2|2:0,0:0:0:0:
276,202,46538,6,0,P|295:268|408:305,1,180.000006866455,6|0,0:2|2:0,0:0:0:0:
202,199,46810,102,0,P|271:180|309:62,1,192,6|0,0:2|2:0,0:0:0:0:
197,278,47084,6,0,P|176:203|47:161,1,204.000003890991,6|0,0:2|2:0,0:0:0:0:
10,79,47356,70,2,L|190:66,1,160,6|6,0:0|0:3,0:0:0:0:
170,67,47765,1,0,0:0:0:0:
438,153,47902,6,2,L|239:138,1,191.999994140625,2|6,0:0|0:3,0:0:0:0:
246,140,48311,1,0,0:0:0:0:
1,257,48446,102,2,L|278:237,1,223.999993164063,2|6,0:0|0:3,0:0:0:0:
224,240,48856,1,0,0:0:0:0:
437,359,48993,22,0,L|299:348,1,128,6|0,0:2|0:0,0:0:0:0:
317,271,49265,2,0,L|445:280,1,128,6|0,0:2|0:0,0:0:0:0:
295,186,49538,86,2,P|292:107|335:41,1,160,6|6,0:0|0:3,0:0:0:0:
336,41,49947,1,0,0:0:0:0:
170,0,50083,2,2,P|213:66|211:145,1,160,2|6,0:0|0:3,0:0:0:0:
211,145,50492,1,0,0:0:0:0:
58,77,50629,22,0,P|85:88|106:109,1,60.0000022888184,6|0,0:2|0:0,0:0:0:0:
59,173,50902,6,0,P|31:161|10:140,1,60.0000022888184,6|0,0:2|0:0,0:0:0:0:
141,186,51174,102,0,P|156:302|151:327,1,140,6|0,0:2|0:0,0:0:0:0:
139,333,51719,86,0,L|23:318,1,111.999996582031,12|4,0:3|0:3,0:0:0:0:
234,354,52128,1,8,0:3:0:0:
316,297,52265,1,4,0:3:0:0:
242,342,52401,2,0,L|232:220,1,111.999996582031,12|8,0:3|0:3,0:0:0:0:
392,121,52810,6,6,L|378:254,2,120,6|6|6,0:2|0:2|0:2,0:2:0:0:
392,121,53901,22,0,P|335:148|203:18,1,256,4|2,0:0|0:3,0:0:0:0:
264,77,54583,69,4,0:3:0:0:
201,112,54719,2,0,P|163:102|136:73,2,80,2|4|8,0:3|0:3|0:3,0:0:0:0:
275,212,55401,2,0,P|313:202|341:175,1,80,4|8,0:3|0:3,0:0:0:0:
392,121,55810,1,6,0:3:0:0:
392,121,56083,6,0,P|431:160|430:262,1,160,4|2,0:3|0:3,0:0:0:0:
485,212,56765,1,4,0:3:0:0:
422,247,56901,2,0,P|384:269|368:316,1,80,2|4,0:3|0:3,0:0:0:0:
231,270,57310,1,8,0:3:0:0:
160,284,57446,2,0,P|147:296|135:326,4,40,2|2|2|2|6,0:3|0:2|0:2|0:2|0:3,0:0:0:0:
160,284,58265,22,0,P|202:237|116:73,1,256,4|2,0:0|0:3,0:0:0:0:
211,75,58946,69,4,0:3:0:0:
179,140,59083,2,0,P|135:152|96:133,2,80,2|4|8,0:3|0:3|0:3,0:0:0:0:
274,12,59765,2,0,P|282:50|311:76,1,80,4|8,0:3|0:3,0:0:0:0:
382,83,60173,1,6,0:3:0:0:
382,83,60446,6,0,P|321:132|321:216,1,160,4|2,0:3|0:3,0:0:0:0:
384,181,61128,1,4,0:3:0:0:
312,222,61265,2,0,P|352:256|364:292,1,80,2|6,0:3|0:3,0:0:0:0:
215,182,61946,1,6,0:3:0:0:
51,251,62356,1,6,0:3:0:0:
51,251,62628,6,0,P|121:234|206:383,1,256,4|2,0:0|0:3,0:0:0:0:
168,309,63310,85,4,0:3:0:0:
238,294,63446,2,0,P|271:318|287:363,2,80,2|4|8,0:3|0:3|0:3,0:0:0:0:
227,132,64128,2,0,P|187:127|151:144,1,80,4|8,0:3|0:3,0:0:0:0:
101,197,64537,1,6,0:3:0:0:
101,197,64810,6,0,P|60:149|71:52,1,160,4|2,0:3|0:3,0:0:0:0:
10,12,65492,1,4,0:3:0:0:
79,68,65628,2,0,P|117:57|158:16,1,80,2|4,0:3|0:3,0:0:0:0:
295,97,66037,1,2,0:3:0:0:
362,71,66174,2,0,P|371:32|371:19,4,40,2|2|2|2|6,0:3|0:2|0:2|0:2|0:3,0:0:0:0:
362,71,66992,6,0,P|371:190|487:224,1,256,4|2,0:0|0:3,0:0:0:0:
431,178,67674,85,4,0:3:0:0:
418,248,67810,2,0,P|439:281|485:297,2,80,2|4|8,0:3|0:3|0:3,0:0:0:0:
282,288,68492,2,0,P|263:322|273:370,1,80,4|8,0:3|0:3,0:0:0:0:
337,383,68901,1,6,0:3:0:0:
337,383,69174,6,0,P|388:324|468:317,1,160,4|2,0:3|0:3,0:0:0:0:
498,242,69856,1,4,0:3:0:0:
446,324,69992,1,2,0:3:0:0:
446,324,70265,70,0,P|422:308|395:301,1,55.9999982910157,4|0,0:2|0:0,0:0:0:0:
323,299,70401,6,0,P|307:275|305:220,1,64,4|0,0:2|0:0,0:0:0:0:
286,158,70537,102,0,P|262:142|198:136,1,71.9999978027344,4|0,0:2|0:0,0:0:0:0:
129,124,70674,6,2,L|100:47,2,80,0|0|0,0:0|0:0|0:0,0:0:0:0:
464,51,71356,70,2,P|394:85|367:158,1,160,6|6,0:0|0:3,0:0:0:0:
464,51,71765,1,0,0:0:0:0:
282,54,71901,6,2,P|256:128|308:228,1,191.999994140625,2|6,0:0|0:3,0:0:0:0:
282,54,72310,1,0,0:0:0:0:
149,215,72446,102,2,P|183:285|323:315,1,223.999993164063,2|6,0:0|0:3,0:0:0:0:
149,215,72855,1,0,0:0:0:0:
316,317,72992,86,0,P|255:332|222:385,1,128,6|0,0:2|0:0,0:0:0:0:
129,30,73265,6,0,P|161:83|222:98,1,128,6|2,0:2|0:0,0:0:0:0:
290,69,73469,101,2,0:0:0:0:
357,30,73537,22,2,B|439:146|298:193|405:308,1,287.999991210938,6|6,0:0|0:3,0:0:0:0:
398,300,73946,1,0,0:0:0:0:
476,196,74083,6,0,P|440:196|419:239,1,80,2|0,0:0|0:0,0:0:0:0:
345,245,74356,2,0,P|298:246|266:198,1,95.9999970703126,6|0,0:3|0:0,0:0:0:0:
357,30,74628,86,0,P|392:73|338:166,1,167.999994873047,6|0,0:2|2:0,0:0:0:0:
347,163,74901,102,0,P|312:120|366:27,1,167.999994873047,6|0,0:2|2:0,0:0:0:0:
460,27,75174,6,0,P|477:117|428:209,1,192,6|0,0:2|2:0,0:0:0:0:
243,176,75446,102,0,P|226:86|275:-6,1,192,6|0,0:2|2:0,0:0:0:0:
431,303,75719,22,2,P|396:262|276:266,1,160,6|6,0:0|0:3,0:0:0:0:
431,303,76128,1,0,0:0:0:0:
306,105,76265,6,2,P|252:100|166:212,1,191.999994140625,2|6,0:0|0:3,0:0:0:0:
306,105,76674,1,0,0:0:0:0:
73,63,76810,102,2,P|32:98|48:273,1,223.999993164063,2|6,0:0|0:3,0:0:0:0:
73,63,77219,1,0,0:0:0:0:
32,255,77356,86,0,P|91:240|160:292,1,128,6|0,0:2|0:0,0:0:0:0:
489,141,77628,6,0,P|434:171|373:156,1,128,6|2,0:2|0:0,0:0:0:0:
306,105,77833,101,2,0:0:0:0:
238,47,77901,38,2,B|166:169|310:204|214:328,1,287.999991210938,6|6,0:0|0:3,0:0:0:0:
220,319,78310,1,0,0:0:0:0:
149,67,78446,102,2,B|89:168|209:197|129:300,1,223.999993164063,2|6,0:0|0:3,0:0:0:0:
142,280,78856,1,0,0:0:0:0:
52,77,78992,86,0,P|43:107|49:161,1,55.9999982910157,4|0,0:0|0:0,0:0:0:0:
15,202,79128,6,0,P|22:232|56:276,1,60.0000022888184,4|0,0:2|0:0,0:0:0:0:
49,332,79265,102,0,P|70:354|124:376,3,64,4|0|0|0,0:2|0:0|0:0|0:0,0:0:0:0:
147,285,79537,6,0,P|177:266|213:259,1,71.9999978027344,4|0,0:2|0:0,0:0:0:0:
253,194,79674,102,0,P|288:193|329:207,1,75.9999979705811,4|0,0:2|0:0,0:0:0:0:
395,170,79810,6,0,P|426:187|456:231,3,80,4|0|2|2,0:2|0:0|0:2|0:0,0:0:0:0:
473,85,80083,38,2,L|256:49,1,191.999994140625,6|6,0:0|0:3,0:0:0:0:
473,85,80492,1,0,0:0:0:0:
73,200,80628,6,2,L|320:158,1,223.999993164063,2|2,0:0|0:3,0:0:0:0:
73,200,81037,1,0,0:0:0:0:
500,310,81174,102,2,L|201:260,1,256,2|6,0:0|0:3,0:0:0:0:
500,310,81583,1,0,0:0:0:0:
50,384,81719,54,0,L|252:350,1,143.999995605469,6|0,0:2|0:0,0:0:0:0:
156,281,81992,6,0,L|13:304,1,143.999995605469,6|2,0:2|0:0,0:0:0:0:
9,225,82196,101,2,0:0:0:0:
8,144,82265,54,2,L|333:198,1,320,6|6,0:0|0:3,0:0:0:0:
8,144,82674,1,0,0:0:0:0:
278,0,82810,6,0,B|301:42|301:42|294:89,1,95.9999970703126,2|0,0:0|0:0,0:0:0:0:
222,110,83083,2,0,B|190:64|190:64|207:-39,1,111.999996582031,6|0,0:3|0:0,0:0:0:0:
433,37,83356,38,0,B|425:74|401:93|401:93|402:122|428:157|428:157|398:172|395:242,1,192,6|0,0:2|2:0,0:0:0:0:
399,202,83628,6,0,B|407:165|431:146|431:146|430:117|404:82|404:82|434:67|437:-3,1,192,6|0,0:2|2:0,0:0:0:0:
310,234,83901,102,0,B|364:226|402:256|402:256|390:260|390:260|431:303|513:278,1,215.999993408203,6|0,0:2|2:2,0:0:0:0:
310,234,84174,6,0,B|255:241|217:211|217:211|229:207|229:207|188:164|106:189,1,215.999993408203,6|0,0:2|2:2,0:0:0:0:
42,224,84446,38,2,L|7:35,1,191.999994140625,6|6,0:0|0:3,0:0:0:0:
42,224,84856,1,0,0:0:0:0:
207,52,84992,6,2,L|165:278,1,223.999993164063,2|6,0:0|0:3,0:0:0:0:
207,52,85402,1,0,0:0:0:0:
356,324,85537,102,2,L|302:28,1,256,2|6,0:0|0:3,0:0:0:0:
359,327,85947,1,0,0:0:0:0:
512,44,86083,54,0,L|479:221,1,143.999995605469,6|0,0:2|0:0,0:0:0:0:
408,160,86356,6,0,L|434:18,1,143.999995605469,6|2,0:2|0:0,0:0:0:0:
353,12,86560,101,2,0:0:0:0:
273,2,86628,86,0,L|258:89,1,80,6|0,0:2|2:0,0:0:0:0:
168,95,87174,6,0,L|181:16,1,80,6|0,0:2|2:0,0:0:0:0:
88,15,87719,70,0,P|74:48|73:102,1,80,4|0,0:0|0:0,0:0:0:0:
19,150,87856,6,0,P|23:185|49:232,1,80,4|0,0:2|0:0,0:0:0:0:
33,304,87992,102,0,P|54:332|100:360,1,80,4|0,0:2|0:0,0:0:0:0:
156,292,88128,6,0,L|267:274,1,80,4|0,0:2|0:0,0:0:0:0:
297,346,88265,102,0,L|375:358,1,80,4|0,0:2|0:0,0:0:0:0:
428,263,88401,6,0,L|539:245,2,80,2|0|4,0:0|0:0|0:3,0:0:0:0:
428,263,88810,6,2,P|435:186|494:134,1,160,6|6,0:0|0:3,0:0:0:0:
494,134,89219,1,0,0:0:0:0:
256,0,89355,6,2,P|277:88|364:141,1,191.999994140625,2|6,0:0|0:3,0:0:0:0:
358,141,89764,1,0,0:0:0:0:
150,354,89901,102,2,P|171:257|283:196,1,223.999993164063,2|6,0:0|0:3,0:0:0:0:
272,197,90310,1,0,0:0:0:0:
52,40,90446,22,0,P|33:99|61:155,1,128,6|0,0:2|0:0,0:0:0:0:
140,150,90719,6,0,P|160:91|132:35,1,128,6|0,0:2|0:0,0:0:0:0:
47,233,90992,70,0,P|124:257|161:322,1,160,6|6,0:0|0:3,0:0:0:0:
162,323,91401,1,0,0:0:0:0:
140,150,91537,6,0,P|217:126|260:20,1,191.999994140625,0|6,0:0|0:3,0:0:0:0:
261,31,91947,1,0,0:0:0:0:
225,224,92082,6,0,P|282:240|314:338,1,167.999994873047,6|0,0:2|2:0,0:0:0:0:
220,157,92355,6,0,P|201:223|88:260,1,180.000006866455,6|0,0:2|2:0,0:0:0:0:
294,154,92628,102,0,P|225:135|187:17,1,192,6|0,0:2|2:0,0:0:0:0:
299,233,92901,6,0,P|320:158|449:116,1,204.000003890991,6|0,0:2|2:0,0:0:0:0:
463,41,93174,70,2,L|476:221,1,160,6|6,0:0|0:3,0:0:0:0:
475,201,93583,1,0,0:0:0:0:
323,384,93720,6,2,L|338:185,1,191.999994140625,2|6,0:0|0:3,0:0:0:0:
336,192,94129,1,0,0:0:0:0:
183,13,94265,102,2,L|203:290,1,223.999993164063,2|6,0:0|0:3,0:0:0:0:
199,236,94674,1,0,0:0:0:0:
1,374,94811,22,0,L|12:236,1,128,6|0,0:2|0:0,0:0:0:0:
89,254,95083,6,0,L|80:382,1,128,6|0,0:2|0:0,0:0:0:0:
0,129,95356,70,2,P|67:172|145:169,1,160,6|6,0:0|0:3,0:0:0:0:
145,169,95765,1,0,0:0:0:0:
166,254,95902,2,2,P|233:212|311:215,1,160,2|6,0:0|0:3,0:0:0:0:
311,215,96311,1,0,0:0:0:0:
413,324,96447,22,0,P|378:307|354:270,1,60.0000022888184,6|0,0:2|0:0,0:0:0:0:
402,222,96720,6,0,P|429:234|450:254,1,60.0000022888184,6|0,0:2|0:0,0:0:0:0:
494,171,96992,102,0,P|437:131|397:73,1,140,6|0,0:2|0:0,0:0:0:0:
399,66,97537,86,0,B|434:80|434:80|515:61,1,111.999996582031,12|4,0:3|0:3,0:0:0:0:
297,23,97946,1,8,0:3:0:0:
215,80,98083,1,4,0:3:0:0:
289,35,98219,2,0,B|307:63|307:63|299:157,1,111.999996582031,12|8,0:3|0:3,0:0:0:0:
120,263,98628,6,0,L|-9:256,2,120,6|6|6,0:2|0:2|0:2,0:0:0:0:
120,263,99719,22,0,P|177:236|309:366,1,256,4|2,0:0|0:3,0:0:0:0:
248,307,100401,69,4,0:3:0:0:
311,272,100537,2,0,P|349:282|376:311,2,80,2|4|8,0:3|0:3|0:3,0:0:0:0:
237,172,101219,2,0,P|199:182|171:209,1,80,4|8,0:3|0:3,0:0:0:0:
120,263,101628,1,6,0:3:0:0:
120,263,101901,6,0,P|81:224|82:122,1,160,4|2,0:3|0:3,0:0:0:0:
27,172,102583,1,4,0:3:0:0:
90,137,102719,2,0,P|128:115|144:68,1,80,2|4,0:3|0:3,0:0:0:0:
281,114,103128,1,8,0:3:0:0:
352,100,103264,2,0,P|365:88|377:58,4,40,2|2|2|2|6,0:3|0:2|0:2|0:2|0:3,0:0:0:0:
352,100,104083,22,0,P|310:147|396:311,1,256,4|2,0:0|0:3,0:0:0:0:
301,309,104764,69,4,0:3:0:0:
333,244,104901,2,0,P|377:232|416:251,2,80,2|4|8,0:3|0:3|0:3,0:0:0:0:
238,372,105583,2,0,P|230:334|201:308,1,80,4|8,0:3|0:3,0:0:0:0:
130,301,105991,1,6,0:3:0:0:
130,301,106264,6,0,P|191:252|191:168,1,160,4|2,0:3|0:3,0:0:0:0:
128,203,106946,1,4,0:3:0:0:
200,162,107083,2,0,P|160:128|148:92,1,80,2|6,0:3|0:3,0:0:0:0:
297,202,107764,1,6,0:3:0:0:
461,133,108174,1,6,0:3:0:0:
461,133,108446,6,0,P|391:150|306:1,1,256,4|2,0:0|0:3,0:0:0:0:
344,75,109128,85,4,0:3:0:0:
274,90,109264,2,0,P|241:66|225:21,2,80,2|4|8,0:3|0:3|0:3,0:0:0:0:
285,252,109946,2,0,P|325:257|361:240,1,80,4|8,0:3|0:3,0:0:0:0:
411,187,110355,1,6,0:3:0:0:
411,187,110628,6,0,P|452:235|441:332,1,160,4|2,0:3|0:3,0:0:0:0:
502,372,111310,1,4,0:3:0:0:
433,316,111446,2,0,P|395:327|354:368,1,80,2|4,0:3|0:3,0:0:0:0:
217,287,111855,1,2,0:3:0:0:
150,313,111992,2,0,P|141:352|141:365,4,40,2|2|2|2|6,0:3|0:2|0:2|0:2|0:3,0:0:0:0:
150,313,112810,6,0,P|141:194|25:160,1,256,4|2,0:0|0:3,0:0:0:0:
81,206,113492,85,4,0:3:0:0:
94,136,113628,2,0,P|73:103|27:87,2,80,2|4|8,0:3|0:3|0:3,0:0:0:0:
230,96,114310,2,0,P|249:62|239:14,1,80,4|8,0:3|0:3,0:0:0:0:
175,1,114719,1,6,0:3:0:0:
175,1,114992,6,0,P|124:60|44:67,1,160,4|2,0:3|0:3,0:0:0:0:
14,142,115674,1,4,0:3:0:0:
66,60,115810,1,2,0:3:0:0:
66,60,116083,70,0,P|90:76|117:83,1,55.9999982910157,4|0,0:2|0:0,0:0:0:0:
189,85,116219,6,0,P|205:109|207:164,1,64,4|0,0:2|0:0,0:0:0:0:
226,226,116355,102,0,P|250:242|314:248,1,71.9999978027344,4|0,0:2|0:0,0:0:0:0:
383,260,116492,6,2,L|413:337,2,80,0|0|0,0:0|0:0|0:0,0:0:0:0:
483,26,117174,6,0,P|495:102|388:161,1,192,4|0,0:0|0:0,0:0:0:0:
446,34,117719,2,0,P|497:89|479:168,1,143.999995605469,6|0,0:2|0:0,0:0:0:0:
423,68,118265,2,0,P|475:60|519:88,1,96,6|0,0:2|0:0,0:0:0:0:
334,115,118810,6,0,P|311:93|305:64,1,47.9999985351563,4|0,0:2|0:0,0:0:0:0:
306,77,119083,2,0,P|327:86|342:104,1,47.9999985351563,2|0,0:2|0:0,0:0:0:0:
306,192,119356,1,4,0:3:0:0:
306,192,119628,1,0,0:0:0:0:
306,192,119901,102,0,P|283:213|277:242,1,47.9999985351563,6|0,0:2|0:0,0:0:0:0:
278,230,120174,2,0,P|299:220|314:202,1,47.9999985351563,2|0,0:0|0:0,0:0:0:0:
217,144,120446,1,4,0:3:0:0:
217,144,120719,1,4,0:3:0:0:
217,144,120992,21,6,0:2:0:0:
167,288,121128,1,2,0:2:0:0:
321,286,121265,1,6,0:2:0:0:
371,141,121401,1,2,0:2:0:0:
217,144,121537,102,0,P|168:134|132:7,1,192,4|0,0:0|0:0,0:0:0:0:
144,154,122083,2,0,P|129:92|180:28,1,143.999995605469,6|0,0:2|0:0,0:0:0:0:
88,105,122628,2,0,P|134:67|180:73,1,96,6|0,0:2|0:0,0:0:0:0:
331,116,123174,102,0,P|310:126|289:157,1,47.9999985351563,6|0,0:2|0:0,0:0:0:0:
326,215,123446,2,0,P|349:216|372:208,1,47.9999985351563,2|0,0:0|0:0,0:0:0:0:
431,135,123719,1,4,0:3:0:0:
13,314,124128,5,2,2:3:0:0:
13,314,124264,1,2,2:3:0:0:
57,384,124537,1,2,2:3:0:0:
57,384,124674,1,2,2:3:0:0:
57,384,124810,6,0,L|112:372,1,47.9999985351563
123,273,125083,6,0,L|182:294,1,55.9999982910157
262,239,125356,102,0,L|311:300,1,60.0000022888184,2|0,0:0|0:0,0:0:0:0:
372,284,125492,2,0,L|390:390,2,71.9999978027344,2|0|6,0:0|0:0|0:2,0:0:0:0:
404,47,125765,85,2,0:1:0:0:
404,47,125901,2,2,L|397:86,1,35.9999989013672,2|0,2:1|2:0,2:1:0:0:
397,82,126174,54,0,P|344:73|266:-9,1,160,6|0,0:0|0:0,0:0:0:0:
490,59,126446,1,0,0:3:0:0:
389,288,126583,2,0,P|357:251|344:132,1,143.999995605469,2|6,0:0|0:3,0:0:0:0:
480,296,126856,1,0,0:0:0:0:
262,199,126992,1,2,0:0:0:0:
212,384,127128,2,0,P|271:350|301:282,1,128,2|6,0:0|0:3,0:0:0:0:
267,114,127401,1,0,0:0:0:0:
124,371,127537,86,0,P|106:347|109:269,1,71.9999978027344,6|0,0:2|0:0,0:0:0:0:
28,276,127674,6,0,P|25:247|64:177,1,75.9999979705811,6|0,0:2|0:0,0:0:0:0:
5,137,127810,102,0,P|16:110|99:70,1,80,6|0,0:2|0:0,0:0:0:0:
118,18,127946,85,2,0:1:0:0:
118,18,128083,2,2,L|122:54,1,35.9999989013672,2|0,2:1|2:0,2:1:0:0:
266,12,128356,70,0,L|255:135,1,95.9999970703126,6|0,0:0|0:0,0:0:0:0:
389,254,128628,2,0,P|451:208|450:154,1,111.999996582031,6|0,0:3|0:0,0:0:0:0:
385,109,128901,2,0,P|323:155|321:222,1,128,2|0,0:0|0:0,0:0:0:0:
413,369,129174,86,0,P|384:303|253:308,1,192,6|0,0:2|2:0,0:0:0:0:
234,222,129446,102,0,P|238:278|124:338,1,167.999994873047,6|0,0:2|2:0,0:0:0:0:
87,369,129719,6,0,P|52:348|41:302,1,71.9999978027344,6|0,0:2|0:0,0:0:0:0:
0,256,129856,102,0,P|4:217|40:171,2,71.9999978027344,6|0|2,0:2|0:0|0:0,0:0:0:0:
4,260,130265,22,2,P|55:188|141:187,1,160,6|6,0:0|0:3,0:0:0:0:
4,258,130674,1,0,0:0:0:0:
86,59,130810,6,2,P|170:64|220:161,1,191.999994140625,2|6,0:0|0:3,0:0:0:0:
86,59,131219,1,0,0:0:0:0:
341,18,131356,102,2,P|377:98|304:211,1,223.999993164063,2|6,0:0|0:3,0:0:0:0:
342,18,131765,1,0,0:0:0:0:
313,207,131901,86,0,P|364:240|456:210,1,128,6|0,0:2|0:0,0:0:0:0:
191,281,132174,6,0,P|128:272|75:306,1,128,6|2,0:2|0:0,0:0:0:0:
29,368,132378,101,2,0:0:0:0:
0,289,132446,22,2,B|141:217|118:396|281:336,1,287.999991210938,6|6,0:0|0:3,0:0:0:0:
262,342,132856,1,0,0:0:0:0:
505,200,132992,6,2,B|388:156|403:282|280:237,1,223.999993164063,2|6,0:0|0:3,0:0:0:0:
297,242,133402,1,0,0:0:0:0:
55,22,133537,70,0,P|89:28|140:53,1,55.9999982910157,4|0,0:0|0:0,0:0:0:0:
179,7,133674,6,0,P|210:21|253:58,1,60.0000022888184,6|0,0:2|0:0,0:0:0:0:
307,24,133810,102,0,P|333:46|365:93,3,64,6|0|0|0,0:2|0:0|0:0|0:0,0:0:0:0:
302,135,134083,6,0,P|286:157|274:206,1,71.9999978027344,6|0,0:2|0:0,0:0:0:0:
208,272,134219,102,0,P|205:235|170:180,1,75.9999979705811,6|0,0:2|0:0,0:0:0:0:
113,185,134356,6,0,L|31:171,3,80,6|0|0|0,0:2|0:0|0:0|0:0,0:0:0:0:
16,91,134628,38,2,L|211:38,1,191.999994140625,6|6,0:0|0:3,0:0:0:0:
16,91,135037,1,0,0:0:0:0:
481,180,135174,6,2,L|233:102,1,223.999993164063,2|6,0:2|0:3,0:0:0:0:
483,183,135583,1,0,0:0:0:0:
0,295,135719,102,2,L|264:214,1,256,2|6,0:2|0:3,0:0:0:0:
3,298,136128,1,0,0:0:0:0:
436,384,136265,54,0,L|421:234,1,143.999995605469,6|0,0:2|0:0,0:0:0:0:
334,376,136537,6,0,L|319:226,1,143.999995605469,6|2,0:2|0:0,0:0:0:0:
336,155,136742,101,2,0:0:0:0:
304,84,136810,54,2,P|232:45|2:97,1,320,6|6,0:0|0:3,0:0:0:0:
304,84,137219,1,0,0:0:0:0:
33,212,137356,6,0,P|52:169|93:144,1,95.9999970703126,2|0,0:2|0:0,0:0:0:0:
156,194,137628,2,0,P|131:245|82:274,1,111.999996582031,6|0,0:3|0:0,0:0:0:0:
195,383,137901,38,0,P|247:294|327:291,1,192,6|0,0:2|2:0,0:0:0:0:
298,201,138174,6,0,P|351:291|467:256,1,192,6|0,0:2|2:0,0:0:0:0:
494,182,138446,102,0,P|457:260|339:268,1,215.999993408203,6|0,0:2|2:0,0:0:0:0:
306,109,138719,6,0,P|276:44|191:47,1,143.999995605469,6|2,0:2|0:0,0:0:0:0:
194,108,138924,101,2,0:0:0:0:
129,149,138992,54,2,P|76:153|6:22,1,191.999994140625,6|6,0:0|0:3,0:0:0:0:
129,149,139401,1,0,0:0:0:0:
212,300,139537,6,2,P|265:304|351:158,1,223.999993164063,2|6,0:2|0:3,0:0:0:0:
212,300,139946,1,0,0:0:0:0:
138,71,140083,102,2,P|85:67|17:250,1,256,2|6,0:2|0:3,0:0:0:0:
138,71,140492,1,0,0:0:0:0:
285,369,140628,54,0,L|428:351,1,143.999995605469,6|0,0:2|0:0,0:0:0:0:
484,244,140901,6,0,L|332:263,1,143.999995605469,6|2,0:2|0:0,0:0:0:0:
272,228,141106,101,2,0:0:0:0:
331,179,141174,22,0,L|410:171,1,80,6|0,0:2|2:0,0:0:0:0:
333,100,141719,2,0,L|254:92,1,80,6|0,0:2|2:0,0:0:0:0:
110,41,142265,22,0,P|146:25|186:23,1,80,6|0,0:0|0:0,0:0:0:0:
183,142,142402,6,0,P|148:138|101:112,1,80,6|0,0:2|0:0,0:0:0:0:
50,181,142538,102,0,P|71:214|102:239,1,80,6|0,0:2|0:0,0:0:0:0:
142,318,142674,6,0,L|235:297,1,80,6|0,0:2|0:0,0:0:0:0:
265,222,142810,102,0,L|358:243,1,80,6|0,0:2|0:0,0:0:0:0:
418,325,142946,6,0,L|511:304,2,80,2|0|4,0:0|0:0|0:3,0:0:0:0:
402,60,152083,6,2,P|324:67|265:126,1,160,6|6,0:0|0:3,0:0:0:0:
267,121,152492,1,0,0:0:0:0:
30,138,152628,6,2,P|135:140|193:200,1,191.999994140625,2|6,0:0|0:3,0:0:0:0:
192,198,153037,1,0,0:0:0:0:
436,239,153174,102,2,P|314:235|249:314,1,223.999993164063,2|6,0:0|0:3,0:0:0:0:
251,305,153583,1,0,0:0:0:0:
32,369,153719,22,0,P|5:335|18:237,1,128,6|0,0:2|0:0,0:0:0:0:
80,236,153992,6,0,P|107:270|94:368,1,128,6|0,0:2|0:0,0:0:0:0:
30,138,154265,70,2,P|107:114|144:49,1,160,6|6,0:0|0:3,0:0:0:0:
145,48,154675,1,0,0:0:0:0:
157,198,154810,6,2,P|234:222|277:328,1,191.999994140625,2|6,0:0|0:3,0:0:0:0:
278,317,155219,1,0,0:0:0:0:
241,115,155356,6,0,P|298:99|330:1,1,167.999994873047,6|0,0:2|2:0,0:0:0:0:
236,182,155629,6,0,P|217:116|104:79,1,180.000006866455,6|0,0:2|2:0,0:0:0:0:
310,185,155901,102,0,P|241:204|203:322,1,192,6|0,0:2|2:0,0:0:0:0:
315,106,156175,6,0,P|336:181|465:223,1,204.000003890991,6|0,0:2|2:0,0:0:0:0:
502,305,156447,70,2,L|322:318,1,160,6|6,0:0|0:3,0:0:0:0:
342,316,156856,1,0,0:0:0:0:
74,231,156993,6,2,L|273:246,1,191.999994140625,2|6,0:0|0:3,0:0:0:0:
265,245,157402,1,0,0:0:0:0:
511,127,157537,102,2,L|234:147,1,223.999993164063,2|6,0:0|0:3,0:0:0:0:
287,143,157947,1,0,0:0:0:0:
75,25,158084,22,0,L|213:36,1,128,6|0,0:2|0:0,0:0:0:0:
195,113,158356,2,0,L|67:104,1,128,6|0,0:2|0:0,0:0:0:0:
217,198,158629,86,2,P|220:277|177:343,1,160,6|6,0:0|0:3,0:0:0:0:
177,342,159037,1,0,0:0:0:0:
342,384,159174,2,2,P|299:318|301:239,1,160,2|6,0:0|0:3,0:0:0:0:
300,239,159583,1,0,0:0:0:0:
454,307,159720,22,0,P|427:296|406:275,1,60.0000022888184,6|0,0:2|0:0,0:0:0:0:
453,211,159993,6,0,P|481:223|502:244,1,60.0000022888184,6|0,0:2|0:0,0:0:0:0:
371,198,160265,102,0,P|356:82|361:57,1,140,6|0,0:2|0:0,0:0:0:0:
373,51,160810,54,0,B|451:65|451:65|496:42,2,111.999996582031,6|2|4,0:0|0:3|0:3,0:0:0:0:
191,34,161219,1,2,0:3:0:0:
231,99,161356,1,2,0:0:0:0:
167,141,161492,2,0,B|139:102|139:102|170:46,1,95.9999970703126,2|4,0:0|0:3,0:0:0:0:
371,198,161765,1,2,0:0:0:0:
436,239,161901,2,0,B|464:200|464:200|433:144,1,95.9999970703126,2|2,0:0|0:3,0:0:0:0:
324,320,162174,2,0,L|426:333,1,95.9999970703126,4|2,0:3|0:3,0:0:0:0:
230,350,162446,53,6,0:2:0:0:
153,257,162583,1,2,0:0:0:0:
230,350,162719,5,6,0:2:0:0:
270,237,162856,1,2,0:0:0:0:
112,368,162992,38,0,B|34:354|34:354|-11:377,2,111.999996582031,6|2|4,0:0|0:3|0:3,0:0:0:0:
14,175,163401,1,2,0:3:0:0:
77,128,163537,2,0,B|101:166|101:166|73:238,1,95.9999970703126,2|2,0:0|0:3,0:0:0:0:
193,95,163810,2,0,L|201:-17,1,95.9999970703126,4|2,0:3|0:3,0:0:0:0:
332,178,164083,54,0,P|390:170|429:126,1,120.000004577637,6|0,0:2|0:0,0:0:0:0:
302,263,164356,6,0,P|341:314|404:327,1,128,6|0,0:2|0:0,0:0:0:0:
210,257,164628,102,0,P|176:332|196:393,1,136.000002593994,6|0,0:2|0:0,0:0:0:0:
187,170,164901,6,0,P|104:178|61:226,1,143.999995605469,6|0,0:2|0:0,0:0:0:0:
263,121,165174,38,0,P|214:31|150:18,2,160,6|2|4,0:0|0:3|0:3,0:0:0:0:
400,327,165583,1,2,0:3:0:0:
467,368,165719,1,2,0:0:0:0:
512,306,165856,2,0,B|497:175,1,95.9999970703126,2|4,0:0|0:3,0:0:0:0:
347,121,166128,1,2,0:0:0:0:
310,188,166265,2,0,B|358:202|358:202|405:175,1,95.9999970703126,2|2,0:0|0:3,0:0:0:0:
190,102,166537,2,0,L|59:111,1,95.9999970703126,4|2,0:3|0:3,0:0:0:0:
158,286,166810,53,6,0:2:0:0:
230,177,166946,1,2,0:0:0:0:
158,286,167083,5,6,0:2:0:0:
285,317,167219,1,2,0:0:0:0:
158,286,167356,70,0,L|46:278,1,95.9999970703126,6|0,0:3|2:0,0:0:0:0:
343,39,167901,6,0,L|455:31,1,95.9999970703126,6|0,0:3|2:0,0:0:0:0:
234,252,168446,5,6,0:2:0:0:
229,80,168583,1,2,0:0:0:0:
234,252,168719,5,6,0:2:0:0:
364,161,168856,1,2,0:0:0:0:
137,175,168992,102,0,L|11:160,1,111.999996582031,6|2,0:2|0:0,0:0:0:0:
13,233,169196,5,2,0:0:0:0:
0,307,169265,102,0,L|73:291,1,71.9999978027344,2|0,0:0|0:0,0:0:0:0:
116,356,169401,6,0,L|209:367,1,71.9999978027344,2|0,0:0|0:0,0:0:0:0:
259,304,169537,70,0,P|271:271|245:199,1,111.999996582031,12|4,0:3|0:3,0:0:0:0:
343,39,169946,1,8,0:3:0:0:
398,97,170083,1,4,0:3:0:0:
343,39,170219,2,0,P|318:88|331:141,1,111.999996582031,12|8,0:3|0:3,0:0:0:0:
324,360,170628,6,0,L|459:346,2,120,6|6|6,0:2|0:2|0:2,0:0:0:0:
