osu file format v14

[General]
AudioFilename: audio.mp3
AudioLeadIn: 0
PreviewTime: 71220
Countdown: 0
SampleSet: Soft
StackLeniency: 0.7
Mode: 0
LetterboxInBreaks: 0
WidescreenStoryboard: 1

[Editor]
Bookmarks: 24456,34275,43002,53911,71366,88820,99729,117184,143366,152093,160820,169547
DistanceSpacing: 0.8
BeatDivisor: 4
GridSize: 8
TimelineZoom: 1.9

[Metadata]
Title:Yotsuya-san ni Yoroshiku
TitleUnicode:四ツ谷さんによろしく
Artist:Himeringo
ArtistUnicode:ひめりんご
Creator:Nevo
Version:Kirai
Source:
Tags:amb1d3x hishiro chizuru milan- nexusqi hooni japanese rock utaite cover addy2607 KaedeharaKazuha eight JRock J-Rock
BeatmapID:2299553
BeatmapSetID:1100637

[Difficulty]
HPDrainRate:6
CircleSize:4
OverallDifficulty:9
ApproachRate:9.5
SliderMultiplier:1.7
SliderTickRate:1

[Events]
//Background and Video events
0,0,"primary.jpg",0,0
//Break Periods
2,143556,151558
//Storyboard Layer 0 (Background)
//Storyboard Layer 1 (Fail)
//Storyboard Layer 2 (Pass)
//Storyboard Layer 3 (Foreground)
//Storyboard Layer 4 (Overlay)
//Storyboard Sound Samples

[TimingPoints]
2629,272.727272727273,4,2,1,40,1,0
20083,291.26213592233,4,2,1,40,1,0
20083,-181.818181818181,4,2,1,40,0,0
21248,288.461538461538,4,2,1,40,1,0
21248,-200,4,2,1,40,0,0
23356,272.727272727273,4,2,1,40,1,0
23356,-333.333333333333,4,2,1,40,0,0
23628,-166.666666666667,4,2,1,40,0,0
23901,-111.111111111111,4,2,1,40,0,0
24174,-83.3333333333333,4,2,1,40,0,0
24719,-133.333333333333,4,2,1,40,0,0
24992,-79.9999999999999,4,2,1,40,0,0
25537,-133.333333333333,4,2,2,60,0,0
34265,-100,4,2,1,75,0,0
51719,-100,4,2,1,70,0,0
53901,-133.333333333333,4,2,1,60,0,0
71356,-79.9999999999999,4,2,1,85,0,1
71765,-133.333333333333,4,2,1,85,0,1
71901,-79.9999999999999,4,2,1,85,0,1
72310,-133.333333333333,4,2,1,85,0,1
72446,-79.9999999999999,4,2,1,85,0,1
88537,-79.9999999999999,4,2,1,85,0,1
88810,-100,4,2,1,75,0,0
97537,-133.333333333333,4,2,1,75,0,0
99719,-133.333333333333,4,2,1,60,0,0
117174,-90.9090909090909,4,2,1,65,0,0
125901,-166.666666666667,4,2,1,65,0,0
126174,-76.9230769230769,4,2,1,85,0,1
128083,-133.333333333333,4,2,1,85,0,1
128356,-74.074074074074,4,2,1,85,0,1
129992,-133.333333333333,4,2,1,85,0,1
130265,-74.074074074074,4,2,1,85,0,1
143356,-74.074074074074,4,2,2,60,0,0
152083,-100,4,2,1,75,0,0
160810,-83.3333333333333,4,2,1,75,0,0
167356,-100,4,2,1,75,0,0
169537,-100,4,2,2,60,0,0

[Colours]
Combo1 : 129,104,86
Combo2 : 107,129,107
Combo3 : 150,147,142

[HitObjects]
90,262,20083,6,0,L|80:155,1,93.5000028533936,2|2,0:0|0:0,0:0:0:0:
190,329,20665,2,0,L|200:222,1,93.5000028533936,2|2,0:0|0:0,0:0:0:0:
315,101,21248,6,0,B|370:89|418:131|418:131|443:104|477:100,2,170,2|2|2,0:0|0:0|0:0,0:0:0:0:
315,101,23356,6,0,P|307:115|304:129,1,25.4999992218018,0|0,3:0|3:0,0:0:0:0:
216,135,23628,2,0,P|223:161|236:182,1,50.9999984436036,4|4,0:3|0:3,0:0:0:0:
161,245,23901,2,0,P|197:265|234:273,1,76.4999976654053,8|8,0:3|0:3,0:0:0:0:
236,373,24174,2,0,P|282:360|328:324,1,101.999996887207,8|8,0:0|0:0,0:0:0:0:
410,81,24446,5,0,3:0:0:0:
216,135,24719,2,0,L|124:145,1,63.7500024318696,2|2,0:3|0:3,0:0:0:0:
31,101,24992,2,0,L|143:113,1,106.25,0|2,3:0|0:3,0:0:0:0:
202,238,25265,2,0,L|314:225,1,106.25,8|0,0:3|0:0,0:0:0:0:
336,24,25537,6,0,P|314:80|343:149,1,127.500004863739,2|10,3:2|0:0,0:0:0:0:
468,88,25946,1,10,0:0:0:0:
468,88,26083,2,0,L|394:84,1,63.7500024318696,2|10,0:0|0:0,0:0:0:0:
270,80,26356,1,0,0:0:0:0:
335,141,26492,2,0,L|409:137,1,63.7500024318696,10|0,0:0|0:0,0:0:0:0:
299,232,26765,6,0,L|229:226,1,63.7500024318696,10|2,0:0|0:0,0:0:0:0:
374,254,27037,2,0,L|304:248,1,63.7500024318696,8|2,0:0|0:0,0:0:0:0:
197,298,27310,1,8,0:0:0:0:
174,384,27446,1,2,0:0:0:0:
79,222,27583,5,0,3:0:0:0:
96,333,27719,2,0,P|90:268|97:212,2,95.6250036478044,10|8|10,3:2|0:0|0:0,0:0:0:0:
174,384,28265,1,2,0:0:0:0:
273,235,28401,6,0,L|256:164,1,63.7500024318696,10|2,0:0|0:0,0:0:0:0:
173,288,28674,2,0,P|229:292|288:250,1,127.500004863739,10|10,0:0|0:0,0:0:0:0:
383,232,29083,2,0,L|370:303,1,63.7500024318696,2|10,0:0|0:0,0:0:0:0:
346,154,29356,1,2,0:0:0:0:
230,147,29492,2,0,L|198:141,1,31.8750012159348,8|2,3:2|0:3,0:0:0:0:
127,111,29628,1,2,0:3:0:0:
199,229,29765,1,0,3:0:0:0:
25,237,29901,6,0,P|84:215|141:213,1,95.6250036478044,10|8,3:2|0:0,0:0:0:0:
127,226,30174,1,0,0:0:0:0:
92,313,30310,2,0,P|89:349|97:379,1,63.7500024318696,10|2,0:0|0:0,0:0:0:0:
245,343,30583,2,0,L|175:337,1,63.7500024318696,10|0,0:0|0:0,0:0:0:0:
320,314,30856,2,0,L|256:319,1,63.7500024318696,10|0,0:0|0:0,0:0:0:0:
374,237,31128,2,0,L|444:231,1,63.7500024318696,10|2,0:0|0:0,0:0:0:0:
299,208,31401,2,0,L|362:213,1,63.7500024318696,8|2,0:0|0:0,0:0:0:0:
222,144,31674,2,0,L|152:138,1,63.7500024318696,8|2,0:0|0:0,0:0:0:0:
295,88,31946,1,0,3:0:0:0:
299,208,32083,6,0,P|309:148|327:103,2,95.6250036478044,10|8|10,3:2|0:0|0:0,0:0:0:0:
234,316,32628,1,2,0:0:0:0:
234,316,32765,2,0,P|219:285|195:256,1,63.7500024318696,10|2,0:0|0:0,0:0:0:0:
57,225,33037,2,0,P|38:251|25:280,1,63.7500024318696,10|0,0:0|0:0,0:0:0:0:
229,175,33310,2,0,P|215:146|196:120,1,63.7500024318696,10|2,0:0|0:0,0:0:0:0:
36,72,33583,1,10,0:0:0:0:
202,8,33719,1,10,0:0:0:0:
202,8,34265,6,0,L|215:156,1,127.5,4|0,3:1|0:0,0:0:0:0:
243,208,34537,2,0,L|255:114,1,85,8|2,0:0|0:0,0:0:0:0:
59,184,34810,2,0,L|70:311,1,127.5,10|0,3:2|0:0,0:0:0:0:
100,384,35082,2,0,L|110:299,1,85,8|2,0:0|3:2,0:0:0:0:
282,339,35356,6,0,B|263:360|263:360|188:351,1,85,10|0,0:0|3:0,0:0:0:0:
340,174,35628,2,0,L|437:186,1,85,8|2,0:0|0:0,0:0:0:0:
239,271,35901,1,10,3:2:0:0:
172,100,36037,1,2,3:2:0:0:
336,263,36174,1,10,0:0:0:0:
347,85,36310,1,2,0:0:0:0:
159,201,36446,6,0,B|108:176|56:190|56:190|42:154|65:121,1,170,6|8,3:2|0:0,0:0:0:0:
122,21,36856,1,2,0:0:0:0:
311,132,36992,2,0,B|371:151|422:99|422:99|451:128|485:140,1,170,10|10,3:2|0:0,0:0:0:0:
489,41,37401,1,2,3:2:0:0:
375,226,37537,6,0,P|309:223|267:204,1,85,10|0,0:0|3:0,0:0:0:0:
219,340,37810,2,0,P|174:291|158:248,1,85,10|0,0:0|0:0,0:0:0:0:
207,100,38083,2,0,L|184:208,1,85,10|0,3:2|3:0,0:0:0:0:
26,25,38356,2,0,L|48:133,1,85,10|0,0:0|0:0,0:0:0:0:
271,38,38628,6,0,P|229:15|182:16,1,85,6|0,3:2|0:0,0:0:0:0:
23,216,38901,2,0,P|59:194|101:191,1,85,8|2,0:0|0:0,0:0:0:0:
313,334,39174,2,0,L|197:317,1,85,10|0,3:2|3:0,0:0:0:0:
374,143,39446,2,0,L|490:126,1,85,8|2,0:0|3:2,0:0:0:0:
283,241,39719,6,0,B|274:217|274:217|292:153,1,85,10|0,0:0|3:0,0:0:0:0:
130,66,39992,2,0,B|140:42|140:42|198:10,1,85,8|2,0:0|0:0,0:0:0:0:
419,125,40265,1,10,3:2:0:0:
231,90,40401,1,2,3:2:0:0:
385,39,40537,1,10,0:0:0:0:
374,198,40674,1,2,0:0:0:0:
325,122,40810,6,0,P|342:179|347:306,1,170,6|8,3:2|0:0,0:0:0:0:
203,243,41219,1,2,0:0:0:0:
255,378,41356,2,0,P|265:336|268:278,1,85,2|0,3:2|3:0,0:0:0:0:
126,194,41628,1,10,0:0:0:0:
245,165,41765,1,2,3:2:0:0:
82,346,41901,6,0,L|171:334,1,85,10|0,0:0|3:0,0:0:0:0:
434,318,42174,2,0,L|349:328,1,85,8|0,0:0|0:0,0:0:0:0:
110,253,42446,6,0,L|199:241,1,85,0|8,3:0|0:3,0:0:0:0:
373,247,42719,1,8,0:0:0:0:
330,252,42787,1,8,0:0:0:0:
288,257,42855,1,8,0:0:0:0:
245,262,42924,1,8,0:0:0:0:
203,267,42992,6,0,P|202:199|226:112,1,127.5,4|0,3:1|0:0,0:0:0:0:
249,66,43265,2,0,P|255:122|269:155,1,85,8|2,0:0|0:0,0:0:0:0:
482,209,43537,6,0,P|483:145|470:83,1,127.5,10|0,3:2|0:0,0:0:0:0:
436,7,43810,2,0,P|433:49|419:89,1,85,8|2,0:0|3:2,0:0:0:0:
187,184,44083,6,0,L|102:173,1,85,10|0,0:0|3:0,0:0:0:0:
249,280,44356,2,0,L|333:290,1,85,8|2,0:0|0:0,0:0:0:0:
155,95,44628,1,10,3:2:0:0:
129,264,44765,1,2,3:2:0:0:
296,199,44901,1,10,0:0:0:0:
19,161,45037,1,2,0:0:0:0:
307,42,45174,6,0,B|353:30|353:30|391:45|391:45|457:34,1,127.5,6|0,3:2|0:0,0:0:0:0:
446,54,45446,2,0,P|435:102|439:161,1,85,8|2,0:0|0:0,0:0:0:0:
405,309,45719,2,0,P|403:259|384:203,1,85,10|0,3:2|3:0,0:0:0:0:
215,165,45992,1,10,0:0:0:0:
302,264,46128,1,2,3:2:0:0:
156,363,46265,6,0,P|146:313|164:247,1,85,10|0,0:0|3:0,0:0:0:0:
37,149,46537,2,0,P|85:165|133:213,1,85,10|0,0:0|0:0,0:0:0:0:
282,153,46810,2,0,P|243:186|177:204,1,85,10|0,3:2|3:0,0:0:0:0:
96,36,47083,1,10,0:0:0:0:
199,96,47219,1,0,0:0:0:0:
346,14,47356,6,0,L|227:7,1,85,6|0,3:2|0:0,0:0:0:0:
427,136,47628,2,0,L|511:140,1,85,8|2,0:0|0:0,0:0:0:0:
365,302,47901,2,0,P|350:257|356:212,1,85,10|0,3:2|3:0,0:0:0:0:
199,96,48174,2,0,P|201:138|187:177,1,85,8|2,0:0|3:2,0:0:0:0:
10,268,48446,6,0,L|111:259,1,85,10|0,0:0|3:0,0:0:0:0:
262,352,48719,2,0,L|161:343,1,85,8|2,0:0|0:0,0:0:0:0:
108,121,48992,1,10,3:2:0:0:
229,263,49128,1,2,3:2:0:0:
200,70,49265,1,10,0:0:0:0:
113,300,49401,1,2,0:0:0:0:
300,92,49537,6,0,B|325:137|325:137|312:250,1,127.5,6|0,3:2|0:0,0:0:0:0:
299,300,49810,1,8,0:0:0:0:
234,158,49946,1,2,0:0:0:0:
422,172,50083,2,0,L|407:72,1,85,2|0,3:2|3:0,0:0:0:0:
272,15,50356,1,10,0:0:0:0:
425,68,50492,1,2,3:2:0:0:
234,158,50628,6,0,P|182:160|135:136,1,85,10|0,0:0|3:0,0:0:0:0:
299,300,50901,2,0,P|247:298|200:322,1,85,8|0,0:0|0:0,0:0:0:0:
461,148,51174,2,0,P|409:150|362:126,1,85,0|8,3:0|0:3,0:0:0:0:
510,352,51447,1,8,0:0:0:0:
467,348,51515,1,8,0:0:0:0:
427,361,51583,1,8,0:0:0:0:
384,364,51651,1,8,0:0:0:0:
344,351,51719,6,0,L|335:231,1,85,0|0,3:0|0:0,0:0:0:0:
173,289,51992,2,0,P|219:312|257:307,1,85,0|8,3:0|0:3,0:0:0:0:
246,171,52265,2,0,P|204:169|167:191,1,85,0|4,3:0|0:3,0:0:0:0:
70,290,52537,2,0,L|79:170,1,85,0|0,3:0|0:0,0:0:0:0:
25,83,52810,1,0,3:0:0:0:
32,106,53083,5,2,0:3:0:0:
193,27,53219,1,0,3:0:0:0:
184,47,53492,5,2,0:3:0:0:
331,141,53628,1,0,3:0:0:0:
342,165,53901,6,0,P|396:143|474:167,1,127.500004863739,2|2,3:2|0:3,0:0:0:0:
512,249,54310,1,8,0:3:0:0:
512,249,54378,1,8,0:3:0:0:
512,249,54446,2,0,P|510:312|507:336,1,63.7500024318696,8|0,0:0|3:0,0:0:0:0:
425,281,54719,2,0,P|423:344|420:368,1,63.7500024318696,10|2,0:0|0:0,0:0:0:0:
278,328,54992,6,0,P|314:310|359:308,1,63.7500024318696,2|0,3:2|3:0,0:0:0:0:
304,222,55265,2,0,P|272:228|241:244,1,63.7500024318696,10|0,0:0|3:0,0:0:0:0:
147,318,55537,2,0,L|83:311,1,63.7500024318696,2|0,0:0|3:0,0:0:0:0:
70,213,55810,2,0,L|133:219,1,63.7500024318696,10|0,0:0|0:0,0:0:0:0:
118,58,56083,6,0,B|91:40|91:40|108:139,1,127.500004863739,2|2,3:2|0:3,0:0:0:0:
208,69,56492,1,8,0:3:0:0:
208,69,56628,2,0,P|233:57|271:57,1,63.7500024318696,8|0,0:0|3:0,0:0:0:0:
381,17,56901,2,0,P|407:26|434:53,1,63.7500024318696,10|2,0:0|0:0,0:0:0:0:
349,133,57174,5,0,3:0:0:0:
356,104,57310,1,0,3:0:0:0:
430,194,57446,2,0,L|440:265,1,63.7500024318696,8|2,0:0|3:0,0:0:0:0:
339,307,57719,2,0,L|330:243,1,63.7500024318696,2|2,0:3|3:0,0:0:0:0:
256,367,57992,1,8,0:0:0:0:
256,367,58265,6,0,P|162:350|106:358,1,127.500004863739,2|2,3:2|0:3,0:0:0:0:
51,275,58674,1,8,0:3:0:0:
51,275,58742,1,8,0:3:0:0:
51,275,58810,2,0,P|95:275|127:263,1,63.7500024318696,8|0,0:0|3:0,0:0:0:0:
177,196,59083,2,0,P|221:196|253:208,1,63.7500024318696,10|2,0:0|0:0,0:0:0:0:
328,293,59356,6,0,L|318:211,1,63.7500024318696,2|0,3:2|3:0,0:0:0:0:
400,166,59628,2,0,L|407:229,1,63.7500024318696,10|0,0:0|3:0,0:0:0:0:
241,131,59901,2,0,L|251:49,1,63.7500024318696,2|0,0:0|3:0,0:0:0:0:
169,4,60173,2,0,L|161:67,1,63.7500024318696,10|0,0:0|0:0,0:0:0:0:
27,174,60446,6,0,P|88:157|153:155,1,127.500004863739,2|2,3:2|0:3,0:0:0:0:
276,215,60856,1,8,0:3:0:0:
190,240,60992,1,8,0:0:0:0:
173,239,61128,1,0,3:0:0:0:
241,131,61265,2,0,L|313:121,1,63.7500024318696,10|2,0:0|0:0,0:0:0:0:
393,171,61537,6,0,P|350:112|362:50,1,127.500004863739,10|8,3:2|0:3,0:0:0:0:
222,18,61946,2,0,L|137:28,1,63.7500024318696,8|8,3:2|0:3,0:0:0:0:
45,45,62219,1,8,0:3:0:0:
200,107,62356,1,8,3:2:0:0:
200,107,62628,6,0,L|209:248,1,127.500004863739,2|2,3:2|0:3,0:0:0:0:
73,126,63037,1,8,0:3:0:0:
73,126,63106,1,8,0:3:0:0:
73,126,63174,2,0,L|93:194,1,63.7500024318696,8|0,0:0|3:0,0:0:0:0:
310,171,63446,2,0,L|327:109,1,63.7500024318696,10|2,0:0|0:0,0:0:0:0:
144,287,63719,6,0,P|206:259|284:283,1,127.500004863739,2|10,3:2|0:0,0:0:0:0:
327,329,64128,1,0,3:0:0:0:
423,324,64265,2,0,P|411:283|389:260,1,63.7500024318696,2|0,0:0|3:0,0:0:0:0:
444,149,64537,2,0,P|447:190|464:219,1,63.7500024318696,10|0,0:0|0:0,0:0:0:0:
512,84,64810,6,0,B|447:107|447:107|385:85,1,127.500004863739,2|2,3:2|0:3,0:0:0:0:
312,26,65219,1,8,0:3:0:0:
255,115,65356,2,0,L|263:188,1,63.7500024318696,8|0,0:0|3:0,0:0:0:0:
168,96,65628,2,0,L|176:169,1,63.7500024318696,10|0,0:0|0:0,0:0:0:0:
96,283,65901,6,0,P|54:279|16:297,2,63.7500024318696,2|0|8,3:2|3:0|0:0,0:0:0:0:
175,334,66310,1,2,3:0:0:0:
268,301,66446,2,0,L|261:368,1,63.7500024318696,2|2,0:0|3:0,0:0:0:0:
356,284,66719,2,0,L|349:351,1,63.7500024318696,10|2,0:0|0:0,0:0:0:0:
446,241,66992,6,0,P|391:247|330:193,1,127.500004863739,0|2,3:0|0:0,0:0:0:0:
402,98,67401,1,8,0:3:0:0:
402,98,67469,1,8,0:3:0:0:
402,98,67537,2,0,L|412:168,1,63.7500024318696,8|0,0:0|3:0,0:0:0:0:
248,224,67810,2,0,L|258:154,1,63.7500024318696,8|0,0:0|0:0,0:0:0:0:
146,60,68083,5,0,3:0:0:0:
176,146,68219,1,0,3:0:0:0:
296,87,68356,2,0,B|264:76|264:76|220:83,1,63.7500024318696,8|0,0:0|3:0,0:0:0:0:
51,236,68628,2,0,L|136:226,1,63.7500024318696,2|0,0:0|3:0,0:0:0:0:
64,155,68901,1,10,0:0:0:0:
129,325,69037,1,2,0:0:0:0:
43,251,69174,6,0,L|179:236,1,127.500004863739,2|2,3:2|0:3,0:0:0:0:
290,341,69583,2,0,L|216:333,2,63.7500024318696,8|8|0,0:3|0:0|3:0,0:0:0:0:
407,268,69992,2,0,L|336:281,1,63.7500024318696,10|0,0:0|0:0,0:0:0:0:
489,326,70265,5,10,0:0:0:0:
264,254,70401,1,8,0:0:0:0:
500,210,70537,1,8,0:0:0:0:
264,129,70674,1,10,0:0:0:0:
264,129,71219,2,0,L|266:97,1,31.8750012159348,2|0,0:0|0:0,0:0:0:0:
241,0,71356,6,0,L|251:105,1,106.25,4|0,3:1|0:0,0:0:0:0:
200,247,71628,1,8,0:0:0:0:
375,217,71765,2,0,L|373:186,1,31.8750012159348,2|0,0:0|0:0,0:0:0:0:
399,88,71902,6,0,L|388:193,1,106.25,2|0,3:2|3:0,0:0:0:0:
319,341,72174,1,8,0:0:0:0:
200,247,72310,2,0,L|144:253,1,31.8750012159348,2|0,0:0|0:0,0:0:0:0:
84,270,72446,6,0,L|189:280,1,106.25,2|0,3:2|0:0,0:0:0:0:
301,206,72719,1,8,0:0:0:0:
373,278,72856,1,2,0:0:0:0:
319,111,72992,1,2,3:2:0:0:
200,247,73128,1,2,3:2:0:0:
234,36,73265,1,10,0:0:0:0:
387,185,73401,1,2,0:0:0:0:
58,121,73537,6,0,P|113:102|183:105,1,106.25,6|0,3:2|0:0,0:0:0:0:
301,206,73810,1,8,0:0:0:0:
125,192,73946,1,2,0:0:0:0:
244,321,74083,5,2,3:2:0:0:
65,384,74219,1,2,3:2:0:0:
263,328,74356,1,10,0:0:0:0:
47,375,74492,1,2,0:0:0:0:
284,337,74628,6,0,B|228:352|228:352|169:268,1,159.375,2|0,3:2|0:0,0:0:0:0:
172,135,74901,2,0,B|212:175|212:175|169:269,1,159.375,10|0,0:0|0:0,0:0:0:0:
53,334,75174,2,0,B|68:278|68:278|170:268,1,159.375,2|0,3:2|0:0,0:0:0:0:
274,252,75446,1,10,0:0:0:0:
86,180,75583,1,8,0:0:0:0:
289,37,75719,6,0,L|307:147,1,106.25,6|0,3:2|0:0,0:0:0:0:
403,316,75992,1,8,0:0:0:0:
431,161,76128,1,2,0:0:0:0:
243,226,76265,6,0,B|272:252|272:252|362:237,1,106.25,2|0,3:2|3:0,0:0:0:0:
158,139,76537,1,8,0:0:0:0:
195,353,76674,1,2,0:0:0:0:
70,74,76810,6,0,L|59:197,1,106.25,2|0,3:2|0:0,0:0:0:0:
243,226,77083,1,8,0:0:0:0:
73,305,77219,1,2,0:0:0:0:
256,221,77356,2,0,L|379:242,1,106.25,2|2,3:2|3:2,0:0:0:0:
271,19,77628,2,0,L|148:40,1,106.25,10|2,0:0|0:0,0:0:0:0:
355,156,77901,6,0,P|365:94|348:44,1,106.25,6|0,3:2|0:0,0:0:0:0:
164,201,78174,1,8,0:0:0:0:
360,238,78310,1,2,0:0:0:0:
73,384,78446,2,0,P|63:322|80:272,1,106.25,2|0,3:2|3:0,0:0:0:0:
214,135,78719,1,10,0:0:0:0:
206,343,78856,1,2,0:0:0:0:
29,209,78992,5,10,3:2:0:0:
64,199,79060,1,8,0:0:0:0:
101,201,79128,1,8,0:3:0:0:
136,214,79196,1,8,0:3:0:0:
165,237,79264,1,4,0:3:0:0:
200,246,79333,1,4,0:3:0:0:
237,244,79401,1,8,3:2:0:0:
272,231,79469,1,8,0:3:0:0:
301,208,79537,2,0,L|286:88,1,106.25,8|8,0:3|0:0,0:0:0:0:
451,209,79810,1,8,3:2:0:0:
446,251,79878,1,8,0:0:0:0:
441,294,79946,1,10,0:0:0:0:
437,337,80014,1,8,0:0:0:0:
432,379,80083,6,0,P|358:343|307:343,1,106.25,4|0,3:1|0:0,0:0:0:0:
82,382,80356,1,8,0:0:0:0:
272,231,80492,1,2,0:0:0:0:
49,154,80628,6,0,P|123:118|174:118,1,106.25,2|0,3:2|3:0,0:0:0:0:
375,180,80901,1,8,0:0:0:0:
205,0,81037,1,2,0:0:0:0:
129,213,81174,6,0,L|142:335,1,106.25,2|0,3:2|0:0,0:0:0:0:
206,142,81446,1,8,0:0:0:0:
46,268,81583,1,2,0:0:0:0:
46,49,81719,1,2,3:2:0:0:
234,252,81856,1,2,3:2:0:0:
49,154,81992,1,10,0:0:0:0:
220,30,82128,1,2,0:0:0:0:
324,302,82265,6,0,P|233:349|143:301,1,212.5,6|8,3:2|0:0,0:0:0:0:
337,187,82674,1,2,0:0:0:0:
337,187,82810,2,0,P|390:207|430:274,1,106.25,2|2,3:2|3:2,0:0:0:0:
234,252,83083,1,10,0:0:0:0:
321,65,83219,1,2,0:0:0:0:
74,149,83356,6,0,L|179:135,1,106.25,2|0,3:2|0:0,0:0:0:0:
447,60,83628,2,0,L|341:46,1,106.25,10|0,0:0|0:0,0:0:0:0:
359,265,83901,2,0,B|386:236|386:236|377:148,1,106.25,2|0,3:2|3:0,0:0:0:0:
154,358,84174,2,0,B|127:329|127:329|136:241,1,106.25,10|8,0:0|0:0,0:0:0:0:
251,28,84446,6,0,B|240:93|240:93|259:169|259:169|251:243,1,212.5,6|8,3:2|0:0,0:0:0:0:
153,83,84856,1,2,0:0:0:0:
345,165,84992,6,0,L|464:151,1,106.25,2|0,3:2|3:0,0:0:0:0:
314,338,85265,1,8,0:0:0:0:
236,183,85401,1,2,0:0:0:0:
120,367,85537,6,0,L|1:353,1,106.25,2|0,3:2|0:0,0:0:0:0:
194,304,85810,1,8,0:0:0:0:
60,163,85946,1,2,0:0:0:0:
236,183,86083,1,2,3:2:0:0:
85,270,86219,1,2,3:2:0:0:
67,66,86356,1,10,0:0:0:0:
152,219,86492,1,2,0:0:0:0:
244,15,86628,5,10,3:2:0:0:
466,199,87174,5,10,3:2:0:0:
163,332,87719,5,10,3:2:0:0:
346,276,87856,1,0,3:0:0:0:
100,167,87992,1,0,3:0:0:0:
269,198,88128,1,10,3:2:0:0:
81,267,88265,1,0,3:0:0:0:
191,97,88401,1,0,3:0:0:0:
280,371,88537,5,8,3:2:0:0:
280,371,88810,6,0,P|344:361|381:290,1,127.5,4|0,3:1|0:0,0:0:0:0:
407,233,89083,2,0,P|404:290|421:320,1,85,8|2,0:0|0:0,0:0:0:0:
491,176,89356,2,0,L|355:193,1,127.5,10|0,3:2|0:0,0:0:0:0:
286,158,89628,2,0,L|404:170,1,85,8|2,0:0|3:2,0:0:0:0:
202,25,89901,6,0,B|197:59|197:59|217:118,1,85,10|0,0:0|3:0,0:0:0:0:
294,249,90174,1,8,0:0:0:0:
293,62,90310,1,2,0:0:0:0:
123,111,90446,1,10,3:2:0:0:
286,158,90583,1,2,3:2:0:0:
78,219,90719,1,10,0:0:0:0:
294,249,90856,1,2,0:0:0:0:
163,382,90992,6,0,B|146:341|146:341|168:225,1,127.5,6|0,3:2|0:0,0:0:0:0:
192,182,91265,2,0,L|206:279,1,85,8|2,0:0|0:0,0:0:0:0:
429,275,91537,2,0,B|446:234|446:234|424:118,1,127.5,10|0,3:2|0:0,0:0:0:0:
400,75,91810,2,0,L|386:172,1,85,10|2,0:0|3:2,0:0:0:0:
48,102,92083,6,0,P|109:58|183:81,1,127.5,10|0,0:0|0:0,0:0:0:0:
121,138,92356,2,0,P|182:94|256:117,1,127.5,10|0,0:0|0:0,0:0:0:0:
194,174,92628,2,0,P|255:130|329:153,1,127.5,10|0,3:2|0:0,0:0:0:0:
268,211,92901,2,0,L|260:308,1,85,10|0,0:0|0:0,0:0:0:0:
83,354,93174,6,0,B|126:333|126:333|185:338,1,85,6|0,3:2|0:0,0:0:0:0:
332,369,93446,1,8,0:0:0:0:
179,257,93583,1,2,0:0:0:0:
429,258,93719,2,0,B|386:237|386:237|327:242,1,85,10|0,3:2|3:0,0:0:0:0:
163,336,93992,1,8,0:0:0:0:
288,170,94128,1,2,3:2:0:0:
160,67,94265,6,0,L|176:161,1,85,10|0,0:0|3:0,0:0:0:0:
37,248,94537,2,0,L|51:164,1,85,8|2,0:0|0:0,0:0:0:0:
56,36,94810,1,10,3:2:0:0:
202,161,94946,1,2,3:2:0:0:
51,164,95083,1,10,0:0:0:0:
160,67,95219,1,2,0:0:0:0:
198,265,95356,6,0,P|248:288|351:232,1,170,6|8,3:2|0:0,0:0:0:0:
448,132,95765,1,2,0:0:0:0:
448,132,95901,2,0,L|428:241,1,85,2|0,3:2|3:0,0:0:0:0:
322,62,96174,2,0,L|342:171,1,85,10|2,0:0|3:2,0:0:0:0:
494,276,96446,6,0,P|424:242|367:257,1,127.5,10|0,0:0|0:0,0:0:0:0:
310,301,96719,2,0,L|327:388,1,85,8|0,0:0|0:0,0:0:0:0:
55,185,96992,2,0,P|125:151|182:166,1,127.5,0|8,3:0|0:3,0:0:0:0:
239,210,97265,2,0,L|222:297,1,85,8|8,0:0|0:0,0:0:0:0:
432,312,97537,6,0,P|377:292|303:304,1,127.500004863739,0|0,3:0|3:0,0:0:0:0:
227,356,97946,1,8,0:3:0:0:
227,356,98083,2,0,L|220:271,1,63.7500024318696,0|4,3:0|0:3,0:0:0:0:
140,203,98356,2,0,L|133:288,1,63.7500024318696,0|0,3:0|0:0,0:0:0:0:
201,144,98628,5,0,3:0:0:0:
380,209,99037,1,0,3:0:0:0:
310,6,99446,1,8,3:0:0:0:
310,6,99719,6,0,P|309:62|334:130,1,127.500004863739,2|2,3:2|0:3,0:0:0:0:
433,134,100128,1,8,0:3:0:0:
433,134,100196,1,8,0:3:0:0:
433,134,100265,2,0,L|441:71,1,63.7500024318696,8|0,0:0|3:0,0:0:0:0:
482,271,100537,2,0,L|490:208,1,63.7500024318696,10|2,0:0|0:0,0:0:0:0:
370,240,100810,6,0,P|328:233|292:245,1,63.7500024318696,2|0,3:2|0:0,0:0:0:0:
261,312,101083,2,0,L|274:391,1,63.7500024318696,10|0,0:0|3:0,0:0:0:0:
53,239,101356,2,0,P|108:216|133:218,1,63.7500024318696,2|0,0:0|0:0,0:0:0:0:
171,282,101629,2,0,L|158:356,1,63.7500024318696,10|0,0:0|0:0,0:0:0:0:
254,222,101901,6,0,L|240:91,1,127.500004863739,2|2,3:2|0:3,0:0:0:0:
170,44,102310,1,8,0:3:0:0:
336,39,102446,2,0,L|330:104,1,63.7500024318696,8|0,0:0|3:0,0:0:0:0:
424,20,102719,2,0,L|418:85,1,63.7500024318696,10|2,0:0|0:0,0:0:0:0:
441,189,102992,5,0,3:0:0:0:
449,166,103128,1,0,3:0:0:0:
339,217,103265,1,8,0:0:0:0:
353,253,103401,1,2,3:0:0:0:
257,339,103537,1,2,0:3:0:0:
195,258,103674,1,2,3:0:0:0:
123,362,103810,1,8,0:0:0:0:
123,362,104083,6,0,P|120:296|99:229,1,127.500004863739,2|2,3:2|0:3,0:0:0:0:
2,204,104492,1,8,0:3:0:0:
2,204,104560,1,8,0:3:0:0:
2,204,104628,2,0,P|4:175|19:133,1,63.7500024318696,8|0,0:0|3:0,0:0:0:0:
101,111,104901,2,0,P|99:82|83:43,1,63.7500024318696,10|2,0:0|0:0,0:0:0:0:
84,195,105174,6,0,L|156:181,1,63.7500024318696,2|0,3:2|3:0,0:0:0:0:
215,132,105446,2,0,L|290:138,1,63.7500024318696,10|0,0:0|3:0,0:0:0:0:
312,224,105719,2,0,L|247:232,1,63.7500024318696,2|0,0:0|3:0,0:0:0:0:
186,305,105991,2,0,L|118:294,1,63.7500024318696,10|0,0:0|0:0,0:0:0:0:
363,383,106265,6,0,P|366:338|390:252,1,127.500004863739,2|2,3:2|0:3,0:0:0:0:
487,215,106674,1,8,0:3:0:0:
487,215,106810,2,0,L|472:302,1,63.7500024318696,8|0,0:0|3:0,0:0:0:0:
392,161,107083,2,0,L|381:79,1,63.7500024318696,10|2,0:0|0:0,0:0:0:0:
250,5,107356,5,10,3:2:0:0:
330,34,107492,1,8,0:3:0:0:
177,108,107628,1,8,0:3:0:0:
264,99,107765,2,0,L|272:144,5,31.8750012159348,8|8|8|8|8|8,3:2|0:3|0:3|0:3|0:3|0:3,0:0:0:0:
165,23,108174,1,8,3:2:0:0:
165,23,108446,6,0,B|125:18|125:18|86:24|86:24|36:17,1,127.500004863739,2|2,3:2|0:3,0:0:0:0:
82,113,108856,1,8,0:3:0:0:
82,113,108924,1,8,0:3:0:0:
82,113,108992,2,0,L|96:186,1,63.7500024318696,8|0,0:0|3:0,0:0:0:0:
28,236,109265,2,0,L|23:319,1,63.7500024318696,10|2,0:0|0:0,0:0:0:0:
186,249,109537,6,0,P|239:223|307:231,2,127.500004863739,2|10|2,3:2|0:0|0:0,0:0:0:0:
111,313,110219,1,0,3:0:0:0:
244,378,110356,2,0,L|253:295,1,63.7500024318696,10|0,0:0|0:0,0:0:0:0:
327,154,110628,6,0,L|347:293,1,127.500004863739,2|2,3:2|0:3,0:0:0:0:
483,218,111037,2,0,P|450:210|408:211,2,63.7500024318696,8|8|0,0:3|0:0|3:0,0:0:0:0:
512,122,111446,2,0,P|489:128|445:130,1,63.7500024318696,10|0,0:0|0:0,0:0:0:0:
353,65,111719,5,2,3:2:0:0:
379,70,111856,1,0,3:0:0:0:
295,134,111992,1,8,0:0:0:0:
241,74,112128,2,0,L|173:81,1,63.7500024318696,2|2,3:0|0:0,0:0:0:0:
42,135,112401,1,2,3:0:0:0:
42,135,112537,2,0,L|117:145,1,63.7500024318696,10|2,0:0|0:0,0:0:0:0:
233,239,112810,6,0,P|190:223|158:230,1,63.7500024318696,0|0,3:0|0:0,0:0:0:0:
96,268,113083,2,0,L|108:343,1,63.7500024318696,2|8,0:0|0:3,0:0:0:0:
118,339,113287,1,8,0:3:0:0:
129,345,113356,6,0,P|153:338|193:338,1,63.7500024318696,8|0,0:0|3:0,0:0:0:0:
273,379,113628,2,0,P|299:360|337:353,1,63.7500024318696,8|0,0:0|0:0,0:0:0:0:
380,277,113901,5,0,3:0:0:0:
360,273,114037,1,0,3:0:0:0:
449,215,114174,1,8,0:0:0:0:
466,211,114310,1,0,3:0:0:0:
355,164,114446,2,0,P|345:142|340:97,1,63.7500024318696,2|0,0:0|3:0,0:0:0:0:
442,49,114719,2,0,L|432:111,1,63.7500024318696,10|2,0:0|0:0,0:0:0:0:
288,232,114992,6,0,L|159:221,1,127.500004863739,2|2,3:2|0:3,0:0:0:0:
99,136,115401,2,0,L|170:121,2,63.7500024318696,8|8|0,0:3|0:0|3:0,0:0:0:0:
33,46,115810,2,0,L|113:54,1,63.7500024318696,10|0,0:0|0:0,0:0:0:0:
221,24,116083,5,10,0:0:0:0:
160,221,116219,1,8,0:0:0:0:
208,10,116356,1,8,0:0:0:0:
311,311,116492,5,10,0:0:0:0:
395,182,117037,1,2,0:0:0:0:
395,182,117174,6,0,B|377:180|366:190|366:190|346:177|346:177|335:197|311:197|311:197|281:184|241:187,1,140.25000428009,6|0,3:2|0:0,0:0:0:0:
187,162,117446,2,0,B|203:167|220:177|220:177|243:173|284:137,1,93.5000028533936,0|2,3:0|3:2,0:0:0:0:
87,88,117719,6,0,B|75:101|75:101|91:114|91:114|75:128|75:128|91:138|91:138|77:152|77:152|92:164|92:164|79:178|79:178|97:190,1,140.25000428009,10|0,0:0|0:0,0:0:0:0:
27,244,117992,2,0,B|43:230|43:230|57:241|57:241|68:228|68:228|80:241|80:241|95:228,1,93.5000028533936,2|2,0:3|3:2,0:0:0:0:
241,297,118265,6,0,B|250:310|277:320|277:320|249:321|234:342|234:342|215:327|194:334|194:334|169:346|145:336,1,187.000005706787,2|0,0:0|3:0,0:0:0:0:
173,239,118674,1,2,0:0:0:0:
293,326,118810,1,10,0:0:0:0:
310,229,118946,1,2,0:0:0:0:
269,250,119083,2,0,B|277:217|251:182|251:182|257:162|273:162,1,93.5000028533936,2|2,0:0|0:0,0:0:0:0:
375,67,119356,6,0,B|394:89|394:89|388:111|388:111|429:119|422:142|422:142|433:156|433:156|416:167|404:188,1,140.25000428009,2|0,3:2|0:0,0:0:0:0:
419,190,119628,1,2,0:0:0:0:
472,60,119765,1,2,0:0:0:0:
290,108,119901,2,0,B|282:111|282:111|279:105|279:105|271:113|271:113|261:113|261:113|255:113|255:113|248:126|248:126|243:111|243:111|232:118|232:118|228:105|228:105|221:116|221:116|218:106|218:106|207:115|207:115|204:106|204:106|192:97,1,140.25000428009,10|0,0:0|0:0,0:0:0:0:
162,104,120174,1,2,0:0:0:0:
214,208,120310,1,2,3:2:0:0:
66,263,120446,6,0,B|52:227|69:219|69:219|62:196|75:169,1,93.5000028533936,2|0,0:0|3:0,0:0:0:0:
227,313,120719,2,0,B|241:277|224:269|224:269|231:246|218:219,1,93.5000028533936,2|2,3:2|0:0,0:0:0:0:
38,358,120992,2,0,B|12:293|43:278|43:278|30:237|54:188,1,140.25000428009,10|8,0:0|0:3,0:0:0:0:
81,159,121265,1,2,0:0:0:0:
143,324,121401,1,8,0:0:0:0:
300,215,121537,6,0,B|328:192|346:196|346:196|356:237|356:237|387:224|426:283|447:220,1,187.000005706787,6|0,3:2|3:0,0:0:0:0:
428,126,121946,1,2,3:2:0:0:
341,317,122083,2,0,B|325:329|325:329|292:326|283:308|279:343|221:330,1,93.5000028533936,10|0,0:0|0:0,0:0:0:0:
101,221,122356,2,0,B|115:234|115:234|149:234|159:217|160:252|219:244,1,93.5000028533936,8|2,0:3|3:2,0:0:0:0:
248,43,122628,6,0,B|242:66|261:92|261:92|273:112|254:121|254:121|255:141|255:141|287:164|267:192|267:192|279:223,1,187.000005706787,2|0,0:0|3:0,0:0:0:0:
326,285,123037,1,2,0:0:0:0:
371,180,123174,1,10,0:0:0:0:
204,330,123310,1,2,0:0:0:0:
173,258,123446,1,2,0:0:0:0:
383,350,123583,1,2,0:0:0:0:
394,88,123719,5,2,3:2:0:0:
119,156,124128,1,2,0:0:0:0:
119,156,124265,2,0,B|158:142|158:142|162:154|162:154|178:149|178:149|221:143,1,93.5000028533936,2|0,0:0|0:0,0:0:0:0:
401,218,124537,2,0,B|363:209|363:209|356:226|356:226|351:215|351:215|304:206,1,93.5000028533936,2|2,0:0|0:0,0:0:0:0:
165,327,124810,5,8,3:0:0:0:
247,294,124946,1,8,0:0:0:0:
119,156,125083,5,0,3:0:0:0:
62,322,125219,1,8,0:0:0:0:
13,107,125356,5,8,3:2:0:0:
109,245,125492,1,8,0:0:0:0:
215,87,125628,6,0,B|269:60|332:73|332:73|324:110,1,140.25000428009,0|0,3:0|0:0,0:0:0:0:
314,167,125901,6,0,P|340:140|381:154,1,76.4999976654053,2|0,0:0|0:0,0:0:0:0:
472,250,126174,6,0,L|458:403,1,110.499994941712,12|2,3:2|0:0,0:0:0:0:
177,290,126446,2,0,B|211:264|211:264|322:281,1,110.499994941712,2|0,3:2|3:0,0:0:0:0:
459,126,126719,1,8,0:0:0:0:
174,185,126856,1,2,3:2:0:0:
304,19,126992,6,0,L|322:163,1,110.499994941712,2|0,0:0|3:0,0:0:0:0:
341,352,127265,1,8,0:0:0:0:
385,197,127401,1,2,0:0:0:0:
219,356,127538,1,2,3:2:0:0:
164,347,127606,1,8,0:0:0:0:
109,338,127674,1,10,0:0:0:0:
55,329,127742,1,8,0:0:0:0:
0,321,127810,2,0,P|52:299|143:293,1,110.499994941712,2|2,3:2|0:0,0:0:0:0:
315,376,128083,6,0,P|312:312|301:281,1,95.6250036478044,2|0,0:0|0:0,0:0:0:0:
275,206,128356,6,0,L|256:326,1,114.750000437737,12|2,3:2|0:0,0:0:0:0:
333,131,128628,1,2,3:2:0:0:
173,254,128765,1,2,3:2:0:0:
428,215,128901,1,10,0:0:0:0:
176,84,129037,1,2,3:2:0:0:
411,27,129174,6,0,L|526:52,1,114.750000437737,2|0,0:0|3:0,0:0:0:0:
195,169,129446,2,0,L|82:193,1,114.750000437737,10|0,0:0|0:0,0:0:0:0:
331,316,129719,1,2,3:2:0:0:
345,270,129787,1,8,0:0:0:0:
351,223,129855,1,8,0:0:0:0:
346,176,129923,1,8,0:0:0:0:
333,131,129992,6,0,P|318:168|317:207,1,63.7500024318696,2|0,3:2|0:0,0:0:0:0:
398,44,130265,6,0,B|311:35|311:35|263:69|263:69|173:59,1,229.500000875473,6|8,3:2|0:0,0:0:0:0:
29,10,130674,1,2,0:0:0:0:
188,79,130810,2,0,P|203:138|181:205,1,114.750000437737,2|0,3:2|3:0,0:0:0:0:
15,292,131083,2,0,L|152:277,1,114.750000437737,8|2,0:0|0:0,0:0:0:0:
267,384,131356,6,0,B|248:265|248:265|281:210,1,172.125000656605,2|0,3:2|0:0,0:0:0:0:
326,154,131628,1,8,0:0:0:0:
211,318,131765,1,2,0:0:0:0:
416,298,131901,1,2,3:2:0:0:
167,208,132037,1,2,3:2:0:0:
420,112,132174,1,10,0:0:0:0:
274,220,132310,1,2,0:0:0:0:
179,65,132446,6,0,B|110:10|20:47|20:47|112:106,1,229.500000875473,6|8,3:2|0:0,0:0:0:0:
198,177,132856,1,2,0:0:0:0:
18,257,132992,2,0,P|-6:185|4:134,1,114.750000437737,2|0,3:2|3:0,0:0:0:0:
179,286,133265,2,0,P|203:214|193:163,1,114.750000437737,10|2,0:0|0:0,0:0:0:0:
39,355,133537,5,10,3:2:0:0:
76,320,133605,1,8,0:0:0:0:
124,302,133673,1,8,0:3:0:0:
175,306,133741,1,8,0:3:0:0:
220,329,133809,1,4,0:3:0:0:
260,367,133878,1,4,0:3:0:0:
308,384,133946,1,8,3:2:0:0:
359,381,134014,1,8,0:3:0:0:
404,357,134083,2,0,P|416:319|415:296,1,57.3750002188683,8|8,0:3|0:3,0:0:0:0:
325,121,134219,1,8,0:0:0:0:
320,122,134287,1,8,0:3:0:0:
314,123,134355,1,8,3:2:0:0:
309,124,134423,1,8,0:0:0:0:
303,125,134491,1,10,0:0:0:0:
297,126,134559,1,8,0:0:0:0:
292,127,134628,6,0,B|296:198|296:198|320:238|320:238|327:328,1,172.125000656605,4|0,3:1|0:0,0:0:0:0:
228,266,134901,1,8,0:0:0:0:
461,179,135037,2,0,L|382:171,1,57.3750002188683,2|0,0:0|0:0,0:0:0:0:
141,127,135174,2,0,P|256:133|267:4,1,229.500000875473,2|8,3:2|0:0,0:0:0:0:
76,6,135583,1,2,0:0:0:0:
76,6,135651,1,0,0:0:0:0:
76,6,135719,2,0,P|92:90|82:242,1,229.500000875473,2|8,3:2|0:0,0:0:0:0:
199,60,136128,5,2,0:0:0:0:
249,319,136265,1,2,3:2:0:0:
354,72,136401,1,2,3:2:0:0:
180,235,136537,5,10,0:0:0:0:
451,316,136674,1,2,0:0:0:0:
328,152,136810,6,0,B|275:161|275:161|253:187|253:187|228:149|228:149|113:163,1,229.500000875473,6|8,3:2|0:0,0:0:0:0:
264,30,137219,1,2,0:0:0:0:
442,129,137356,2,0,P|429:213|385:261,1,114.750000437737,2|2,3:2|3:2,0:0:0:0:
179,352,137628,1,10,0:0:0:0:
360,339,137765,1,2,0:0:0:0:
104,180,137901,6,0,B|90:221|90:221|117:320,1,114.750000437737,2|0,3:2|0:0,0:0:0:0:
347,93,138174,2,0,B|361:134|361:134|334:233,1,114.750000437737,10|0,0:0|0:0,0:0:0:0:
46,29,138446,2,0,B|21:64|21:64|22:167,1,114.750000437737,2|0,3:2|3:0,0:0:0:0:
233,117,138719,2,0,P|168:88|116:97,1,114.750000437737,10|8,0:0|0:0,0:0:0:0:
265,318,138992,6,0,B|350:304|350:304|383:323|383:323|499:304,1,229.500000875473,6|8,3:2|0:0,0:0:0:0:
237,202,139401,1,2,0:0:0:0:
155,368,139537,2,0,P|76:362|60:224,1,229.500000875473,2|8,3:2|0:0,0:0:0:0:
326,146,139946,1,2,0:0:0:0:
137,44,140083,6,0,B|152:124|152:124|140:182|140:182|159:271,1,229.500000875473,2|8,3:2|0:0,0:0:0:0:
389,334,140492,1,2,0:0:0:0:
59,248,140628,1,2,3:2:0:0:
326,146,140765,1,2,3:2:0:0:
196,375,140901,2,0,L|177:259,1,114.750000437737,10|2,0:0|0:0,0:0:0:0:
137,44,141174,5,10,3:2:0:0:
435,204,141719,5,10,3:2:0:0:
83,293,142265,5,10,3:2:0:0:
324,226,142401,1,0,3:0:0:0:
146,96,142537,1,0,3:0:0:0:
221,354,142673,1,10,3:2:0:0:
254,131,142809,1,0,3:0:0:0:
69,185,142946,1,0,3:0:0:0:
339,343,143083,5,8,3:2:0:0:
334,359,143356,5,2,3:2:0:0:
51,266,152083,6,0,L|199:253,1,127.5,4|0,3:1|0:0,0:0:0:0:
251,225,152356,2,0,L|157:213,1,85,8|2,0:0|0:0,0:0:0:0:
332,157,152628,2,0,B|356:197|356:197|343:284,1,127.5,10|0,3:2|0:0,0:0:0:0:
371,357,152900,2,0,L|381:272,1,85,8|2,0:0|3:2,0:0:0:0:
366,64,153174,6,0,P|332:59|272:76,1,85,10|0,0:0|3:0,0:0:0:0:
117,183,153446,2,0,L|214:195,1,85,8|2,0:0|0:0,0:0:0:0:
61,103,153719,1,10,3:2:0:0:
144,274,153855,1,2,3:2:0:0:
174,105,153992,1,10,0:0:0:0:
37,241,154128,1,2,0:0:0:0:
263,293,154264,6,0,B|385:276|385:276|330:246,1,170,6|8,3:2|0:0,0:0:0:0:
245,186,154674,1,2,0:0:0:0:
448,210,154810,2,0,P|469:239|419:358,1,170,10|10,3:2|0:0,0:0:0:0:
356,167,155219,1,2,3:2:0:0:
441,38,155355,6,0,L|429:148,1,85,10|0,0:0|3:0,0:0:0:0:
154,144,155628,2,0,P|185:107|246:83,1,85,10|0,0:0|0:0,0:0:0:0:
262,269,155901,2,0,L|244:185,1,85,10|0,3:2|3:0,0:0:0:0:
54,291,156174,2,0,L|38:410,1,85,10|0,0:0|0:0,0:0:0:0:
116,230,156446,6,0,P|74:207|27:208,1,85,6|0,3:2|0:0,0:0:0:0:
238,341,156719,2,0,P|274:319|316:316,1,85,8|2,0:0|0:0,0:0:0:0:
490,373,156992,2,0,L|374:356,1,85,10|0,3:2|3:0,0:0:0:0:
257,230,157264,2,0,L|373:213,1,85,8|2,0:0|3:2,0:0:0:0:
310,61,157537,6,0,B|288:83|288:83|284:142,1,85,10|0,0:0|3:0,0:0:0:0:
426,278,157810,2,0,B|448:256|448:256|450:202,1,85,8|2,0:0|0:0,0:0:0:0:
426,76,158083,1,10,3:2:0:0:
341,217,158219,1,2,3:2:0:0:
197,100,158355,1,10,0:0:0:0:
234,301,158492,1,2,0:0:0:0:
67,223,158628,6,0,P|151:220|233:199,1,170,6|8,3:2|0:0,0:0:0:0:
300,115,159037,1,2,0:0:0:0:
99,49,159174,2,0,P|102:91|112:132,1,85,2|0,3:2|3:0,0:0:0:0:
233,199,159446,1,10,0:0:0:0:
197,100,159583,1,2,3:2:0:0:
55,308,159719,6,0,L|144:296,1,85,10|0,0:0|3:0,0:0:0:0:
411,353,159992,2,0,L|326:363,1,85,8|0,0:0|0:0,0:0:0:0:
148,210,160264,6,0,L|237:198,1,85,0|8,3:0|0:3,0:0:0:0:
481,256,160537,1,8,0:0:0:0:
438,261,160605,1,8,0:0:0:0:
396,266,160673,1,8,0:0:0:0:
353,271,160742,1,8,0:0:0:0:
311,276,160810,6,0,P|306:224|331:153,1,101.999996887207,4|8,3:1|0:0,0:0:0:0:
468,53,161083,2,0,P|480:102|475:152,1,101.999996887207,0|10,3:0|0:0,0:0:0:0:
254,78,161356,1,2,3:2:0:0:
393,110,161492,1,8,0:0:0:0:
161,175,161628,1,0,3:0:0:0:
314,155,161765,1,10,0:0:0:0:
109,278,161901,5,2,3:2:0:0:
114,88,162037,1,8,0:0:0:0:
228,318,162174,1,0,3:0:0:0:
161,175,162310,1,10,0:0:0:0:
13,253,162446,2,0,L|28:367,1,101.999996887207,2|10,3:2|0:0,0:0:0:0:
314,155,162719,2,0,L|300:256,1,101.999996887207,2|10,3:2|0:0,0:0:0:0:
114,88,162992,6,0,B|160:76|160:76|198:91|198:91|264:80,1,152.999995330811,6|0,3:2|0:0,0:0:0:0:
340,43,163264,2,0,L|225:34,1,101.999996887207,0|10,3:0|0:0,0:0:0:0:
395,216,163537,2,0,L|510:207,1,101.999996887207,2|8,3:2|0:0,0:0:0:0:
314,155,163810,1,2,3:2:0:0:
349,328,163946,1,10,0:0:0:0:
154,367,164083,6,0,P|144:317|162:251,1,101.999996887207,2|8,3:2|0:0,0:0:0:0:
37,118,164355,2,0,P|85:134|133:182,1,101.999996887207,2|8,3:2|0:0,0:0:0:0:
303,142,164628,2,0,P|264:175|198:193,1,101.999996887207,2|8,3:2|0:0,0:0:0:0:
79,17,164901,1,2,3:2:0:0:
213,89,165037,1,8,0:0:0:0:
354,10,165174,6,0,L|455:3,1,101.999996887207,6|8,3:2|0:0,0:0:0:0:
216,191,165446,2,0,L|111:183,1,101.999996887207,0|10,3:0|0:0,0:0:0:0:
301,382,165719,2,0,P|316:337|303:280,1,101.999996887207,2|8,3:2|0:0,0:0:0:0:
34,138,165992,2,0,P|23:187|38:235,1,101.999996887207,0|10,3:0|0:0,0:0:0:0:
226,18,166264,6,0,L|115:26,1,101.999996887207,2|8,3:2|0:0,0:0:0:0:
305,284,166537,2,0,L|204:275,1,101.999996887207,0|10,3:0|0:0,0:0:0:0:
397,217,166810,1,2,3:2:0:0:
240,364,166946,1,10,0:0:0:0:
178,143,167083,1,2,3:2:0:0:
305,284,167219,1,10,0:0:0:0:
398,38,167356,6,0,B|427:20|427:20|414:133,1,127.5,2|0,3:2|0:0,0:0:0:0:
397,217,167628,1,0,0:0:0:0:
293,148,167764,1,2,0:0:0:0:
404,229,167901,2,0,L|416:313,1,85,2|0,3:2|0:0,0:0:0:0:
305,284,168174,1,2,0:0:0:0:
474,170,168310,1,2,0:0:0:0:
226,195,168446,6,0,P|174:197|125:167,1,85,2|8,0:0|3:2,0:0:0:0:
171,31,168719,2,0,P|198:75|197:132,1,85,0|8,0:0|0:0,0:0:0:0:
56,160,168992,2,0,P|80:113|130:86,1,85,0|8,3:0|0:0,0:0:0:0:
339,126,169265,5,0,3:0:0:0:
341,155,169333,1,8,0:0:0:0:
343,185,169401,1,8,0:0:0:0:
345,214,169469,1,8,0:0:0:0:
348,244,169537,6,0,L|366:156,1,85,0|0,3:0|0:0,0:0:0:0:
211,300,169810,2,0,L|193:211,1,85,0|8,3:0|0:3,0:0:0:0:
125,61,170083,1,0,3:0:0:0:
45,218,170219,1,4,0:3:0:0:
229,134,170356,1,0,3:0:0:0:
126,151,170492,1,0,0:0:0:0:
310,194,170628,5,0,3:0:0:0:
315,214,170901,5,2,0:3:0:0:
485,298,171037,1,0,3:0:0:0:
481,314,171310,5,2,0:3:0:0:
255,377,171446,1,0,3:0:0:0:
