osu file format v14

[General]
AudioFilename: audio.mp3
AudioLeadIn: 0
PreviewTime:71220
Countdown: 0
SampleSet: Soft
StackLeniency: 0.7
Mode: 0
LetterboxInBreaks: 0
WidescreenStoryboard: 1

[Editor]
DistanceSpacing: 1.5
BeatDivisor: 4
GridSize: 16
TimelineZoom: 1.9

[Metadata]
Title:Yotsuya-san ni Yoroshiku
TitleUnicode:四ツ谷さんによろしく
Artist:Himeringo
ArtistUnicode:ひめりんご
Creator:Nevo
Version:Hooni's Normal
Source:
Tags:amb1d3x hishiro chizuru milan- nexusqi hooni japanese rock utaite cover addy2607 KaedeharaKazuha eight JRock J-Rock
BeatmapID:2771272
BeatmapSetID:1100637

[Difficulty]
HPDrainRate:3.5
CircleSize:3
OverallDifficulty:4
ApproachRate:5.5
SliderMultiplier:1
SliderTickRate:1

[Events]
//Background and Video events
0,0,"primary.jpg",0,0
//Break Periods
2,25737,33140
2,143283,150958
//Storyboard Layer 0 (Background)
//Storyboard Layer 1 (Fail)
//Storyboard Layer 2 (Pass)
//Storyboard Layer 3 (Foreground)
//Storyboard Layer 4 (Overlay)
//Storyboard Sound Samples

[TimingPoints]
2629,272.727272727273,4,2,1,40,1,0
20083,291.26213592233,4,2,1,40,1,0
20083,-100,4,2,1,40,0,0
21248,288.461538461538,4,2,1,40,1,0
21248,-100,4,2,1,40,0,0
23356,272.727272727273,4,2,1,40,1,0
23356,-100,4,2,1,40,0,0
23628,-100,4,2,1,40,0,0
23901,-100,4,2,1,40,0,0
24174,-100,4,2,1,40,0,0
24719,-100,4,2,1,40,0,0
24992,-100,4,2,1,40,0,0
25537,-100,4,2,2,60,0,0
34265,-100,4,2,1,75,0,0
51719,-100,4,2,1,70,0,0
52810,-111.111111111111,4,2,1,70,0,0
53901,-111.111111111111,4,2,1,60,0,0
71356,-100,4,2,1,85,0,1
71765,-100,4,2,1,85,0,1
71901,-100,4,2,1,85,0,1
72310,-100,4,2,1,85,0,1
72446,-100,4,2,1,85,0,1
88537,-100,4,2,1,85,0,1
88810,-100,4,2,1,75,0,0
97537,-100,4,2,1,75,0,0
99719,-111.111111111111,4,2,1,60,0,0
117174,-100,4,2,1,65,0,0
125901,-100,4,2,1,65,0,0
126174,-100,4,2,1,85,0,1
128083,-100,4,2,1,85,0,1
128356,-100,4,2,1,85,0,1
129992,-100,4,2,1,85,0,1
130265,-100,4,2,1,85,0,1
143356,-100,4,2,2,60,0,0
152083,-100,4,2,1,75,0,0
160810,-100,4,2,1,75,0,0
167356,-100,4,2,1,75,0,0
169537,-100,4,2,2,60,0,0

[Colours]
Combo1 : 129,104,86
Combo2 : 107,129,107
Combo3 : 150,147,142

[HitObjects]
256,192,23356,12,0,24446,3:0:0:0:
41,152,24992,5,0,3:0:0:0:
111,81,25265,1,8,0:3:0:0:
204,119,25537,1,2,3:2:0:0:
459,53,34265,6,0,L|438:167,1,100,4|8,3:1|0:0,0:0:0:0:
406,186,34674,1,2,0:0:0:0:
406,186,34810,2,0,L|426:300,1,100,10|8,3:2|0:0,0:0:0:0:
362,364,35356,2,0,B|312:372|312:372|268:349,1,100,10|8,0:0|0:0,0:0:0:0:
202,275,35901,2,0,L|152:283,1,50,10|2,3:2|3:2,0:0:0:0:
116,318,36174,2,0,L|66:309,1,50,10|2,0:0|0:0,0:0:0:0:
32,273,36446,6,0,L|49:174,1,100,6|8,3:2|0:0,0:0:0:0:
67,76,36992,2,0,B|116:67|116:67|160:90,1,100,10|10,3:2|0:0,0:0:0:0:
226,166,37537,1,10,0:0:0:0:
158,239,37810,1,10,0:0:0:0:
206,327,38083,2,0,L|304:344,1,100,10|10,3:2|0:0,0:0:0:0:
403,361,38628,6,0,B|394:311|394:311|417:267,1,100,6|8,3:2|0:0,0:0:0:0:
459,240,39037,1,2,0:0:0:0:
459,240,39174,2,0,B|481:196|481:196|473:146,1,100,10|8,3:2|0:0,0:0:0:0:
423,60,39719,2,0,L|324:42,1,100,10|8,0:0|0:0,0:0:0:0:
249,109,40265,2,0,L|199:117,1,50,10|2,3:2|3:2,0:0:0:0:
160,87,40537,2,0,L|110:95,1,50,10|2,0:0|0:0,0:0:0:0:
82,136,40810,6,0,L|100:234,1,100,6|8,3:2|0:0,0:0:0:0:
188,283,41356,2,0,B|237:292|237:292|281:269,1,100,2|10,3:2|0:0,0:0:0:0:
326,246,41765,1,2,3:2:0:0:
326,246,41901,2,0,B|333:290|333:290|346:300|346:300|353:338,2,100,10|8|0,0:0|0:0|3:0,0:0:0:0:
384,164,42719,1,8,0:0:0:0:
303,106,42992,6,0,B|254:97|254:97|210:120,1,100,4|8,3:1|0:0,0:0:0:0:
180,161,43401,1,2,0:0:0:0:
180,161,43537,2,0,L|200:275,1,100,10|8,3:2|0:0,0:0:0:0:
89,280,44083,2,0,L|69:166,1,100,10|8,0:0|0:0,0:0:0:0:
57,82,44628,2,0,L|107:74,1,50,10|2,3:2|3:2,0:0:0:0:
137,34,44901,2,0,L|187:42,1,50,10|2,0:0|0:0,0:0:0:0:
220,79,45174,6,0,L|319:61,1,100,6|8,3:2|0:0,0:0:0:0:
403,114,45719,2,0,B|426:158|426:158|417:207,1,100,10|10,3:2|0:0,0:0:0:0:
351,284,46265,1,10,0:0:0:0:
259,246,46537,1,10,0:0:0:0:
181,308,46810,2,0,B|137:331|137:331|88:322,1,100,10|10,3:2|0:0,0:0:0:0:
17,250,47356,6,0,L|-1:151,1,100,6|8,3:2|0:0,0:0:0:0:
18,105,47765,1,2,0:0:0:0:
18,105,47901,2,0,B|62:82|62:82|111:91,1,100,10|8,3:2|0:0,0:0:0:0:
192,151,48446,2,0,B|241:160|241:160|285:137,1,100,10|8,0:0|0:0,0:0:0:0:
361,69,48992,2,0,L|411:77,1,50,10|2,3:2|3:2,0:0:0:0:
448,110,49265,2,0,L|440:160,1,50,10|2,0:0|0:0,0:0:0:0:
410,199,49537,6,0,L|428:298,1,100,6|8,3:2|0:0,0:0:0:0:
350,361,50083,2,0,L|251:343,1,100,2|10,3:2|0:0,0:0:0:0:
226,307,50492,1,2,3:2:0:0:
226,307,50628,2,0,B|233:263|233:263|246:253|246:253|253:215,2,100,10|8|0,0:0|0:0|3:0,0:0:0:0:
128,327,51446,1,8,0:0:0:0:
445,70,53901,6,0,B|397:42|354:84|363:92|320:126|279:100,1,179.999994506836,2|8,3:2|0:0,0:0:0:0:
198,46,54719,1,10,0:0:0:0:
132,120,54992,2,0,L|44:135,1,89.9999972534181,2|10,3:2|0:0,0:0:0:0:
56,233,55537,2,0,L|144:218,1,89.9999972534181,2|10,0:0|0:0,0:0:0:0:
231,268,56083,6,0,P|267:322|247:384,2,134.999995880127,2|8|10,3:2|0:3|0:0,0:0:0:0:
144,217,57174,2,0,P|125:176|132:132,1,89.9999972534181,0|8,3:0|0:0,0:0:0:0:
206,66,57719,2,0,L|194:1,2,44.999998626709,2|2|8,0:3|3:0|0:0,0:0:0:0:
291,118,58265,6,0,B|330:143|373:109|364:101|407:59|455:87,1,179.999994506836,2|8,3:2|0:0,0:0:0:0:
512,168,59083,1,10,0:0:0:0:
444,240,59356,2,0,P|436:283|455:324,1,89.9999972534181,2|10,3:2|0:0,0:0:0:0:
376,384,59901,2,0,L|288:369,1,89.9999972534181,2|10,0:0|0:0,0:0:0:0:
230,288,60446,6,0,L|257:126,2,134.999995880127,2|8|10,3:2|0:3|0:0,0:0:0:0:
143,336,61537,2,0,P|99:343|58:324,1,89.9999972534181,10|8,3:2|0:3,0:0:0:0:
30,290,61946,2,0,L|45:202,1,89.9999972534181,8|8,3:2|0:3,0:0:0:0:
55,157,62356,1,8,3:2:0:0:
132,95,62628,6,0,P|217:75|289:124,1,179.999994506836,2|8,3:2|0:0,0:0:0:0:
346,206,63446,1,10,0:0:0:0:
264,262,63719,2,0,L|176:247,1,89.9999972534181,2|10,3:2|0:0,0:0:0:0:
155,344,64265,2,0,L|243:359,1,89.9999972534181,2|10,0:0|0:0,0:0:0:0:
341,376,64810,6,0,L|367:225,1,134.999995880127,2|8,3:2|0:3,0:0:0:0:
374,199,65356,1,8,0:0:0:0:
455,142,65628,1,10,0:0:0:0:
408,55,65901,2,0,P|367:36|323:43,1,89.9999972534181,2|8,3:2|0:0,0:0:0:0:
232,81,66446,2,0,L|224:36,2,44.999998626709,2|2|10,0:0|3:0|0:0,0:0:0:0:
293,160,66992,6,0,L|261:337,1,179.999994506836,0|8,3:0|0:0,0:0:0:0:
173,381,67810,1,8,0:0:0:0:
94,321,68083,2,0,L|109:233,1,89.9999972534181,0|8,3:0|0:0,0:0:0:0:
19,191,68628,2,0,L|4:103,1,89.9999972534181,2|10,0:0|0:0,0:0:0:0:
69,27,69174,6,0,P|130:6|185:42,1,134.999995880127,2|8,3:2|0:3,0:0:0:0:
216,75,69719,1,8,0:0:0:0:
310,44,69992,1,10,0:0:0:0:
385,109,70265,2,0,B|378:146|378:146|388:160|388:160|382:195,1,89.9999972534181,10|8,0:0|0:0,0:0:0:0:
375,239,70674,1,10,0:0:0:0:
148,345,71356,6,0,B|98:353|98:353|54:330,1,100,4|8,3:1|0:0,0:0:0:0:
17,297,71765,1,2,0:0:0:0:
17,297,71901,2,0,L|37:179,1,100,2|8,3:2|0:0,0:0:0:0:
115,139,72446,2,0,B|165:131|165:131|209:154,1,100,2|8,3:2|0:0,0:0:0:0:
260,240,72992,2,0,L|310:248,1,50,2|2,3:2|3:2,0:0:0:0:
343,285,73265,2,0,L|393:277,1,50,10|2,0:0|0:0,0:0:0:0:
432,247,73537,6,0,L|453:129,1,100,6|8,3:2|0:0,0:0:0:0:
400,61,74083,2,0,L|408:11,2,50,2|2|10,3:2|3:2|0:0,0:0:0:0:
319,120,74628,1,2,3:2:0:0:
220,104,74901,1,10,0:0:0:0:
160,24,75174,1,2,3:2:0:0:
61,40,75447,1,10,0:0:0:0:
15,140,75719,6,0,L|37:268,1,100,6|8,3:2|0:0,0:0:0:0:
112,299,76265,2,0,B|162:307|162:307|206:284,1,100,2|8,3:2|0:0,0:0:0:0:
236,244,76674,1,2,0:0:0:0:
236,244,76810,2,0,B|286:236|286:236|330:259,1,100,2|8,3:2|0:0,0:0:0:0:
421,301,77356,2,0,L|429:251,1,50,2|2,3:2|3:2,0:0:0:0:
472,226,77628,2,0,L|480:176,1,50,10|2,0:0|0:0,0:0:0:0:
460,131,77901,6,0,L|332:109,1,100,6|8,3:2|0:0,0:0:0:0:
285,49,78446,2,0,L|186:65,1,100,2|10,3:2|0:0,0:0:0:0:
138,80,78856,1,2,0:0:0:0:
138,80,78992,2,0,B|149:146|149:146|118:202|118:202|130:269,1,200,10|8,3:2|0:3,0:0:0:0:
218,320,79810,2,0,L|267:311,1,50,8|10,3:2|0:0,0:0:0:0:
317,303,80083,6,0,L|300:204,1,100,4|8,3:1|0:0,0:0:0:0:
261,183,80492,1,2,0:0:0:0:
261,183,80628,2,0,L|283:55,1,100,2|8,3:2|0:0,0:0:0:0:
357,23,81174,2,0,B|407:15|407:15|451:38,1,100,2|8,3:2|0:0,0:0:0:0:
512,117,81719,2,0,L|503:166,1,50,2|2,3:2|3:2,0:0:0:0:
464,197,81991,2,0,L|455:246,1,50,10|2,0:0|0:0,0:0:0:0:
417,280,82265,6,0,B|373:257|373:257|323:265,1,100,6|8,3:2|0:0,0:0:0:0:
252,335,82810,2,0,L|260:384,2,50,2|2|10,3:2|3:2|0:0,0:0:0:0:
159,298,83356,1,2,3:2:0:0:
64,263,83628,1,10,0:0:0:0:
47,163,83901,1,2,3:2:0:0:
123,98,84174,1,10,0:0:0:0:
219,151,84446,6,0,B|269:159|269:159|313:136,1,100,6|8,3:2|0:0,0:0:0:0:
403,93,84992,2,0,L|420:192,1,100,2|8,3:2|0:0,0:0:0:0:
448,234,85401,1,2,0:0:0:0:
448,234,85537,2,0,L|431:333,1,100,2|8,3:2|0:0,0:0:0:0:
342,380,86083,2,0,L|293:371,1,50,2|2,3:2|3:2,0:0:0:0:
253,341,86356,2,0,L|204:350,1,50,10|2,0:0|0:0,0:0:0:0:
155,358,86628,6,0,B|146:310|146:310|117:271|117:271|132:221|132:221|123:171,1,200,10|10,3:2|3:2,0:0:0:0:
278,43,87719,2,0,B|328:35|328:35|372:58,1,100,10|0,3:2|3:0,0:0:0:0:
393,103,88128,2,0,B|374:150|374:150|333:176,1,100,10|0,3:2|3:0,0:0:0:0:
283,172,88537,1,8,3:2:0:0:
191,112,88810,6,0,L|92:129,1,100,4|8,3:1|0:0,0:0:0:0:
55,161,89219,1,2,0:0:0:0:
55,161,89356,2,0,B|47:211|47:211|70:255,1,100,10|8,3:2|0:0,0:0:0:0:
151,314,89901,2,0,L|250:297,1,100,10|8,0:0|0:0,0:0:0:0:
314,220,90446,2,0,L|364:228,1,50,10|2,3:2|3:2,0:0:0:0:
400,262,90719,2,0,L|450:254,1,50,10|2,0:0|0:0,0:0:0:0:
487,221,90992,6,0,L|470:122,1,100,6|8,3:2|0:0,0:0:0:0:
454,24,91537,2,0,B|404:16|404:16|360:39,1,100,10|10,3:2|0:0,0:0:0:0:
290,110,92083,1,10,0:0:0:0:
196,76,92356,1,10,0:0:0:0:
122,143,92628,2,0,L|139:242,1,100,10|10,3:2|0:0,0:0:0:0:
202,320,93174,6,0,B|252:328|252:328|296:305,1,100,6|8,3:2|0:0,0:0:0:0:
322,263,93583,1,2,0:0:0:0:
322,263,93719,2,0,L|305:164,1,100,10|8,3:2|0:0,0:0:0:0:
368,86,94265,2,0,B|418:78|418:78|462:101,1,100,10|8,0:0|0:0,0:0:0:0:
512,188,94810,2,0,L|504:238,1,50,10|2,3:2|3:2,0:0:0:0:
463,266,95083,2,0,L|471:316,1,50,10|2,0:0|0:0,0:0:0:0:
478,365,95356,6,0,L|379:382,1,100,6|8,3:2|0:0,0:0:0:0:
320,301,95901,2,0,L|221:284,1,100,2|10,3:2|0:0,0:0:0:0:
176,281,96310,1,2,3:2:0:0:
176,281,96446,2,0,B|167:324|167:324|176:338|176:338|169:376,2,100,10|8|0,0:0|0:0|3:0,0:0:0:0:
78,261,97265,1,8,0:0:0:0:
54,58,99719,6,0,P|139:35|212:83,1,179.999994506836,2|8,3:2|0:0,0:0:0:0:
273,161,100537,1,10,0:0:0:0:
360,114,100810,2,0,L|374:25,1,89.9999972534181,2|10,3:2|0:0,0:0:0:0:
473,42,101356,2,0,L|458:130,1,89.9999972534181,2|10,0:0|0:0,0:0:0:0:
395,207,101901,6,0,L|368:350,2,134.999995880127,2|8|10,3:2|0:3|0:0,0:0:0:0:
360,114,102992,2,0,P|320:92|276:96,1,89.9999972534181,0|8,3:0|0:0,0:0:0:0:
190,143,103537,2,0,L|182:187,2,44.999998626709,2|2|8,0:3|3:0|0:0,0:0:0:0:
123,68,104083,6,0,P|44:47|15:124,1,179.999994506836,2|8,3:2|0:0,0:0:0:0:
80,200,104901,1,10,0:0:0:0:
29,285,105174,2,0,P|24:329|46:368,1,89.9999972534181,2|10,3:2|0:0,0:0:0:0:
144,384,105719,2,0,L|232:369,1,89.9999972534181,2|10,0:0|0:0,0:0:0:0:
286,285,106265,6,0,P|249:230|270:168,2,134.999995880127,2|8|10,3:2|0:3|0:0,0:0:0:0:
374,330,107356,2,0,P|418:337|459:318,1,89.9999972534181,10|8,3:2|0:3,0:0:0:0:
489,285,107765,2,0,L|474:196,1,89.9999972534181,8|8,3:2|0:3,0:0:0:0:
467,151,108174,1,8,3:2:0:0:
389,91,108446,6,0,B|341:63|298:105|307:113|264:147|225:122,1,179.999994506836,2|8,3:2|0:0,0:0:0:0:
142,66,109265,1,10,0:0:0:0:
77,140,109537,2,0,L|91:228,1,89.9999972534181,2|10,3:2|0:0,0:0:0:0:
107,327,110083,2,0,P|150:334|191:315,1,89.9999972534181,2|10,0:0|0:0,0:0:0:0:
255,240,110628,6,0,L|230:107,1,134.999995880127,2|8,3:2|0:3,0:0:0:0:
221,63,111174,1,8,0:0:0:0:
297,0,111446,1,10,0:0:0:0:
383,49,111719,2,0,L|397:137,1,89.9999972534181,2|8,3:2|0:0,0:0:0:0:
468,208,112265,2,0,L|512:200,2,44.999998626709,2|2|10,0:0|3:0|0:0,0:0:0:0:
405,285,112810,6,0,B|357:313|314:271|323:263|280:229|241:254,1,179.999994506836,0|8,3:0|0:0,0:0:0:0:
153,300,113628,1,8,0:0:0:0:
77,236,113901,2,0,L|91:147,1,89.9999972534181,0|8,3:0|0:0,0:0:0:0:
116,51,114446,2,0,P|159:43|200:62,1,89.9999972534181,2|10,0:0|0:0,0:0:0:0:
272,131,114992,6,0,L|247:263,1,134.999995880127,2|8,3:2|0:3,0:0:0:0:
240,308,115537,1,8,0:0:0:0:
308,380,115810,1,10,0:0:0:0:
394,330,116083,2,0,B|401:293|401:293|391:279|391:279|397:244,1,89.9999972534181,10|8,0:0|0:0,0:0:0:0:
404,200,116492,1,10,0:0:0:0:
193,68,117174,6,0,B|172:68|172:68|145:77|145:77|145:75|145:75|106:84|106:84|85:85,1,100,6|0,3:2|3:0,0:0:0:0:
30,159,117719,2,0,B|24:190|24:190|27:194|27:194|21:213|21:213|37:233|37:233|47:247,1,100,10|2,0:0|0:3,0:0:0:0:
132,302,118265,2,0,B|141:302|141:302|171:315|171:315|180:309|180:309|207:318|207:318|227:319,1,100,2|0,0:0|3:0,0:0:0:0:
310,263,118810,2,0,B|335:267|335:267|340:266|340:266|378:276,1,50,10|2,0:0|0:0,0:0:0:0:
398,303,119083,2,0,B|423:298|423:298|428:299|428:299|466:289,1,50,2|2,0:0|0:0,0:0:0:0:
486,263,119356,6,0,B|485:242|485:242|476:215|476:215|478:215|478:215|469:176|469:176|468:155,1,100,2|2,3:2|0:0,0:0:0:0:
392,103,119901,2,0,B|396:81|396:81|394:75|394:75|402:44,2,50,10|0|2,0:0|0:0|0:0,0:0:0:0:
306,154,120446,1,2,0:0:0:0:
231,87,120719,1,2,3:2:0:0:
144,136,120992,2,0,L|133:203,1,50,10|8,0:0|0:0,0:0:0:0:
97,217,121265,2,0,L|107:284,1,50,2|8,0:0|0:0,0:0:0:0:
135,312,121537,6,0,B|161:319|161:319|165:319|165:319|186:322|186:322|206:305|206:305|211:306|211:306|233:291,1,100,6|0,3:2|3:0,0:0:0:0:
315,253,122083,2,0,B|315:262|315:262|324:301|324:301|322:301|322:301|331:328|331:328|332:348,1,100,10|8,0:0|0:3,0:0:0:0:
440,329,122628,2,0,B|439:319|439:319|430:280|430:280|432:280|432:280|423:253|423:253|422:233,1,100,2|0,0:0|3:0,0:0:0:0:
399,136,123174,2,0,B|380:140|380:140|375:139|375:139|350:144,1,50,10|2,0:0|0:0,0:0:0:0:
306,120,123447,2,0,B|287:124|287:124|282:123|282:123|257:128,1,50,2|2,0:0|0:0,0:0:0:0:
208,139,123719,6,0,P|217:91|192:48,1,100,2|0,3:2|0:0,0:0:0:0:
153,29,124128,1,2,0:0:0:0:
153,29,124265,2,0,P|104:28|67:60,1,100,2|2,0:0|0:0,0:0:0:0:
27,152,124810,2,0,L|38:210,1,50,8|8,3:0|0:0,0:0:0:0:
0,236,125083,2,0,L|11:294,1,50,0|8,3:0|0:0,0:0:0:0:
43,323,125356,2,0,P|90:332|133:307,1,100,8|0,3:2|3:0,0:0:0:0:
187,222,125901,5,2,0:0:0:0:
117,150,126174,1,12,3:2:0:0:
175,69,126446,2,0,L|293:49,1,100,2|8,3:2|0:0,0:0:0:0:
360,100,126992,2,0,L|458:116,1,100,2|8,0:0|0:0,0:0:0:0:
512,199,127537,2,0,L|501:257,1,50,2|10,3:2|0:0,0:0:0:0:
460,275,127810,2,0,L|449:333,1,50,2|2,3:2|0:0,0:0:0:0:
408,351,128083,6,0,B|365:342|365:342|351:351|351:351|313:344,1,100,2|12,0:0|3:2,0:0:0:0:
223,298,128628,2,0,L|214:347,2,50,2|2|10,3:2|3:2|0:0,0:0:0:0:
298,231,129174,1,2,0:0:0:0:
374,166,129447,1,10,0:0:0:0:
357,66,129720,1,2,3:2:0:0:
262,31,129992,1,2,3:2:0:0:
184,109,130265,6,0,L|85:125,1,100,6|8,3:2|0:0,0:0:0:0:
27,207,130810,2,0,B|19:257|19:257|42:301,1,100,2|8,3:2|0:0,0:0:0:0:
81,332,131219,1,2,0:0:0:0:
81,332,131356,2,0,L|179:315,1,100,2|8,3:2|0:0,0:0:0:0:
260,256,131901,2,0,L|318:267,1,50,2|2,3:2|3:2,0:0:0:0:
342,303,132174,2,0,L|400:292,1,50,10|2,0:0|0:0,0:0:0:0:
439,282,132446,6,0,L|422:183,1,100,6|8,3:2|0:0,0:0:0:0:
402,85,132992,2,0,B|352:77|352:77|308:100,1,100,2|10,3:2|0:0,0:0:0:0:
270,131,133401,1,2,0:0:0:0:
270,131,133537,2,0,B|281:197|281:197|250:253|250:253|262:320,1,200,10|8,3:2|0:3,0:0:0:0:
184,384,134356,2,0,L|135:375,1,50,8|10,3:2|0:0,0:0:0:0:
86,366,134628,6,0,L|102:267,1,100,4|8,3:1|0:0,0:0:0:0:
72,235,135037,1,2,0:0:0:0:
72,235,135174,2,0,L|55:136,1,100,2|8,3:2|0:0,0:0:0:0:
129,69,135719,2,0,B|179:61|179:61|223:84,1,100,2|8,3:2|0:0,0:0:0:0:
293,156,136265,2,0,L|351:145,1,50,2|2,3:2|3:2,0:0:0:0:
375,109,136538,2,0,L|433:120,1,50,10|2,0:0|0:0,0:0:0:0:
450,161,136810,6,0,L|433:259,1,100,6|8,3:2|0:0,0:0:0:0:
367,335,137356,2,0,L|375:384,2,50,2|2|10,3:2|3:2|0:0,0:0:0:0:
293,267,137901,1,2,3:2:0:0:
194,283,138174,1,10,0:0:0:0:
131,360,138446,1,2,3:2:0:0:
32,344,138719,1,10,0:0:0:0:
0,239,138992,6,0,L|16:140,1,100,6|8,3:2|0:0,0:0:0:0:
96,79,139537,2,0,B|146:71|146:71|190:94,1,100,2|8,3:2|0:0,0:0:0:0:
209,140,139946,1,2,0:0:0:0:
209,140,140083,2,0,L|192:238,1,100,2|8,3:2|0:0,0:0:0:0:
252,319,140628,2,0,L|301:328,1,50,2|2,3:2|3:2,0:0:0:0:
337,364,140901,2,0,L|395:353,1,50,10|2,0:0|0:0,0:0:0:0:
434,340,141174,6,0,B|468:289|468:289|455:212|455:212|407:175,1,200,10|10,3:2|3:2,0:0:0:0:
247,55,142265,2,0,B|197:47|197:47|153:70,1,100,10|0,3:2|3:0,0:0:0:0:
143,119,142674,2,0,B|99:142|99:142|49:134,1,100,10|0,3:2|3:0,0:0:0:0:
8,105,143083,1,8,3:2:0:0:
358,95,152083,6,0,B|408:87|408:87|452:110,1,100,4|8,3:1|0:0,0:0:0:0:
485,148,152492,1,2,0:0:0:0:
485,148,152628,2,0,L|468:247,1,100,10|8,3:2|0:0,0:0:0:0:
394,314,153174,2,0,B|344:322|344:322|300:299,1,100,10|8,0:0|0:0,0:0:0:0:
214,249,153719,2,0,L|222:199,1,50,10|2,3:2|3:2,0:0:0:0:
264,172,153992,2,0,L|256:122,1,50,10|2,0:0|0:0,0:0:0:0:
222,86,154265,6,0,B|178:63|178:63|128:71,1,100,6|8,3:2|0:0,0:0:0:0:
51,135,154810,2,0,L|68:234,1,100,10|10,3:2|0:0,0:0:0:0:
85,333,155356,1,10,0:0:0:0:
176,375,155628,1,10,0:0:0:0:
244,301,155901,2,0,B|288:278|288:278|338:286,1,100,10|10,3:2|0:0,0:0:0:0:
431,323,156446,6,0,L|448:224,1,100,6|8,3:2|0:0,0:0:0:0:
415,193,156856,1,2,0:0:0:0:
415,193,156992,2,0,L|398:94,1,100,10|8,3:2|0:0,0:0:0:0:
311,46,157537,2,0,B|261:38|261:38|217:61,1,100,10|8,0:0|0:0,0:0:0:0:
138,123,158083,2,0,L|146:173,1,50,10|2,3:2|3:2,0:0:0:0:
111,208,158356,2,0,L|119:258,1,50,10|2,0:0|0:0,0:0:0:0:
130,306,158628,6,0,B|180:314|180:314|224:291,1,100,6|8,3:2|0:0,0:0:0:0:
298,223,159174,2,0,B|348:215|348:215|392:238,1,100,2|10,3:2|0:0,0:0:0:0:
435,263,159583,1,2,3:2:0:0:
435,263,159719,2,0,B|426:306|426:306|435:320|435:320|428:358,2,100,10|8|0,0:0|0:0|3:0,0:0:0:0:
506,192,160537,1,8,0:0:0:0:
459,104,160810,6,0,L|360:87,1,100,4|0,3:1|3:0,0:0:0:0:
322,118,161219,1,10,0:0:0:0:
322,118,161356,2,0,L|339:217,1,100,2|0,3:2|3:0,0:0:0:0:
280,297,161901,2,0,B|230:289|230:289|186:312,1,100,2|0,3:2|3:0,0:0:0:0:
94,351,162446,2,0,L|86:301,1,50,2|10,3:2|0:0,0:0:0:0:
42,278,162719,2,0,L|34:228,1,50,2|10,3:2|0:0,0:0:0:0:
70,193,162992,6,0,L|53:94,1,100,6|0,3:2|3:0,0:0:0:0:
127,27,163537,2,0,B|177:19|177:19|221:42,1,100,2|2,3:2|3:2,0:0:0:0:
289,115,164082,1,2,3:2:0:0:
381,75,164356,1,2,3:2:0:0:
450,147,164628,2,0,L|433:246,1,100,2|2,3:2|3:2,0:0:0:0:
357,311,165174,6,0,B|313:288|313:288|263:296,1,100,6|0,3:2|3:0,0:0:0:0:
229,333,165583,1,10,0:0:0:0:
229,333,165719,2,0,B|179:341|179:341|135:318,1,100,2|0,3:2|3:0,0:0:0:0:
54,259,166265,2,0,L|71:160,1,100,2|0,3:2|3:0,0:0:0:0:
150,98,166810,2,0,L|200:106,1,50,2|10,3:2|0:0,0:0:0:0:
233,68,167083,2,0,L|283:60,1,50,2|10,3:2|0:0,0:0:0:0:
325,87,167356,6,0,P|382:164|350:254,1,200,2|2,3:2|3:2,0:0:0:0:
175,354,168447,1,2,0:0:0:0:
175,354,168583,2,0,L|53:332,1,100,8|8,3:2|0:0,0:0:0:0:
20,254,169128,2,0,L|30:196,2,50,8|0|8,0:0|3:0|0:0,0:0:0:0:
256,192,169537,12,0,171446,3:0:0:0:
