osu file format v14

[General]
AudioFilename: Death Melody of Touhou.mp3
AudioLeadIn: 0
PreviewTime: 71083
Countdown: 0
SampleSet: Soft
StackLeniency: 0.7
Mode: 3
LetterboxInBreaks: 0
SpecialStyle: 0
WidescreenStoryboard: 0

[Editor]
DistanceSpacing: 1.6
BeatDivisor: 4
GridSize: 4
TimelineZoom: 3.399998

[Metadata]
Title:Yotsuya-san ni Yoroshiku
TitleUnicode:四ツ谷さんによろしく
Artist:Himeringo
ArtistUnicode:ひめりんご
Creator:Nevertary
Version:Die
Source:
Tags:vocaloid hatsune miku himeringo utaite
BeatmapID:1242618
BeatmapSetID:411056

[Difficulty]
HPDrainRate:8
CircleSize:4
OverallDifficulty:8.5
ApproachRate:5
SliderMultiplier:2
SliderTickRate:1

[Events]
//Background and Video events
0,0,"yotsuya2.jpg",0,0
//Break Periods
//Storyboard Layer 0 (Background)
//Storyboard Layer 1 (Fail)
//Storyboard Layer 2 (Pass)
//Storyboard Layer 3 (Foreground)
//Storyboard Sound Samples

[TimingPoints]
2629,272.727272727273,4,2,1,50,1,0
20083,291.26213592233,4,2,1,50,1,0
21248,289.855072463768,4,2,1,50,1,0
21827,315.789473684211,4,2,1,50,1,0
22458,298.507462686567,4,2,1,50,1,0
23356,272.727272727273,4,2,1,50,1,0
33719,-62.5,4,2,1,50,0,0
33856,-250,4,2,1,50,0,0
34265,-100,4,2,1,50,0,0
70674,-166.666666666667,4,2,1,50,0,0
71083,-71.4285714285714,4,2,1,50,0,0
71356,-100,4,2,1,50,0,1
78992,-100,4,2,1,50,0,0
80083,-100,4,2,1,50,0,1
86628,-200,4,2,1,50,0,0
87106,-66.6666666666667,4,2,1,50,0,0
87174,-200,4,2,1,50,0,0
87651,-66.6666666666667,4,2,1,50,0,0
87719,-100,4,2,1,50,0,1
88537,-200,4,2,1,50,0,0
88742,-66.6666666666667,4,2,1,50,0,0
88810,-100,4,2,1,50,0,0
116492,-66.6666666666667,4,2,1,50,0,0
116901,-200,4,2,1,50,0,0
117174,-100,4,2,1,50,0,0
125628,-71.4285714285714,4,2,1,50,0,0
126037,-250,4,2,1,50,0,0
126174,-100,4,2,1,50,0,1
127810,-62.5,4,2,1,50,0,0
127946,-250,4,2,1,50,0,0
128356,-100,4,2,1,50,0,1
129992,-66.6666666666667,4,2,1,50,0,1
130128,-200,4,2,1,50,0,1
130265,-100,4,2,1,50,0,1
133537,-100,4,2,1,50,0,0
134628,-100,4,2,1,50,0,1
141174,-200,4,2,1,50,0,0
141651,-66.6666666666667,4,2,1,50,0,0
141719,-200,4,2,1,50,0,0
142196,-66.6666666666667,4,2,1,50,0,0
142265,-100,4,2,1,50,0,1
143083,-100,4,2,1,50,0,0
151537,-71.4285714285714,4,2,1,50,0,0
151946,-250,4,2,1,50,0,0
152083,-100,4,2,1,50,0,0
160810,-100,4,2,1,50,0,1
167356,-100,4,2,1,50,0,0
168446,-100,4,2,1,50,0,1
169537,-100,4,2,1,50,0,0

[HitObjects]
64,192,2629,5,0,0:0:0:0:
448,192,2629,1,0,0:0:0:0:
192,192,2901,1,0,0:0:0:0:
320,192,3174,1,0,0:0:0:0:
64,192,3447,1,0,0:0:0:0:
192,192,3719,1,0,0:0:0:0:
320,192,3992,1,0,0:0:0:0:
192,192,4265,1,0,0:0:0:0:
448,192,4538,1,0,0:0:0:0:
192,192,4810,1,0,0:0:0:0:
64,192,4810,1,0,0:0:0:0:
448,192,5083,1,0,0:0:0:0:
320,192,5356,1,0,0:0:0:0:
192,192,5629,1,0,0:0:0:0:
320,192,5901,1,0,0:0:0:0:
448,192,6174,1,0,0:0:0:0:
192,192,6447,1,0,0:0:0:0:
320,192,6719,1,0,0:0:0:0:
64,192,6992,1,0,0:0:0:0:
448,192,6992,1,0,0:0:0:0:
192,192,7265,1,0,0:0:0:0:
320,192,7538,1,0,0:0:0:0:
64,192,7810,1,0,0:0:0:0:
192,192,8083,1,0,0:0:0:0:
320,192,8356,1,0,0:0:0:0:
192,192,8629,1,0,0:0:0:0:
448,192,8901,1,0,0:0:0:0:
192,192,9174,1,0,0:0:0:0:
64,192,9174,1,0,0:0:0:0:
448,192,9447,1,0,0:0:0:0:
320,192,9719,1,0,0:0:0:0:
192,192,9992,1,0,0:0:0:0:
320,192,10265,1,0,0:0:0:0:
448,192,10538,1,0,0:0:0:0:
192,192,10810,1,0,0:0:0:0:
320,192,11083,1,0,0:0:0:0:
64,192,11356,1,0,0:0:0:0:
448,192,11356,1,0,0:0:0:0:
192,192,11629,1,0,0:0:0:0:
320,192,11901,1,0,0:0:0:0:
192,192,12174,1,0,0:0:0:0:
320,192,12447,1,0,0:0:0:0:
448,192,12719,1,0,0:0:0:0:
64,192,12992,1,0,0:0:0:0:
192,192,13265,1,0,0:0:0:0:
320,192,13538,1,0,0:0:0:0:
448,192,13538,1,0,0:0:0:0:
192,192,13810,1,0,0:0:0:0:
64,192,14083,1,0,0:0:0:0:
448,192,14356,1,0,0:0:0:0:
320,192,14629,1,0,0:0:0:0:
192,192,14901,1,0,0:0:0:0:
448,192,15174,1,0,0:0:0:0:
320,192,15447,1,0,0:0:0:0:
64,192,15719,128,0,15992:0:0:0:0:
192,192,15719,1,0,0:0:0:0:
448,192,15719,1,0,0:0:0:0:
320,192,15992,1,0,0:0:0:0:
320,192,16265,128,0,16538:0:0:0:0:
448,192,16265,1,0,0:0:0:0:
64,192,16538,1,0,0:0:0:0:
192,192,16810,128,0,17083:0:0:0:0:
320,192,16810,1,0,0:0:0:0:
448,192,17083,1,0,0:0:0:0:
448,192,17356,128,0,17629:0:0:0:0:
64,192,17356,1,0,0:0:0:0:
192,192,17629,1,0,0:0:0:0:
320,192,17901,128,0,18174:0:0:0:0:
64,192,17901,1,0,0:0:0:0:
448,192,17901,1,0,0:0:0:0:
192,192,18174,1,0,0:0:0:0:
64,192,18447,128,0,18719:0:0:0:0:
448,192,18447,1,0,0:0:0:0:
192,192,18719,1,0,0:0:0:0:
320,192,18992,128,0,19265:0:0:0:0:
448,192,18992,1,0,0:0:0:0:
192,192,19265,1,0,0:0:0:0:
448,192,19538,1,0,0:0:0:0:
64,192,19538,128,0,19810:0:0:0:0:
320,192,19810,1,0,0:0:0:0:
192,192,20083,1,0,0:0:0:0:
448,192,20083,128,0,20374:0:0:0:0:
64,192,20083,1,0,0:0:0:0:
320,192,20374,1,0,0:0:0:0:
192,192,20665,128,0,20956:0:0:0:0:
64,192,20665,1,0,0:0:0:0:
448,192,20956,1,0,0:0:0:0:
320,192,21248,128,0,21537:0:0:0:0:
64,192,21248,1,0,0:0:0:0:
192,192,21537,1,0,0:0:0:0:
64,192,21610,1,0,0:0:0:0:
448,192,21827,128,0,22142:0:0:0:0:
192,192,21827,1,0,0:0:0:0:
320,192,22063,1,0,0:0:0:0:
64,192,22142,128,0,22458:0:0:0:0:
192,192,22142,1,0,0:0:0:0:
320,192,22458,1,0,0:0:0:0:
192,192,22532,1,0,0:0:0:0:
320,192,22607,1,0,0:0:0:0:
448,192,22607,128,0,23765:0:0:0:0:
320,192,23765,1,0,0:0:0:0:
192,192,23901,1,0,0:0:0:0:
192,192,24037,1,0,0:0:0:0:
192,192,24174,1,0,0:0:0:0:
192,192,24310,1,0,0:0:0:0:
448,192,24446,1,0,0:0:0:0:
64,192,24446,1,2,0:0:0:0:
192,192,24583,1,0,0:0:0:0:
320,192,24651,1,0,0:0:0:0:
448,192,24719,1,0,0:0:0:0:
192,192,24856,1,0,0:0:0:0:
64,192,24992,1,0,0:0:0:0:
320,192,24992,1,2,0:0:0:0:
448,192,25128,1,0,0:0:0:0:
320,192,25196,1,0,0:0:0:0:
192,192,25265,1,0,0:0:0:0:
64,192,25265,128,0,25537:0:0:0:0:
448,192,25265,1,2,0:0:0:0:
320,192,25537,1,2,0:0:0:0:
448,192,25537,1,0,0:0:0:0:
64,192,25742,1,0,0:0:0:0:
320,192,25742,1,0,0:0:0:0:
192,192,25810,1,0,0:0:0:0:
64,192,25946,1,0,0:0:0:0:
320,192,25946,1,0,0:0:0:0:
192,192,26083,1,0,0:0:0:0:
320,192,26219,1,0,0:0:0:0:
448,192,26219,1,0,0:0:0:0:
192,192,26356,1,0,0:0:0:0:
320,192,26492,1,0,0:0:0:0:
448,192,26492,1,0,0:0:0:0:
64,192,26628,1,0,0:0:0:0:
192,192,26765,1,0,0:0:0:0:
448,192,26765,1,0,0:0:0:0:
320,192,26901,1,0,0:0:0:0:
192,192,27037,1,0,0:0:0:0:
448,192,27037,1,0,0:0:0:0:
320,192,27174,1,0,0:0:0:0:
64,192,27310,1,0,0:0:0:0:
192,192,27310,1,0,0:0:0:0:
320,192,27446,1,0,0:0:0:0:
64,192,27583,1,0,0:0:0:0:
192,192,27583,1,2,0:0:0:0:
448,192,27583,1,0,0:0:0:0:
320,192,27719,1,2,0:0:0:0:
448,192,27719,1,0,0:0:0:0:
64,192,27719,1,0,0:0:0:0:
192,192,27924,1,0,0:0:0:0:
448,192,27924,1,0,0:0:0:0:
320,192,27992,1,0,0:0:0:0:
64,192,28128,1,0,0:0:0:0:
448,192,28128,1,0,0:0:0:0:
320,192,28265,1,0,0:0:0:0:
448,192,28401,1,0,0:0:0:0:
64,192,28401,1,0,0:0:0:0:
320,192,28537,1,0,0:0:0:0:
448,192,28674,1,0,0:0:0:0:
64,192,28674,1,0,0:0:0:0:
192,192,28810,1,0,0:0:0:0:
320,192,28946,1,0,0:0:0:0:
448,192,28946,1,0,0:0:0:0:
192,192,29083,1,0,0:0:0:0:
320,192,29219,1,0,0:0:0:0:
448,192,29219,1,0,0:0:0:0:
64,192,29356,1,0,0:0:0:0:
64,192,29492,1,0,0:0:0:0:
448,192,29492,1,0,0:0:0:0:
192,192,29492,1,2,0:0:0:0:
320,192,29560,1,0,0:0:0:0:
192,192,29628,1,0,0:0:0:0:
192,192,29765,1,2,0:0:0:0:
448,192,29765,1,0,0:0:0:0:
64,192,29765,1,0,0:0:0:0:
448,192,29901,1,0,0:0:0:0:
320,192,29901,1,2,0:0:0:0:
64,192,29901,1,0,0:0:0:0:
192,192,30106,1,0,0:0:0:0:
64,192,30106,1,0,0:0:0:0:
448,192,30174,1,0,0:0:0:0:
64,192,30310,1,0,0:0:0:0:
320,192,30310,1,0,0:0:0:0:
192,192,30446,1,0,0:0:0:0:
64,192,30583,1,0,0:0:0:0:
320,192,30583,1,0,0:0:0:0:
192,192,30719,1,0,0:0:0:0:
64,192,30856,1,0,0:0:0:0:
320,192,30856,1,0,0:0:0:0:
192,192,30992,1,0,0:0:0:0:
320,192,31128,1,0,0:0:0:0:
448,192,31128,1,0,0:0:0:0:
192,192,31265,1,0,0:0:0:0:
320,192,31401,1,0,0:0:0:0:
448,192,31401,1,0,0:0:0:0:
192,192,31537,1,0,0:0:0:0:
64,192,31674,1,0,0:0:0:0:
448,192,31674,1,0,0:0:0:0:
320,192,31810,1,0,0:0:0:0:
192,192,31946,1,2,0:0:0:0:
64,192,31946,1,0,0:0:0:0:
448,192,31946,1,0,0:0:0:0:
320,192,32083,1,2,0:0:0:0:
448,192,32083,1,0,0:0:0:0:
64,192,32083,1,0,0:0:0:0:
64,192,32287,1,0,0:0:0:0:
320,192,32287,1,0,0:0:0:0:
192,192,32356,1,0,0:0:0:0:
448,192,32492,1,0,0:0:0:0:
320,192,32492,1,0,0:0:0:0:
192,192,32628,1,0,0:0:0:0:
320,192,32765,1,0,0:0:0:0:
448,192,32765,1,0,0:0:0:0:
192,192,32901,1,0,0:0:0:0:
320,192,33037,1,0,0:0:0:0:
448,192,33037,1,0,0:0:0:0:
64,192,33174,1,0,0:0:0:0:
448,192,33310,1,0,0:0:0:0:
192,192,33310,1,0,0:0:0:0:
320,192,33446,1,0,0:0:0:0:
192,192,33583,1,0,0:0:0:0:
448,192,33583,1,0,0:0:0:0:
64,192,33719,1,0,0:0:0:0:
320,192,33719,1,0,0:0:0:0:
448,192,34265,1,4,0:0:0:0:
320,192,34265,1,2,0:0:0:0:
64,192,34265,1,0,0:0:0:0:
192,192,34265,1,0,0:0:0:0:
448,192,34537,1,0,0:0:0:0:
320,192,34537,1,8,0:0:0:0:
64,192,34537,1,0,0:0:0:0:
320,192,34674,1,0,0:0:0:0:
320,192,34810,1,0,0:0:0:0:
192,192,34810,1,8,0:0:0:0:
64,192,34810,1,0,0:0:0:0:
192,192,34946,1,2,0:0:0:0:
448,192,34946,1,0,0:0:0:0:
192,192,35083,1,0,0:0:0:0:
320,192,35083,1,8,0:0:0:0:
448,192,35083,1,0,0:0:0:0:
64,192,35219,1,0,0:0:0:0:
64,192,35356,1,0,0:0:0:0:
192,192,35356,1,8,0:0:0:0:
448,192,35356,1,0,0:0:0:0:
320,192,35492,1,0,0:0:0:0:
320,192,35628,1,8,0:0:0:0:
448,192,35628,1,0,0:0:0:0:
64,192,35628,1,0,0:0:0:0:
192,192,35765,1,0,0:0:0:0:
64,192,35901,1,0,0:0:0:0:
192,192,35901,1,8,0:0:0:0:
448,192,35901,1,0,0:0:0:0:
320,192,36037,1,0,0:0:0:0:
192,192,36037,1,2,0:0:0:0:
320,192,36174,1,8,0:0:0:0:
448,192,36174,1,0,0:0:0:0:
64,192,36174,1,0,0:0:0:0:
192,192,36310,1,0,0:0:0:0:
320,192,36310,1,2,0:0:0:0:
448,192,36446,1,0,0:0:0:0:
64,192,36446,1,4,0:0:0:0:
192,192,36446,128,0,36719:0:0:0:0:
320,192,36719,1,8,0:0:0:0:
448,192,36719,1,0,0:0:0:0:
64,192,36719,1,0,0:0:0:0:
192,192,36856,1,0,0:0:0:0:
64,192,36992,1,0,0:0:0:0:
192,192,36992,1,8,0:0:0:0:
448,192,36992,1,0,0:0:0:0:
320,192,37128,1,0,0:0:0:0:
64,192,37128,1,2,0:0:0:0:
320,192,37265,1,8,0:0:0:0:
192,192,37265,1,0,0:0:0:0:
448,192,37265,1,0,0:0:0:0:
192,192,37401,1,0,0:0:0:0:
64,192,37537,1,0,0:0:0:0:
192,192,37537,1,8,0:0:0:0:
448,192,37537,1,0,0:0:0:0:
320,192,37674,1,0,0:0:0:0:
320,192,37810,1,8,0:0:0:0:
448,192,37810,1,0,0:0:0:0:
64,192,37810,1,0,0:0:0:0:
192,192,37946,1,0,0:0:0:0:
64,192,38083,1,8,0:0:0:0:
192,192,38083,1,0,0:0:0:0:
448,192,38083,1,0,0:0:0:0:
64,192,38219,1,0,0:0:0:0:
320,192,38219,1,2,0:0:0:0:
320,192,38356,1,8,0:0:0:0:
448,192,38356,1,2,0:0:0:0:
192,192,38424,1,2,0:0:0:0:
64,192,38424,1,0,0:0:0:0:
320,192,38492,1,2,0:0:0:0:
448,192,38492,1,0,0:0:0:0:
192,192,38560,1,2,0:0:0:0:
448,192,38628,1,4,0:0:0:0:
320,192,38628,1,2,0:0:0:0:
64,192,38628,128,0,38901:0:0:0:0:
320,192,38901,1,8,0:0:0:0:
448,192,38901,1,0,0:0:0:0:
192,192,38901,1,0,0:0:0:0:
320,192,39037,1,0,0:0:0:0:
64,192,39174,1,0,0:0:0:0:
192,192,39174,1,8,0:0:0:0:
448,192,39174,1,0,0:0:0:0:
192,192,39310,1,0,0:0:0:0:
320,192,39310,1,2,0:0:0:0:
320,192,39446,1,8,0:0:0:0:
64,192,39446,1,0,0:0:0:0:
448,192,39446,1,0,0:0:0:0:
192,192,39583,1,0,0:0:0:0:
64,192,39719,1,0,0:0:0:0:
192,192,39719,1,8,0:0:0:0:
448,192,39719,1,0,0:0:0:0:
320,192,39856,1,0,0:0:0:0:
320,192,39992,1,8,0:0:0:0:
448,192,39992,1,0,0:0:0:0:
64,192,39992,1,0,0:0:0:0:
192,192,40128,1,0,0:0:0:0:
320,192,40265,1,8,0:0:0:0:
448,192,40265,1,0,0:0:0:0:
64,192,40265,1,0,0:0:0:0:
320,192,40401,1,2,0:0:0:0:
192,192,40401,1,0,0:0:0:0:
192,192,40537,1,8,0:0:0:0:
64,192,40537,1,0,0:0:0:0:
448,192,40537,1,0,0:0:0:0:
320,192,40674,1,2,0:0:0:0:
192,192,40674,1,0,0:0:0:0:
64,192,40810,1,4,0:0:0:0:
320,192,40810,1,2,0:0:0:0:
448,192,40810,128,0,41083:0:0:0:0:
192,192,41083,1,8,0:0:0:0:
64,192,41083,1,0,0:0:0:0:
320,192,41219,1,0,0:0:0:0:
64,192,41356,1,0,0:0:0:0:
192,192,41356,1,8,0:0:0:0:
320,192,41356,1,0,0:0:0:0:
448,192,41492,1,0,0:0:0:0:
192,192,41492,1,0,0:0:0:0:
448,192,41628,1,0,0:0:0:0:
320,192,41628,1,8,0:0:0:0:
64,192,41628,1,0,0:0:0:0:
192,192,41765,1,0,0:0:0:0:
192,192,41901,1,8,0:0:0:0:
448,192,41901,1,0,0:0:0:0:
64,192,41901,1,0,0:0:0:0:
320,192,42037,1,0,0:0:0:0:
64,192,42174,1,0,0:0:0:0:
192,192,42174,1,8,0:0:0:0:
448,192,42174,1,0,0:0:0:0:
320,192,42310,1,0,0:0:0:0:
64,192,42446,1,0,0:0:0:0:
192,192,42446,1,8,0:0:0:0:
448,192,42446,1,0,0:0:0:0:
192,192,42583,1,0,0:0:0:0:
320,192,42651,1,0,0:0:0:0:
64,192,42719,1,0,0:0:0:0:
192,192,42719,1,8,0:0:0:0:
320,192,42787,1,8,0:0:0:0:
448,192,42787,1,0,0:0:0:0:
192,192,42856,1,8,0:0:0:0:
64,192,42856,1,0,0:0:0:0:
320,192,42924,1,8,0:0:0:0:
448,192,42924,1,0,0:0:0:0:
192,192,42992,1,2,0:0:0:0:
64,192,42992,128,0,43265:0:0:0:0:
448,192,42992,1,4,0:0:0:0:
192,192,43265,1,0,0:0:0:0:
448,192,43265,1,8,0:0:0:0:
320,192,43401,1,0,0:0:0:0:
64,192,43537,1,0,0:0:0:0:
192,192,43537,1,8,0:0:0:0:
448,192,43537,1,0,0:0:0:0:
192,192,43674,1,0,0:0:0:0:
320,192,43674,1,2,0:0:0:0:
320,192,43810,1,8,0:0:0:0:
448,192,43810,1,0,0:0:0:0:
64,192,43810,1,0,0:0:0:0:
64,192,43946,1,0,0:0:0:0:
192,192,44083,1,8,0:0:0:0:
320,192,44083,1,0,0:0:0:0:
448,192,44083,1,0,0:0:0:0:
192,192,44219,1,0,0:0:0:0:
64,192,44356,1,0,0:0:0:0:
192,192,44356,1,8,0:0:0:0:
448,192,44356,1,0,0:0:0:0:
320,192,44492,1,0,0:0:0:0:
448,192,44628,1,0,0:0:0:0:
192,192,44628,1,8,0:0:0:0:
64,192,44628,1,0,0:0:0:0:
192,192,44765,1,0,0:0:0:0:
320,192,44765,1,2,0:0:0:0:
448,192,44901,1,0,0:0:0:0:
320,192,44901,1,8,0:0:0:0:
64,192,44901,1,0,0:0:0:0:
320,192,45037,1,2,0:0:0:0:
192,192,45037,1,0,0:0:0:0:
448,192,45174,1,0,0:0:0:0:
192,192,45174,1,4,0:0:0:0:
64,192,45174,128,0,45446:0:0:0:0:
192,192,45446,1,0,0:0:0:0:
320,192,45446,1,8,0:0:0:0:
448,192,45446,1,0,0:0:0:0:
192,192,45583,1,0,0:0:0:0:
320,192,45719,1,8,0:0:0:0:
448,192,45719,1,0,0:0:0:0:
64,192,45719,1,0,0:0:0:0:
320,192,45856,1,0,0:0:0:0:
192,192,45856,1,2,0:0:0:0:
192,192,45992,1,8,0:0:0:0:
64,192,45992,1,0,0:0:0:0:
448,192,45992,1,0,0:0:0:0:
320,192,46128,1,0,0:0:0:0:
320,192,46265,1,8,0:0:0:0:
448,192,46265,1,0,0:0:0:0:
64,192,46265,1,0,0:0:0:0:
448,192,46401,1,0,0:0:0:0:
320,192,46537,1,0,0:0:0:0:
192,192,46537,1,8,0:0:0:0:
64,192,46537,1,0,0:0:0:0:
320,192,46674,1,0,0:0:0:0:
192,192,46810,1,8,0:0:0:0:
448,192,46810,1,0,0:0:0:0:
64,192,46810,1,0,0:0:0:0:
192,192,46946,1,0,0:0:0:0:
64,192,47083,1,0,0:0:0:0:
448,192,47083,1,0,0:0:0:0:
320,192,47083,1,10,0:0:0:0:
192,192,47151,1,2,0:0:0:0:
448,192,47219,1,0,0:0:0:0:
320,192,47219,1,2,0:0:0:0:
192,192,47287,1,2,0:0:0:0:
64,192,47356,1,4,0:0:0:0:
320,192,47356,1,2,0:0:0:0:
448,192,47356,128,0,47628:0:0:0:0:
192,192,47628,1,0,0:0:0:0:
320,192,47628,1,8,0:0:0:0:
320,192,47765,1,0,0:0:0:0:
192,192,47901,1,8,0:0:0:0:
64,192,47901,1,0,0:0:0:0:
448,192,47901,1,0,0:0:0:0:
192,192,48037,1,0,0:0:0:0:
320,192,48037,1,2,0:0:0:0:
320,192,48174,1,8,0:0:0:0:
448,192,48174,1,0,0:0:0:0:
64,192,48174,1,0,0:0:0:0:
192,192,48310,1,0,0:0:0:0:
448,192,48446,1,0,0:0:0:0:
64,192,48446,1,0,0:0:0:0:
192,192,48446,1,8,0:0:0:0:
320,192,48583,1,0,0:0:0:0:
320,192,48719,1,8,0:0:0:0:
448,192,48719,1,0,0:0:0:0:
192,192,48719,1,0,0:0:0:0:
192,192,48856,1,0,0:0:0:0:
320,192,48992,1,8,0:0:0:0:
448,192,48992,1,0,0:0:0:0:
64,192,48992,1,0,0:0:0:0:
320,192,49128,1,2,0:0:0:0:
192,192,49128,1,0,0:0:0:0:
64,192,49265,1,0,0:0:0:0:
448,192,49265,1,0,0:0:0:0:
192,192,49265,1,8,0:0:0:0:
192,192,49401,1,0,0:0:0:0:
320,192,49401,1,2,0:0:0:0:
320,192,49537,1,4,0:0:0:0:
64,192,49537,1,2,0:0:0:0:
448,192,49537,128,0,49810:0:0:0:0:
64,192,49810,1,0,0:0:0:0:
192,192,49810,1,0,0:0:0:0:
320,192,49810,1,8,0:0:0:0:
192,192,49946,1,0,0:0:0:0:
320,192,50083,1,8,0:0:0:0:
448,192,50083,1,0,0:0:0:0:
64,192,50083,1,0,0:0:0:0:
192,192,50219,1,0,0:0:0:0:
320,192,50219,1,2,0:0:0:0:
64,192,50356,1,0,0:0:0:0:
320,192,50356,1,8,0:0:0:0:
448,192,50356,1,0,0:0:0:0:
192,192,50492,1,0,0:0:0:0:
64,192,50628,1,0,0:0:0:0:
192,192,50628,1,8,0:0:0:0:
448,192,50628,1,0,0:0:0:0:
320,192,50765,1,0,0:0:0:0:
192,192,50901,1,8,0:0:0:0:
64,192,50901,1,0,0:0:0:0:
448,192,50901,1,0,0:0:0:0:
320,192,51037,1,0,0:0:0:0:
64,192,51174,1,0,0:0:0:0:
192,192,51174,1,8,0:0:0:0:
448,192,51174,1,0,0:0:0:0:
320,192,51310,1,0,0:0:0:0:
192,192,51378,1,0,0:0:0:0:
320,192,51446,1,8,0:0:0:0:
448,192,51446,1,0,0:0:0:0:
64,192,51515,1,0,0:0:0:0:
192,192,51515,1,8,0:0:0:0:
320,192,51583,1,8,0:0:0:0:
448,192,51583,1,0,0:0:0:0:
192,192,51651,1,8,0:0:0:0:
64,192,51651,1,0,0:0:0:0:
320,192,51719,1,2,0:0:0:0:
448,192,51719,1,0,0:0:0:0:
64,192,51856,1,0,0:0:0:0:
320,192,51992,1,2,0:0:0:0:
448,192,51992,1,0,0:0:0:0:
192,192,52128,1,0,0:0:0:0:
320,192,52265,1,2,0:0:0:0:
448,192,52265,1,0,0:0:0:0:
192,192,52401,1,2,0:0:0:0:
64,192,52401,1,0,0:0:0:0:
320,192,52537,1,2,0:0:0:0:
448,192,52537,1,0,0:0:0:0:
192,192,52674,1,2,0:0:0:0:
320,192,52810,1,2,0:0:0:0:
448,192,52810,1,0,0:0:0:0:
64,192,52810,1,0,0:0:0:0:
192,192,52946,1,0,0:0:0:0:
192,192,53083,1,0,0:0:0:0:
320,192,53219,1,2,0:0:0:0:
448,192,53219,1,0,0:0:0:0:
64,192,53219,1,0,0:0:0:0:
192,192,53356,1,0,0:0:0:0:
192,192,53492,1,0,0:0:0:0:
320,192,53628,1,2,0:0:0:0:
448,192,53628,1,0,0:0:0:0:
64,192,53628,1,0,0:0:0:0:
192,192,53901,1,2,0:0:0:0:
320,192,53901,1,4,0:0:0:0:
64,192,53901,128,0,54310:0:0:0:0:
448,192,54310,1,0,0:0:0:0:
320,192,54378,1,0,0:0:0:0:
192,192,54446,1,8,0:0:0:0:
64,192,54446,1,0,0:0:0:0:
448,192,54446,1,0,0:0:0:0:
320,192,54583,1,2,0:0:0:0:
192,192,54583,1,0,0:0:0:0:
64,192,54719,1,0,0:0:0:0:
448,192,54719,1,0,0:0:0:0:
320,192,54719,1,8,0:0:0:0:
192,192,54992,1,2,0:0:0:0:
64,192,54992,1,0,0:0:0:0:
320,192,55128,1,2,0:0:0:0:
448,192,55128,1,0,0:0:0:0:
192,192,55265,1,8,0:0:0:0:
448,192,55265,1,0,0:0:0:0:
64,192,55265,1,0,0:0:0:0:
320,192,55401,1,2,0:0:0:0:
192,192,55401,1,0,0:0:0:0:
320,192,55674,1,2,0:0:0:0:
448,192,55674,1,0,0:0:0:0:
192,192,55810,1,8,0:0:0:0:
448,192,55810,1,0,0:0:0:0:
64,192,55810,128,0,56083:0:0:0:0:
448,192,56083,128,0,56492:0:0:0:0:
320,192,56083,1,2,0:0:0:0:
64,192,56492,1,0,0:0:0:0:
192,192,56628,1,0,0:0:0:0:
320,192,56628,1,8,0:0:0:0:
448,192,56628,1,0,0:0:0:0:
64,192,56765,1,0,0:0:0:0:
320,192,56765,1,2,0:0:0:0:
320,192,56901,1,0,0:0:0:0:
192,192,56901,1,8,0:0:0:0:
448,192,56901,1,0,0:0:0:0:
320,192,57174,1,2,0:0:0:0:
64,192,57174,1,0,0:0:0:0:
448,192,57310,1,0,0:0:0:0:
192,192,57310,1,2,0:0:0:0:
64,192,57446,1,0,0:0:0:0:
192,192,57446,1,0,0:0:0:0:
320,192,57446,1,8,0:0:0:0:
320,192,57583,1,2,0:0:0:0:
448,192,57583,1,0,0:0:0:0:
64,192,57719,1,0,0:0:0:0:
320,192,57856,1,2,0:0:0:0:
448,192,57856,1,0,0:0:0:0:
448,192,57992,1,0,0:0:0:0:
192,192,57992,1,8,0:0:0:0:
64,192,57992,128,0,58265:0:0:0:0:
320,192,58265,1,2,0:0:0:0:
448,192,58265,128,0,58674:0:0:0:0:
64,192,58674,1,0,0:0:0:0:
192,192,58742,1,0,0:0:0:0:
320,192,58810,1,8,0:0:0:0:
448,192,58810,1,0,0:0:0:0:
64,192,58810,1,0,0:0:0:0:
192,192,58946,1,2,0:0:0:0:
320,192,58946,1,0,0:0:0:0:
64,192,59083,1,0,0:0:0:0:
448,192,59083,1,8,0:0:0:0:
192,192,59083,1,0,0:0:0:0:
64,192,59356,1,0,0:0:0:0:
320,192,59356,1,2,0:0:0:0:
448,192,59492,1,0,0:0:0:0:
192,192,59492,1,2,0:0:0:0:
64,192,59628,1,0,0:0:0:0:
192,192,59628,1,0,0:0:0:0:
320,192,59628,1,8,0:0:0:0:
64,192,59765,1,0,0:0:0:0:
448,192,59765,1,2,0:0:0:0:
320,192,60037,1,2,0:0:0:0:
448,192,60037,1,0,0:0:0:0:
448,192,60174,1,0,0:0:0:0:
64,192,60174,128,0,60446:0:0:0:0:
192,192,60174,1,8,0:0:0:0:
448,192,60446,128,0,60856:0:0:0:0:
320,192,60446,1,2,0:0:0:0:
192,192,60856,1,0,0:0:0:0:
64,192,60992,1,0,0:0:0:0:
320,192,60992,1,8,0:0:0:0:
448,192,60992,1,0,0:0:0:0:
192,192,61128,1,2,0:0:0:0:
320,192,61128,1,0,0:0:0:0:
448,192,61265,1,8,0:0:0:0:
64,192,61265,1,0,0:0:0:0:
192,192,61265,1,0,0:0:0:0:
64,192,61537,1,2,0:0:0:0:
448,192,61537,1,8,0:0:0:0:
192,192,61606,1,0,0:0:0:0:
320,192,61674,1,0,0:0:0:0:
448,192,61742,1,0,0:0:0:0:
192,192,61810,1,0,0:0:0:0:
320,192,61878,1,0,0:0:0:0:
448,192,61946,1,8,0:0:0:0:
64,192,61946,1,2,0:0:0:0:
192,192,62015,1,0,0:0:0:0:
320,192,62083,1,0,0:0:0:0:
448,192,62151,1,0,0:0:0:0:
320,192,62219,1,0,0:0:0:0:
192,192,62287,1,0,0:0:0:0:
320,192,62356,1,0,0:0:0:0:
448,192,62356,1,8,0:0:0:0:
64,192,62356,128,0,62628:0:0:0:0:
448,192,62628,128,0,63037:0:0:0:0:
192,192,62628,1,6,0:0:0:0:
64,192,63037,1,0,0:0:0:0:
192,192,63106,1,0,0:0:0:0:
320,192,63174,1,8,0:0:0:0:
448,192,63174,1,0,0:0:0:0:
64,192,63174,1,0,0:0:0:0:
192,192,63310,1,2,0:0:0:0:
320,192,63310,1,0,0:0:0:0:
448,192,63446,1,0,0:0:0:0:
64,192,63446,1,0,0:0:0:0:
192,192,63446,1,8,0:0:0:0:
320,192,63719,1,2,0:0:0:0:
448,192,63719,1,0,0:0:0:0:
320,192,63856,1,2,0:0:0:0:
448,192,63856,1,0,0:0:0:0:
64,192,63992,1,0,0:0:0:0:
192,192,63992,1,8,0:0:0:0:
448,192,63992,1,0,0:0:0:0:
320,192,64128,1,2,0:0:0:0:
192,192,64128,1,0,0:0:0:0:
64,192,64401,1,0,0:0:0:0:
320,192,64401,1,2,0:0:0:0:
192,192,64537,1,8,0:0:0:0:
448,192,64537,128,0,64810:0:0:0:0:
320,192,64537,1,0,0:0:0:0:
192,192,64810,1,2,0:0:0:0:
64,192,64810,128,0,65219:0:0:0:0:
320,192,65219,1,0,0:0:0:0:
192,192,65356,1,8,0:0:0:0:
448,192,65356,1,0,0:0:0:0:
64,192,65356,1,0,0:0:0:0:
320,192,65492,1,2,0:0:0:0:
192,192,65492,1,0,0:0:0:0:
64,192,65628,1,0,0:0:0:0:
192,192,65628,1,8,0:0:0:0:
448,192,65628,1,0,0:0:0:0:
192,192,65901,1,2,0:0:0:0:
448,192,65901,1,0,0:0:0:0:
192,192,66037,1,0,0:0:0:0:
320,192,66037,1,2,0:0:0:0:
64,192,66174,1,0,0:0:0:0:
448,192,66174,1,0,0:0:0:0:
320,192,66174,1,8,0:0:0:0:
192,192,66310,1,2,0:0:0:0:
64,192,66310,1,0,0:0:0:0:
320,192,66446,1,0,0:0:0:0:
192,192,66583,1,2,0:0:0:0:
448,192,66583,1,0,0:0:0:0:
320,192,66719,1,8,0:0:0:0:
448,192,66719,1,0,0:0:0:0:
64,192,66719,128,0,66992:0:0:0:0:
448,192,66992,128,0,67401:0:0:0:0:
192,192,66992,1,2,0:0:0:0:
64,192,67401,1,0,0:0:0:0:
192,192,67469,1,0,0:0:0:0:
320,192,67537,1,8,0:0:0:0:
448,192,67537,1,0,0:0:0:0:
64,192,67537,1,0,0:0:0:0:
192,192,67674,1,2,0:0:0:0:
320,192,67674,1,0,0:0:0:0:
448,192,67810,1,0,0:0:0:0:
64,192,67810,1,0,0:0:0:0:
192,192,67810,1,8,0:0:0:0:
64,192,68083,1,2,0:0:0:0:
192,192,68083,1,0,0:0:0:0:
64,192,68219,1,0,0:0:0:0:
192,192,68219,1,2,0:0:0:0:
64,192,68356,1,0,0:0:0:0:
320,192,68356,1,8,0:0:0:0:
448,192,68356,1,0,0:0:0:0:
320,192,68492,1,2,0:0:0:0:
192,192,68492,1,0,0:0:0:0:
192,192,68765,1,0,0:0:0:0:
320,192,68765,1,2,0:0:0:0:
448,192,68901,1,0,0:0:0:0:
192,192,68901,1,8,0:0:0:0:
64,192,68901,128,0,69174:0:0:0:0:
448,192,69174,128,0,69583:0:0:0:0:
320,192,69174,1,2,0:0:0:0:
64,192,69583,1,0,0:0:0:0:
192,192,69651,1,0,0:0:0:0:
320,192,69719,1,8,0:0:0:0:
448,192,69719,1,0,0:0:0:0:
64,192,69719,1,0,0:0:0:0:
192,192,69856,1,2,0:0:0:0:
64,192,69992,1,0,0:0:0:0:
320,192,69992,1,8,0:0:0:0:
64,192,70265,1,0,0:0:0:0:
448,192,70265,1,8,0:0:0:0:
320,192,70333,1,0,0:0:0:0:
192,192,70401,1,0,0:0:0:0:
64,192,70469,1,0,0:0:0:0:
448,192,70537,1,0,0:0:0:0:
320,192,70606,1,0,0:0:0:0:
64,192,70674,1,0,0:0:0:0:
448,192,70674,1,8,0:0:0:0:
192,192,70674,1,0,0:0:0:0:
448,192,71356,1,4,0:0:0:0:
64,192,71356,1,0,0:0:0:0:
192,192,71356,1,0,0:0:0:0:
320,192,71356,1,0,0:0:0:0:
320,192,71628,1,8,0:0:0:0:
448,192,71628,1,0,0:0:0:0:
64,192,71628,1,0,0:0:0:0:
320,192,71901,1,2,0:0:0:0:
192,192,71901,1,0,0:0:0:0:
320,192,72037,1,2,0:0:0:0:
64,192,72037,1,0,0:0:0:0:
64,192,72174,1,0,0:0:0:0:
192,192,72174,1,8,0:0:0:0:
448,192,72174,1,0,0:0:0:0:
192,192,72446,1,2,0:0:0:0:
448,192,72446,1,0,0:0:0:0:
320,192,72719,1,8,0:0:0:0:
448,192,72719,1,0,0:0:0:0:
64,192,72719,1,0,0:0:0:0:
192,192,72856,1,2,0:0:0:0:
64,192,72856,1,0,0:0:0:0:
448,192,72992,1,0,0:0:0:0:
192,192,73128,1,2,0:0:0:0:
320,192,73128,1,0,0:0:0:0:
448,192,73265,1,8,0:0:0:0:
64,192,73265,1,0,0:0:0:0:
320,192,73333,1,2,0:0:0:0:
192,192,73401,1,2,0:0:0:0:
64,192,73401,1,0,0:0:0:0:
320,192,73469,1,2,0:0:0:0:
192,192,73537,1,2,0:0:0:0:
64,192,73537,1,4,0:0:0:0:
448,192,73537,1,0,0:0:0:0:
64,192,73810,1,8,0:0:0:0:
320,192,73810,1,0,0:0:0:0:
448,192,73810,1,0,0:0:0:0:
192,192,74083,1,2,0:0:0:0:
448,192,74083,1,0,0:0:0:0:
320,192,74219,1,2,0:0:0:0:
448,192,74219,1,0,0:0:0:0:
64,192,74356,1,0,0:0:0:0:
192,192,74356,1,0,0:0:0:0:
320,192,74356,1,8,0:0:0:0:
192,192,74492,1,0,0:0:0:0:
448,192,74628,128,0,74901:0:0:0:0:
320,192,74628,1,0,0:0:0:0:
64,192,74628,1,2,0:0:0:0:
192,192,74901,128,0,75174:0:0:0:0:
320,192,74901,1,8,0:0:0:0:
64,192,74901,1,0,0:0:0:0:
320,192,75037,1,2,0:0:0:0:
64,192,75174,128,0,75446:0:0:0:0:
448,192,75174,1,0,0:0:0:0:
192,192,75310,1,2,0:0:0:0:
320,192,75446,1,8,0:0:0:0:
448,192,75446,1,0,0:0:0:0:
192,192,75515,1,8,0:0:0:0:
64,192,75515,1,0,0:0:0:0:
320,192,75583,1,8,0:0:0:0:
448,192,75583,1,0,0:0:0:0:
192,192,75651,1,2,0:0:0:0:
320,192,75719,1,4,0:0:0:0:
448,192,75719,1,0,0:0:0:0:
64,192,75719,1,2,0:0:0:0:
320,192,75992,1,8,0:0:0:0:
448,192,75992,1,0,0:0:0:0:
64,192,75992,1,0,0:0:0:0:
64,192,76265,1,0,0:0:0:0:
192,192,76265,1,2,0:0:0:0:
320,192,76401,1,2,0:0:0:0:
448,192,76401,1,0,0:0:0:0:
64,192,76537,1,0,0:0:0:0:
192,192,76537,1,8,0:0:0:0:
448,192,76537,1,0,0:0:0:0:
192,192,76810,1,2,0:0:0:0:
448,192,76810,1,0,0:0:0:0:
64,192,77083,1,0,0:0:0:0:
320,192,77083,1,8,0:0:0:0:
448,192,77083,1,0,0:0:0:0:
192,192,77219,1,2,0:0:0:0:
320,192,77219,1,0,0:0:0:0:
64,192,77356,1,0,0:0:0:0:
192,192,77492,1,2,0:0:0:0:
320,192,77492,1,0,0:0:0:0:
448,192,77628,1,0,0:0:0:0:
192,192,77628,1,8,0:0:0:0:
64,192,77628,1,0,0:0:0:0:
448,192,77901,1,0,0:0:0:0:
320,192,77901,1,2,0:0:0:0:
192,192,77901,1,4,0:0:0:0:
192,192,78174,1,8,0:0:0:0:
448,192,78174,1,0,0:0:0:0:
64,192,78174,1,0,0:0:0:0:
320,192,78446,1,2,0:0:0:0:
64,192,78446,1,0,0:0:0:0:
448,192,78583,1,0,0:0:0:0:
192,192,78583,1,2,0:0:0:0:
64,192,78719,1,0,0:0:0:0:
320,192,78719,1,8,0:0:0:0:
448,192,78719,1,0,0:0:0:0:
320,192,78856,1,0,0:0:0:0:
64,192,78992,1,0,0:0:0:0:
448,192,78992,1,0,0:0:0:0:
192,192,78992,1,8,0:0:0:0:
192,192,79128,1,2,0:0:0:0:
320,192,79196,1,2,0:0:0:0:
448,192,79265,1,2,0:0:0:0:
320,192,79333,1,0,0:0:0:0:
192,192,79401,1,8,0:0:0:0:
64,192,79401,1,0,0:0:0:0:
448,192,79469,1,0,0:0:0:0:
320,192,79537,1,2,0:0:0:0:
192,192,79606,1,2,0:0:0:0:
64,192,79674,1,2,0:0:0:0:
192,192,79742,1,0,0:0:0:0:
448,192,79810,1,8,0:0:0:0:
320,192,79810,1,0,0:0:0:0:
192,192,79878,1,8,0:0:0:0:
64,192,79878,1,0,0:0:0:0:
320,192,79946,1,8,0:0:0:0:
448,192,79946,1,0,0:0:0:0:
192,192,80015,1,8,0:0:0:0:
64,192,80015,1,0,0:0:0:0:
64,192,80083,1,6,0:0:0:0:
448,192,80083,1,0,0:0:0:0:
320,192,80083,1,2,0:0:0:0:
448,192,80356,1,0,0:0:0:0:
64,192,80356,1,8,0:0:0:0:
192,192,80356,1,0,0:0:0:0:
192,192,80628,1,0,0:0:0:0:
320,192,80628,1,2,0:0:0:0:
64,192,80765,1,0,0:0:0:0:
320,192,80765,1,2,0:0:0:0:
192,192,80901,1,8,0:0:0:0:
64,192,80901,1,0,0:0:0:0:
448,192,80901,1,0,0:0:0:0:
192,192,81174,1,2,0:0:0:0:
448,192,81174,1,0,0:0:0:0:
192,192,81310,1,2,0:0:0:0:
320,192,81310,1,0,0:0:0:0:
320,192,81446,1,8,0:0:0:0:
448,192,81446,1,0,0:0:0:0:
64,192,81446,1,0,0:0:0:0:
192,192,81583,1,2,0:0:0:0:
448,192,81583,1,0,0:0:0:0:
320,192,81719,1,0,0:0:0:0:
192,192,81856,1,2,0:0:0:0:
64,192,81856,1,0,0:0:0:0:
448,192,81992,1,8,0:0:0:0:
64,192,81992,1,0,0:0:0:0:
320,192,82037,1,0,0:0:0:0:
192,192,82083,1,0,0:0:0:0:
64,192,82128,1,0,0:0:0:0:
448,192,82128,1,0,0:0:0:0:
320,192,82265,1,2,0:0:0:0:
448,192,82265,1,4,0:0:0:0:
64,192,82265,1,0,0:0:0:0:
64,192,82537,1,0,0:0:0:0:
448,192,82537,1,0,0:0:0:0:
192,192,82537,1,8,0:0:0:0:
64,192,82810,1,0,0:0:0:0:
192,192,82810,1,2,0:0:0:0:
320,192,82946,1,2,0:0:0:0:
448,192,82946,1,0,0:0:0:0:
192,192,83083,1,8,0:0:0:0:
320,192,83083,1,0,0:0:0:0:
64,192,83083,1,0,0:0:0:0:
320,192,83219,1,0,0:0:0:0:
64,192,83356,128,0,83628:0:0:0:0:
192,192,83356,1,0,0:0:0:0:
448,192,83356,1,2,0:0:0:0:
320,192,83628,128,0,83901:0:0:0:0:
192,192,83628,1,8,0:0:0:0:
448,192,83628,1,0,0:0:0:0:
192,192,83765,1,2,0:0:0:0:
64,192,83901,1,0,0:0:0:0:
448,192,83901,128,0,84174:0:0:0:0:
192,192,84037,1,0,0:0:0:0:
320,192,84106,1,0,0:0:0:0:
64,192,84174,1,0,0:0:0:0:
192,192,84174,1,8,0:0:0:0:
320,192,84242,1,8,0:0:0:0:
448,192,84242,1,0,0:0:0:0:
192,192,84310,1,8,0:0:0:0:
64,192,84310,1,0,0:0:0:0:
320,192,84378,1,2,0:0:0:0:
192,192,84446,1,2,0:0:0:0:
64,192,84446,1,4,0:0:0:0:
448,192,84446,1,0,0:0:0:0:
448,192,84719,1,0,0:0:0:0:
64,192,84719,1,8,0:0:0:0:
320,192,84719,1,0,0:0:0:0:
192,192,84992,1,2,0:0:0:0:
448,192,84992,1,0,0:0:0:0:
192,192,85128,1,2,0:0:0:0:
320,192,85128,1,0,0:0:0:0:
64,192,85265,1,0,0:0:0:0:
320,192,85265,1,8,0:0:0:0:
448,192,85265,1,0,0:0:0:0:
192,192,85537,1,0,0:0:0:0:
320,192,85537,1,0,0:0:0:0:
320,192,85810,1,8,0:0:0:0:
448,192,85810,1,0,0:0:0:0:
64,192,85810,1,0,0:0:0:0:
192,192,85946,1,2,0:0:0:0:
320,192,85946,1,0,0:0:0:0:
64,192,86083,1,0,0:0:0:0:
448,192,86219,1,0,0:0:0:0:
320,192,86219,1,2,0:0:0:0:
64,192,86356,1,0,0:0:0:0:
192,192,86356,1,8,0:0:0:0:
320,192,86424,1,8,0:0:0:0:
448,192,86424,1,0,0:0:0:0:
192,192,86492,1,8,0:0:0:0:
64,192,86492,1,0,0:0:0:0:
320,192,86560,1,2,0:0:0:0:
64,192,86628,1,2,0:0:0:0:
448,192,86628,1,8,0:0:0:0:
320,192,87174,1,8,0:0:0:0:
448,192,87174,1,2,0:0:0:0:
64,192,87719,1,8,0:0:0:0:
448,192,87719,1,2,0:0:0:0:
320,192,87787,1,0,0:0:0:0:
192,192,87856,1,2,0:0:0:0:
64,192,87924,1,2,0:0:0:0:
448,192,87992,1,2,0:0:0:0:
320,192,88060,1,0,0:0:0:0:
64,192,88128,1,2,0:0:0:0:
192,192,88128,1,8,0:0:0:0:
320,192,88196,1,0,0:0:0:0:
448,192,88265,1,2,0:0:0:0:
64,192,88333,1,2,0:0:0:0:
192,192,88401,1,2,0:0:0:0:
320,192,88469,1,0,0:0:0:0:
448,192,88537,1,8,0:0:0:0:
64,192,88537,1,0,0:0:0:0:
192,192,88537,1,0,0:0:0:0:
448,192,88810,1,4,0:0:0:0:
320,192,88810,1,2,0:0:0:0:
64,192,88810,1,0,0:0:0:0:
192,192,88810,1,0,0:0:0:0:
448,192,89083,1,0,0:0:0:0:
320,192,89083,1,8,0:0:0:0:
64,192,89083,1,0,0:0:0:0:
320,192,89219,1,0,0:0:0:0:
320,192,89356,1,0,0:0:0:0:
192,192,89356,1,8,0:0:0:0:
64,192,89356,1,0,0:0:0:0:
192,192,89492,1,0,0:0:0:0:
448,192,89492,1,2,0:0:0:0:
192,192,89628,1,0,0:0:0:0:
320,192,89628,1,8,0:0:0:0:
448,192,89628,1,0,0:0:0:0:
64,192,89765,1,0,0:0:0:0:
64,192,89901,1,0,0:0:0:0:
192,192,89901,1,8,0:0:0:0:
448,192,89901,1,0,0:0:0:0:
320,192,90037,1,0,0:0:0:0:
320,192,90174,1,8,0:0:0:0:
448,192,90174,1,0,0:0:0:0:
64,192,90174,1,0,0:0:0:0:
192,192,90310,1,0,0:0:0:0:
64,192,90446,1,0,0:0:0:0:
192,192,90446,1,8,0:0:0:0:
448,192,90446,1,0,0:0:0:0:
320,192,90583,1,0,0:0:0:0:
192,192,90583,1,0,0:0:0:0:
320,192,90719,1,8,0:0:0:0:
448,192,90719,1,0,0:0:0:0:
64,192,90719,1,0,0:0:0:0:
192,192,90856,1,0,0:0:0:0:
320,192,90856,1,0,0:0:0:0:
192,192,90992,1,2,0:0:0:0:
64,192,90992,1,4,0:0:0:0:
448,192,90992,128,0,91265:0:0:0:0:
320,192,91265,1,8,0:0:0:0:
64,192,91265,1,0,0:0:0:0:
192,192,91401,1,0,0:0:0:0:
64,192,91537,1,0,0:0:0:0:
192,192,91537,1,8,0:0:0:0:
448,192,91537,1,0,0:0:0:0:
320,192,91674,1,0,0:0:0:0:
64,192,91674,1,2,0:0:0:0:
320,192,91810,1,8,0:0:0:0:
192,192,91810,1,0,0:0:0:0:
448,192,91810,1,0,0:0:0:0:
192,192,91946,1,0,0:0:0:0:
64,192,92083,1,0,0:0:0:0:
192,192,92083,1,8,0:0:0:0:
448,192,92083,1,0,0:0:0:0:
320,192,92219,1,0,0:0:0:0:
320,192,92356,1,8,0:0:0:0:
448,192,92356,1,0,0:0:0:0:
64,192,92356,1,0,0:0:0:0:
192,192,92492,1,0,0:0:0:0:
192,192,92628,1,8,0:0:0:0:
320,192,92628,1,0,0:0:0:0:
448,192,92628,1,0,0:0:0:0:
64,192,92765,1,0,0:0:0:0:
320,192,92901,1,8,0:0:0:0:
448,192,92901,1,0,0:0:0:0:
192,192,92969,1,8,0:0:0:0:
64,192,92969,1,0,0:0:0:0:
320,192,93037,1,8,0:0:0:0:
448,192,93037,1,0,0:0:0:0:
192,192,93106,1,2,0:0:0:0:
320,192,93174,1,2,0:0:0:0:
64,192,93174,1,4,0:0:0:0:
448,192,93174,128,0,93446:0:0:0:0:
320,192,93446,1,8,0:0:0:0:
192,192,93446,1,0,0:0:0:0:
64,192,93583,1,0,0:0:0:0:
64,192,93719,1,0,0:0:0:0:
320,192,93719,1,8,0:0:0:0:
448,192,93719,1,0,0:0:0:0:
192,192,93856,1,0,0:0:0:0:
448,192,93856,1,2,0:0:0:0:
320,192,93992,1,8,0:0:0:0:
448,192,93992,1,0,0:0:0:0:
192,192,93992,1,0,0:0:0:0:
320,192,94128,1,0,0:0:0:0:
64,192,94265,1,0,0:0:0:0:
192,192,94265,1,8,0:0:0:0:
448,192,94265,1,0,0:0:0:0:
192,192,94401,1,0,0:0:0:0:
320,192,94537,1,8,0:0:0:0:
448,192,94537,1,0,0:0:0:0:
64,192,94537,1,0,0:0:0:0:
192,192,94674,1,0,0:0:0:0:
320,192,94810,1,8,0:0:0:0:
448,192,94810,1,0,0:0:0:0:
64,192,94810,1,0,0:0:0:0:
320,192,94946,1,0,0:0:0:0:
192,192,94946,1,0,0:0:0:0:
192,192,95083,1,8,0:0:0:0:
64,192,95083,1,0,0:0:0:0:
448,192,95083,1,0,0:0:0:0:
320,192,95219,1,0,0:0:0:0:
192,192,95219,1,0,0:0:0:0:
448,192,95356,1,4,0:0:0:0:
64,192,95356,1,0,0:0:0:0:
320,192,95356,1,2,0:0:0:0:
192,192,95356,128,0,95628:0:0:0:0:
320,192,95628,1,8,0:0:0:0:
448,192,95628,1,0,0:0:0:0:
64,192,95628,1,0,0:0:0:0:
192,192,95765,1,0,0:0:0:0:
64,192,95901,1,0,0:0:0:0:
448,192,95901,1,8,0:0:0:0:
320,192,95901,1,0,0:0:0:0:
320,192,96037,1,0,0:0:0:0:
192,192,96037,1,2,0:0:0:0:
448,192,96174,1,0,0:0:0:0:
192,192,96174,1,8,0:0:0:0:
64,192,96174,1,0,0:0:0:0:
320,192,96310,1,0,0:0:0:0:
320,192,96446,1,8,0:0:0:0:
448,192,96446,1,0,0:0:0:0:
64,192,96446,1,0,0:0:0:0:
192,192,96583,1,0,0:0:0:0:
64,192,96719,1,0,0:0:0:0:
320,192,96719,1,8,0:0:0:0:
448,192,96719,1,0,0:0:0:0:
192,192,96856,1,0,0:0:0:0:
64,192,96992,1,0,0:0:0:0:
320,192,96992,1,8,0:0:0:0:
448,192,96992,1,0,0:0:0:0:
192,192,97128,1,0,0:0:0:0:
320,192,97196,1,0,0:0:0:0:
64,192,97265,1,0,0:0:0:0:
192,192,97265,1,8,0:0:0:0:
320,192,97333,1,8,0:0:0:0:
448,192,97333,1,0,0:0:0:0:
192,192,97401,1,8,0:0:0:0:
64,192,97401,1,0,0:0:0:0:
448,192,97469,1,0,0:0:0:0:
320,192,97469,1,8,0:0:0:0:
192,192,97537,1,2,0:0:0:0:
64,192,97537,1,0,0:0:0:0:
448,192,97674,1,0,0:0:0:0:
64,192,97810,1,0,0:0:0:0:
192,192,97810,1,2,0:0:0:0:
320,192,97946,1,2,0:0:0:0:
448,192,97946,1,0,0:0:0:0:
64,192,98083,1,0,0:0:0:0:
192,192,98083,1,2,0:0:0:0:
320,192,98219,1,0,0:0:0:0:
64,192,98356,1,0,0:0:0:0:
192,192,98356,1,2,0:0:0:0:
320,192,98492,1,0,0:0:0:0:
448,192,98628,1,0,0:0:0:0:
192,192,98628,1,2,0:0:0:0:
64,192,98628,1,0,0:0:0:0:
320,192,98765,1,0,0:0:0:0:
320,192,98901,1,0,0:0:0:0:
192,192,99037,1,2,0:0:0:0:
64,192,99037,1,0,0:0:0:0:
448,192,99037,1,0,0:0:0:0:
320,192,99174,1,0,0:0:0:0:
320,192,99310,1,0,0:0:0:0:
64,192,99446,1,0,0:0:0:0:
192,192,99446,1,2,0:0:0:0:
448,192,99446,1,0,0:0:0:0:
448,192,99719,128,0,100128:0:0:0:0:
320,192,99719,1,4,0:0:0:0:
192,192,99719,1,2,0:0:0:0:
64,192,100128,1,0,0:0:0:0:
192,192,100265,1,0,0:0:0:0:
320,192,100265,1,8,0:0:0:0:
448,192,100265,1,0,0:0:0:0:
64,192,100401,1,0,0:0:0:0:
320,192,100401,1,2,0:0:0:0:
192,192,100537,1,8,0:0:0:0:
320,192,100537,1,0,0:0:0:0:
448,192,100537,1,0,0:0:0:0:
320,192,100810,1,2,0:0:0:0:
448,192,100810,1,0,0:0:0:0:
192,192,100946,1,2,0:0:0:0:
64,192,100946,1,0,0:0:0:0:
64,192,101083,1,0,0:0:0:0:
320,192,101083,1,8,0:0:0:0:
448,192,101083,1,0,0:0:0:0:
192,192,101219,1,2,0:0:0:0:
320,192,101219,1,0,0:0:0:0:
448,192,101492,1,0,0:0:0:0:
320,192,101492,1,2,0:0:0:0:
64,192,101628,128,0,101901:0:0:0:0:
192,192,101628,1,8,0:0:0:0:
448,192,101628,1,0,0:0:0:0:
448,192,101901,128,0,102310:0:0:0:0:
320,192,101901,1,2,0:0:0:0:
64,192,102310,1,0,0:0:0:0:
192,192,102378,1,0,0:0:0:0:
448,192,102446,1,0,0:0:0:0:
320,192,102446,1,8,0:0:0:0:
64,192,102446,1,0,0:0:0:0:
192,192,102583,1,2,0:0:0:0:
320,192,102583,1,0,0:0:0:0:
64,192,102719,1,0,0:0:0:0:
448,192,102719,1,0,0:0:0:0:
192,192,102719,1,8,0:0:0:0:
320,192,102992,1,2,0:0:0:0:
448,192,102992,1,0,0:0:0:0:
448,192,103128,1,2,0:0:0:0:
64,192,103128,1,0,0:0:0:0:
192,192,103265,1,8,0:0:0:0:
320,192,103265,1,0,0:0:0:0:
64,192,103265,1,0,0:0:0:0:
192,192,103401,1,2,0:0:0:0:
448,192,103401,1,0,0:0:0:0:
320,192,103537,1,0,0:0:0:0:
64,192,103674,1,0,0:0:0:0:
192,192,103674,1,2,0:0:0:0:
448,192,103810,128,0,104083:0:0:0:0:
320,192,103810,1,8,0:0:0:0:
64,192,103810,1,0,0:0:0:0:
64,192,104083,128,0,104492:0:0:0:0:
192,192,104083,1,2,0:0:0:0:
448,192,104492,1,0,0:0:0:0:
320,192,104560,1,0,0:0:0:0:
192,192,104628,1,8,0:0:0:0:
64,192,104628,1,0,0:0:0:0:
448,192,104628,1,0,0:0:0:0:
320,192,104765,1,2,0:0:0:0:
192,192,104765,1,0,0:0:0:0:
64,192,104901,1,0,0:0:0:0:
448,192,104901,1,0,0:0:0:0:
320,192,104901,1,8,0:0:0:0:
192,192,105174,1,2,0:0:0:0:
448,192,105174,1,0,0:0:0:0:
192,192,105310,1,2,0:0:0:0:
320,192,105310,1,0,0:0:0:0:
64,192,105446,1,0,0:0:0:0:
320,192,105446,1,8,0:0:0:0:
448,192,105446,1,0,0:0:0:0:
192,192,105583,1,2,0:0:0:0:
64,192,105583,1,0,0:0:0:0:
320,192,105856,1,2,0:0:0:0:
448,192,105856,1,0,0:0:0:0:
64,192,105992,128,0,106265:0:0:0:0:
192,192,105992,1,8,0:0:0:0:
448,192,105992,1,0,0:0:0:0:
448,192,106265,128,0,106674:0:0:0:0:
320,192,106265,1,2,0:0:0:0:
64,192,106674,1,0,0:0:0:0:
192,192,106742,1,0,0:0:0:0:
320,192,106810,1,8,0:0:0:0:
448,192,106810,1,0,0:0:0:0:
64,192,106810,1,0,0:0:0:0:
192,192,106946,1,2,0:0:0:0:
320,192,106946,1,0,0:0:0:0:
64,192,107083,1,0,0:0:0:0:
448,192,107083,1,0,0:0:0:0:
192,192,107083,1,8,0:0:0:0:
64,192,107356,1,2,0:0:0:0:
448,192,107356,1,8,0:0:0:0:
320,192,107424,1,0,0:0:0:0:
192,192,107492,1,0,0:0:0:0:
64,192,107560,1,0,0:0:0:0:
320,192,107628,1,0,0:0:0:0:
192,192,107696,1,0,0:0:0:0:
64,192,107765,1,2,0:0:0:0:
448,192,107765,1,8,0:0:0:0:
192,192,107833,1,0,0:0:0:0:
320,192,107901,1,0,0:0:0:0:
448,192,107969,1,0,0:0:0:0:
192,192,108037,1,0,0:0:0:0:
320,192,108106,1,0,0:0:0:0:
448,192,108174,1,0,0:0:0:0:
64,192,108174,1,0,0:0:0:0:
192,192,108174,1,8,0:0:0:0:
448,192,108446,128,0,108856:0:0:0:0:
64,192,108446,1,4,0:0:0:0:
320,192,108446,1,2,0:0:0:0:
192,192,108856,1,0,0:0:0:0:
64,192,108992,1,0,0:0:0:0:
320,192,108992,1,8,0:0:0:0:
448,192,108992,1,0,0:0:0:0:
192,192,109128,1,2,0:0:0:0:
320,192,109128,1,0,0:0:0:0:
64,192,109265,1,0,0:0:0:0:
448,192,109265,1,0,0:0:0:0:
192,192,109265,1,8,0:0:0:0:
64,192,109537,1,0,0:0:0:0:
320,192,109537,1,2,0:0:0:0:
192,192,109674,1,0,0:0:0:0:
320,192,109674,1,2,0:0:0:0:
448,192,109810,1,0,0:0:0:0:
64,192,109810,1,0,0:0:0:0:
192,192,109810,1,8,0:0:0:0:
320,192,109946,1,2,0:0:0:0:
448,192,109946,1,0,0:0:0:0:
64,192,110219,1,0,0:0:0:0:
192,192,110219,1,2,0:0:0:0:
448,192,110356,128,0,110628:0:0:0:0:
320,192,110356,1,8,0:0:0:0:
64,192,110356,1,0,0:0:0:0:
64,192,110628,128,0,111037:0:0:0:0:
192,192,110628,1,2,0:0:0:0:
448,192,111037,1,0,0:0:0:0:
320,192,111106,1,0,0:0:0:0:
192,192,111174,1,8,0:0:0:0:
64,192,111174,1,0,0:0:0:0:
448,192,111174,1,0,0:0:0:0:
320,192,111310,1,2,0:0:0:0:
192,192,111310,1,0,0:0:0:0:
448,192,111446,1,0,0:0:0:0:
64,192,111446,1,0,0:0:0:0:
320,192,111446,1,8,0:0:0:0:
192,192,111719,1,2,0:0:0:0:
448,192,111719,1,0,0:0:0:0:
192,192,111856,1,2,0:0:0:0:
320,192,111856,1,0,0:0:0:0:
64,192,111992,1,0,0:0:0:0:
320,192,111992,1,8,0:0:0:0:
448,192,111992,1,0,0:0:0:0:
192,192,112128,1,2,0:0:0:0:
320,192,112128,1,0,0:0:0:0:
64,192,112265,1,0,0:0:0:0:
192,192,112401,1,2,0:0:0:0:
448,192,112401,1,0,0:0:0:0:
320,192,112537,1,8,0:0:0:0:
192,192,112537,1,0,0:0:0:0:
64,192,112537,128,0,112810:0:0:0:0:
448,192,112810,128,0,113219:0:0:0:0:
320,192,112810,1,2,0:0:0:0:
64,192,113219,1,0,0:0:0:0:
192,192,113287,1,0,0:0:0:0:
320,192,113356,1,8,0:0:0:0:
448,192,113356,1,0,0:0:0:0:
64,192,113356,1,0,0:0:0:0:
192,192,113492,1,2,0:0:0:0:
320,192,113492,1,0,0:0:0:0:
64,192,113628,1,0,0:0:0:0:
448,192,113628,1,0,0:0:0:0:
192,192,113628,1,8,0:0:0:0:
64,192,113901,1,0,0:0:0:0:
320,192,113901,1,2,0:0:0:0:
192,192,114037,1,0,0:0:0:0:
320,192,114037,1,2,0:0:0:0:
64,192,114174,1,0,0:0:0:0:
192,192,114174,1,8,0:0:0:0:
448,192,114174,1,0,0:0:0:0:
192,192,114310,1,0,0:0:0:0:
320,192,114310,1,2,0:0:0:0:
64,192,114583,1,0,0:0:0:0:
192,192,114583,1,2,0:0:0:0:
320,192,114719,1,8,0:0:0:0:
448,192,114719,128,0,114992:0:0:0:0:
64,192,114719,1,0,0:0:0:0:
64,192,114992,128,0,115401:0:0:0:0:
192,192,114992,1,2,0:0:0:0:
448,192,115401,1,0,0:0:0:0:
320,192,115469,1,0,0:0:0:0:
192,192,115537,1,8,0:0:0:0:
64,192,115537,1,0,0:0:0:0:
448,192,115537,1,0,0:0:0:0:
320,192,115674,1,2,0:0:0:0:
192,192,115674,1,0,0:0:0:0:
448,192,115810,1,0,0:0:0:0:
64,192,115810,1,0,0:0:0:0:
320,192,115810,1,8,0:0:0:0:
448,192,116083,1,8,0:0:0:0:
64,192,116083,1,0,0:0:0:0:
192,192,116151,1,0,0:0:0:0:
320,192,116219,1,0,0:0:0:0:
448,192,116287,1,0,0:0:0:0:
192,192,116356,1,0,0:0:0:0:
320,192,116424,1,0,0:0:0:0:
448,192,116492,1,0,0:0:0:0:
192,192,116492,1,8,0:0:0:0:
64,192,116492,1,0,0:0:0:0:
64,192,117174,1,4,0:0:0:0:
192,192,117174,1,2,0:0:0:0:
448,192,117174,1,0,0:0:0:0:
448,192,117446,1,0,0:0:0:0:
64,192,117446,1,0,0:0:0:0:
320,192,117583,1,0,0:0:0:0:
192,192,117719,1,8,0:0:0:0:
448,192,117719,1,0,0:0:0:0:
64,192,117719,1,0,0:0:0:0:
64,192,117992,1,0,0:0:0:0:
320,192,117992,1,0,0:0:0:0:
192,192,118128,1,2,0:0:0:0:
64,192,118265,1,0,0:0:0:0:
448,192,118265,1,0,0:0:0:0:
320,192,118401,1,0,0:0:0:0:
192,192,118401,1,2,0:0:0:0:
192,192,118537,1,2,0:0:0:0:
448,192,118537,1,0,0:0:0:0:
64,192,118810,1,0,0:0:0:0:
192,192,118810,1,8,0:0:0:0:
448,192,118810,1,0,0:0:0:0:
448,192,119083,1,0,0:0:0:0:
192,192,119083,1,2,0:0:0:0:
320,192,119219,1,0,0:0:0:0:
64,192,119356,1,0,0:0:0:0:
192,192,119356,1,2,0:0:0:0:
448,192,119356,1,0,0:0:0:0:
64,192,119628,1,0,0:0:0:0:
448,192,119628,1,0,0:0:0:0:
320,192,119765,1,0,0:0:0:0:
192,192,119901,1,8,0:0:0:0:
64,192,119901,1,0,0:0:0:0:
448,192,119901,1,0,0:0:0:0:
64,192,120174,1,0,0:0:0:0:
320,192,120174,1,0,0:0:0:0:
192,192,120310,1,2,0:0:0:0:
320,192,120446,1,0,0:0:0:0:
64,192,120446,1,0,0:0:0:0:
448,192,120583,1,0,0:0:0:0:
192,192,120583,1,2,0:0:0:0:
192,192,120719,1,2,0:0:0:0:
320,192,120719,1,0,0:0:0:0:
192,192,120992,1,0,0:0:0:0:
320,192,120992,1,8,0:0:0:0:
448,192,120992,1,0,0:0:0:0:
64,192,121128,1,0,0:0:0:0:
192,192,121196,1,0,0:0:0:0:
320,192,121265,1,2,0:0:0:0:
448,192,121265,1,0,0:0:0:0:
192,192,121333,1,2,0:0:0:0:
64,192,121333,1,0,0:0:0:0:
320,192,121401,1,2,0:0:0:0:
448,192,121401,1,0,0:0:0:0:
192,192,121469,1,2,0:0:0:0:
64,192,121537,1,0,0:0:0:0:
320,192,121537,1,2,0:0:0:0:
448,192,121537,1,4,0:0:0:0:
64,192,121810,1,0,0:0:0:0:
320,192,121810,1,0,0:0:0:0:
192,192,121946,1,0,0:0:0:0:
320,192,122083,1,8,0:0:0:0:
448,192,122083,1,0,0:0:0:0:
64,192,122083,1,0,0:0:0:0:
448,192,122356,1,0,0:0:0:0:
64,192,122356,1,0,0:0:0:0:
192,192,122492,1,2,0:0:0:0:
320,192,122628,1,0,0:0:0:0:
448,192,122628,1,0,0:0:0:0:
64,192,122765,1,0,0:0:0:0:
192,192,122765,1,2,0:0:0:0:
192,192,122901,1,2,0:0:0:0:
448,192,122901,1,0,0:0:0:0:
64,192,123174,1,0,0:0:0:0:
192,192,123174,1,8,0:0:0:0:
448,192,123174,1,0,0:0:0:0:
320,192,123310,1,0,0:0:0:0:
64,192,123446,1,0,0:0:0:0:
448,192,123446,1,0,0:0:0:0:
192,192,123583,1,0,0:0:0:0:
320,192,123719,1,2,0:0:0:0:
448,192,123719,1,0,0:0:0:0:
64,192,123719,1,0,0:0:0:0:
448,192,124128,128,0,124265:0:0:0:0:
320,192,124265,128,0,124401:0:0:0:0:
64,192,124537,128,0,124674:0:0:0:0:
192,192,124674,128,0,124810:0:0:0:0:
320,192,124810,1,2,0:0:0:0:
64,192,124946,1,0,0:0:0:0:
192,192,124946,1,8,0:0:0:0:
448,192,124946,1,0,0:0:0:0:
320,192,125083,1,2,0:0:0:0:
64,192,125219,1,0,0:0:0:0:
192,192,125219,1,8,0:0:0:0:
448,192,125219,1,0,0:0:0:0:
320,192,125356,1,8,0:0:0:0:
448,192,125356,1,0,0:0:0:0:
192,192,125424,1,8,0:0:0:0:
64,192,125424,1,0,0:0:0:0:
320,192,125492,1,8,0:0:0:0:
448,192,125492,1,0,0:0:0:0:
64,192,125560,1,0,0:0:0:0:
192,192,125560,1,8,0:0:0:0:
320,192,125628,1,8,0:0:0:0:
448,192,125628,1,0,0:0:0:0:
64,192,126174,1,8,0:0:0:0:
192,192,126174,1,0,0:0:0:0:
320,192,126174,1,4,0:0:0:0:
448,192,126174,1,0,0:0:0:0:
192,192,126446,1,2,0:0:0:0:
448,192,126446,1,0,0:0:0:0:
192,192,126583,1,2,0:0:0:0:
320,192,126583,1,0,0:0:0:0:
64,192,126719,1,0,0:0:0:0:
320,192,126719,1,8,0:0:0:0:
448,192,126719,1,0,0:0:0:0:
192,192,126856,1,2,0:0:0:0:
320,192,126856,1,0,0:0:0:0:
448,192,126992,1,0,0:0:0:0:
64,192,127128,1,0,0:0:0:0:
320,192,127128,1,2,0:0:0:0:
192,192,127265,1,8,0:0:0:0:
320,192,127265,1,0,0:0:0:0:
448,192,127265,1,0,0:0:0:0:
192,192,127401,1,2,0:0:0:0:
320,192,127537,1,8,0:0:0:0:
448,192,127537,1,0,0:0:0:0:
192,192,127606,1,8,0:0:0:0:
64,192,127606,1,0,0:0:0:0:
320,192,127674,1,8,0:0:0:0:
448,192,127674,1,0,0:0:0:0:
192,192,127742,1,8,0:0:0:0:
64,192,127742,1,0,0:0:0:0:
320,192,127810,1,8,0:0:0:0:
448,192,127810,1,0,0:0:0:0:
64,192,128356,1,0,0:0:0:0:
192,192,128356,1,8,0:0:0:0:
448,192,128356,1,0,0:0:0:0:
320,192,128356,1,4,0:0:0:0:
320,192,128628,1,2,0:0:0:0:
64,192,128628,1,0,0:0:0:0:
192,192,128765,1,2,0:0:0:0:
448,192,128765,1,0,0:0:0:0:
320,192,128901,1,0,0:0:0:0:
192,192,128901,1,2,0:0:0:0:
192,192,129037,1,8,0:0:0:0:
448,192,129037,1,0,0:0:0:0:
64,192,129037,1,0,0:0:0:0:
448,192,129174,128,0,129446:0:0:0:0:
64,192,129174,1,0,0:0:0:0:
320,192,129174,1,2,0:0:0:0:
192,192,129310,1,0,0:0:0:0:
64,192,129446,1,8,0:0:0:0:
192,192,129515,1,8,0:0:0:0:
320,192,129583,1,2,0:0:0:0:
448,192,129651,1,2,0:0:0:0:
64,192,129719,1,0,0:0:0:0:
192,192,129719,1,8,0:0:0:0:
320,192,129787,1,8,0:0:0:0:
448,192,129787,1,0,0:0:0:0:
192,192,129856,1,8,0:0:0:0:
64,192,129856,1,0,0:0:0:0:
320,192,129924,1,8,0:0:0:0:
448,192,129924,1,0,0:0:0:0:
192,192,129992,1,8,0:0:0:0:
64,192,129992,1,0,0:0:0:0:
320,192,130265,1,4,0:0:0:0:
448,192,130265,1,0,0:0:0:0:
64,192,130265,1,2,0:0:0:0:
64,192,130537,1,0,0:0:0:0:
448,192,130537,1,0,0:0:0:0:
192,192,130537,1,8,0:0:0:0:
192,192,130810,1,0,0:0:0:0:
320,192,130810,1,2,0:0:0:0:
64,192,130946,1,0,0:0:0:0:
320,192,130946,1,2,0:0:0:0:
192,192,131083,1,8,0:0:0:0:
320,192,131083,1,0,0:0:0:0:
448,192,131083,1,0,0:0:0:0:
192,192,131356,1,2,0:0:0:0:
448,192,131356,1,0,0:0:0:0:
64,192,131628,1,0,0:0:0:0:
320,192,131628,1,8,0:0:0:0:
448,192,131628,1,0,0:0:0:0:
192,192,131765,1,2,0:0:0:0:
320,192,131765,1,0,0:0:0:0:
64,192,131901,1,0,0:0:0:0:
320,192,132037,1,0,0:0:0:0:
192,192,132037,1,2,0:0:0:0:
64,192,132174,1,8,0:0:0:0:
448,192,132174,1,0,0:0:0:0:
192,192,132242,1,8,0:0:0:0:
320,192,132310,1,8,0:0:0:0:
448,192,132310,1,0,0:0:0:0:
192,192,132378,1,2,0:0:0:0:
64,192,132446,1,4,0:0:0:0:
320,192,132446,1,2,0:0:0:0:
448,192,132446,1,0,0:0:0:0:
64,192,132719,1,0,0:0:0:0:
192,192,132719,1,8,0:0:0:0:
448,192,132719,1,0,0:0:0:0:
192,192,132992,1,2,0:0:0:0:
320,192,132992,1,0,0:0:0:0:
448,192,133128,1,0,0:0:0:0:
64,192,133128,1,2,0:0:0:0:
192,192,133265,1,0,0:0:0:0:
320,192,133265,1,8,0:0:0:0:
448,192,133265,1,0,0:0:0:0:
192,192,133401,1,2,0:0:0:0:
448,192,133537,1,8,0:0:0:0:
64,192,133537,1,0,0:0:0:0:
320,192,133606,1,8,0:0:0:0:
192,192,133674,1,8,0:0:0:0:
64,192,133742,1,8,0:0:0:0:
448,192,133810,1,2,0:0:0:0:
320,192,133878,1,2,0:0:0:0:
64,192,133946,1,0,0:0:0:0:
192,192,133946,1,8,0:0:0:0:
320,192,134015,1,8,0:0:0:0:
448,192,134083,1,8,0:0:0:0:
64,192,134151,1,8,0:0:0:0:
192,192,134219,1,2,0:0:0:0:
320,192,134287,1,0,0:0:0:0:
64,192,134356,1,0,0:0:0:0:
192,192,134356,1,8,0:0:0:0:
320,192,134424,1,8,0:0:0:0:
448,192,134424,1,0,0:0:0:0:
192,192,134492,1,8,0:0:0:0:
64,192,134492,1,0,0:0:0:0:
320,192,134560,1,8,0:0:0:0:
448,192,134560,1,0,0:0:0:0:
64,192,134628,1,4,0:0:0:0:
192,192,134628,1,2,0:0:0:0:
448,192,134628,1,0,0:0:0:0:
192,192,134901,1,8,0:0:0:0:
448,192,134901,1,0,0:0:0:0:
64,192,134901,1,0,0:0:0:0:
320,192,135037,1,0,0:0:0:0:
192,192,135174,1,2,0:0:0:0:
448,192,135174,1,0,0:0:0:0:
320,192,135310,1,0,0:0:0:0:
192,192,135310,1,2,0:0:0:0:
192,192,135446,1,8,0:0:0:0:
448,192,135446,1,0,0:0:0:0:
64,192,135446,1,0,0:0:0:0:
320,192,135583,1,0,0:0:0:0:
192,192,135719,1,2,0:0:0:0:
448,192,135719,1,0,0:0:0:0:
192,192,135856,1,0,0:0:0:0:
320,192,135992,1,8,0:0:0:0:
448,192,135992,1,0,0:0:0:0:
64,192,135992,1,0,0:0:0:0:
192,192,136128,1,2,0:0:0:0:
320,192,136128,1,0,0:0:0:0:
448,192,136265,1,0,0:0:0:0:
64,192,136401,1,0,0:0:0:0:
320,192,136401,1,2,0:0:0:0:
192,192,136537,1,8,0:0:0:0:
448,192,136537,1,0,0:0:0:0:
320,192,136537,1,0,0:0:0:0:
192,192,136674,1,0,0:0:0:0:
64,192,136810,1,4,0:0:0:0:
320,192,136810,1,2,0:0:0:0:
448,192,136810,1,0,0:0:0:0:
64,192,137083,1,0,0:0:0:0:
320,192,137083,1,8,0:0:0:0:
448,192,137083,1,0,0:0:0:0:
192,192,137219,1,0,0:0:0:0:
192,192,137356,1,0,0:0:0:0:
320,192,137356,1,2,0:0:0:0:
64,192,137492,1,0,0:0:0:0:
320,192,137492,1,2,0:0:0:0:
192,192,137628,1,8,0:0:0:0:
320,192,137628,1,0,0:0:0:0:
448,192,137628,1,0,0:0:0:0:
64,192,137765,1,0,0:0:0:0:
192,192,137901,1,2,0:0:0:0:
448,192,137901,1,0,0:0:0:0:
320,192,138037,1,0,0:0:0:0:
64,192,138174,1,0,0:0:0:0:
192,192,138174,1,8,0:0:0:0:
448,192,138174,1,0,0:0:0:0:
320,192,138310,1,2,0:0:0:0:
448,192,138310,1,0,0:0:0:0:
192,192,138446,1,0,0:0:0:0:
320,192,138583,1,0,0:0:0:0:
192,192,138583,1,2,0:0:0:0:
448,192,138719,1,8,0:0:0:0:
64,192,138719,1,0,0:0:0:0:
320,192,138787,1,8,0:0:0:0:
192,192,138856,1,0,0:0:0:0:
448,192,138856,1,8,0:0:0:0:
64,192,138924,1,2,0:0:0:0:
320,192,138992,1,2,0:0:0:0:
448,192,138992,1,0,0:0:0:0:
192,192,138992,1,4,0:0:0:0:
448,192,139265,1,0,0:0:0:0:
64,192,139265,1,0,0:0:0:0:
192,192,139265,1,8,0:0:0:0:
320,192,139401,1,0,0:0:0:0:
192,192,139537,1,0,0:0:0:0:
320,192,139537,1,2,0:0:0:0:
64,192,139674,1,0,0:0:0:0:
320,192,139674,1,2,0:0:0:0:
192,192,139810,1,8,0:0:0:0:
64,192,139810,1,0,0:0:0:0:
448,192,139810,1,0,0:0:0:0:
320,192,139946,1,0,0:0:0:0:
192,192,140083,1,2,0:0:0:0:
448,192,140083,1,0,0:0:0:0:
192,192,140219,1,0,0:0:0:0:
64,192,140356,1,0,0:0:0:0:
320,192,140356,1,8,0:0:0:0:
448,192,140356,1,0,0:0:0:0:
64,192,140492,1,0,0:0:0:0:
192,192,140492,1,2,0:0:0:0:
320,192,140628,1,0,0:0:0:0:
448,192,140765,1,0,0:0:0:0:
192,192,140765,1,2,0:0:0:0:
64,192,140901,1,0,0:0:0:0:
192,192,140935,1,0,0:0:0:0:
320,192,140969,1,0,0:0:0:0:
448,192,141003,1,0,0:0:0:0:
64,192,141037,1,0,0:0:0:0:
192,192,141071,1,0,0:0:0:0:
320,192,141106,1,0,0:0:0:0:
448,192,141140,1,0,0:0:0:0:
64,192,141174,1,2,0:0:0:0:
192,192,141174,1,8,0:0:0:0:
320,192,141719,1,8,0:0:0:0:
448,192,141719,1,2,0:0:0:0:
64,192,142265,1,2,0:0:0:0:
448,192,142265,1,8,0:0:0:0:
320,192,142333,1,0,0:0:0:0:
192,192,142401,1,2,0:0:0:0:
64,192,142469,1,2,0:0:0:0:
448,192,142537,1,2,0:0:0:0:
320,192,142606,1,0,0:0:0:0:
64,192,142674,1,2,0:0:0:0:
192,192,142674,1,8,0:0:0:0:
320,192,142742,1,0,0:0:0:0:
448,192,142810,1,2,0:0:0:0:
64,192,142878,1,2,0:0:0:0:
192,192,142946,1,2,0:0:0:0:
320,192,143015,1,0,0:0:0:0:
448,192,143083,1,8,0:0:0:0:
64,192,143083,1,0,0:0:0:0:
192,192,143083,1,0,0:0:0:0:
64,192,143356,1,0,0:0:0:0:
448,192,143356,1,2,0:0:0:0:
192,192,143560,1,0,0:0:0:0:
448,192,143560,1,0,0:0:0:0:
320,192,143628,1,0,0:0:0:0:
448,192,143765,1,0,0:0:0:0:
192,192,143765,1,0,0:0:0:0:
320,192,143901,1,0,0:0:0:0:
192,192,144037,1,0,0:0:0:0:
448,192,144037,1,0,0:0:0:0:
320,192,144174,1,0,0:0:0:0:
64,192,144310,1,0,0:0:0:0:
192,192,144310,1,0,0:0:0:0:
320,192,144446,1,0,0:0:0:0:
64,192,144583,1,0,0:0:0:0:
192,192,144583,1,0,0:0:0:0:
320,192,144719,1,0,0:0:0:0:
448,192,144856,1,0,0:0:0:0:
64,192,144856,1,0,0:0:0:0:
320,192,144992,1,0,0:0:0:0:
448,192,145128,1,0,0:0:0:0:
64,192,145128,1,0,0:0:0:0:
320,192,145265,1,0,0:0:0:0:
64,192,145401,1,0,0:0:0:0:
192,192,145401,1,2,0:0:0:0:
448,192,145401,1,0,0:0:0:0:
448,192,145537,1,0,0:0:0:0:
320,192,145537,1,2,0:0:0:0:
64,192,145537,1,0,0:0:0:0:
64,192,145742,1,0,0:0:0:0:
320,192,145742,1,0,0:0:0:0:
192,192,145810,1,0,0:0:0:0:
320,192,145946,1,0,0:0:0:0:
448,192,145946,1,0,0:0:0:0:
192,192,146083,1,0,0:0:0:0:
320,192,146219,1,0,0:0:0:0:
448,192,146219,1,0,0:0:0:0:
192,192,146356,1,0,0:0:0:0:
64,192,146492,1,0,0:0:0:0:
320,192,146492,1,0,0:0:0:0:
192,192,146628,1,0,0:0:0:0:
64,192,146765,1,0,0:0:0:0:
320,192,146765,1,0,0:0:0:0:
192,192,146901,1,0,0:0:0:0:
320,192,147037,1,0,0:0:0:0:
448,192,147037,1,0,0:0:0:0:
64,192,147174,1,0,0:0:0:0:
320,192,147310,1,2,0:0:0:0:
448,192,147310,1,0,0:0:0:0:
192,192,147310,1,0,0:0:0:0:
320,192,147446,1,0,0:0:0:0:
192,192,147583,1,2,0:0:0:0:
448,192,147583,1,0,0:0:0:0:
64,192,147583,1,0,0:0:0:0:
320,192,147719,1,2,0:0:0:0:
64,192,147719,1,0,0:0:0:0:
448,192,147719,1,0,0:0:0:0:
448,192,147924,1,0,0:0:0:0:
192,192,147924,1,0,0:0:0:0:
320,192,147992,1,0,0:0:0:0:
64,192,148128,1,0,0:0:0:0:
192,192,148128,1,0,0:0:0:0:
448,192,148265,1,0,0:0:0:0:
192,192,148401,1,0,0:0:0:0:
64,192,148401,1,0,0:0:0:0:
448,192,148537,1,0,0:0:0:0:
64,192,148674,1,0,0:0:0:0:
320,192,148674,1,0,0:0:0:0:
192,192,148810,1,0,0:0:0:0:
320,192,148946,1,0,0:0:0:0:
64,192,148946,1,0,0:0:0:0:
192,192,149083,1,0,0:0:0:0:
64,192,149219,1,0,0:0:0:0:
320,192,149219,1,0,0:0:0:0:
192,192,149356,1,0,0:0:0:0:
320,192,149492,1,0,0:0:0:0:
448,192,149492,1,0,0:0:0:0:
192,192,149628,1,0,0:0:0:0:
320,192,149765,1,2,0:0:0:0:
448,192,149765,1,0,0:0:0:0:
64,192,149765,1,0,0:0:0:0:
64,192,149901,1,0,0:0:0:0:
192,192,149901,1,2,0:0:0:0:
448,192,149901,1,0,0:0:0:0:
320,192,150106,1,0,0:0:0:0:
64,192,150106,1,0,0:0:0:0:
192,192,150174,1,0,0:0:0:0:
64,192,150310,1,0,0:0:0:0:
448,192,150310,1,0,0:0:0:0:
320,192,150446,1,0,0:0:0:0:
448,192,150583,1,0,0:0:0:0:
192,192,150583,1,0,0:0:0:0:
320,192,150719,1,0,0:0:0:0:
64,192,150856,1,0,0:0:0:0:
448,192,150856,1,0,0:0:0:0:
192,192,150992,1,0,0:0:0:0:
64,192,151128,1,0,0:0:0:0:
320,192,151128,1,0,0:0:0:0:
192,192,151265,1,0,0:0:0:0:
320,192,151401,1,0,0:0:0:0:
64,192,151401,1,0,0:0:0:0:
448,192,151537,1,0,0:0:0:0:
192,192,151537,1,0,0:0:0:0:
448,192,152083,1,0,0:0:0:0:
320,192,152083,1,4,0:0:0:0:
64,192,152083,1,0,0:0:0:0:
192,192,152083,1,2,0:0:0:0:
448,192,152356,1,0,0:0:0:0:
320,192,152356,1,8,0:0:0:0:
64,192,152356,1,0,0:0:0:0:
320,192,152492,1,0,0:0:0:0:
320,192,152628,1,0,0:0:0:0:
192,192,152628,1,8,0:0:0:0:
64,192,152628,1,0,0:0:0:0:
192,192,152765,1,0,0:0:0:0:
448,192,152765,1,2,0:0:0:0:
192,192,152901,1,0,0:0:0:0:
320,192,152901,1,8,0:0:0:0:
448,192,152901,1,0,0:0:0:0:
64,192,153037,1,0,0:0:0:0:
64,192,153174,1,0,0:0:0:0:
192,192,153174,1,8,0:0:0:0:
448,192,153174,1,0,0:0:0:0:
320,192,153310,1,0,0:0:0:0:
320,192,153446,1,8,0:0:0:0:
448,192,153446,1,0,0:0:0:0:
64,192,153446,1,0,0:0:0:0:
192,192,153583,1,0,0:0:0:0:
64,192,153719,1,0,0:0:0:0:
192,192,153719,1,8,0:0:0:0:
448,192,153719,1,0,0:0:0:0:
320,192,153856,1,2,0:0:0:0:
192,192,153856,1,0,0:0:0:0:
320,192,153992,1,8,0:0:0:0:
448,192,153992,1,0,0:0:0:0:
64,192,153992,1,0,0:0:0:0:
192,192,154128,1,0,0:0:0:0:
320,192,154128,1,2,0:0:0:0:
192,192,154265,1,2,0:0:0:0:
64,192,154265,1,4,0:0:0:0:
448,192,154265,128,0,154537:0:0:0:0:
320,192,154537,1,8,0:0:0:0:
64,192,154537,1,0,0:0:0:0:
192,192,154674,1,0,0:0:0:0:
64,192,154810,1,0,0:0:0:0:
192,192,154810,1,8,0:0:0:0:
448,192,154810,1,0,0:0:0:0:
320,192,154946,1,2,0:0:0:0:
64,192,154946,1,0,0:0:0:0:
320,192,155083,1,8,0:0:0:0:
192,192,155083,1,0,0:0:0:0:
448,192,155083,1,0,0:0:0:0:
192,192,155219,1,0,0:0:0:0:
64,192,155356,1,0,0:0:0:0:
192,192,155356,1,8,0:0:0:0:
448,192,155356,1,0,0:0:0:0:
320,192,155492,1,0,0:0:0:0:
320,192,155628,1,8,0:0:0:0:
448,192,155628,1,0,0:0:0:0:
64,192,155628,1,0,0:0:0:0:
192,192,155765,1,0,0:0:0:0:
192,192,155901,1,8,0:0:0:0:
320,192,155901,1,0,0:0:0:0:
448,192,155901,1,0,0:0:0:0:
64,192,156037,1,0,0:0:0:0:
320,192,156174,1,8,0:0:0:0:
448,192,156174,1,0,0:0:0:0:
192,192,156242,1,2,0:0:0:0:
64,192,156242,1,0,0:0:0:0:
320,192,156310,1,2,0:0:0:0:
448,192,156310,1,0,0:0:0:0:
192,192,156378,1,2,0:0:0:0:
320,192,156446,1,2,0:0:0:0:
64,192,156446,1,4,0:0:0:0:
448,192,156446,128,0,156719:0:0:0:0:
320,192,156719,1,8,0:0:0:0:
192,192,156719,1,0,0:0:0:0:
64,192,156856,1,0,0:0:0:0:
64,192,156992,1,0,0:0:0:0:
192,192,156992,1,8,0:0:0:0:
448,192,156992,1,0,0:0:0:0:
192,192,157128,1,2,0:0:0:0:
320,192,157128,1,0,0:0:0:0:
64,192,157265,1,8,0:0:0:0:
448,192,157265,1,0,0:0:0:0:
192,192,157265,1,0,0:0:0:0:
320,192,157401,1,0,0:0:0:0:
64,192,157537,1,0,0:0:0:0:
320,192,157537,1,8,0:0:0:0:
448,192,157537,1,0,0:0:0:0:
192,192,157674,1,0,0:0:0:0:
320,192,157810,1,8,0:0:0:0:
448,192,157810,1,0,0:0:0:0:
64,192,157810,1,0,0:0:0:0:
192,192,157946,1,0,0:0:0:0:
320,192,158083,1,8,0:0:0:0:
448,192,158083,1,0,0:0:0:0:
64,192,158083,1,0,0:0:0:0:
320,192,158219,1,0,0:0:0:0:
192,192,158219,1,0,0:0:0:0:
192,192,158356,1,8,0:0:0:0:
64,192,158356,1,0,0:0:0:0:
448,192,158356,1,0,0:0:0:0:
320,192,158492,1,0,0:0:0:0:
192,192,158492,1,0,0:0:0:0:
448,192,158628,1,0,0:0:0:0:
64,192,158628,1,4,0:0:0:0:
320,192,158628,1,2,0:0:0:0:
192,192,158628,128,0,158901:0:0:0:0:
320,192,158901,1,8,0:0:0:0:
448,192,158901,1,0,0:0:0:0:
64,192,158901,1,0,0:0:0:0:
448,192,159037,1,0,0:0:0:0:
64,192,159174,1,0,0:0:0:0:
192,192,159174,1,0,0:0:0:0:
320,192,159174,1,8,0:0:0:0:
320,192,159310,1,0,0:0:0:0:
64,192,159310,1,2,0:0:0:0:
448,192,159446,1,0,0:0:0:0:
192,192,159446,1,8,0:0:0:0:
64,192,159446,1,0,0:0:0:0:
192,192,159583,1,0,0:0:0:0:
320,192,159583,1,0,0:0:0:0:
320,192,159719,1,8,0:0:0:0:
448,192,159719,1,0,0:0:0:0:
64,192,159719,1,0,0:0:0:0:
192,192,159856,1,0,0:0:0:0:
64,192,159992,1,0,0:0:0:0:
320,192,159992,1,8,0:0:0:0:
448,192,159992,1,0,0:0:0:0:
192,192,160128,1,0,0:0:0:0:
64,192,160265,1,0,0:0:0:0:
320,192,160265,1,8,0:0:0:0:
448,192,160265,1,0,0:0:0:0:
192,192,160401,1,0,0:0:0:0:
320,192,160469,1,0,0:0:0:0:
64,192,160537,1,0,0:0:0:0:
192,192,160537,1,8,0:0:0:0:
320,192,160606,1,8,0:0:0:0:
448,192,160606,1,0,0:0:0:0:
192,192,160674,1,8,0:0:0:0:
64,192,160674,1,0,0:0:0:0:
320,192,160742,1,8,0:0:0:0:
448,192,160742,1,0,0:0:0:0:
192,192,160810,1,2,0:0:0:0:
64,192,160810,1,4,0:0:0:0:
448,192,160810,1,0,0:0:0:0:
320,192,160946,1,8,0:0:0:0:
448,192,160946,1,0,0:0:0:0:
64,192,160946,1,0,0:0:0:0:
320,192,161083,1,0,0:0:0:0:
64,192,161219,1,0,0:0:0:0:
192,192,161219,1,8,0:0:0:0:
448,192,161219,1,0,0:0:0:0:
192,192,161356,1,0,0:0:0:0:
448,192,161492,1,0,0:0:0:0:
64,192,161492,1,0,0:0:0:0:
320,192,161492,1,8,0:0:0:0:
192,192,161628,1,0,0:0:0:0:
192,192,161765,1,8,0:0:0:0:
320,192,161765,1,0,0:0:0:0:
448,192,161765,1,0,0:0:0:0:
64,192,161901,1,0,0:0:0:0:
64,192,162037,1,0,0:0:0:0:
192,192,162037,1,8,0:0:0:0:
448,192,162037,1,0,0:0:0:0:
320,192,162174,1,0,0:0:0:0:
64,192,162310,1,0,0:0:0:0:
192,192,162310,1,8,0:0:0:0:
448,192,162310,1,0,0:0:0:0:
192,192,162446,1,0,0:0:0:0:
320,192,162583,1,8,0:0:0:0:
448,192,162583,1,0,0:0:0:0:
64,192,162583,1,0,0:0:0:0:
320,192,162719,1,0,0:0:0:0:
64,192,162856,1,0,0:0:0:0:
192,192,162856,1,8,0:0:0:0:
448,192,162856,1,0,0:0:0:0:
192,192,162992,1,4,0:0:0:0:
320,192,162992,1,2,0:0:0:0:
64,192,162992,1,0,0:0:0:0:
448,192,162992,1,0,0:0:0:0:
64,192,163128,1,0,0:0:0:0:
448,192,163128,1,0,0:0:0:0:
320,192,163128,1,8,0:0:0:0:
320,192,163265,1,0,0:0:0:0:
64,192,163401,1,0,0:0:0:0:
192,192,163401,1,8,0:0:0:0:
448,192,163401,1,0,0:0:0:0:
192,192,163537,1,0,0:0:0:0:
64,192,163674,1,0,0:0:0:0:
320,192,163674,1,8,0:0:0:0:
448,192,163674,1,0,0:0:0:0:
192,192,163810,1,0,0:0:0:0:
192,192,163946,1,8,0:0:0:0:
320,192,163946,1,0,0:0:0:0:
448,192,163946,1,0,0:0:0:0:
64,192,164083,1,0,0:0:0:0:
192,192,164219,1,8,0:0:0:0:
448,192,164219,1,0,0:0:0:0:
64,192,164219,1,0,0:0:0:0:
448,192,164356,1,0,0:0:0:0:
64,192,164492,1,0,0:0:0:0:
192,192,164492,1,0,0:0:0:0:
320,192,164492,1,8,0:0:0:0:
320,192,164628,1,0,0:0:0:0:
64,192,164765,1,0,0:0:0:0:
192,192,164765,1,8,0:0:0:0:
448,192,164765,1,0,0:0:0:0:
192,192,164901,1,0,0:0:0:0:
64,192,165037,1,0,0:0:0:0:
320,192,165037,1,8,0:0:0:0:
448,192,165037,1,0,0:0:0:0:
192,192,165174,1,2,0:0:0:0:
320,192,165174,1,4,0:0:0:0:
448,192,165174,1,0,0:0:0:0:
64,192,165174,1,0,0:0:0:0:
64,192,165310,1,0,0:0:0:0:
192,192,165310,1,8,0:0:0:0:
448,192,165310,1,0,0:0:0:0:
320,192,165446,1,0,0:0:0:0:
320,192,165583,1,8,0:0:0:0:
448,192,165583,1,0,0:0:0:0:
64,192,165583,1,0,0:0:0:0:
64,192,165719,1,0,0:0:0:0:
320,192,165856,1,0,0:0:0:0:
192,192,165856,1,8,0:0:0:0:
448,192,165856,1,0,0:0:0:0:
192,192,165992,1,0,0:0:0:0:
64,192,166128,1,0,0:0:0:0:
320,192,166128,1,8,0:0:0:0:
448,192,166128,1,0,0:0:0:0:
320,192,166265,1,0,0:0:0:0:
64,192,166401,1,0,0:0:0:0:
192,192,166401,1,8,0:0:0:0:
448,192,166401,1,0,0:0:0:0:
192,192,166537,1,0,0:0:0:0:
64,192,166674,1,0,0:0:0:0:
192,192,166674,1,0,0:0:0:0:
320,192,166674,1,8,0:0:0:0:
320,192,166810,1,0,0:0:0:0:
64,192,166946,1,8,0:0:0:0:
448,192,166946,1,0,0:0:0:0:
192,192,166992,1,0,0:0:0:0:
320,192,167037,1,0,0:0:0:0:
448,192,167083,1,0,0:0:0:0:
64,192,167083,1,0,0:0:0:0:
64,192,167219,1,0,0:0:0:0:
192,192,167219,1,0,0:0:0:0:
320,192,167219,1,8,0:0:0:0:
448,192,167356,1,0,0:0:0:0:
192,192,167356,1,2,0:0:0:0:
320,192,167628,1,0,0:0:0:0:
192,192,167765,1,0,0:0:0:0:
64,192,167901,1,0,0:0:0:0:
320,192,167901,1,2,0:0:0:0:
192,192,168174,1,0,0:0:0:0:
448,192,168310,1,0,0:0:0:0:
320,192,168446,1,0,0:0:0:0:
64,192,168446,1,2,0:0:0:0:
448,192,168583,1,0,0:0:0:0:
64,192,168583,1,0,0:0:0:0:
192,192,168583,1,8,0:0:0:0:
320,192,168719,1,0,0:0:0:0:
192,192,168719,1,2,0:0:0:0:
320,192,168856,1,0,0:0:0:0:
64,192,168856,1,0,0:0:0:0:
448,192,168856,1,8,0:0:0:0:
320,192,168992,1,0,0:0:0:0:
192,192,168992,1,2,0:0:0:0:
448,192,169128,1,0,0:0:0:0:
320,192,169196,1,0,0:0:0:0:
192,192,169265,1,8,0:0:0:0:
64,192,169265,1,0,0:0:0:0:
320,192,169333,1,8,0:0:0:0:
448,192,169333,1,0,0:0:0:0:
192,192,169401,1,8,0:0:0:0:
64,192,169401,1,0,0:0:0:0:
320,192,169469,1,8,0:0:0:0:
448,192,169469,1,0,0:0:0:0:
64,192,169537,1,0,0:0:0:0:
192,192,169537,1,2,0:0:0:0:
320,192,169674,1,0,0:0:0:0:
320,192,169810,1,2,0:0:0:0:
448,192,169810,1,0,0:0:0:0:
192,192,169946,1,2,0:0:0:0:
320,192,170083,1,2,0:0:0:0:
448,192,170083,1,0,0:0:0:0:
192,192,170219,1,2,0:0:0:0:
64,192,170219,1,0,0:0:0:0:
448,192,170356,1,0,0:0:0:0:
320,192,170356,1,2,0:0:0:0:
192,192,170492,1,2,0:0:0:0:
192,192,170628,1,2,0:0:0:0:
64,192,170628,1,0,0:0:0:0:
320,192,170628,1,0,0:0:0:0:
448,192,170765,1,0,0:0:0:0:
320,192,170833,1,0,0:0:0:0:
192,192,170901,1,0,0:0:0:0:
448,192,171037,1,0,0:0:0:0:
320,192,171037,1,2,0:0:0:0:
64,192,171037,1,0,0:0:0:0:
192,192,171174,1,0,0:0:0:0:
320,192,171310,1,0,0:0:0:0:
448,192,171446,1,0,0:0:0:0:
64,192,171446,128,0,171719:0:0:0:0:
320,192,171446,128,0,171719:0:0:0:0:
