osu file format v14

[General]
AudioFilename: audio.mp3
AudioLeadIn: 0
PreviewTime: 71219
Countdown: 0
SampleSet: None
StackLeniency: 0.7
Mode: 0
LetterboxInBreaks: 0
WidescreenStoryboard: 0

[Editor]
DistanceSpacing: 1
BeatDivisor: 4
GridSize: 4
TimelineZoom: 2.1

[Metadata]
Title:Yotsuya-san ni Yoroshiku
TitleUnicode:四ツ谷さんによろしく
Artist:Himeringo
ArtistUnicode:ひめりんご
Creator:Delette
Version:wenect's Special Hard
Source:
Tags:j-rock jrock japanese utaite leave it to eight hatsune miku vocaloid unranked mapper unrankedmapper wenect wenet halgoh nekroman4ik atix174 miraui milr_ 619 maruoko
BeatmapID:2285573
BeatmapSetID:1085236

[Difficulty]
HPDrainRate:5
CircleSize:3.5
OverallDifficulty:7.2
ApproachRate:8.2
SliderMultiplier:1.3
SliderTickRate:1

[Events]
//Background and Video events
0,0,"bg.jpg",0,0
//Break Periods
2,143556,151258
//Storyboard Layer 0 (Background)
//Storyboard Layer 1 (Fail)
//Storyboard Layer 2 (Pass)
//Storyboard Layer 3 (Foreground)
//Storyboard Layer 4 (Overlay)
//Storyboard Sound Samples

[TimingPoints]
2629,272.727272727273,4,2,1,20,1,0
20083,291.26213592233,4,2,1,20,1,0
21248,288.461538461538,4,2,1,20,1,0
23356,272.727272727273,4,2,1,20,1,0
23356,-142.857142857143,4,2,1,20,0,0
23492,-142.857142857143,4,2,1,25,0,0
23628,-142.857142857143,4,2,1,30,0,0
23765,-142.857142857143,4,2,1,35,0,0
23901,-142.857142857143,4,2,1,40,0,0
24037,-142.857142857143,4,2,1,45,0,0
24174,-142.857142857143,4,2,1,50,0,0
24310,-142.857142857143,4,2,1,55,0,0
24446,-142.857142857143,4,2,2,50,0,0
25537,-100,4,2,1,50,0,0
34265,-83.3333333333333,4,2,1,90,0,0
42583,-83.3333333333333,4,2,1,50,0,0
42719,-83.3333333333333,4,2,1,70,0,0
42992,-83.3333333333333,4,2,1,90,0,0
51310,-83.3333333333333,4,2,1,50,0,0
51446,-83.3333333333333,4,2,1,70,0,0
51719,-100,4,2,2,50,0,0
53901,-111.111111111111,4,2,1,60,0,0
57583,-111.111111111111,4,2,2,45,0,0
57719,-111.111111111111,4,2,2,50,0,0
57856,-111.111111111111,4,2,2,55,0,0
57992,-111.111111111111,4,2,2,60,0,0
58265,-111.111111111111,4,2,1,60,0,0
61606,-111.111111111111,4,2,1,40,0,0
61946,-111.111111111111,4,2,1,60,0,0
62015,-111.111111111111,4,2,1,40,0,0
62356,-111.111111111111,4,2,2,60,0,0
62628,-111.111111111111,4,2,1,60,0,0
66310,-111.111111111111,4,2,2,45,0,0
66446,-111.111111111111,4,2,2,50,0,0
66583,-111.111111111111,4,2,2,55,0,0
66719,-111.111111111111,4,2,2,60,0,0
66992,-111.111111111111,4,2,1,60,0,0
70265,-111.111111111111,4,2,1,70,0,0
70674,-111.111111111111,4,2,2,70,0,0
71219,-111.111111111111,4,2,1,60,0,0
71356,-76.9230769230769,4,2,1,90,0,1
79060,-76.9230769230769,4,2,1,70,0,1
79401,-76.9230769230769,4,2,1,90,0,1
79469,-76.9230769230769,4,2,1,70,0,1
79810,-76.9230769230769,4,2,1,90,0,1
86628,-100,4,2,2,60,0,0
87719,-100,4,2,1,70,0,1
87787,-100,4,2,1,50,0,1
88128,-100,4,2,1,70,0,1
88196,-100,4,2,1,50,0,1
88537,-100,4,2,2,70,0,0
88810,-83.3333333333333,4,2,1,90,0,0
97128,-83.3333333333333,4,2,1,50,0,0
97265,-83.3333333333333,4,2,1,70,0,0
97537,-100,4,2,2,50,0,0
99719,-111.111111111111,4,2,1,60,0,0
103401,-111.111111111111,4,2,2,45,0,0
103537,-111.111111111111,4,2,2,50,0,0
103674,-111.111111111111,4,2,2,55,0,0
103810,-111.111111111111,4,2,2,60,0,0
104083,-111.111111111111,4,2,1,60,0,0
107424,-111.111111111111,4,2,1,40,0,0
107765,-111.111111111111,4,2,1,60,0,0
107833,-111.111111111111,4,2,1,40,0,0
108174,-111.111111111111,4,2,2,60,0,0
108446,-111.111111111111,4,2,1,60,0,0
112128,-111.111111111111,4,2,2,45,0,0
112265,-111.111111111111,4,2,2,50,0,0
112401,-111.111111111111,4,2,2,55,0,0
112537,-111.111111111111,4,2,2,60,0,0
112810,-111.111111111111,4,2,1,60,0,0
116083,-111.111111111111,4,2,1,70,0,0
116492,-111.111111111111,4,2,2,70,0,0
117174,-99.9999999999999,4,2,3,70,0,0
117310,-99.9999999999999,4,2,2,70,0,0
123719,-99.9999999999999,4,2,2,50,0,0
124810,-90.9090909090909,4,2,1,50,0,0
124946,-90.9090909090909,4,2,1,55,0,0
125083,-90.9090909090909,4,2,1,65,0,0
125219,-90.9090909090909,4,2,1,70,0,0
125901,-111.111111111111,4,2,1,60,0,0
125969,-111.111111111111,4,2,1,5,0,0
126174,-76.9230769230769,4,2,3,90,0,1
126310,-76.9230769230769,4,2,1,90,0,1
127810,-76.9230769230769,4,2,2,90,0,0
128083,-142.857142857143,4,2,3,90,0,0
128151,-142.857142857143,4,2,3,5,0,0
128356,-76.9230769230769,4,2,2,90,0,1
128492,-76.9230769230769,4,2,1,90,0,1
129992,-76.9230769230769,4,2,1,90,0,0
130265,-76.9230769230769,4,2,1,90,0,1
133606,-76.9230769230769,4,2,1,70,0,1
133946,-76.9230769230769,4,2,1,90,0,1
134015,-76.9230769230769,4,2,1,70,0,1
134356,-76.9230769230769,4,2,1,90,0,1
134628,-76.9230769230769,4,2,4,90,0,1
134765,-76.9230769230769,4,2,1,90,0,1
141174,-100,4,2,1,60,0,0
142265,-100,4,2,1,70,0,0
142333,-100,4,2,1,50,0,0
142674,-100,4,2,1,70,0,0
142742,-100,4,2,1,50,0,0
143083,-100,4,2,2,70,0,0
143356,-125,4,2,1,50,0,0
151537,-125,4,2,3,50,0,0
152083,-83.3333333333333,4,2,1,90,0,0
160401,-83.3333333333333,4,2,1,50,0,0
160537,-83.3333333333333,4,2,1,70,0,0
160810,-83.3333333333333,4,2,1,90,0,1
167356,-100,4,2,2,50,0,0
168446,-83.3333333333333,4,2,1,90,0,1
169128,-83.3333333333333,4,2,1,50,0,1
169265,-83.3333333333333,4,2,1,70,0,0
169537,-83.3333333333333,4,2,2,50,0,0
169538,-100,4,2,2,50,0,0

[Colours]
Combo1 : 255,9,9
Combo2 : 214,214,214
Combo3 : 65,65,65
Combo4 : 255,128,128

[HitObjects]
56,302,23356,6,0,P|54:279|53:256,1,45.4999986114502,0|0,3:0|3:0,0:0:0:0:
68,293,23628,2,0,P|66:270|65:247,1,45.4999986114502,0|0,3:0|3:0,0:0:0:0:
135,199,23901,2,0,P|136:176|137:153,1,45.4999986114502,0|0,1:0|1:0,0:0:0:0:
211,96,24174,2,0,P|209:73|208:50,1,45.4999986114502,0|0,1:0|1:0,0:0:0:0:
298,0,24446,6,0,P|375:22|365:124,1,181.999994445801,4|0,3:0|3:0,0:0:0:0:
272,169,25265,1,0,1:0:0:0:
272,169,25537,38,0,B|332:174|323:220|384:226,1,130,10|0,3:2|0:0,0:0:0:0:
440,289,25946,1,10,0:0:0:0:
451,293,26083,2,0,P|481:280|519:276,2,65,2|10|0,0:0|0:0|0:0,0:0:0:0:
388,350,26492,2,0,P|314:331|251:318,1,130,10|10,0:0|0:0,0:0:0:0:
204,257,26901,2,0,P|189:285|168:322,1,65,2|8,0:0|0:0,0:0:0:0:
89,326,27174,2,0,P|103:354|125:391,2,65,2|8|2,0:0|0:0|0:0,0:0:0:0:
11,272,27583,5,0,3:0:0:0:
22,267,27719,2,0,B|61:220|21:193|63:147,1,130,10|0,3:2|0:0,0:0:0:0:
74,64,28128,1,10,0:0:0:0:
64,69,28265,2,0,P|33:60|-5:56,2,65,2|10|0,0:0|0:0|0:0,0:0:0:0:
136,22,28674,2,0,P|178:37|246:95,1,130,10|10,0:0|0:0,0:0:0:0:
328,105,29083,2,0,P|320:70|319:27,1,65,2|10,0:0|0:0,0:0:0:0:
396,0,29356,1,2,0:0:0:0:
452,87,29492,1,2,3:0:0:0:
452,87,29560,1,2,0:3:0:0:
452,87,29628,2,0,P|429:121|419:152,1,65,2|2,0:3|3:0,0:0:0:0:
402,236,29901,38,0,B|364:263|329:259|329:259|312:237|288:229,1,130,10|0,3:2|0:0,0:0:0:0:
204,239,30310,1,10,0:0:0:0:
202,251,30446,2,0,P|213:276|223:321,2,65,2|10|0,0:0|0:0|0:0,0:0:0:0:
136,198,30856,2,0,P|163:145|197:57,1,130,10|10,0:0|0:0,0:0:0:0:
142,8,31265,2,0,P|112:23|84:42,1,65,2|8,0:0|0:0,0:0:0:0:
56,121,31537,2,0,P|26:106|-2:87,2,65,2|8|2,0:0|0:0|0:0,0:0:0:0:
113,196,31946,5,0,3:0:0:0:
110,207,32083,2,0,B|76:228|59:256|59:256|73:283|69:325,1,130,10|0,3:2|0:0,0:0:0:0:
142,355,32492,1,10,0:0:0:0:
148,346,32628,2,0,P|148:315|153:275,2,65,2|10|0,0:0|0:0|0:0,0:0:0:0:
224,383,33037,2,0,B|281:369|261:323|326:309,1,130,10|10,0:0|0:0,0:0:0:0:
399,268,33446,1,2,0:0:0:0:
449,335,33583,1,10,0:0:0:0:
381,382,33719,1,10,0:0:0:0:
381,2,34265,6,0,B|333:44|333:44|369:82|361:146,1,155.999995239258,6|0,3:1|1:0,0:0:0:0:
287,186,34674,1,2,0:1:0:0:
279,193,34810,2,0,B|248:181|226:181|226:181|206:137|206:137|173:136|145:120,1,155.999995239258,2|0,1:0|1:0,0:0:0:0:
85,65,35219,1,2,3:1:0:0:
79,75,35356,2,0,P|38:102|71:217,1,155.999995239258,2|0,1:0|1:0,0:0:0:0:
104,270,35765,1,2,0:1:0:0:
97,279,35901,2,0,B|83:276|65:278|14:292,1,77.999997619629,2|0,3:1|3:0,0:0:0:0:
73,368,36174,2,0,B|87:365|105:367|156:381,1,77.999997619629,2|2,1:0|0:1,0:0:0:0:
232,303,36446,22,0,B|265:273|316:291|316:291|330:331|367:346,1,155.999995239258,6|0,3:1|1:0,0:0:0:0:
449,330,36856,1,2,0:1:0:0:
459,323,36992,2,0,B|469:285|469:285|433:240,1,77.999997619629,2|0,1:0|3:0,0:0:0:0:
361,216,37265,1,0,1:0:0:0:
423,146,37401,1,2,3:1:0:0:
431,154,37537,2,0,P|467:161|518:169,1,77.999997619629,2|0,1:0|3:0,0:0:0:0:
342,125,37810,2,0,P|305:132|255:140,1,77.999997619629,2|0,1:0|0:0,0:0:0:0:
410,61,38083,2,0,P|446:53|497:46,1,77.999997619629,2|0,3:1|3:0,0:0:0:0:
324,33,38356,2,0,P|287:25|237:18,1,77.999997619629,2|0,1:0|0:0,0:0:0:0:
131,51,38628,22,0,B|75:80|87:134|87:134|119:142|141:170,1,155.999995239258,6|0,3:1|1:0,0:0:0:0:
172,244,39037,1,2,0:1:0:0:
165,252,39174,2,0,P|121:291|61:379,1,155.999995239258,2|0,1:0|1:0,0:0:0:0:
159,381,39583,1,2,3:1:0:0:
150,375,39719,2,0,P|106:336|46:248,1,155.999995239258,2|0,1:0|1:0,0:0:0:0:
52,162,40128,1,2,0:1:0:0:
64,159,40265,2,0,B|97:151|119:161|142:164,1,77.999997619629,2|0,3:1|3:0,0:0:0:0:
202,99,40537,2,0,B|235:107|257:97|280:94,1,77.999997619629,2|2,1:0|0:1,0:0:0:0:
367,29,40810,22,0,P|417:44|422:151,1,155.999995239258,6|0,3:1|1:0,0:0:0:0:
370,205,41219,1,2,0:1:0:0:
360,209,41356,2,0,P|322:201|278:197,1,77.999997619629,2|0,1:0|3:0,0:0:0:0:
221,267,41628,2,0,P|182:271|143:278,1,77.999997619629,2|0,1:0|3:0,0:0:0:0:
53,239,41901,1,2,1:0:0:0:
66,331,42037,1,0,3:0:0:0:
143,277,42174,2,0,P|181:269|304:319,1,155.999995239258,0|0,1:0|3:0,0:0:0:0:
405,272,42583,1,0,3:0:0:0:
405,272,42651,1,0,3:0:0:0:
405,272,42719,2,0,B|400:282|400:282|398:318,3,38.9999988098145,0|0|0|0,1:0|1:0|1:0|1:0,0:0:0:0:
401,349,42992,22,0,P|376:275|349:201,1,155.999995239258,6|0,3:1|1:0,0:0:0:0:
438,174,43401,1,2,0:1:0:0:
447,166,43537,2,0,B|454:125|491:99|491:99|476:59|425:61,1,155.999995239258,2|0,1:0|1:0,0:0:0:0:
351,18,43946,1,2,3:1:0:0:
344,27,44083,2,0,B|290:36|253:72|253:72|194:50,1,155.999995239258,2|0,1:0|1:0,0:0:0:0:
118,15,44492,1,2,0:1:0:0:
117,28,44628,2,0,B|122:70|116:69|129:104,1,77.999997619629,2|0,3:1|3:0,0:0:0:0:
76,182,44901,2,0,B|34:187|35:181|0:194,1,77.999997619629,2|2,1:0|0:1,0:0:0:0:
41,296,45174,22,0,P|116:289|147:222,1,155.999995239258,6|0,3:1|1:0,0:0:0:0:
235,252,45583,1,2,0:1:0:0:
235,264,45719,2,0,P|225:298|220:349,1,77.999997619629,2|0,1:0|3:0,0:0:0:0:
307,374,45992,1,0,1:0:0:0:
389,329,46128,1,2,3:1:0:0:
398,337,46265,2,0,P|435:343|485:355,1,77.999997619629,2|0,1:0|3:0,0:0:0:0:
374,248,46537,2,0,P|411:241|461:230,1,77.999997619629,2|0,1:0|0:0,0:0:0:0:
349,135,46810,2,0,P|386:141|436:153,1,77.999997619629,2|0,3:1|3:0,0:0:0:0:
325,46,47083,2,0,P|362:39|412:28,1,77.999997619629,2|0,1:0|0:0,0:0:0:0:
349,135,47356,22,0,B|315:129|292:134|292:134|261:100|261:100|228:102|195:94,1,155.999995239258,6|0,3:1|1:0,0:0:0:0:
136,41,47765,1,2,0:1:0:0:
132,53,47901,2,0,B|80:110|80:110|96:150|91:206,1,155.999995239258,2|0,1:0|1:0,0:0:0:0:
36,262,48310,1,2,3:1:0:0:
46,269,48446,2,0,P|96:268|145:364,1,155.999995239258,2|0,1:0|1:0,0:0:0:0:
239,373,48856,1,2,0:1:0:0:
246,364,48992,2,0,B|257:340|259:333|262:281,1,77.999997619629,2|0,3:1|3:0,0:0:0:0:
354,277,49265,2,0,B|343:301|341:308|338:360,1,77.999997619629,2|2,1:0|0:1,0:0:0:0:
446,384,49537,22,0,B|486:351|486:351|437:224,1,155.999995239258,6|0,3:1|1:0,0:0:0:0:
482,166,49946,1,2,0:1:0:0:
476,156,50083,2,0,B|446:141|446:141|399:161,1,77.999997619629,2|0,1:0|3:0,0:0:0:0:
322,113,50356,2,0,B|292:128|292:128|245:108,1,77.999997619629,2|0,1:0|3:0,0:0:0:0:
155,88,50628,1,2,1:0:0:0:
218,20,50765,1,0,3:0:0:0:
251,110,50901,2,0,P|283:179|275:284,1,155.999995239258,0|0,1:0|3:0,0:0:0:0:
166,319,51310,1,0,3:0:0:0:
166,319,51378,1,0,3:0:0:0:
166,319,51446,2,0,B|158:326|158:326|122:332,3,38.9999988098145,0|0|0|0,1:0|1:0|1:0|1:0,0:0:0:0:
57,288,51719,5,2,3:2:0:0:
57,288,51992,2,0,P|66:255|74:223,1,65,0|2,3:0|3:2,0:0:0:0:
33,148,52265,2,0,P|40:116|49:85,1,65,2|0,1:2|1:0,0:0:0:0:
75,1,52537,1,0,3:0:0:0:
33,148,52810,38,0,P|94:116|157:97,1,130,2|2,3:0|0:0,0:0:0:0:
205,33,53219,2,0,P|252:76|307:111,1,130,2|0,3:0|0:0,0:0:0:0:
387,143,53628,1,6,3:0:0:0:
387,143,53901,6,0,P|331:170|336:277,1,175.499994644165,6|0,3:2|1:0,0:0:0:0:
408,313,54446,2,0,P|439:304|486:304,1,58.4999982147217,0|0,1:0|3:0,0:0:0:0:
511,222,54719,2,0,P|481:219|453:211,1,58.4999982147217,2|0,1:2|0:0,0:0:0:0:
396,146,54992,2,0,P|393:116|385:88,1,58.4999982147217,2|0,3:2|3:0,0:0:0:0:
309,53,55265,2,0,P|306:82|298:110,1,58.4999982147217,2|0,1:2|3:0,0:0:0:0:
213,98,55537,2,0,P|210:68|202:40,1,58.4999982147217,2|0,0:0|3:0,0:0:0:0:
127,3,55810,1,2,1:2:0:0:
127,3,56083,38,0,P|68:29|84:131,1,175.499994644165,2|2,3:2|1:2,0:0:0:0:
63,210,56628,2,0,P|31:218|5:220,1,58.4999982147217,0|0,1:0|3:0,0:0:0:0:
0,308,56901,1,2,1:2:0:0:
9,315,57037,2,0,P|40:330|140:357,1,116.999996429443,2|0,0:0|3:0,0:0:0:0:
189,306,57446,2,0,B|188:315|188:315|216:365,2,58.4999982147217,0|8|8,1:0|3:2|0:0,0:0:0:0:
177,221,57856,1,8,3:2:0:0:
264,212,57992,1,8,1:2:0:0:
264,212,58265,6,0,B|354:214|333:283|417:288,1,175.499994644165,2|0,3:2|1:0,0:0:0:0:
483,236,58810,2,0,P|469:202|457:167,1,58.4999982147217,0|0,1:0|3:0,0:0:0:0:
389,137,59083,2,0,P|403:103|415:68,1,58.4999982147217,2|0,1:2|0:0,0:0:0:0:
343,27,59356,2,0,P|309:41|274:53,1,58.4999982147217,2|0,3:2|3:0,0:0:0:0:
229,105,59628,2,0,P|195:91|160:79,1,58.4999982147217,2|0,1:2|3:0,0:0:0:0:
114,22,59901,2,0,P|80:36|45:48,1,58.4999982147217,2|0,0:0|3:0,0:0:0:0:
6,109,60174,1,2,1:2:0:0:
6,109,60446,38,0,P|48:120|63:244,1,175.499994644165,2|2,3:2|1:2,0:0:0:0:
18,301,60992,2,0,P|32:327|44:360,1,58.4999982147217,0|0,1:0|3:0,0:0:0:0:
123,382,61265,1,2,1:2:0:0:
180,319,61401,1,2,0:0:0:0:
177,307,61537,2,0,B|181:301|181:301|185:279,5,29.2499991073609,2|0|0|0|2|0,1:2|3:0|3:0|3:0|3:2|3:0,0:0:0:0:
212,267,61946,2,0,B|213:257|213:257|220:239,5,29.2499991073609,2|0|0|0|0|0,1:2|3:0|3:0|3:0|3:0|3:0,0:0:0:0:
246,224,62356,1,2,1:3:0:0:
332,331,62628,6,0,B|377:386|451:349|451:349|414:292,1,175.499994644165,6|0,3:2|1:0,0:0:0:0:
433,227,63174,2,0,P|466:231|513:237,1,58.4999982147217,0|0,1:0|3:0,0:0:0:0:
490,147,63446,2,0,P|456:142|410:137,1,58.4999982147217,2|0,1:2|0:0,0:0:0:0:
361,93,63719,2,0,P|356:126|351:173,1,58.4999982147217,2|0,3:2|3:0,0:0:0:0:
273,133,63992,2,0,P|268:99|263:53,1,58.4999982147217,2|0,1:2|3:0,0:0:0:0:
187,38,64265,2,0,P|182:71|177:118,1,58.4999982147217,2|0,0:0|3:0,0:0:0:0:
128,163,64537,1,2,1:2:0:0:
128,163,64810,38,0,P|178:177|194:304,1,175.499994644165,2|2,3:2|1:2,0:0:0:0:
146,344,65356,2,0,P|114:331|89:325,1,58.4999982147217,0|0,1:0|3:0,0:0:0:0:
23,277,65628,1,2,1:2:0:0:
31,269,65765,2,0,P|44:227|48:142,1,116.999996429443,0|0,0:0|3:0,0:0:0:0:
82,75,66174,2,0,B|71:76|71:76|25:45,2,58.4999982147217,0|8|10,1:0|3:2|0:0,0:0:0:0:
157,33,66583,1,8,3:2:0:0:
245,57,66719,1,10,1:2:0:0:
245,57,66992,6,0,P|254:129|275:234,1,175.499994644165,2|0,3:2|1:0,0:0:0:0:
358,254,67537,2,0,P|366:223|377:198,1,58.4999982147217,0|0,1:0|3:0,0:0:0:0:
453,162,67810,2,0,P|461:192|472:218,1,58.4999982147217,0|0,1:0|0:0,0:0:0:0:
433,290,68083,2,0,P|443:317|451:345,1,58.4999982147217,0|0,3:0|3:0,0:0:0:0:
376,383,68356,1,0,1:0:0:0:
305,338,68492,1,0,3:0:0:0:
298,345,68628,2,0,P|269:352|242:363,1,58.4999982147217,2|0,0:0|3:0,0:0:0:0:
168,324,68901,1,2,1:2:0:0:
102,379,69037,37,2,0:0:0:0:
94,372,69174,2,0,P|83:313|159:218,1,175.499994644165,2|2,3:2|1:2,0:0:0:0:
150,136,69719,2,0,P|117:134|77:129,1,58.4999982147217,0|0,1:0|3:0,0:0:0:0:
63,51,69992,2,0,P|95:49|136:44,1,58.4999982147217,2|0,1:2|0:0,0:0:0:0:
201,22,70265,2,0,B|208:34|208:34|209:41|209:41|223:69,5,29.2499991073609,2|0|0|0|0|0,1:2|1:0|1:0|1:0|1:0|1:0,0:0:0:0:
223,75,70674,1,2,3:0:0:0:
473,2,71219,37,2,0:1:0:0:
466,10,71356,2,0,P|438:50|442:171,1,168.999992263794,6|0,3:1|1:0,0:0:0:0:
448,258,71765,1,2,0:1:0:0:
444,247,71902,2,0,P|423:202|316:145,1,168.999992263794,2|0,3:1|1:0,0:0:0:0:
238,107,72310,1,2,0:1:0:0:
249,109,72447,2,0,P|297:113|400:49,1,168.999992263794,2|0,3:1|1:0,0:0:0:0:
322,0,72856,1,2,3:1:0:0:
314,9,72992,2,0,P|267:18|225:33,1,84.4999961318971,2|2,0:1|3:1,0:0:0:0:
166,94,73265,2,0,P|125:80|84:73,1,84.4999961318971,2|2,1:0|1:0,0:0:0:0:
61,87,73469,1,0,1:0:0:0:
49,112,73537,38,0,P|82:162|118:279,1,168.999992263794,6|0,3:1|1:0,0:0:0:0:
191,321,73946,1,2,0:1:0:0:
195,310,74083,2,0,P|205:262|219:221,1,84.4999961318971,2|2,3:1|3:1,0:0:0:0:
305,194,74356,1,2,1:0:0:0:
394,223,74492,1,2,0:1:0:0:
400,232,74628,2,0,P|410:280|424:321,1,84.4999961318971,2|0,3:1|0:0,0:0:0:0:
336,380,74901,2,0,P|326:332|312:291,1,84.4999961318971,2|0,1:0|3:0,0:0:0:0:
195,310,75174,2,0,P|203:268|216:228,1,84.4999961318971,2|0,0:1|3:0,0:0:0:0:
111,244,75446,2,0,P|102:285|89:325,1,84.4999961318971,2|0,1:0|1:0,0:0:0:0:
92,352,75651,1,0,1:0:0:0:
79,374,75719,6,0,P|66:311|17:195,1,168.999992263794,6|0,3:1|1:0,0:0:0:0:
65,129,76128,1,2,0:1:0:0:
75,136,76265,2,0,P|118:151|210:79,1,168.999992263794,2|0,3:1|1:0,0:0:0:0:
301,83,76674,1,2,0:1:0:0:
302,95,76810,2,0,P|269:172|250:255,1,168.999992263794,2|0,3:1|1:0,0:0:0:0:
302,333,77219,1,2,3:1:0:0:
312,340,77356,2,0,P|355:330|398:324,1,84.4999961318971,2|2,0:1|3:1,0:0:0:0:
449,248,77628,2,0,P|405:238|363:232,1,84.4999961318971,2|2,1:0|1:0,0:0:0:0:
352,211,77833,1,0,1:0:0:0:
355,186,77901,38,0,B|390:134|452:152|452:152|468:179|505:188,1,168.999992263794,6|0,3:1|1:0,0:0:0:0:
501,91,78310,1,2,0:1:0:0:
492,83,78446,2,0,P|448:71|392:72,1,84.4999961318971,2|0,3:1|3:0,0:0:0:0:
327,29,78719,1,2,1:0:0:0:
266,101,78856,1,2,0:1:0:0:
255,101,78992,2,0,B|231:97|231:97|207:87,5,42.2499980659486,2|0|0|0|0|0,1:0|3:0|3:0|3:0|3:0|3:0,0:0:0:0:
188,77,79401,1,0,1:0:0:0:
89,216,79674,1,0,3:0:0:0:
89,216,79742,1,0,3:0:0:0:
89,216,79810,2,0,B|80:214|80:214|48:227,3,42.2499980659486,0|0|2|0,1:0|1:0|1:0|1:0,0:0:0:0:
27,266,80083,6,0,P|41:204|127:130,1,168.999992263794,6|0,3:1|1:0,0:0:0:0:
175,74,80492,1,2,0:1:0:0:
184,82,80628,2,0,P|247:79|341:143,1,168.999992263794,2|0,3:1|1:0,0:0:0:0:
408,174,81037,1,2,0:1:0:0:
401,184,81174,2,0,P|419:244|382:351,1,168.999992263794,2|0,3:1|1:0,0:0:0:0:
298,367,81583,1,2,3:1:0:0:
292,357,81719,2,0,P|286:309|278:270,1,84.4999961318971,2|2,0:1|3:1,0:0:0:0:
188,251,81992,2,0,P|182:298|174:338,1,84.4999961318971,2|2,1:0|1:0,0:0:0:0:
151,343,82196,1,0,1:0:0:0:
133,363,82265,38,0,P|118:276|93:171,1,168.999992263794,6|0,3:1|1:0,0:0:0:0:
27,140,82674,1,2,0:1:0:0:
35,131,82810,2,0,P|49:88|59:44,1,84.4999961318971,2|2,3:1|3:1,0:0:0:0:
138,1,83083,1,2,1:0:0:0:
211,60,83219,1,2,0:1:0:0:
202,68,83356,2,0,P|159:83|130:126,1,84.4999961318971,2|0,3:1|0:0,0:0:0:0:
295,92,83628,2,0,P|338:77|367:34,1,84.4999961318971,2|0,1:0|3:0,0:0:0:0:
295,191,83901,2,0,P|252:206|223:249,1,84.4999961318971,2|0,0:1|3:0,0:0:0:0:
388,215,84173,2,0,P|431:200|460:157,1,84.4999961318971,2|0,1:0|1:0,0:0:0:0:
480,177,84378,1,0,1:0:0:0:
497,194,84446,6,0,B|446:223|439:272|439:272|459:308|444:358,1,168.999992263794,6|0,3:1|1:0,0:0:0:0:
364,380,84856,1,2,0:1:0:0:
363,369,84992,2,0,P|349:310|300:206,1,168.999992263794,2|0,3:1|1:0,0:0:0:0:
306,120,85401,1,2,0:1:0:0:
310,131,85537,2,0,P|296:190|247:294,1,168.999992263794,2|0,3:1|1:0,0:0:0:0:
167,329,85946,1,2,3:1:0:0:
156,333,86083,2,0,P|99:317|66:311,1,84.4999961318971,2|2,0:1|3:1,0:0:0:0:
16,238,86356,2,0,P|57:229|97:217,1,84.4999961318971,2|2,1:0|1:0,0:0:0:0:
118,199,86560,1,0,1:0:0:0:
142,184,86628,21,2,1:3:0:0:
379,290,87174,1,2,1:3:0:0:
379,290,87719,22,0,B|372:294|372:294|342:298,5,32.5,2|0|0|0|0|0,1:0|3:0|3:0|3:0|3:0|3:0,0:0:0:0:
324,320,88128,2,0,B|315:318|315:318|287:328,5,32.5,0|0|0|0|0|0,1:0|3:0|3:0|3:0|3:0|3:0,0:0:0:0:
259,323,88537,1,2,1:3:0:0:
155,205,88810,6,0,B|102:227|102:227|91:267|91:267|38:290,1,155.999995239258,6|0,3:1|1:0,0:0:0:0:
0,205,89219,1,2,0:1:0:0:
8,196,89356,2,0,P|31:145|37:44,1,155.999995239258,2|0,1:0|1:0,0:0:0:0:
119,3,89765,1,2,3:1:0:0:
128,10,89901,2,0,B|195:21|183:78|256:92,1,155.999995239258,2|0,1:0|1:0,0:0:0:0:
346,66,90310,1,2,0:1:0:0:
342,76,90446,2,0,B|327:104|334:111|323:166,1,77.999997619629,2|0,3:1|3:0,0:0:0:0:
421,186,90719,2,0,B|436:214|428:221|440:276,1,77.999997619629,2|2,1:0|0:1,0:0:0:0:
385,360,90992,22,0,B|342:344|342:344|323:291|352:232,1,155.999995239258,6|0,3:1|1:0,0:0:0:0:
260,218,91401,1,2,0:1:0:0:
253,227,91537,2,0,B|230:257|230:257|247:305,1,77.999997619629,2|0,1:0|3:0,0:0:0:0:
178,361,91810,1,0,1:0:0:0:
105,304,91946,1,2,3:1:0:0:
97,312,92083,2,0,P|53:326|26:353,1,77.999997619629,2|0,1:0|3:0,0:0:0:0:
67,231,92356,2,0,P|23:217|-4:190,1,77.999997619629,2|0,1:0|0:0,0:0:0:0:
7,56,92628,2,0,P|32:85|43:123,1,77.999997619629,2|0,3:1|3:0,0:0:0:0:
181,88,92901,2,0,P|156:117|146:155,1,77.999997619629,2|0,1:0|0:0,0:0:0:0:
253,227,93174,22,0,B|330:210|291:156|376:138,1,155.999995239258,6|0,3:1|1:0,0:0:0:0:
437,72,93583,1,2,0:1:0:0:
447,78,93719,2,0,B|479:100|479:100|445:231,1,155.999995239258,2|0,1:0|1:0,0:0:0:0:
486,300,94128,1,2,3:1:0:0:
475,306,94265,2,0,B|442:278|396:302|396:302|382:339|348:353,1,155.999995239258,2|0,1:0|1:0,0:0:0:0:
276,293,94674,1,2,0:1:0:0:
268,301,94810,2,0,B|252:322|253:336|240:385,1,77.999997619629,2|0,3:1|3:0,0:0:0:0:
156,342,95083,2,0,B|145:304|146:290|130:268,1,77.999997619629,2|2,1:0|0:1,0:0:0:0:
76,173,95356,22,0,B|84:203|102:233|213:236,1,155.999995239258,6|0,3:1|1:0,0:0:0:0:
283,184,95765,1,2,0:1:0:0:
279,173,95901,2,0,P|269:132|262:87,1,77.999997619629,2|0,1:0|3:0,0:0:0:0:
345,47,96174,2,0,P|385:56|431:64,1,77.999997619629,2|0,1:0|3:0,0:0:0:0:
507,98,96446,1,2,1:0:0:0:
494,4,96583,1,0,3:0:0:0:
421,62,96719,2,0,P|463:112|457:221,1,155.999995239258,0|0,1:0|3:0,0:0:0:0:
350,267,97128,1,0,3:0:0:0:
350,267,97196,1,0,3:0:0:0:
350,267,97265,2,0,B|345:258|345:258|354:231,3,38.9999988098145,0|0|0|0,1:0|1:0|1:0|1:0,0:0:0:0:
283,184,97537,37,2,3:2:0:0:
283,184,97811,2,0,L|219:241,1,65,0|2,3:0|3:2,0:0:0:0:
152,200,98083,2,0,L|88:257,1,65,2|0,1:2|1:0,0:0:0:0:
36,297,98356,1,0,3:0:0:0:
152,200,98628,38,0,P|202:239|197:303,1,130,2|2,3:0|0:0,0:0:0:0:
275,334,99037,2,0,P|337:330|375:380,1,130,2|0,3:0|0:0,0:0:0:0:
457,357,99446,1,6,3:0:0:0:
457,357,99719,6,0,B|465:347|465:347|423:169,1,175.499994644165,6|0,3:2|1:0,0:0:0:0:
470,114,100265,2,0,P|438:108|402:103,1,58.4999982147217,0|0,1:0|3:0,0:0:0:0:
424,20,100537,2,0,P|392:25|356:31,1,58.4999982147217,2|0,1:2|0:0,0:0:0:0:
284,12,100810,2,0,P|279:40|274:69,1,58.4999982147217,2|0,3:2|3:0,0:0:0:0:
333,135,101083,2,0,P|337:163|342:192,1,58.4999982147217,2|0,1:2|3:0,0:0:0:0:
267,230,101356,2,0,P|262:258|257:287,1,58.4999982147217,2|0,0:0|3:0,0:0:0:0:
324,345,101628,1,2,1:2:0:0:
324,345,101901,38,0,B|241:347|258:279|165:282,1,175.499994644165,2|2,3:2|1:2,0:0:0:0:
98,331,102446,2,0,B|67:322|67:322|53:282,1,58.4999982147217,0|0,1:0|3:0,0:0:0:0:
77,214,102719,1,2,1:2:0:0:
68,207,102856,2,0,P|52:164|90:99,1,116.999996429443,2|0,0:0|3:0,0:0:0:0:
100,22,103265,2,0,B|90:11|90:11|38:2,2,58.4999982147217,0|8|8,1:0|3:2|0:0,0:0:0:0:
177,63,103674,1,8,3:2:0:0:
246,11,103810,1,8,1:2:0:0:
246,11,104083,6,0,B|305:-5|347:55|347:55|315:58|294:74,1,175.499994644165,6|0,3:2|1:0,0:0:0:0:
332,152,104628,2,0,B|352:137|352:137|397:143,1,58.4999982147217,0|0,1:0|3:0,0:0:0:0:
464,107,104901,2,0,B|479:127|479:127|473:172,1,58.4999982147217,2|0,1:2|0:0,0:0:0:0:
438,236,105174,2,0,B|418:221|418:221|373:227,1,58.4999982147217,2|0,3:2|3:0,0:0:0:0:
324,285,105446,2,0,B|304:270|304:270|259:276,1,58.4999982147217,2|0,1:2|3:0,0:0:0:0:
205,330,105719,2,0,B|185:315|185:315|140:321,1,58.4999982147217,2|0,0:0|3:0,0:0:0:0:
78,360,105992,1,2,1:2:0:0:
78,360,106265,38,0,P|117:324|106:199,1,175.499994644165,2|2,3:2|1:2,0:0:0:0:
44,161,106810,2,0,P|51:126|53:94,1,58.4999982147217,0|0,1:0|3:0,0:0:0:0:
91,26,107083,1,2,1:2:0:0:
172,56,107219,1,0,0:0:0:0:
181,60,107356,2,0,B|189:63|189:63|222:51,5,29.2499991073609,2|0|0|0|2|0,1:2|3:0|3:0|3:0|3:2|3:0,0:0:0:0:
237,63,107765,2,0,B|245:60|245:60|278:72,5,29.2499991073609,2|0|0|0|0|0,1:2|3:0|3:0|3:0|3:0|3:0,0:0:0:0:
293,59,108174,1,2,1:3:0:0:
285,175,108446,6,0,B|391:188|391:188|401:231|432:246,1,175.499994644165,6|0,3:2|1:0,0:0:0:0:
504,206,108992,2,0,B|513:181|513:181|491:144,1,58.4999982147217,0|0,1:0|3:0,0:0:0:0:
481,72,109265,2,0,B|453:55|453:55|428:64,1,58.4999982147217,2|0,1:2|0:0,0:0:0:0:
345,51,109537,2,0,B|317:67|317:67|292:58,1,58.4999982147217,2|0,3:2|3:0,0:0:0:0:
221,105,109810,2,0,B|248:121|248:121|273:112,1,58.4999982147217,2|0,1:2|3:0,0:0:0:0:
337,167,110083,2,0,B|309:183|309:183|284:174,1,58.4999982147217,2|0,0:0|3:0,0:0:0:0:
220,231,110356,1,2,1:2:0:0:
220,231,110628,38,0,P|162:239|165:352,1,175.499994644165,2|2,3:2|1:2,0:0:0:0:
229,377,111174,2,0,P|257:365|306:356,1,58.4999982147217,0|0,1:0|3:0,0:0:0:0:
339,296,111446,1,2,1:2:0:0:
348,302,111583,2,0,P|377:312|480:315,1,116.999996429443,2|0,0:0|3:0,0:0:0:0:
479,234,111992,2,0,B|483:217|483:217|515:188,2,58.4999982147217,0|8|10,1:0|3:2|0:0,0:0:0:0:
413,181,112401,1,8,3:2:0:0:
430,99,112537,1,10,1:2:0:0:
430,99,112810,6,0,B|337:92|353:164|273:159,1,175.499994644165,2|0,3:2|1:0,0:0:0:0:
217,92,113356,2,0,P|184:85|142:68,1,58.4999982147217,0|0,1:0|3:0,0:0:0:0:
92,129,113628,2,0,P|59:135|17:153,1,58.4999982147217,0|0,1:0|0:0,0:0:0:0:
11,226,113901,2,0,P|20:253|25:282,1,58.4999982147217,0|0,3:0|3:0,0:0:0:0:
99,330,114174,1,0,1:0:0:0:
170,281,114310,1,0,3:0:0:0:
181,284,114446,2,0,P|209:289|237:298,1,58.4999982147217,2|0,0:0|3:0,0:0:0:0:
292,364,114719,1,2,1:2:0:0:
365,323,114856,37,2,0:0:0:0:
373,315,114992,2,0,B|388:293|388:293|344:145,1,175.499994644165,2|2,3:2|1:2,0:0:0:0:
400,84,115537,2,0,B|426:96|426:96|442:145,1,58.4999982147217,0|0,1:0|3:0,0:0:0:0:
500,179,115810,2,0,B|474:191|474:191|458:240,1,58.4999982147217,2|0,1:2|0:0,0:0:0:0:
465,307,116083,2,0,B|477:310|477:310|479:314|479:314|490:319,5,29.2499991073609,2|0|0|0|0|0,1:2|1:0|1:0|1:0|1:0|1:0,0:0:0:0:
510,340,116492,1,2,1:3:0:0:
292,364,117037,37,0,0:0:0:0:
286,354,117174,2,0,B|271:326|220:335|220:335|213:345|180:358|180:358|156:330|103:336,1,195,6|0,3:2|0:0,0:0:0:0:
29,352,117719,2,0,B|20:332|9:321|9:321|2:285|17:256|17:256|26:247|34:238|34:238|50:212|83:196,1,195,2|0,1:2|3:0,0:0:0:0:
151,144,118265,1,2,0:0:0:0:
0,20,118674,1,2,0:0:0:0:
10,27,118810,2,0,B|21:29|21:29|39:38|73:23,1,65,2|0,1:2|0:0,0:0:0:0:
155,49,119083,2,0,B|166:47|166:47|184:38|218:53,1,65,2|2,0:0|0:0,0:0:0:0:
309,47,119356,21,2,3:2:0:0:
309,47,119628,2,0,B|288:79|289:99|304:178,1,130,2|2,0:0|1:2,0:0:0:0:
374,218,120037,1,0,0:0:0:0:
374,230,120174,2,0,B|367:240|368:257|354:291,1,65,2|2,0:0|3:2,0:0:0:0:
294,351,120446,1,2,0:0:0:0:
294,351,120719,1,2,3:2:0:0:
294,351,120992,2,0,B|270:347|270:347|260:332|260:332|237:326,1,65,2|0,1:2|1:0,0:0:0:0:
177,269,121265,2,0,B|153:273|153:273|143:288|143:288|120:294,1,65,2|0,1:2|1:0,0:0:0:0:
98,287,121469,1,0,1:0:0:0:
78,302,121537,22,0,B|56:342|-28:337|-24:247|22:205,1,195,6|2,3:2|0:0,0:0:0:0:
14,125,122083,2,0,B|35:128|61:141|61:141|89:137|110:118|110:118|138:83|199:78,1,195,2|2,1:2|3:2,0:0:0:0:
271,86,122628,1,2,0:0:0:0:
449,6,123037,1,2,0:0:0:0:
443,15,123174,2,0,B|430:30|427:37|421:83,1,65,2|0,1:2|0:0,0:0:0:0:
367,141,123446,2,0,B|379:156|382:163|389:209,1,65,2|2,0:0|0:0,0:0:0:0:
383,287,123719,1,2,3:0:0:0:
383,287,124810,6,0,P|348:281|299:271,1,71.5000021820069,2|0,3:2|3:0,0:0:0:0:
246,328,125083,2,0,P|212:321|175:314,1,71.5000021820069,0|0,1:0|1:0,0:0:0:0:
120,249,125356,2,0,B|120:238|120:238|137:213,3,35.7500010910034,0|0|0|0,1:0|0:0|1:0|1:0,0:0:0:0:
152,187,125628,1,2,3:0:0:0:
54,122,125901,6,0,P|35:88|50:38,1,87.7499973220826,2|0,0:1|0:0,0:0:0:0:
46,42,126174,22,0,B|57:34|57:34|130:52,1,84.4999961318971,4|2,1:0|0:1,0:0:0:0:
214,21,126446,2,0,B|224:29|224:29|297:11,1,84.4999961318971,2|0,3:1|0:0,0:0:0:0:
384,40,126719,1,0,1:0:0:0:
331,116,126856,1,2,3:1:0:0:
340,124,126992,2,0,P|384:138|387:252,1,168.999992263794,2|0,0:1|1:0,0:0:0:0:
379,328,127401,1,2,0:1:0:0:
390,333,127537,2,0,B|401:329|401:329|435:335,4,42.2499980659486,2|0|2|0|2,1:0|1:0|1:0|1:0|3:0,0:0:0:0:
303,361,128083,22,0,P|279:365|297:342,1,68.2499979171754,2|0,0:1|0:0,0:0:0:0:
295,341,128356,22,0,B|268:327|268:327|134:384,1,168.999992263794,4|2,3:1|1:0,0:0:0:0:
52,354,128765,1,2,3:1:0:0:
43,347,128901,2,0,B|34:308|34:308|72:260,1,84.4999961318971,2|2,3:1|1:0,0:0:0:0:
198,239,129174,2,0,P|181:277|142:291,1,84.4999961318971,2|0,0:1|3:0,0:0:0:0:
55,186,129446,2,0,P|16:171|1:133,1,84.4999961318971,2|0,1:0|0:0,0:0:0:0:
78,40,129719,2,0,B|87:46|87:46|121:39,3,42.2499980659486,2|0|0|0,1:0|1:0|1:0|1:0,0:0:0:0:
161,33,129992,1,2,3:0:0:0:
279,153,130265,38,0,B|325:135|364:163|364:163|369:203|411:225,1,168.999992263794,6|0,3:1|1:0,0:0:0:0:
441,313,130674,1,2,0:1:0:0:
434,322,130810,2,0,P|369:329|278:384,1,168.999992263794,2|0,3:1|1:0,0:0:0:0:
197,351,131219,1,2,0:1:0:0:
186,354,131356,2,0,B|130:339|130:339|121:292|121:292|60:272,1,168.999992263794,2|0,3:1|1:0,0:0:0:0:
3,197,131765,1,2,3:1:0:0:
13,191,131901,2,0,B|23:184|23:184|48:110,1,84.4999961318971,2|2,0:1|3:1,0:0:0:0:
100,39,132174,2,0,B|110:46|110:46|135:120,1,84.4999961318971,2|2,1:0|1:0,0:0:0:0:
158,117,132378,1,0,1:0:0:0:
180,100,132446,6,0,P|211:99|257:212,1,168.999992263794,6|0,3:1|1:0,0:0:0:0:
339,258,132856,1,2,0:1:0:0:
340,270,132992,2,0,B|361:305|361:305|495:260,1,168.999992263794,2|2,3:1|1:0,0:0:0:0:
505,172,133401,1,2,0:1:0:0:
495,166,133537,2,0,B|482:163|482:163|439:186,5,42.2499980659486,2|0|0|0|0|0,1:0|3:0|3:0|3:0|3:0|3:0,0:0:0:0:
418,157,133946,2,0,B|405:159|405:159|362:137,5,42.2499980659486,0|0|0|0|0|0,1:0|3:0|3:0|3:0|3:0|3:0,0:0:0:0:
345,172,134356,37,0,1:0:0:0:
305,156,134424,1,0,1:0:0:0:
285,174,134492,1,2,1:0:0:0:
269,174,134560,1,0,1:0:0:0:
264,183,134628,6,0,P|295:228|313:344,1,168.999992263794,6|0,3:1|1:0,0:0:0:0:
230,382,135037,1,10,0:1:0:0:
221,375,135174,2,0,B|211:368|211:368|140:378,1,84.4999961318971,2|8,3:1|3:1,0:0:0:0:
52,352,135446,1,0,1:0:0:0:
104,274,135583,1,10,0:1:0:0:
114,268,135719,2,0,B|124:261|124:261|195:271,2,84.4999961318971,2|8|0,3:1|0:1|1:0,0:0:0:0:
28,233,136128,1,10,3:1:0:0:
31,221,136265,2,0,P|40:176|52:128,1,84.4999961318971,2|10,0:1|3:1,0:0:0:0:
139,114,136537,2,0,P|148:72|157:31,1,84.4999961318971,2|10,1:0|1:0,0:0:0:0:
187,16,136742,1,0,1:0:0:0:
208,31,136810,38,0,B|268:42|268:42|285:86|285:86|348:101,1,168.999992263794,6|0,3:1|1:0,0:0:0:0:
422,48,137219,1,10,0:1:0:0:
432,54,137356,2,0,B|442:61|442:61|451:147,1,84.4999961318971,2|8,3:1|3:1,0:0:0:0:
458,227,137628,1,2,1:0:0:0:
369,205,137765,1,8,0:1:0:0:
363,216,137901,2,0,B|352:236|352:236|357:256|357:256|338:300,1,84.4999961318971,2|8,3:1|0:1,0:0:0:0:
209,369,138174,2,0,B|188:359|188:359|169:363|169:363|125:344,1,84.4999961318971,2|8,1:0|3:1,0:0:0:0:
72,207,138446,2,0,B|83:186|83:186|78:167|78:167|97:123,1,84.4999961318971,2|8,0:1|0:1,0:0:0:0:
232,61,138719,2,0,B|253:72|253:72|272:67|272:67|316:86,1,84.4999961318971,2|8,1:0|1:0,0:0:0:0:
338,65,138924,1,0,1:0:0:0:
350,36,138992,6,0,P|398:44|415:157,1,168.999992263794,6|0,3:1|1:0,0:0:0:0:
363,216,139401,1,10,0:1:0:0:
354,222,139537,2,0,P|310:231|273:250,1,84.4999961318971,2|8,3:1|3:1,0:0:0:0:
255,339,139810,1,0,1:0:0:0:
162,335,139946,1,10,0:1:0:0:
165,324,140083,2,0,B|176:280|190:254|190:254|136:232|92:202,1,168.999992263794,2|0,3:1|1:0,0:0:0:0:
51,137,140492,1,10,3:1:0:0:
62,139,140628,2,0,P|104:131|154:122,1,84.4999961318971,2|2,0:1|3:1,0:0:0:0:
188,38,140901,2,0,P|229:45|271:53,1,84.4999961318971,10|2,1:0|1:0,0:0:0:0:
295,40,141106,1,0,1:0:0:0:
327,36,141174,21,2,3:0:0:0:
175,247,141719,1,2,3:0:0:0:
175,247,142265,22,0,B|182:244|182:244|229:257,5,32.5,2|0|0|0|0|0,1:0|3:0|3:0|3:0|3:0|3:0,0:0:0:0:
237,240,142674,2,0,B|244:242|244:242|291:230,5,32.5,0|0|0|0|0|0,1:0|3:0|3:0|3:0|3:0|3:0,0:0:0:0:
299,247,143083,1,2,3:0:0:0:
393,202,143356,5,2,3:2:0:0:
108,354,152083,22,0,B|100:301|68:272|68:272|107:199,1,155.999995239258,6|0,3:1|1:0,0:0:0:0:
100,121,152492,1,2,0:1:0:0:
92,128,152628,2,0,P|40:127|74:34,1,155.999995239258,2|0,1:0|1:0,0:0:0:0:
123,2,153038,1,2,3:1:0:0:
131,11,153174,2,0,B|202:24|183:75|258:95,1,155.999995239258,2|0,1:0|1:0,0:0:0:0:
344,60,153583,1,2,0:1:0:0:
352,67,153719,2,0,B|371:79|413:72|445:84,1,77.999997619629,2|0,3:1|3:0,0:0:0:0:
487,158,153992,2,0,B|468:170|426:163|394:175,1,77.999997619629,2|2,1:0|0:1,0:0:0:0:
353,265,154265,22,0,B|326:254|293:255|293:255|270:230|270:230|235:237|187:221,1,155.999995239258,6|0,3:1|1:0,0:0:0:0:
121,255,154674,1,2,0:1:0:0:
128,265,154810,2,0,P|142:299|154:345,1,77.999997619629,2|0,1:0|3:0,0:0:0:0:
72,384,155083,1,0,1:0:0:0:
5,321,155219,1,2,3:1:0:0:
12,312,155356,2,0,P|24:273|36:220,1,77.999997619629,2|0,1:0|3:0,0:0:0:0:
138,175,155629,2,0,P|127:137|117:99,1,77.999997619629,2|0,1:0|0:0,0:0:0:0:
23,10,155901,2,0,P|13:47|2:85,1,77.999997619629,2|0,3:1|3:0,0:0:0:0:
135,111,156174,2,0,P|144:148|155:186,1,77.999997619629,2|0,1:0|0:0,0:0:0:0:
257,117,156447,22,0,B|302:87|351:111|351:111|365:142|400:164,1,155.999995239258,6|0,3:1|1:0,0:0:0:0:
474,186,156856,1,2,0:1:0:0:
471,197,156992,2,0,B|418:254|418:254|445:290|439:345,1,155.999995239258,2|0,1:0|1:0,0:0:0:0:
362,377,157401,1,2,3:1:0:0:
354,369,157538,2,0,P|311:340|180:316,1,155.999995239258,2|0,1:0|1:0,0:0:0:0:
135,263,157947,1,2,0:1:0:0:
133,274,158083,2,0,B|125:283|119:318|104:358,1,77.999997619629,2|0,3:1|3:0,0:0:0:0:
24,302,158356,2,0,B|32:293|38:258|53:218,1,77.999997619629,2|2,1:0|0:1,0:0:0:0:
21,121,158629,22,0,P|78:109|127:195,1,155.999995239258,6|0,3:1|1:0,0:0:0:0:
208,232,159038,1,2,0:1:0:0:
218,236,159174,2,0,P|257:227|311:217,1,77.999997619629,2|0,1:0|3:0,0:0:0:0:
365,158,159447,2,0,P|403:165|441:174,1,77.999997619629,2|0,1:0|3:0,0:0:0:0:
512,114,159719,1,2,1:0:0:0:
425,80,159856,1,0,3:0:0:0:
441,174,159992,2,0,P|377:224|354:312,1,155.999995239258,0|0,1:0|3:0,0:0:0:0:
231,333,160401,1,0,3:0:0:0:
231,333,160469,1,0,3:0:0:0:
231,333,160538,2,0,B|221:332|221:332|188:344,3,38.9999988098145,0|0|0|0,1:0|1:0|1:0|1:0,0:0:0:0:
159,322,160810,38,0,P|165:283|176:246,1,77.999997619629,6|0,3:1|1:0,0:0:0:0:
125,177,161083,1,0,3:0:0:0:
38,176,161219,1,2,1:0:0:0:
41,165,161356,2,0,B|55:124|64:89|64:89|95:90|140:82,1,155.999995239258,2|0,3:1|3:0,0:0:0:0:
221,35,161765,1,2,1:0:0:0:
230,41,161901,2,0,B|248:48|248:48|270:189,1,155.999995239258,2|0,3:1|3:0,0:0:0:0:
355,222,162310,1,2,1:0:0:0:
352,233,162446,2,0,P|343:262|336:328,1,77.999997619629,2|0,3:1|1:0,0:0:0:0:
427,335,162719,1,2,3:1:0:0:
425,324,162856,1,2,1:0:0:0:
468,219,162992,38,0,B|481:183|512:168|512:168|527:119|475:76,1,155.999995239258,6|0,3:1|3:0,0:0:0:0:
436,14,163401,1,2,1:0:0:0:
428,23,163538,2,0,P|386:43|347:51,1,77.999997619629,2|0,3:1|1:0,0:0:0:0:
288,113,163810,1,2,3:1:0:0:
221,46,163947,1,2,1:0:0:0:
214,55,164083,2,0,B|176:73|176:73|151:123,1,77.999997619629,2|0,3:1|1:0,0:0:0:0:
93,216,164356,2,0,B|73:186|73:186|77:145,1,77.999997619629,2|0,3:1|1:0,0:0:0:0:
86,308,164629,2,0,B|120:331|120:331|176:328,1,77.999997619629,2|0,3:1|1:0,0:0:0:0:
285,330,164901,2,0,B|268:362|268:362|231:381,1,77.999997619629,2|0,3:1|1:0,0:0:0:0:
222,269,165174,6,0,P|258:295|278:332,1,77.999997619629,6|0,3:1|1:0,0:0:0:0:
349,267,165446,1,0,3:0:0:0:
309,181,165583,1,2,1:0:0:0:
320,185,165719,2,0,P|386:176|463:102,1,155.999995239258,2|0,3:1|3:0,0:0:0:0:
462,28,166128,1,2,1:0:0:0:
452,22,166265,2,0,B|424:10|424:10|296:52,1,155.999995239258,2|0,3:1|3:0,0:0:0:0:
217,19,166674,1,2,1:0:0:0:
206,22,166810,2,0,P|160:21|113:9,1,77.999997619629,2|0,3:1|1:0,0:0:0:0:
45,50,167083,1,2,3:1:0:0:
55,45,167219,1,2,1:0:0:0:
111,122,167356,21,2,3:0:0:0:
262,339,167901,1,2,3:0:0:0:
262,339,168447,22,0,B|241:311|241:311|184:311,1,77.999997619629,2|0,0:1|1:0,0:0:0:0:
122,368,168719,2,0,B|156:363|156:363|185:314,1,77.999997619629,0|0,0:0|1:0,0:0:0:0:
166,232,168992,2,0,B|152:264|152:264|180:313,1,77.999997619629,0|0,3:0|1:0,0:0:0:0:
262,339,169265,2,0,B|271:341|271:341|314:330,3,38.9999988098145,0|0|0|0,1:0|1:0|1:0|1:0,0:0:0:0:
370,296,169538,21,2,3:2:0:0:
370,295,169810,2,0,P|362:264|353:233,1,65,0|2,3:0|3:2,0:0:0:0:
403,162,170083,2,0,P|394:130|386:99,1,65,2|0,1:2|1:0,0:0:0:0:
366,19,170356,1,0,3:0:0:0:
403,162,170629,38,0,P|345:114|277:86,1,130,2|2,3:0|0:0,0:0:0:0:
225,42,171038,2,0,P|166:70|117:112,1,130,2|0,3:0|0:0,0:0:0:0:
75,187,171447,1,6,3:0:0:0:
