osu file format v14

[General]
AudioFilename: audio.mp3
AudioLeadIn: 0
PreviewTime: 71219
Countdown: 0
SampleSet: None
StackLeniency: 0.4
Mode: 0
LetterboxInBreaks: 0
WidescreenStoryboard: 0

[Editor]
DistanceSpacing: 1
BeatDivisor: 4
GridSize: 32
TimelineZoom: 1.8

[Metadata]
Title:Yotsuya-san ni Yoroshiku
TitleUnicode:四ツ谷さんによろしく
Artist:Himeringo
ArtistUnicode:ひめりんご
Creator:Delette
Version:Insane
Source:
Tags:j-rock jrock japanese utaite leave it to eight hatsune miku vocaloid unranked mapper unrankedmapper wenect wenet halgoh nekroman4ik atix174 miraui milr_ 619 maruoko
BeatmapID:2269399
BeatmapSetID:1085236

[Difficulty]
HPDrainRate:5
CircleSize:3.5
OverallDifficulty:8
ApproachRate:9.2
SliderMultiplier:1.4
SliderTickRate:1

[Events]
//Background and Video events
0,0,"bg.jpg",0,0
//Break Periods
2,143356,151513
//Storyboard Layer 0 (Background)
//Storyboard Layer 1 (Fail)
//Storyboard Layer 2 (Pass)
//Storyboard Layer 3 (Foreground)
//Storyboard Layer 4 (Overlay)
//Storyboard Sound Samples

[TimingPoints]
2629,272.727272727273,4,2,1,20,1,0
20083,291.26213592233,4,2,1,20,1,0
21248,288.461538461538,4,2,1,20,1,0
23356,272.727272727273,4,2,1,20,1,0
23356,-133.333333333333,4,2,1,20,0,0
23492,-133.333333333333,4,2,1,25,0,0
23628,-133.333333333333,4,2,1,30,0,0
23764,-133.333333333333,4,2,1,35,0,0
23901,-133.333333333333,4,2,1,40,0,0
24037,-133.333333333333,4,2,1,45,0,0
24174,-133.333333333333,4,2,1,50,0,0
24310,-133.333333333333,4,2,1,55,0,0
24446,-133.333333333333,4,2,2,50,0,0
25537,-133.333333333333,4,2,1,50,0,0
34265,-100,4,2,1,90,0,0
42582,-100,4,2,1,50,0,0
42719,-100,4,2,1,70,0,0
42992,-100,4,2,1,90,0,0
51310,-100,4,2,1,50,0,0
51446,-100,4,2,1,70,0,0
51719,-133.333333333333,4,2,2,50,0,0
53901,-133.333333333333,4,2,1,60,0,0
57583,-133.333333333333,4,2,2,45,0,0
57719,-133.333333333333,4,2,2,50,0,0
57856,-133.333333333333,4,2,2,55,0,0
57992,-133.333333333333,4,2,2,60,0,0
58265,-133.333333333333,4,2,1,60,0,0
61606,-133.333333333333,4,2,1,40,0,0
61946,-133.333333333333,4,2,1,60,0,0
62015,-133.333333333333,4,2,1,40,0,0
62356,-133.333333333333,4,2,2,60,0,0
62628,-133.333333333333,4,2,1,60,0,0
66310,-133.333333333333,4,2,2,45,0,0
66446,-133.333333333333,4,2,2,50,0,0
66582,-133.333333333333,4,2,2,55,0,0
66719,-133.333333333333,4,2,2,60,0,0
70265,-133.333333333333,4,2,1,70,0,0
70674,-200,4,2,2,70,0,0
71219,-200,4,2,1,60,0,0
71356,-83.3333333333333,4,2,1,90,0,1
79060,-83.3333333333333,4,2,1,70,0,1
79333,-83.3333333333333,4,2,1,5,0,1
79401,-83.3333333333333,4,2,1,90,0,1
79469,-83.3333333333333,4,2,1,70,0,1
79810,-83.3333333333333,4,2,1,90,0,1
86628,-100,4,2,2,60,0,0
87719,-100,4,2,1,70,0,1
87787,-100,4,2,1,50,0,1
88128,-100,4,2,1,70,0,1
88196,-100,4,2,1,50,0,1
88537,-100,4,2,2,70,0,0
88810,-100,4,2,1,90,0,0
97128,-100,4,2,1,50,0,0
97265,-100,4,2,1,70,0,0
97537,-133.333333333333,4,2,2,50,0,0
99719,-133.333333333333,4,2,1,60,0,0
103401,-133.333333333333,4,2,2,45,0,0
103537,-133.333333333333,4,2,2,50,0,0
103674,-133.333333333333,4,2,2,55,0,0
103810,-133.333333333333,4,2,2,60,0,0
104083,-133.333333333333,4,2,1,60,0,0
107424,-133.333333333333,4,2,1,40,0,0
107765,-133.333333333333,4,2,1,60,0,0
107833,-133.333333333333,4,2,1,40,0,0
108174,-133.333333333333,4,2,2,60,0,0
108446,-133.333333333333,4,2,1,60,0,0
112128,-133.333333333333,4,2,2,45,0,0
112265,-133.333333333333,4,2,2,50,0,0
112401,-133.333333333333,4,2,2,55,0,0
112538,-133.333333333333,4,2,2,60,0,0
112810,-133.333333333333,4,2,1,60,0,0
116083,-133.333333333333,4,2,1,70,0,0
116492,-200,4,2,2,70,0,0
117174,-125,4,2,3,70,0,0
117310,-125,4,2,2,70,0,0
119560,-125,4,2,2,5,0,0
119628,-125,4,2,2,70,0,0
119832,-125,4,2,2,5,0,0
119901,-125,4,2,2,70,0,0
123719,-125,4,2,2,50,0,0
124810,-100,4,2,1,50,0,0
124946,-100,4,2,1,55,0,0
125083,-100,4,2,1,65,0,0
125219,-100,4,2,1,70,0,0
125765,-100,4,2,1,60,0,0
126174,-83.3333333333333,4,2,3,90,0,1
126310,-83.3333333333333,4,2,1,90,0,1
127810,-100,4,2,2,90,0,0
128083,-100,4,2,3,90,0,0
128287,-100,4,2,3,5,0,0
128356,-83.3333333333333,4,2,2,90,0,1
128492,-83.3333333333333,4,2,1,90,0,1
129582,-83.3333333333333,4,2,1,90,0,1
129719,-83.3333333333333,4,2,1,90,0,1
129992,-83.3333333333333,4,2,1,90,0,0
130265,-83.3333333333333,4,2,1,90,0,1
133606,-83.3333333333333,4,2,1,70,0,1
133878,-83.3333333333333,4,2,1,5,0,1
133946,-83.3333333333333,4,2,1,90,0,1
134015,-83.3333333333333,4,2,1,70,0,1
134356,-83.3333333333333,4,2,1,90,0,1
134628,-83.3333333333333,4,2,4,90,0,1
134765,-83.3333333333333,4,2,1,90,0,1
140969,-83.3333333333333,4,2,1,90,0,1
141037,-83.3333333333333,4,2,1,90,0,1
141174,-100,4,2,1,60,0,0
142265,-100,4,2,1,70,0,1
142333,-100,4,2,1,50,0,1
142674,-100,4,2,1,70,0,1
142742,-100,4,2,1,50,0,1
143083,-100,4,2,2,70,0,0
143356,-100,4,2,1,50,0,0
151537,-100,4,2,3,50,0,0
152083,-100,4,2,1,90,0,0
155765,-100,4,2,1,90,0,0
155901,-100,4,2,1,90,0,0
156310,-100,4,2,1,90,0,0
156447,-100,4,2,1,90,0,0
160128,-100,4,2,1,90,0,0
160265,-100,4,2,1,90,0,0
160401,-100,4,2,1,50,0,0
160538,-100,4,2,1,70,0,0
160810,-86.9565217391304,4,2,1,90,0,1
167356,-100,4,2,2,50,0,0
168446,-100,4,2,1,90,0,1
168719,-100,4,2,1,90,0,1
168855,-100,4,2,1,90,0,1
169128,-100,4,2,1,50,0,1
169265,-133.333333333333,4,2,1,70,0,0
169538,-133.333333333333,4,2,2,50,0,0

[Colours]
Combo1 : 255,9,9
Combo2 : 214,214,214
Combo3 : 65,65,65
Combo4 : 255,128,128

[HitObjects]
337,73,23356,6,0,L|346:22,1,52.5000020027161,0|0,3:0|3:0,0:0:0:0:
255,59,23628,2,0,L|204:51,1,52.5000020027161,0|0,3:0|3:0,0:0:0:0:
241,141,23901,2,0,L|233:193,1,52.5000020027161,0|0,1:0|1:0,0:0:0:0:
323,155,24174,1,0,1:0:0:0:
404,168,24310,1,0,1:0:0:0:
296,264,24446,6,0,L|227:276,1,52.5000020027161,4|0,3:0|0:0,0:0:0:0:
233,282,24651,1,0,0:0:0:0:
233,282,24719,1,2,0:0:0:0:
139,306,24856,1,2,0:0:0:0:
234,363,24992,2,0,L|303:351,1,52.5000020027161,0|0,3:0|0:0,0:0:0:0:
383,295,25265,1,0,1:0:0:0:
191,174,25537,38,0,B|120:158|120:158|80:176,1,105.000004005432,10|0,3:2|0:0,0:0:0:0:
19,225,25946,2,0,L|29:298,1,52.5000020027161,10|2,0:0|0:0,0:0:0:0:
62,154,26219,2,0,L|55:102,1,52.5000020027161,10|0,0:0|0:0,0:0:0:0:
137,243,26492,2,0,L|127:316,1,52.5000020027161,10|0,0:0|0:0,0:0:0:0:
195,185,26765,2,0,L|203:133,1,52.5000020027161,10|2,0:0|0:0,0:0:0:0:
246,290,27037,2,0,L|218:358,1,52.5000020027161,8|2,0:0|0:0,0:0:0:0:
318,249,27310,2,0,L|338:201,1,52.5000020027161,8|2,0:0|0:0,0:0:0:0:
369,319,27583,1,0,3:0:0:0:
434,201,27719,6,0,P|421:138|369:115,1,105.000004005432,10|0,3:2|0:0,0:0:0:0:
294,123,28128,2,0,P|266:81|258:61,1,52.5000020027161,10|2,0:0|0:0,0:0:0:0:
205,158,28401,2,0,P|189:110|186:89,1,52.5000020027161,10|0,0:0|0:0,0:0:0:0:
109,168,28674,2,0,P|105:117|109:96,1,52.5000020027161,10|0,0:0|0:0,0:0:0:0:
33,251,28946,2,0,P|17:298|14:319,1,52.5000020027161,10|2,0:0|0:0,0:0:0:0:
124,286,29219,2,0,P|96:327|88:347,1,52.5000020027161,10|2,0:0|0:0,0:0:0:0:
201,343,29492,37,2,3:0:0:0:
201,343,29560,1,2,0:3:0:0:
201,343,29628,1,2,0:3:0:0:
203,257,29765,1,2,3:0:0:0:
299,373,29901,6,0,B|350:363|350:363|368:369|368:369|418:361,1,105.000004005432,10|0,3:2|0:0,0:0:0:0:
468,303,30310,2,0,L|479:234,1,52.5000020027161,10|2,0:0|0:0,0:0:0:0:
425,175,30583,2,0,L|414:106,1,52.5000020027161,10|0,0:0|0:0,0:0:0:0:
319,269,30856,2,0,L|358:211,1,52.5000020027161,10|0,0:0|0:0,0:0:0:0:
334,134,31129,2,0,L|353:66,1,52.5000020027161,10|2,0:0|0:0,0:0:0:0:
198,175,31401,2,0,L|257:139,1,52.5000020027161,8|2,0:0|0:0,0:0:0:0:
268,59,31674,2,0,L|313:6,1,52.5000020027161,8|2,0:0|0:0,0:0:0:0:
417,41,31946,1,0,3:0:0:0:
333,152,32083,38,0,L|224:142,1,105.000004005432,10|0,3:2|0:0,0:0:0:0:
150,95,32492,2,0,P|107:77|90:77,1,52.5000020027161,10|2,0:0|0:0,0:0:0:0:
31,129,32765,2,0,P|13:172|13:189,1,52.5000020027161,10|0,0:0|0:0,0:0:0:0:
99,229,33037,2,0,P|142:211|159:211,1,52.5000020027161,10|0,0:0|0:0,0:0:0:0:
218,263,33310,2,0,P|236:306|236:323,1,52.5000020027161,10|2,0:0|0:0,0:0:0:0:
191,384,33583,1,10,0:0:0:0:
191,384,33719,1,10,0:0:0:0:
325,62,34265,22,0,B|395:46|395:46|459:97,1,140,6|0,3:1|1:0,0:0:0:0:
363,175,34674,1,2,0:1:0:0:
279,166,34810,2,0,L|183:157,1,70,2|0,1:0|3:0,0:0:0:0:
128,152,35083,1,0,1:0:0:0:
0,164,35219,1,2,3:1:0:0:
3,252,35355,2,0,L|146:237,1,140,2|0,1:0|1:0,0:0:0:0:
211,350,35765,1,2,0:1:0:0:
246,270,35901,2,0,L|236:347,1,70,2|0,3:1|3:0,0:0:0:0:
341,277,36174,2,0,L|331:354,1,70,2|2,1:0|0:1,0:0:0:0:
452,138,36446,22,0,B|396:145|396:145|369:170|369:170|308:179,1,140,6|0,3:1|1:0,0:0:0:0:
132,134,36856,1,2,0:1:0:0:
199,89,36992,2,0,P|236:114|252:144,1,70,2|0,1:0|3:0,0:0:0:0:
231,220,37265,1,0,1:0:0:0:
231,220,37401,1,2,3:1:0:0:
142,272,37537,22,0,P|102:251|80:231,1,70,2|0,1:0|3:0,0:0:0:0:
222,342,37810,2,0,P|182:363|160:383,1,70,2|0,1:0|0:0,0:0:0:0:
302,272,38083,2,0,P|262:251|240:231,1,70,2|0,3:1|3:0,0:0:0:0:
382,342,38356,2,0,P|342:363|320:383,1,70,2|0,1:0|0:0,0:0:0:0:
488,203,38628,22,0,P|419:166|414:98,1,140,6|0,3:1|1:0,0:0:0:0:
267,8,39037,1,2,0:1:0:0:
352,25,39174,2,0,P|369:74|375:111,1,70,2|0,1:0|3:0,0:0:0:0:
324,166,39446,1,0,1:0:0:0:
259,20,39583,1,2,3:1:0:0:
174,37,39720,2,0,P|146:117|136:178,1,140,2|0,1:0|1:0,0:0:0:0:
136,286,40128,1,2,0:1:0:0:
215,333,40265,2,0,L|299:322,1,70,2|0,3:1|3:0,0:0:0:0:
142,384,40537,2,0,L|58:373,1,70,2|2,1:0|0:1,0:0:0:0:
321,240,40810,22,0,P|368:271|373:358,1,140,6|0,3:1|1:0,0:0:0:0:
210,251,41219,1,2,0:1:0:0:
255,181,41356,2,0,L|262:105,1,70,2|0,1:0|3:0,0:0:0:0:
345,153,41628,1,2,1:0:0:0:
345,153,41765,1,0,3:0:0:0:
455,135,41901,22,0,P|488:125|512:100,1,70,2|0,1:0|3:0,0:0:0:0:
422,30,42174,2,0,P|375:50|360:74,1,70,0|0,1:0|0:0,0:0:0:0:
383,229,42446,2,0,L|395:307,1,70,0|0,3:0|3:0,0:0:0:0:
312,373,42719,1,0,1:0:0:0:
295,368,42787,1,0,1:0:0:0:
277,367,42855,1,0,1:0:0:0:
260,370,42923,1,0,1:0:0:0:
244,377,42992,22,0,P|197:356|113:374,1,140,6|0,3:1|1:0,0:0:0:0:
42,319,43401,1,2,0:1:0:0:
113,373,43537,2,0,P|152:346|171:308,1,70,2|0,1:0|3:0,0:0:0:0:
193,253,43810,1,0,1:0:0:0:
98,171,43946,1,2,3:1:0:0:
14,158,44083,2,0,L|22:301,1,140,2|0,1:0|1:0,0:0:0:0:
180,173,44492,1,2,0:1:0:0:
183,85,44628,2,0,P|137:54|115:50,1,70,2|0,3:1|3:0,0:0:0:0:
269,206,44901,2,0,P|272:150|265:129,1,70,2|2,1:0|0:1,0:0:0:0:
297,0,45174,22,0,P|350:42|365:136,1,140,6|0,3:1|1:0,0:0:0:0:
337,253,45583,1,2,0:1:0:0:
391,192,45719,2,0,B|430:190|430:190|459:219,1,70,2|0,1:0|3:0,0:0:0:0:
445,302,45992,1,0,1:0:0:0:
445,302,46128,1,2,3:1:0:0:
333,357,46265,22,0,L|258:336,1,70,2|0,1:0|3:0,0:0:0:0:
227,241,46537,2,0,L|152:262,1,70,2|0,1:0|0:0,0:0:0:0:
316,362,46810,2,0,L|241:341,1,70,2|0,3:1|3:0,0:0:0:0:
210,236,47083,2,0,L|135:257,1,70,2|0,1:0|0:0,0:0:0:0:
35,384,47356,22,0,B|24:328|24:328|35:307|35:307|18:228,1,140,6|0,3:1|1:0,0:0:0:0:
32,95,47765,1,2,0:1:0:0:
108,124,47901,2,0,B|132:152|132:152|130:200,1,70,2|0,1:0|3:0,0:0:0:0:
115,266,48174,1,0,1:0:0:0:
216,285,48310,1,2,3:1:0:0:
243,206,48446,2,0,B|290:160|342:180|342:180|354:217,1,140,2|0,1:0|1:0,0:0:0:0:
381,304,48856,1,2,0:1:0:0:
443,248,48992,2,0,P|459:199|456:162,1,70,2|0,3:1|3:0,0:0:0:0:
512,305,49265,2,0,P|496:354|499:391,1,70,2|2,1:0|0:1,0:0:0:0:
325,368,49537,22,0,P|276:328|199:343,1,140,6|0,3:1|1:0,0:0:0:0:
103,377,49946,1,2,0:1:0:0:
16,365,50083,2,0,L|108:359,1,70,2|0,1:0|3:0,0:0:0:0:
193,344,50356,1,2,1:0:0:0:
193,344,50492,1,0,3:0:0:0:
225,248,50628,22,0,P|229:206|215:172,1,70,2|0,1:0|3:0,0:0:0:0:
125,191,50901,2,0,P|121:233|135:267,1,70,0|0,1:0|0:0,0:0:0:0:
299,146,51174,2,0,L|305:73,1,70,0|0,3:0|3:0,0:0:0:0:
248,2,51446,5,0,1:0:0:0:
233,11,51514,1,0,1:0:0:0:
221,24,51582,1,0,1:0:0:0:
213,39,51650,1,0,1:0:0:0:
210,56,51719,38,0,P|159:59|113:98,1,105.000004005432,2|0,3:2|3:0,0:0:0:0:
83,168,52128,1,2,3:2:0:0:
38,98,52265,1,2,1:2:0:0:
95,167,52401,1,0,1:0:0:0:
38,247,52537,1,0,3:0:0:0:
141,362,52810,6,0,L|90:371,2,52.5000020027161,2|0|2,3:0|0:0|0:0,0:0:0:0:
255,336,53219,2,0,L|319:347,2,52.5000020027161,2|2|0,3:0|0:0|0:0,0:0:0:0:
186,273,53628,2,0,L|182:213,1,52.5000020027161,6|0,3:0|0:0,0:0:0:0:
238,117,53901,38,0,P|291:115|359:188,1,157.500006008148,6|0,3:2|1:0,0:0:0:0:
443,162,54446,2,0,P|445:210|440:235,1,52.5000020027161,0|0,1:0|3:0,0:0:0:0:
387,278,54719,1,2,1:2:0:0:
387,278,54856,1,0,0:0:0:0:
458,323,54992,2,0,L|518:315,1,52.5000020027161,2|0,3:2|3:0,0:0:0:0:
359,359,55265,2,0,L|299:351,1,52.5000020027161,2|0,1:2|3:0,0:0:0:0:
234,300,55537,2,0,P|226:269|225:234,1,52.5000020027161,2|0,0:0|3:0,0:0:0:0:
147,191,55810,2,0,P|144:217|137:242,1,52.5000020027161,2|0,1:2|0:0,0:0:0:0:
58,298,56083,6,0,P|16:265|8:215,1,105.000004005432,2|0,3:2|0:0,0:0:0:0:
40,140,56492,1,2,1:2:0:0:
145,108,56628,2,0,L|218:104,1,52.5000020027161,0|0,1:0|3:0,0:0:0:0:
259,165,56901,1,2,1:2:0:0:
259,165,57037,1,2,0:0:0:0:
207,233,57174,2,0,L|154:235,1,52.5000020027161,0|0,3:0|3:0,0:0:0:0:
68,251,57446,1,0,1:0:0:0:
0,209,57583,37,8,3:2:0:0:
7,303,57719,1,8,0:0:0:0:
77,246,57856,1,8,3:2:0:0:
84,340,57992,1,8,1:2:0:0:
259,301,58265,6,0,B|302:310|331:278|331:278|360:245|411:251,1,157.500006008148,2|0,3:2|1:0,0:0:0:0:
485,231,58810,2,0,P|502:197|506:167,1,52.5000020027161,0|0,1:0|3:0,0:0:0:0:
491,100,59083,1,2,1:2:0:0:
491,100,59219,1,0,0:0:0:0:
420,47,59356,2,0,L|358:54,1,52.5000020027161,2|0,3:2|3:0,0:0:0:0:
273,21,59628,2,0,L|211:14,1,52.5000020027161,2|0,1:2|3:0,0:0:0:0:
136,7,59901,2,0,P|146:40|151:65,1,52.5000020027161,2|0,0:0|3:0,0:0:0:0:
75,154,60174,2,0,P|80:128|88:103,1,52.5000020027161,2|0,1:2|0:0,0:0:0:0:
151,214,60446,38,0,P|111:243|46:254,1,105.000004005432,2|0,3:2|0:0,0:0:0:0:
0,188,60856,1,2,1:2:0:0:
57,254,60992,2,0,L|47:316,1,52.5000020027161,0|0,1:0|3:0,0:0:0:0:
142,354,61265,1,2,1:2:0:0:
142,354,61537,6,0,L|180:345,5,26.2500010013581,2|0|0|0|2|0,1:2|3:0|3:0|3:0|3:2|3:0,0:0:0:0:
191,335,61946,2,0,L|229:344,5,26.2500010013581,2|0|0|0|0|0,1:2|3:0|3:0|3:0|3:0|3:0,0:0:0:0:
284,384,62356,1,2,1:3:0:0:
427,319,62628,38,0,B|392:300|392:300|366:237|385:175,1,157.500006008148,6|0,3:2|1:0,0:0:0:0:
438,122,63174,2,0,L|447:55,1,52.5000020027161,0|0,1:0|3:0,0:0:0:0:
386,2,63446,1,2,1:2:0:0:
386,2,63583,1,0,0:0:0:0:
311,85,63719,2,0,L|317:137,1,52.5000020027161,2|0,3:2|3:0,0:0:0:0:
238,169,63992,2,0,P|206:166|172:166,1,52.5000020027161,2|0,1:2|3:0,0:0:0:0:
118,91,64265,2,0,P|105:120|94:152,1,52.5000020027161,2|0,0:0|3:0,0:0:0:0:
47,208,64537,2,0,P|59:237|70:269,1,52.5000020027161,2|0,1:2|0:0,0:0:0:0:
95,361,64810,6,0,P|120:335|204:334,1,105.000004005432,2|0,3:2|0:0,0:0:0:0:
257,365,65219,1,2,1:2:0:0:
347,306,65356,2,0,L|412:295,1,52.5000020027161,0|0,1:0|3:0,0:0:0:0:
508,229,65628,2,0,L|443:218,1,52.5000020027161,2|0,1:2|0:0,0:0:0:0:
394,152,65901,2,0,L|329:163,1,52.5000020027161,2|0,3:2|3:0,0:0:0:0:
296,234,66174,1,0,1:0:0:0:
228,173,66310,37,8,3:2:0:0:
204,293,66446,1,10,0:0:0:0:
156,219,66582,1,8,3:2:0:0:
145,361,66719,1,10,1:2:0:0:
23,234,66992,6,0,P|38:189|54:125,1,105.000004005432,2|2,3:2|0:0,0:0:0:0:
42,49,67401,1,0,1:0:0:0:
130,86,67537,2,0,P|165:75|192:61,1,52.5000020027161,0|0,1:0|3:0,0:0:0:0:
274,24,67810,2,0,P|299:31|323:41,1,52.5000020027161,0|0,1:0|0:0,0:0:0:0:
368,115,68083,37,0,3:0:0:0:
368,115,68219,1,0,3:0:0:0:
278,170,68356,2,0,L|262:110,1,52.5000020027161,0|0,1:0|3:0,0:0:0:0:
166,160,68628,2,0,L|152:210,1,52.5000020027161,2|0,0:0|3:0,0:0:0:0:
201,301,68901,1,2,1:2:0:0:
366,214,69174,6,0,B|422:219|422:219|430:224|430:224|482:228,1,105.000004005432,2|0,3:2|0:0,0:0:0:0:
512,298,69583,1,2,1:2:0:0:
402,320,69719,2,0,L|336:312,1,52.5000020027161,0|0,1:0|3:0,0:0:0:0:
265,343,69992,2,0,L|199:351,1,52.5000020027161,2|0,1:2|0:0,0:0:0:0:
123,309,70265,37,2,1:2:0:0:
121,302,70333,1,0,1:0:0:0:
120,295,70401,2,0,L|122:260,3,26.2500010013581,0|0|0|0,1:0|1:0|1:0|1:0,0:0:0:0:
168,210,70674,2,0,B|159:149|199:166|201:104,1,105,2|0,3:0|0:0,0:0:0:0:
337,169,71219,37,2,0:1:0:0:
374,29,71356,2,0,P|317:71|333:172,1,167.999994873047,6|0,3:1|1:0,0:0:0:0:
410,193,71765,1,2,0:1:0:0:
470,61,71902,2,0,P|486:129|408:197,1,167.999994873047,2|0,3:1|1:0,0:0:0:0:
323,160,72309,1,2,0:1:0:0:
360,20,72446,2,0,P|303:62|319:163,1,167.999994873047,2|0,3:1|1:0,0:0:0:0:
377,307,72856,37,2,3:1:0:0:
423,194,72992,1,2,0:1:0:0:
432,360,73128,1,2,3:1:0:0:
351,235,73265,1,2,1:0:0:0:
496,310,73401,1,2,1:0:0:0:
309,352,73537,6,0,B|180:346|180:346|150:313,1,167.999994873047,6|0,3:1|1:0,0:0:0:0:
148,220,73946,1,2,0:1:0:0:
219,175,74083,1,2,3:1:0:0:
138,226,74219,1,2,3:1:0:0:
225,266,74356,1,2,1:0:0:0:
142,138,74492,1,2,0:1:0:0:
293,219,74628,38,0,L|388:207,1,83.9999974365235,2|0,3:1|0:0,0:0:0:0:
136,126,74901,2,0,L|41:114,1,83.9999974365235,2|0,1:0|3:0,0:0:0:0:
298,208,75174,2,0,L|393:196,1,83.9999974365235,2|0,0:1|3:0,0:0:0:0:
221,277,75446,1,2,1:0:0:0:
221,277,75515,1,0,0:0:0:0:
221,277,75583,1,0,1:0:0:0:
81,208,75719,6,0,B|51:259|51:259|87:369,1,167.999994873047,6|0,3:1|1:0,0:0:0:0:
204,382,76128,1,2,0:1:0:0:
234,272,76265,2,0,P|216:342|309:338,1,167.999994873047,2|0,3:1|1:0,0:0:0:0:
334,286,76674,1,2,0:1:0:0:
391,198,76810,2,0,P|360:288|406:341,1,167.999994873047,2|0,3:1|1:0,0:0:0:0:
471,256,77219,37,2,3:1:0:0:
479,250,77356,1,2,0:1:0:0:
488,155,77492,1,2,3:1:0:0:
478,150,77628,1,2,1:0:0:0:
392,83,77765,1,2,1:0:0:0:
496,8,77901,6,0,L|479:176,1,167.999994873047,6|0,3:1|1:0,0:0:0:0:
391,198,78310,1,2,0:1:0:0:
284,132,78446,2,0,L|302:229,1,83.9999974365235,2|0,3:1|3:0,0:0:0:0:
214,350,78719,1,2,1:0:0:0:
301,309,78856,1,2,0:1:0:0:
134,287,78992,38,0,L|50:275,1,83.9999974365235,2|0,1:0|3:0,0:0:0:0:
44,259,79196,1,0,3:0:0:0:
47,251,79265,2,0,L|40:206,1,41.9999987182618,0|0,3:0|3:0,0:0:0:0:
60,182,79401,2,0,L|74:88,1,83.9999974365235,0|0,1:0|3:0,0:0:0:0:
162,70,79674,1,0,3:0:0:0:
171,72,79742,1,0,3:0:0:0:
178,77,79810,2,0,L|227:71,3,41.9999987182618,0|0|2|0,1:0|1:0|1:0|1:0,0:0:0:0:
245,83,80083,6,0,P|301:58|371:131,1,167.999994873047,6|0,3:1|1:0,0:0:0:0:
356,215,80492,1,2,0:1:0:0:
493,173,80628,2,0,P|437:148|367:221,1,167.999994873047,2|0,3:1|1:0,0:0:0:0:
382,305,81038,1,2,0:1:0:0:
245,263,81174,2,0,P|301:238|371:311,1,167.999994873047,2|0,3:1|1:0,0:0:0:0:
213,363,81583,37,2,3:1:0:0:
145,251,81719,1,2,0:1:0:0:
117,349,81856,1,2,3:1:0:0:
234,269,81992,1,2,1:0:0:0:
107,356,82128,1,2,1:0:0:0:
27,235,82265,6,0,B|1:155|1:155|47:77,1,167.999994873047,6|0,3:1|1:0,0:0:0:0:
134,33,82674,1,2,0:1:0:0:
123,136,82810,1,2,3:1:0:0:
202,90,82946,1,2,3:1:0:0:
161,214,83083,1,2,1:0:0:0:
207,79,83219,1,2,0:1:0:0:
238,237,83356,38,0,L|324:223,1,83.9999974365235,2|0,3:1|0:0,0:0:0:0:
485,166,83628,2,0,L|399:180,1,83.9999974365235,2|0,1:0|3:0,0:0:0:0:
245,245,83901,2,0,L|331:231,1,83.9999974365235,2|0,0:1|3:0,0:0:0:0:
456,255,84174,1,2,1:0:0:0:
456,255,84242,1,0,0:0:0:0:
456,255,84310,1,0,1:0:0:0:
333,325,84446,6,0,B|268:335|268:335|250:356|250:356|160:372,1,167.999994873047,6|0,3:1|1:0,0:0:0:0:
45,349,84856,1,2,0:1:0:0:
42,212,84992,2,0,L|74:380,1,167.999994873047,2|0,3:1|1:0,0:0:0:0:
170,272,85401,1,2,0:1:0:0:
173,135,85537,2,0,L|141:303,1,167.999994873047,2|0,3:1|1:0,0:0:0:0:
256,312,85946,37,2,3:1:0:0:
267,307,86083,1,2,0:1:0:0:
351,252,86219,1,2,3:1:0:0:
362,257,86356,1,2,1:0:0:0:
440,319,86492,1,2,1:0:0:0:
489,199,86628,38,0,P|427:187|344:242,1,140,2|0,1:3|0:0,0:0:0:0:
144,91,87174,38,0,P|206:79|289:134,1,140,2|2,1:3|0:1,0:0:0:0:
138,240,87719,37,2,1:0:0:0:
125,246,87787,1,0,3:0:0:0:
110,246,87856,2,0,L|62:237,3,35,0|0|0|0,3:0|3:0|3:0|3:0,0:0:0:0:
45,222,88128,2,0,L|36:270,3,35,0|0|0|0,1:0|3:0|3:0|3:0,0:0:0:0:
27,330,88401,2,0,L|75:339,1,35,0|0,3:0|3:0,0:0:0:0:
135,351,88537,1,2,1:3:0:0:
246,194,88810,6,0,L|270:348,1,140,6|0,3:1|1:0,0:0:0:0:
373,350,89219,1,2,0:1:0:0:
434,267,89356,2,0,L|344:254,1,70,2|0,1:0|3:0,0:0:0:0:
331,176,89628,1,0,1:0:0:0:
388,73,89765,1,2,3:1:0:0:
298,31,89901,2,0,L|322:185,1,140,2|0,1:0|1:0,0:0:0:0:
279,244,90310,1,2,0:1:0:0:
219,156,90446,2,0,P|184:154|149:159,1,70,2|0,3:1|3:0,0:0:0:0:
134,264,90719,2,0,P|161:285|185:310,1,70,2|2,1:0|0:1,0:0:0:0:
34,338,90992,22,0,P|10:272|22:204,1,140,6|0,3:1|1:0,0:0:0:0:
79,128,91401,1,2,0:1:0:0:
32,52,91537,2,0,L|46:136,1,70,2|0,1:0|3:0,0:0:0:0:
119,26,91810,1,0,1:0:0:0:
119,26,91946,1,2,3:1:0:0:
192,74,92083,22,0,L|178:158,1,70,2|0,1:0|3:0,0:0:0:0:
272,113,92356,2,0,L|258:197,1,70,2|0,1:0|0:0,0:0:0:0:
343,230,92628,2,0,L|357:314,1,70,2|0,3:1|3:0,0:0:0:0:
263,269,92901,2,0,L|277:353,1,70,2|0,1:0|0:0,0:0:0:0:
442,356,93174,22,0,B|458:256|458:256|436:212,1,140,6|0,3:1|1:0,0:0:0:0:
381,132,93583,1,2,0:1:0:0:
455,88,93719,2,0,L|467:11,1,70,2|0,1:0|3:0,0:0:0:0:
374,49,93992,1,0,1:0:0:0:
304,165,94128,1,2,3:1:0:0:
223,138,94265,2,0,L|200:-3,1,140,2|0,1:0|1:0,0:0:0:0:
73,48,94674,1,2,0:1:0:0:
20,117,94810,2,0,P|3:158|-1:189,1,70,2|0,3:1|3:0,0:0:0:0:
90,230,95083,2,0,P|107:271|111:302,1,70,2|2,1:0|0:1,0:0:0:0:
196,382,95356,22,0,P|253:358|329:376,1,140,6|0,3:1|1:0,0:0:0:0:
450,371,95765,1,2,0:1:0:0:
386,310,95901,2,0,L|376:227,1,70,2|0,1:0|3:0,0:0:0:0:
366,157,96174,1,2,1:0:0:0:
366,157,96310,1,0,3:0:0:0:
476,231,96446,22,0,L|486:148,1,70,2|0,1:0|3:0,0:0:0:0:
427,81,96719,2,0,L|437:-2,1,70,0|0,1:0|0:0,0:0:0:0:
326,69,96992,2,0,L|334:138,1,70,0|0,3:0|3:0,0:0:0:0:
267,222,97265,37,0,1:0:0:0:
252,213,97333,1,0,1:0:0:0:
240,200,97401,1,0,1:0:0:0:
232,185,97469,1,0,1:0:0:0:
229,168,97538,38,0,P|178:165|132:126,1,105.000004005432,2|0,3:2|3:0,0:0:0:0:
88,58,97946,1,2,3:2:0:0:
50,147,98083,1,2,1:2:0:0:
79,45,98219,1,0,1:0:0:0:
183,58,98356,1,0,3:0:0:0:
79,261,98628,6,0,L|16:257,2,52.5000020027161,2|0|2,3:0|0:0|0:0,0:0:0:0:
53,348,99037,2,0,L|-10:344,2,52.5000020027161,2|2|0,3:0|0:0|0:0,0:0:0:0:
147,384,99446,1,6,3:0:0:0:
147,384,99719,38,0,P|187:370|209:253,1,157.500006008148,6|0,3:2|1:0,0:0:0:0:
159,203,100265,2,0,L|152:142,1,52.5000020027161,0|0,1:0|3:0,0:0:0:0:
204,81,100538,1,2,1:2:0:0:
204,81,100674,1,0,0:0:0:0:
298,129,100810,2,0,P|328:117|366:110,1,52.5000020027161,2|0,3:2|3:0,0:0:0:0:
401,215,101083,2,0,P|375:208|351:198,1,52.5000020027161,2|0,1:2|3:0,0:0:0:0:
457,96,101356,2,0,L|466:157,1,52.5000020027161,2|0,0:0|3:0,0:0:0:0:
512,237,101628,2,0,L|503:298,1,52.5000020027161,2|0,1:2|0:0,0:0:0:0:
419,355,101901,6,0,B|373:330|373:330|316:350,1,105.000004005432,2|0,3:2|0:0,0:0:0:0:
246,382,102310,1,2,1:2:0:0:
188,290,102446,2,0,L|252:296,1,52.5000020027161,0|0,1:0|3:0,0:0:0:0:
306,238,102719,1,2,1:2:0:0:
306,238,102856,1,2,0:0:0:0:
247,172,102992,2,0,L|194:167,1,52.5000020027161,0|0,3:0|3:0,0:0:0:0:
110,219,103265,1,0,1:0:0:0:
39,169,103401,37,8,3:2:0:0:
26,262,103537,1,8,0:0:0:0:
124,211,103674,1,8,3:2:0:0:
111,118,103810,1,8,1:2:0:0:
109,318,104083,6,0,B|156:314|184:347|184:347|212:378|263:377,1,157.500006008148,6|0,3:2|1:0,0:0:0:0:
325,338,104628,2,0,P|368:329|397:331,1,52.5000020027161,0|0,1:0|3:0,0:0:0:0:
457,364,104901,1,2,1:2:0:0:
457,364,105037,1,0,0:0:0:0:
502,290,105174,2,0,L|508:225,1,52.5000020027161,2|0,3:2|3:0,0:0:0:0:
444,175,105446,2,0,L|438:110,1,52.5000020027161,2|0,1:2|3:0,0:0:0:0:
372,35,105719,2,0,P|356:65|337:84,1,52.5000020027161,2|0,0:0|3:0,0:0:0:0:
254,119,105992,2,0,P|220:120|194:113,1,52.5000020027161,2|0,1:2|0:0,0:0:0:0:
100,42,106265,38,0,L|116:156,1,105.000004005432,2|0,3:2|0:0,0:0:0:0:
50,206,106674,1,2,1:2:0:0:
128,261,106810,2,0,L|120:318,1,52.5000020027161,0|0,1:0|3:0,0:0:0:0:
202,375,107083,1,2,1:2:0:0:
202,375,107356,6,0,L|249:369,5,26.2500010013581,2|0|0|0|2|0,1:2|3:0|3:0|3:0|3:2|3:0,0:0:0:0:
249,356,107765,2,0,L|296:350,5,26.2500010013581,2|0|0|0|0|0,1:2|3:0|3:0|3:0|3:0|3:0,0:0:0:0:
352,338,108174,1,2,1:3:0:0:
512,265,108446,38,0,P|522:222|428:155,1,157.500006008148,6|0,3:2|1:0,0:0:0:0:
362,177,108992,2,0,P|315:174|290:163,1,52.5000020027161,0|0,1:0|3:0,0:0:0:0:
246,113,109265,1,2,1:2:0:0:
246,113,109401,1,0,0:0:0:0:
170,195,109537,2,0,L|184:267,1,52.5000020027161,2|0,3:2|3:0,0:0:0:0:
84,300,109810,2,0,L|94:248,1,52.5000020027161,2|0,1:2|3:0,0:0:0:0:
29,165,110083,2,0,P|16:125|11:90,1,52.5000020027161,2|0,0:0|3:0,0:0:0:0:
105,72,110356,2,0,P|118:32|123:-3,1,52.5000020027161,2|0,1:2|0:0,0:0:0:0:
246,113,110628,6,0,P|200:119|166:173,1,105.000004005432,2|0,3:2|0:0,0:0:0:0:
185,247,111037,1,2,1:2:0:0:
292,190,111174,2,0,L|356:183,1,52.5000020027161,0|0,1:0|3:0,0:0:0:0:
423,234,111446,2,0,L|487:241,1,52.5000020027161,2|2,1:2|0:0,0:0:0:0:
512,140,111719,2,0,L|448:147,1,52.5000020027161,0|0,3:0|3:0,0:0:0:0:
383,118,111992,1,0,1:0:0:0:
359,31,112128,37,8,3:2:0:0:
439,46,112265,1,10,0:0:0:0:
381,129,112401,1,8,3:2:0:0:
301,144,112538,1,10,1:2:0:0:
79,10,112810,6,0,P|134:9|203:17,1,105.000004005432,2|2,3:2|0:0,0:0:0:0:
221,91,113219,1,0,1:0:0:0:
165,156,113356,2,0,L|95:150,1,52.5000020027161,0|0,1:0|3:0,0:0:0:0:
30,234,113628,2,0,L|100:228,1,52.5000020027161,0|0,1:0|0:0,0:0:0:0:
155,273,113901,1,0,3:0:0:0:
155,273,114037,1,0,3:0:0:0:
240,316,114174,2,0,P|227:352|223:378,1,52.5000020027161,0|0,1:0|3:0,0:0:0:0:
333,312,114446,2,0,P|327:286|317:262,1,52.5000020027161,2|0,0:0|3:0,0:0:0:0:
244,210,114719,1,2,1:2:0:0:
391,94,114992,38,0,P|359:126|364:189,1,105.000004005432,2|0,3:2|0:0,0:0:0:0:
435,233,115401,1,2,1:2:0:0:
492,144,115537,2,0,L|485:76,1,52.5000020027161,0|0,1:0|3:0,0:0:0:0:
382,79,115810,2,0,L|389:11,1,52.5000020027161,2|0,1:2|0:0,0:0:0:0:
288,129,116083,5,2,1:2:0:0:
281,131,116151,1,0,1:0:0:0:
274,132,116219,2,0,L|239:130,3,26.2500010013581,0|0|0|0,1:0|1:0|1:0|1:0,0:0:0:0:
189,84,116492,2,0,P|148:67|83:50,1,105,2|0,1:3|0:0,0:0:0:0:
26,112,117037,21,0,0:0:0:0:
26,112,117174,2,0,B|40:142|29:169|29:169|49:191|40:232,1,112,6|0,3:2|0:0,0:0:0:0:
27,304,117583,1,0,0:0:0:0:
27,304,117719,2,0,P|52:270|123:269,1,112,2|0,1:2|0:0,0:0:0:0:
180,346,118128,1,0,3:0:0:0:
180,346,118265,2,0,B|221:341|221:341|236:350|236:350|243:345|243:345|304:337,1,112,2|0,0:0|3:0,0:0:0:0:
383,289,118674,1,2,0:0:0:0:
383,289,118810,2,0,B|370:262|370:262|376:231,1,56,2|0,1:2|0:0,0:0:0:0:
447,191,119083,2,0,B|460:162|460:162|453:129,1,56,2|2,0:0|0:0,0:0:0:0:
394,62,119356,22,0,B|349:56|349:56|347:59|347:59|291:54,1,84,2|0,3:2|0:0,0:0:0:0:
285,46,119628,2,0,B|245:49|245:49|243:47|243:47|193:52,1,84,2|0,0:0|0:0,0:0:0:0:
178,65,119901,2,0,B|163:82|163:82|171:127,1,56,2|0,1:2|0:0,0:0:0:0:
172,209,120174,1,2,0:0:0:0:
172,209,120310,1,2,3:2:0:0:
244,254,120446,2,0,L|235:335,1,56,2|0,0:0|3:0,0:0:0:0:
324,279,120719,2,0,L|315:360,1,56,2|0,3:2|0:0,0:0:0:0:
416,384,120992,2,0,L|407:303,1,56,2|0,1:2|1:0,0:0:0:0:
496,359,121265,2,0,L|487:278,1,56,2|0,1:2|1:0,0:0:0:0:
428,213,121537,22,0,B|407:175|421:137|421:137|454:115,1,112,6|0,3:2|0:0,0:0:0:0:
485,21,121946,1,2,0:0:0:0:
485,21,122083,2,0,B|454:8|454:8|386:51,1,112,2|0,1:2|0:0,0:0:0:0:
302,119,122492,1,2,3:2:0:0:
302,119,122628,2,0,L|184:114,1,112,2|0,0:0|3:0,0:0:0:0:
70,108,123037,1,2,0:0:0:0:
70,108,123174,2,0,P|90:149|93:181,1,56,2|0,1:2|0:0,0:0:0:0:
162,230,123446,2,0,P|142:271|139:303,1,56,2|2,0:0|0:0,0:0:0:0:
111,384,123719,1,2,3:0:0:0:
111,384,124810,6,0,L|106:302,1,70,2|0,3:2|0:0,0:0:0:0:
176,262,125083,2,0,L|181:180,1,70,0|0,1:0|1:0,0:0:0:0:
111,140,125356,2,0,L|106:58,1,70,0|0,1:0|1:0,0:0:0:0:
189,1,125628,1,2,3:0:0:0:
445,77,126174,37,4,1:0:0:0:
303,99,126310,1,2,0:1:0:0:
368,9,126446,2,0,P|407:53|389:170,1,167.999994873047,2|0,3:1|1:0,0:0:0:0:
272,208,126856,1,2,3:1:0:0:
328,290,126992,2,0,L|307:123,1,167.999994873047,2|0,0:1|1:0,0:0:0:0:
210,154,127401,1,2,0:1:0:0:
174,248,127537,37,2,1:0:0:0:
153,246,127605,1,0,1:0:0:0:
132,244,127673,1,2,1:0:0:0:
111,243,127741,1,0,1:0:0:0:
90,241,127809,1,2,3:0:0:0:
90,241,128083,38,0,L|71:115,1,105,2|0,0:1|0:0,0:0:0:0:
84,126,128356,21,4,3:1:0:0:
16,61,128492,1,2,0:1:0:0:
101,29,128628,1,2,1:0:0:0:
170,88,128765,1,2,3:1:0:0:
103,15,128901,1,2,3:1:0:0:
18,47,129037,1,2,1:0:0:0:
179,79,129174,2,0,L|276:70,1,83.9999974365235,2|0,0:1|3:0,0:0:0:0:
329,157,129446,2,0,L|412:164,1,83.9999974365235,2|0,1:0|0:0,0:0:0:0:
496,250,129719,37,2,1:0:0:0:
494,271,129787,1,0,1:0:0:0:
492,292,129855,1,0,1:0:0:0:
491,313,129923,1,0,1:0:0:0:
489,334,129991,1,2,3:0:0:0:
489,334,130265,6,0,P|405:315|309:314,1,167.999994873047,6|0,3:1|1:0,0:0:0:0:
151,325,130674,1,2,0:1:0:0:
188,239,130810,2,0,P|238:303|226:384,1,167.999994873047,2|0,3:1|1:0,0:0:0:0:
63,265,131219,1,2,0:1:0:0:
110,183,131356,2,0,L|290:198,1,167.999994873047,2|0,3:1|1:0,0:0:0:0:
351,92,131765,37,2,3:1:0:0:
365,88,131901,1,2,0:1:0:0:
424,154,132037,1,2,3:1:0:0:
438,158,132173,1,2,1:0:0:0:
512,85,132310,1,2,1:0:0:0:
417,9,132446,6,0,B|338:6|338:6|320:18|320:18|245:14,1,167.999994873047,6|0,3:1|1:0,0:0:0:0:
154,11,132856,1,2,0:1:0:0:
126,108,132992,2,0,L|228:95,1,83.9999974365235,2|0,3:1|3:0,0:0:0:0:
263,188,133265,1,2,1:0:0:0:
224,104,133401,1,2,0:1:0:0:
183,240,133537,38,0,L|172:329,1,83.9999974365235,2|0,1:0|3:0,0:0:0:0:
181,334,133742,1,0,3:0:0:0:
190,345,133810,2,0,L|238:350,1,41.9999987182618,0|0,3:0|3:0,0:0:0:0:
245,364,133946,2,0,L|343:351,1,83.9999974365235,0|0,1:0|3:0,0:0:0:0:
430,365,134219,1,0,3:0:0:0:
428,356,134287,1,0,3:0:0:0:
423,349,134355,2,0,L|429:300,3,41.9999987182618,0|0|2|0,1:0|1:0|1:0|1:0,0:0:0:0:
449,295,134628,6,0,L|424:91,1,167.999994873047,6|0,3:1|1:0,0:0:0:0:
413,29,135037,1,10,0:1:0:0:
340,95,135174,2,0,P|290:90|252:101,1,83.9999974365235,2|8,3:1|3:1,0:0:0:0:
194,179,135446,2,0,P|144:184|106:173,1,83.9999974365235,0|10,1:0|0:1,0:0:0:0:
0,199,135719,2,0,P|29:239|38:278,1,83.9999974365235,2|8,3:1|0:1,0:0:0:0:
115,358,135992,2,0,P|135:312|164:284,1,83.9999974365235,0|10,1:0|3:1,0:0:0:0:
247,272,136265,37,2,0:1:0:0:
271,358,136401,1,10,3:1:0:0:
333,269,136537,1,2,1:0:0:0:
357,356,136673,1,10,1:0:0:0:
406,217,136810,6,0,B|419:87|419:87|455:55,1,167.999994873047,6|0,3:1|1:0,0:0:0:0:
499,130,137219,1,10,0:1:0:0:
334,115,137356,2,0,L|229:103,1,83.9999974365235,2|8,3:1|3:1,0:0:0:0:
181,15,137628,2,0,L|137:111,1,83.9999974365235,2|8,1:0|0:1,0:0:0:0:
38,129,137901,2,0,L|115:200,1,83.9999974365235,2|8,3:1|0:1,0:0:0:0:
102,300,138174,2,0,L|194:247,1,83.9999974365235,2|8,1:0|3:1,0:0:0:0:
262,209,138446,37,2,0:1:0:0:
262,209,138583,1,8,0:1:0:0:
246,314,138719,1,2,1:0:0:0:
246,314,138856,1,8,1:0:0:0:
366,272,138992,6,0,L|337:90,1,167.999994873047,6|0,3:1|1:0,0:0:0:0:
323,21,139401,1,10,0:1:0:0:
423,89,139537,2,0,L|438:186,1,83.9999974365235,2|8,3:1|3:1,0:0:0:0:
504,250,139810,2,0,L|488:347,1,83.9999974365235,0|10,1:0|0:1,0:0:0:0:
371,367,140083,2,0,L|355:269,1,83.9999974365235,2|8,3:1|0:1,0:0:0:0:
290,206,140356,2,0,L|305:108,1,83.9999974365235,0|10,1:0|3:1,0:0:0:0:
227,72,140628,37,2,0:1:0:0:
192,159,140765,1,2,3:1:0:0:
122,79,140901,2,0,L|72:74,3,41.9999987182618,10|0|2|0,1:0|0:0|1:0|1:0,0:0:0:0:
51,83,141174,38,0,L|66:231,1,140,2|0,3:0|0:0,0:0:0:0:
193,384,141719,38,0,L|208:245,1,140,2|2,3:0|0:1,0:0:0:0:
315,111,142265,37,2,1:0:0:0:
328,105,142333,1,0,3:0:0:0:
343,105,142402,2,0,L|391:114,3,35,0|0|0|0,3:0|3:0|3:0|3:0,0:0:0:0:
408,129,142674,2,0,L|417:81,3,35,0|0|0|0,1:0|3:0|3:0|3:0,0:0:0:0:
426,21,142947,2,0,L|378:12,1,35,0|0,3:0|3:0,0:0:0:0:
318,0,143083,1,2,3:0:0:0:
283,370,152083,38,0,B|321:337|321:337|412:351,1,140,6|0,3:1|1:0,0:0:0:0:
470,277,152492,1,2,0:1:0:0:
506,206,152629,2,0,B|500:169|500:169|477:202,1,70,2|0,1:0|3:0,0:0:0:0:
467,287,152901,1,0,1:0:0:0:
348,248,153038,1,2,3:1:0:0:
307,175,153175,2,0,B|318:106|318:106|360:167,1,140,2|0,1:0|1:0,0:0:0:0:
256,309,153583,1,2,0:1:0:0:
169,295,153719,2,0,L|174:205,1,70,2|0,3:1|3:0,0:0:0:0:
80,290,153992,2,0,L|85:200,1,70,2|2,1:0|0:1,0:0:0:0:
73,90,154265,22,0,B|139:60|139:60|197:95,1,140,6|0,3:1|1:0,0:0:0:0:
322,130,154674,1,2,0:1:0:0:
286,208,154810,2,0,P|254:182|235:142,1,70,2|0,1:0|3:0,0:0:0:0:
283,49,155083,1,0,1:0:0:0:
283,49,155219,1,2,3:1:0:0:
392,80,155356,22,0,P|405:124|407:166,1,70,2|0,1:0|3:0,0:0:0:0:
488,210,155629,2,0,P|450:235|410:250,1,70,2|0,1:0|0:0,0:0:0:0:
394,341,155901,2,0,P|357:313|331:280,1,70,2|0,3:1|3:0,0:0:0:0:
240,292,156174,2,0,P|255:248|278:213,1,70,2|0,1:0|0:0,0:0:0:0:
274,374,156447,22,0,P|204:372|152:315,1,140,6|0,3:1|1:0,0:0:0:0:
106,228,156856,1,2,0:1:0:0:
175,183,156992,2,0,P|185:147|191:94,1,70,2|0,1:0|3:0,0:0:0:0:
195,33,157265,1,0,1:0:0:0:
96,8,157402,1,2,3:1:0:0:
27,53,157538,2,0,P|9:117|-1:212,1,140,2|0,1:0|1:0,0:0:0:0:
106,228,157947,1,2,0:1:0:0:
122,307,158083,2,0,L|110:379,1,70,2|0,3:1|3:0,0:0:0:0:
194,384,158356,2,0,L|206:312,1,70,2|2,1:0|0:1,0:0:0:0:
285,150,158629,22,0,P|271:211|303:281,1,140,6|0,3:1|1:0,0:0:0:0:
411,305,159038,1,2,0:1:0:0:
431,226,159174,2,0,P|422:174|403:143,1,70,2|0,1:0|3:0,0:0:0:0:
336,85,159447,1,2,1:0:0:0:
336,85,159583,1,0,3:0:0:0:
394,26,159719,2,0,L|472:20,1,70,2|0,1:0|3:0,0:0:0:0:
235,0,159992,2,0,L|313:6,1,70,0|0,1:0|0:0,0:0:0:0:
202,79,160265,1,0,3:0:0:0:
134,12,160401,1,0,3:0:0:0:
124,6,160469,1,0,3:0:0:0:
112,5,160538,2,0,L|72:8,3,35,0|0|0|0,1:0|1:0|1:0|1:0,0:0:0:0:
23,72,160810,6,0,B|4:100|4:100|10:157,1,80.5000015354157,6|0,3:1|1:0,0:0:0:0:
115,184,161083,2,0,B|134:212|134:212|128:269,1,80.5000015354157,0|2,3:0|1:0,0:0:0:0:
101,361,161356,2,0,L|17:343,1,80.5000015354157,2|0,3:1|1:0,0:0:0:0:
198,331,161629,2,0,L|114:349,1,80.5000015354157,0|2,3:0|1:0,0:0:0:0:
309,276,161901,2,0,L|393:258,1,80.5000015354157,2|0,3:1|1:0,0:0:0:0:
212,246,162174,2,0,L|296:264,1,80.5000015354157,0|2,3:0|1:0,0:0:0:0:
362,176,162447,37,2,3:1:0:0:
362,176,162583,1,0,1:0:0:0:
270,173,162719,1,2,3:1:0:0:
270,173,162855,1,2,1:0:0:0:
446,124,162992,6,0,P|453:155|455:205,1,80.5000015354157,6|0,3:1|1:0,0:0:0:0:
378,11,163265,2,0,P|371:42|369:92,1,80.5000015354157,0|2,3:0|1:0,0:0:0:0:
237,90,163538,2,0,P|174:71|147:81,1,80.5000015354157,2|0,3:1|1:0,0:0:0:0:
136,219,163810,2,0,P|199:238|226:228,1,80.5000015354157,2|2,3:1|1:0,0:0:0:0:
44,136,164083,37,2,3:1:0:0:
50,178,164219,1,0,1:0:0:0:
126,225,164356,1,2,3:1:0:0:
119,267,164492,1,0,1:0:0:0:
209,175,164629,1,2,3:1:0:0:
205,199,164765,1,0,1:0:0:0:
129,275,164901,1,2,3:1:0:0:
133,299,165037,1,0,1:0:0:0:
286,198,165174,6,0,P|322:192|364:211,1,80.5000015354157,6|0,3:1|1:0,0:0:0:0:
396,299,165447,2,0,P|360:305|318:286,1,80.5000015354157,0|2,3:0|1:0,0:0:0:0:
186,116,165719,2,0,L|175:28,1,80.5000015354157,2|0,3:1|1:0,0:0:0:0:
159,280,165992,2,0,L|148:192,1,80.5000015354157,0|2,3:0|1:0,0:0:0:0:
0,194,166265,2,0,L|9:114,1,80.5000015354157,2|0,3:1|1:0,0:0:0:0:
27,358,166537,2,0,L|36:278,1,80.5000015354157,0|2,3:0|1:0,0:0:0:0:
168,288,166810,37,2,3:1:0:0:
168,288,166947,1,0,1:0:0:0:
157,376,167083,1,2,3:1:0:0:
157,376,167219,1,2,1:0:0:0:
283,324,167356,37,2,3:0:0:0:
283,324,167901,37,2,3:0:0:0:
444,347,168447,37,2,0:1:0:0:
459,259,168583,1,0,1:0:0:0:
357,289,168719,1,0,0:0:0:0:
342,201,168855,1,0,1:0:0:0:
444,231,168992,1,0,3:0:0:0:
459,143,169128,1,0,1:0:0:0:
337,76,169265,22,0,L|343:118,3,26.2500010013581,0|0|0|0,1:0|1:0|1:0|1:0,0:0:0:0:
350,119,169538,38,0,L|361:2,1,105.000004005432,2|0,3:2|3:0,0:0:0:0:
242,13,169947,1,2,3:2:0:0:
234,103,170083,1,2,1:2:0:0:
243,0,170219,1,0,1:0:0:0:
149,81,170356,1,0,3:0:0:0:
303,280,170629,6,0,L|363:274,2,52.5000020027161,2|0|2,3:0|0:0|0:0,0:0:0:0:
207,334,171038,2,0,L|147:328,2,52.5000020027161,2|2|0,3:0|0:0|0:0,0:0:0:0:
304,384,171447,2,0,L|426:371,1,105.000004005432,6|0,3:0|0:0,0:0:0:0:
