osu file format v14

[General]
AudioFilename: audio.mp3
AudioLeadIn: 0
PreviewTime: 71219
Countdown: 0
SampleSet: Soft
StackLeniency: 0.7
Mode: 0
LetterboxInBreaks: 0
WidescreenStoryboard: 0

[Editor]
DistanceSpacing: 0.1
BeatDivisor: 4
GridSize: 32
TimelineZoom: 1.8

[Metadata]
Title:Yotsuya-san ni Yoroshiku
TitleUnicode:四ツ谷さんによろしく
Artist:Himeringo
ArtistUnicode:ひめりんご
Creator:Delette
Version:Desolation
Source:
Tags:j-rock jrock japanese utaite leave it to eight hatsune miku vocaloid unranked mapper unrankedmapper wenect wenet halgoh nekroman4ik atix174 miraui milr_ 619 maruoko
BeatmapID:2280822
BeatmapSetID:1085236

[Difficulty]
HPDrainRate:6
CircleSize:4
OverallDifficulty:9
ApproachRate:9.8
SliderMultiplier:1.8
SliderTickRate:1

[Events]
//Background and Video events
0,0,"bg.jpg",0,0
//Break Periods
//Storyboard Layer 0 (Background)
//Storyboard Layer 1 (Fail)
//Storyboard Layer 2 (Pass)
//Storyboard Layer 3 (Foreground)
//Storyboard Layer 4 (Overlay)
//Storyboard Sound Samples

[TimingPoints]
2629,272.727272727273,4,2,1,20,1,0
20083,291.26213592233,4,2,1,20,1,0
21248,288.461538461538,4,2,1,20,1,0
23356,272.727272727273,4,2,1,20,1,0
23356,-227.272727272727,4,2,1,20,0,0
23492,-227.272727272727,4,2,1,25,0,0
23628,-181.818181818182,4,2,1,30,0,0
23764,-181.818181818182,4,2,1,35,0,0
23901,-181.818181818182,4,2,1,40,0,0
24037,-181.818181818182,4,2,1,45,0,0
24174,-181.818181818182,4,2,1,50,0,0
24310,-181.818181818182,4,2,1,55,0,0
24446,-181.818181818182,4,2,2,50,0,0
25537,-133.333333333333,4,2,1,50,0,0
34265,-117.647058823529,4,2,1,90,0,0
34742,-117.647058823529,4,2,1,5,0,0
34810,-117.647058823529,4,2,1,90,0,0
35287,-117.647058823529,4,2,1,5,0,0
35356,-117.647058823529,4,2,1,90,0,0
35833,-117.647058823529,4,2,1,5,0,0
35901,-100,4,2,1,90,0,0
35969,-100,4,2,1,5,0,0
36037,-100,4,2,1,90,0,0
36105,-100,4,2,1,5,0,0
36174,-100,4,2,1,90,0,0
36242,-100,4,2,1,5,0,0
36310,-100,4,2,1,90,0,0
36378,-100,4,2,1,5,0,0
36446,-117.647058823529,4,2,1,90,0,0
36924,-117.647058823529,4,2,1,5,0,0
36992,-117.647058823529,4,2,1,90,0,0
37469,-117.647058823529,4,2,1,5,0,0
37537,-117.647058823529,4,2,1,90,0,0
37741,-117.647058823529,4,2,1,5,0,0
37810,-100,4,2,1,90,0,0
38628,-117.647058823529,4,2,1,90,0,0
39105,-117.647058823529,4,2,1,5,0,0
39174,-117.647058823529,4,2,1,90,0,0
39651,-117.647058823529,4,2,1,5,0,0
39720,-117.647058823529,4,2,1,90,0,0
40196,-117.647058823529,4,2,1,5,0,0
40265,-100,4,2,1,90,0,0
40333,-100,4,2,1,5,0,0
40401,-100,4,2,1,90,0,0
40469,-100,4,2,1,5,0,0
40537,-100,4,2,1,90,0,0
40605,-100,4,2,1,5,0,0
40673,-100,4,2,1,90,0,0
40741,-100,4,2,1,5,0,0
40810,-117.647058823529,4,2,1,90,0,0
41287,-117.647058823529,4,2,1,5,0,0
41356,-117.647058823529,4,2,1,90,0,0
41560,-117.647058823529,4,2,1,5,0,0
41628,-117.647058823529,4,2,1,90,0,0
42105,-117.647058823529,4,2,1,5,0,0
42174,-117.647058823529,4,2,1,90,0,0
42583,-117.647058823529,4,2,1,50,0,0
42651,-117.647058823529,4,2,1,50,0,0
42719,-117.647058823529,4,2,1,70,0,0
42992,-100,4,2,1,90,0,0
43469,-100,4,2,1,5,0,0
43537,-100,4,2,1,90,0,0
44014,-100,4,2,1,5,0,0
44082,-100,4,2,1,90,0,0
44560,-100,4,2,1,5,0,0
44628,-86.9565217391304,4,2,1,90,0,0
44696,-86.9565217391304,4,2,1,5,0,0
44765,-86.9565217391304,4,2,1,90,0,0
44833,-86.9565217391304,4,2,1,5,0,0
44901,-86.9565217391304,4,2,1,90,0,0
44969,-86.9565217391304,4,2,1,5,0,0
45038,-86.9565217391304,4,2,1,90,0,0
45106,-86.9565217391304,4,2,1,5,0,0
45174,-100,4,2,1,90,0,0
45651,-100,4,2,1,5,0,0
45719,-100,4,2,1,90,0,0
46196,-100,4,2,1,5,0,0
46265,-100,4,2,1,90,0,0
46469,-100,4,2,1,5,0,0
46537,-86.9565217391304,4,2,1,90,0,0
47356,-100,4,2,1,90,0,0
47833,-100,4,2,1,5,0,0
47901,-100,4,2,1,90,0,0
48378,-100,4,2,1,5,0,0
48446,-100,4,2,1,90,0,0
48924,-100,4,2,1,5,0,0
48992,-86.9565217391304,4,2,1,90,0,0
49060,-86.9565217391304,4,2,1,5,0,0
49128,-86.9565217391304,4,2,1,90,0,0
49196,-86.9565217391304,4,2,1,5,0,0
49265,-86.9565217391304,4,2,1,90,0,0
49333,-86.9565217391304,4,2,1,5,0,0
49401,-86.9565217391304,4,2,1,90,0,0
49469,-86.9565217391304,4,2,1,5,0,0
49537,-100,4,2,1,90,0,0
50014,-100,4,2,1,5,0,0
50083,-100,4,2,1,90,0,0
50287,-100,4,2,1,5,0,0
50356,-100,4,2,1,90,0,0
50832,-100,4,2,1,5,0,0
50901,-100,4,2,1,90,0,0
51310,-100,4,2,1,50,0,0
51446,-100,4,2,1,70,0,0
51719,-200,4,2,2,50,0,0
53628,-100,4,2,2,50,0,0
53901,-133.333333333333,4,2,1,60,0,0
57583,-133.333333333333,4,2,2,45,0,0
57719,-133.333333333333,4,2,2,50,0,0
57856,-133.333333333333,4,2,2,55,0,0
57992,-133.333333333333,4,2,2,60,0,0
58265,-133.333333333333,4,2,1,60,0,0
61606,-133.333333333333,4,2,1,40,0,0
61946,-133.333333333333,4,2,1,60,0,0
62015,-133.333333333333,4,2,1,40,0,0
62356,-133.333333333333,4,2,2,60,0,0
62628,-133.333333333333,4,2,1,60,0,0
66310,-133.333333333333,4,2,2,45,0,0
66446,-133.333333333333,4,2,2,50,0,0
66583,-133.333333333333,4,2,2,55,0,0
66719,-133.333333333333,4,2,2,60,0,0
66992,-133.333333333333,4,2,1,60,0,0
70674,-133.333333333333,4,2,2,70,0,0
71083,-133.333333333333,4,2,2,35,0,0
71219,-181.818181818182,4,2,1,60,0,0
71287,-181.818181818182,4,2,1,5,0,0
71356,-66.6666666666667,4,2,1,90,0,1
71560,-76.9230769230769,4,2,1,5,0,1
71628,-76.9230769230769,4,2,1,90,0,1
71833,-76.9230769230769,4,2,1,5,0,1
71901,-66.6666666666667,4,2,1,90,0,1
72105,-76.9230769230769,4,2,1,5,0,1
72174,-76.9230769230769,4,2,1,90,0,1
72378,-76.9230769230769,4,2,1,5,0,1
72446,-66.6666666666667,4,2,1,90,0,1
72650,-76.9230769230769,4,2,1,5,0,1
72719,-76.9230769230769,4,2,1,90,0,1
72924,-76.9230769230769,4,2,1,5,0,1
72992,-76.9230769230769,4,2,1,90,0,1
73060,-76.9230769230769,4,2,1,5,0,1
73128,-76.9230769230769,4,2,1,90,0,1
73196,-76.9230769230769,4,2,1,5,0,1
73265,-76.9230769230769,4,2,1,90,0,1
73333,-76.9230769230769,4,2,1,5,0,1
73401,-76.9230769230769,4,2,1,90,0,1
73537,-86.9565217391304,4,2,1,90,0,1
74014,-86.9565217391304,4,2,1,5,0,1
74083,-86.9565217391304,4,2,1,90,0,1
74151,-86.9565217391304,4,2,1,5,0,1
74219,-86.9565217391304,4,2,1,90,0,1
74287,-86.9565217391304,4,2,1,5,0,1
74356,-86.9565217391304,4,2,1,90,0,1
74424,-86.9565217391304,4,2,1,5,0,1
74492,-86.9565217391304,4,2,1,90,0,1
74832,-86.9565217391304,4,2,1,5,0,1
74901,-86.9565217391304,4,2,1,90,0,1
76196,-86.9565217391304,4,2,1,5,0,1
76265,-86.9565217391304,4,2,1,90,0,1
76742,-86.9565217391304,4,2,1,5,0,1
76810,-86.9565217391304,4,2,1,90,0,1
77287,-86.9565217391304,4,2,1,5,0,1
77356,-86.9565217391304,4,2,1,90,0,1
77424,-86.9565217391304,4,2,1,5,0,1
77492,-86.9565217391304,4,2,1,90,0,1
77560,-86.9565217391304,4,2,1,5,0,1
77628,-86.9565217391304,4,2,1,90,0,1
77696,-86.9565217391304,4,2,1,5,0,1
77765,-86.9565217391304,4,2,1,90,0,1
78378,-86.9565217391304,4,2,1,5,0,1
78446,-86.9565217391304,4,2,1,90,0,1
78650,-86.9565217391304,4,2,1,5,0,1
78719,-86.9565217391304,4,2,1,90,0,1
79060,-86.9565217391304,4,2,1,70,0,1
79401,-86.9565217391304,4,2,1,90,0,1
79469,-86.9565217391304,4,2,1,70,0,1
79810,-86.9565217391304,4,2,1,90,0,1
80083,-66.6666666666667,4,2,1,90,0,1
80287,-76.9230769230769,4,2,1,5,0,1
80356,-76.9230769230769,4,2,1,90,0,1
80560,-76.9230769230769,4,2,1,5,0,1
80628,-66.6666666666667,4,2,1,90,0,1
80832,-76.9230769230769,4,2,1,5,0,1
80901,-76.9230769230769,4,2,1,90,0,1
81105,-76.9230769230769,4,2,1,5,0,1
81174,-66.6666666666667,4,2,1,90,0,1
81378,-76.9230769230769,4,2,1,5,0,1
81447,-76.9230769230769,4,2,1,90,0,1
81651,-76.9230769230769,4,2,1,5,0,1
81719,-76.9230769230769,4,2,1,90,0,1
81787,-76.9230769230769,4,2,1,5,0,1
81856,-76.9230769230769,4,2,1,90,0,1
81924,-76.9230769230769,4,2,1,5,0,1
81992,-76.9230769230769,4,2,1,90,0,1
82060,-76.9230769230769,4,2,1,5,0,1
82128,-76.9230769230769,4,2,1,90,0,1
82265,-86.9565217391304,4,2,1,90,0,1
82742,-86.9565217391304,4,2,1,5,0,1
82810,-86.9565217391304,4,2,1,90,0,1
82878,-86.9565217391304,4,2,1,5,0,1
82946,-86.9565217391304,4,2,1,90,0,1
83151,-86.9565217391304,4,2,1,5,0,1
83219,-86.9565217391304,4,2,1,90,0,1
83560,-86.9565217391304,4,2,1,5,0,1
83628,-86.9565217391304,4,2,1,90,0,1
84242,-86.9565217391304,4,2,1,90,0,1
84310,-86.9565217391304,4,2,1,90,0,1
84924,-86.9565217391304,4,2,1,5,0,1
84992,-86.9565217391304,4,2,1,90,0,1
85469,-86.9565217391304,4,2,1,5,0,1
85537,-86.9565217391304,4,2,1,90,0,1
86014,-86.9565217391304,4,2,1,5,0,1
86083,-86.9565217391304,4,2,1,90,0,1
86151,-86.9565217391304,4,2,1,5,0,1
86219,-86.9565217391304,4,2,1,90,0,1
86287,-86.9565217391304,4,2,1,5,0,1
86356,-86.9565217391304,4,2,1,90,0,1
86424,-86.9565217391304,4,2,1,5,0,1
86492,-86.9565217391304,4,2,1,90,0,1
86628,-100,4,2,2,60,0,0
86900,-100,4,2,2,60,0,0
87037,-100,4,2,2,60,0,0
87719,-100,4,2,1,70,0,1
87787,-100,4,2,1,50,0,1
88128,-100,4,2,1,70,0,1
88196,-100,4,2,1,50,0,1
88537,-100,4,2,2,70,0,0
88810,-100,4,2,1,90,0,0
89287,-100,4,2,1,5,0,0
89356,-100,4,2,1,90,0,0
89833,-100,4,2,1,5,0,0
89902,-100,4,2,1,90,0,0
90378,-100,4,2,1,5,0,0
90446,-100,4,2,1,90,0,0
90514,-100,4,2,1,5,0,0
90583,-100,4,2,1,90,0,0
90651,-100,4,2,1,5,0,0
90719,-100,4,2,1,90,0,0
90787,-100,4,2,1,5,0,0
90856,-100,4,2,1,90,0,0
90924,-100,4,2,1,5,0,0
90992,-100,4,2,1,90,0,0
91469,-100,4,2,1,5,0,0
91537,-100,4,2,1,90,0,0
92014,-100,4,2,1,5,0,0
92083,-100,4,2,1,90,0,0
92287,-100,4,2,1,5,0,0
92356,-100,4,2,1,90,0,0
93651,-100,4,2,1,5,0,0
93719,-100,4,2,1,90,0,0
94196,-100,4,2,1,5,0,0
94264,-100,4,2,1,90,0,0
94742,-100,4,2,1,5,0,0
94810,-100,4,2,1,90,0,0
94878,-100,4,2,1,5,0,0
94946,-100,4,2,1,90,0,0
95014,-100,4,2,1,5,0,0
95083,-100,4,2,1,90,0,0
95151,-100,4,2,1,5,0,0
95219,-100,4,2,1,90,0,0
95287,-100,4,2,1,5,0,0
95356,-100,4,2,1,90,0,0
95833,-100,4,2,1,5,0,0
95901,-100,4,2,1,90,0,0
96105,-100,4,2,1,5,0,0
96174,-100,4,2,1,90,0,0
96650,-100,4,2,1,5,0,0
96719,-100,4,2,1,90,0,0
97128,-100,4,2,1,50,0,0
97196,-100,4,2,1,50,0,0
97265,-100,4,2,1,70,0,0
97538,-100,4,2,2,50,0,0
98628,-200,4,2,2,50,0,0
99719,-133.333333333333,4,2,1,60,0,0
103401,-133.333333333333,4,2,2,45,0,0
103537,-133.333333333333,4,2,2,50,0,0
103674,-133.333333333333,4,2,2,55,0,0
103810,-133.333333333333,4,2,2,60,0,0
104083,-133.333333333333,4,2,1,60,0,0
107424,-133.333333333333,4,2,1,40,0,0
107765,-133.333333333333,4,2,1,60,0,0
107833,-133.333333333333,4,2,1,40,0,0
108174,-133.333333333333,4,2,2,60,0,0
108446,-133.333333333333,4,2,1,60,0,0
112128,-133.333333333333,4,2,2,45,0,0
112265,-133.333333333333,4,2,2,50,0,0
112401,-133.333333333333,4,2,2,55,0,0
112537,-133.333333333333,4,2,2,60,0,0
112810,-133.333333333333,4,2,1,60,0,0
116083,-133.333333333333,4,2,1,70,0,0
116492,-133.333333333333,4,2,2,70,0,0
116901,-133.333333333333,4,2,2,70,0,0
117037,-151.515151515152,4,2,2,70,0,0
117105,-151.515151515152,4,2,2,5,0,0
117174,-113.636363636364,4,2,3,70,0,0
117310,-113.636363636364,4,2,2,70,0,0
117446,-113.636363636364,4,2,3,70,0,0
117583,-151.515151515152,4,2,3,70,0,0
117651,-151.515151515152,4,2,3,5,0,0
117719,-101.010101010101,4,2,2,70,0,0
117991,-101.010101010101,4,2,2,70,0,0
118128,-101.010101010101,4,2,2,70,0,0
118196,-101.010101010101,4,2,2,5,0,0
118265,-90.0900900900901,4,2,2,70,0,0
119356,-113.636363636364,4,2,2,70,0,0
119560,-113.636363636364,4,2,2,5,0,0
119628,-101.010101010101,4,2,2,70,0,0
119901,-90.0900900900901,4,2,2,70,0,0
120650,-90.0900900900901,4,2,2,5,0,0
120719,-90.0900900900901,4,2,2,70,0,0
121333,-90.0900900900901,4,2,2,70,0,0
121401,-90.0900900900901,4,2,2,70,0,0
121537,-113.636363636364,4,2,2,70,0,0
121946,-151.515151515152,4,2,2,70,0,0
122014,-151.515151515152,4,2,2,5,0,0
122083,-101.010101010101,4,2,2,70,0,0
122492,-101.010101010101,4,2,2,70,0,0
122560,-101.010101010101,4,2,2,5,0,0
122628,-101.010101010101,4,2,2,70,0,0
123310,-101.010101010101,4,2,2,70,0,0
123446,-101.010101010101,4,2,2,70,0,0
123719,-101.010101010101,4,2,2,50,0,0
124810,-101.010101010101,4,2,1,50,0,0
124946,-101.010101010101,4,2,1,55,0,0
125083,-101.010101010101,4,2,1,65,0,0
125219,-101.010101010101,4,2,1,70,0,0
125424,-101.010101010101,4,2,1,70,0,0
125492,-101.010101010101,4,2,1,70,0,0
125765,-181.818181818182,4,2,1,60,0,0
126105,-181.818181818182,4,2,1,5,0,0
126174,-76.9230769230769,4,2,3,90,0,1
126242,-76.9230769230769,4,2,3,5,0,1
126310,-76.9230769230769,4,2,1,90,0,1
126378,-76.9230769230769,4,2,1,5,0,1
126446,-76.9230769230769,4,2,1,90,0,1
126924,-76.9230769230769,4,2,1,5,0,1
126992,-76.9230769230769,4,2,1,90,0,1
127810,-200,4,2,2,90,0,0
128083,-200,4,2,3,90,0,0
128287,-200,4,2,3,5,0,0
128356,-76.9230769230769,4,2,2,90,0,1
128424,-76.9230769230769,4,2,2,5,0,1
128492,-76.9230769230769,4,2,1,90,0,1
128560,-76.9230769230769,4,2,1,5,0,1
128628,-76.9230769230769,4,2,1,90,0,1
128696,-76.9230769230769,4,2,1,5,0,1
128765,-76.9230769230769,4,2,1,90,0,1
128833,-76.9230769230769,4,2,1,5,0,1
128901,-76.9230769230769,4,2,1,90,0,1
128969,-76.9230769230769,4,2,1,5,0,1
129037,-76.9230769230769,4,2,1,90,0,1
129378,-76.9230769230769,4,2,1,5,0,1
129446,-76.9230769230769,4,2,1,90,0,1
129992,-200,4,2,1,90,0,0
130196,-200,4,2,1,5,0,0
130265,-76.9230769230769,4,2,1,90,0,1
130674,-76.9230769230769,4,2,1,90,0,1
130742,-76.9230769230769,4,2,1,5,0,1
130810,-76.9230769230769,4,2,1,90,0,1
131287,-76.9230769230769,4,2,1,5,0,1
131355,-76.9230769230769,4,2,1,90,0,1
131559,-76.9230769230769,4,2,1,5,0,1
131628,-76.9230769230769,4,2,1,90,0,1
131969,-76.9230769230769,4,2,1,5,0,1
132037,-76.9230769230769,4,2,1,90,0,1
132105,-76.9230769230769,4,2,1,5,0,1
132174,-76.9230769230769,4,2,1,90,0,1
132242,-76.9230769230769,4,2,1,5,0,1
132310,-76.9230769230769,4,2,1,90,0,1
132446,-76.9230769230769,4,2,1,90,0,1
132924,-76.9230769230769,4,2,1,5,0,1
132992,-76.9230769230769,4,2,1,90,0,1
133196,-76.9230769230769,4,2,1,5,0,1
133265,-76.9230769230769,4,2,1,90,0,1
133606,-76.9230769230769,4,2,1,70,0,1
133946,-76.9230769230769,4,2,1,90,0,1
134015,-76.9230769230769,4,2,1,70,0,1
134356,-76.9230769230769,4,2,1,90,0,1
134628,-74.0740740740741,4,2,4,90,0,1
134765,-74.0740740740741,4,2,1,90,0,1
134832,-74.0740740740741,4,2,1,5,0,1
134901,-74.0740740740741,4,2,1,90,0,1
136196,-74.0740740740741,4,2,1,5,0,1
136265,-74.0740740740741,4,2,1,90,0,1
136333,-74.0740740740741,4,2,1,5,0,1
136401,-74.0740740740741,4,2,1,90,0,1
136469,-74.0740740740741,4,2,1,5,0,1
136537,-74.0740740740741,4,2,1,90,0,1
136605,-74.0740740740741,4,2,1,5,0,1
136674,-74.0740740740741,4,2,1,90,0,1
136810,-74.0740740740741,4,2,1,90,0,1
137014,-74.0740740740741,4,2,1,5,0,1
137083,-74.0740740740741,4,2,1,90,0,1
137287,-74.0740740740741,4,2,1,5,0,1
137356,-74.0740740740741,4,2,1,90,0,1
137424,-74.0740740740741,4,2,1,5,0,1
137492,-74.0740740740741,4,2,1,90,0,1
137696,-74.0740740740741,4,2,1,5,0,1
137764,-74.0740740740741,4,2,1,90,0,1
138787,-74.0740740740741,4,2,1,90,0,1
138856,-74.0740740740741,4,2,1,90,0,1
139196,-74.0740740740741,4,2,1,5,0,1
139265,-74.0740740740741,4,2,1,90,0,1
140560,-74.0740740740741,4,2,1,5,0,1
140628,-74.0740740740741,4,2,1,90,0,1
140696,-74.0740740740741,4,2,1,5,0,1
140765,-74.0740740740741,4,2,1,90,0,1
140833,-74.0740740740741,4,2,1,5,0,1
140901,-74.0740740740741,4,2,1,90,0,1
140969,-74.0740740740741,4,2,1,5,0,1
141038,-74.0740740740741,4,2,1,90,0,1
141174,-100,4,2,1,60,0,0
142265,-100,4,2,1,70,0,1
142333,-100,4,2,1,50,0,1
142674,-100,4,2,1,70,0,1
142742,-100,4,2,1,50,0,1
143083,-100,4,2,2,70,0,1
143356,-111.111111111111,4,2,1,50,0,0
143560,-111.111111111111,4,2,1,50,0,0
143628,-111.111111111111,4,2,1,50,0,0
143969,-111.111111111111,4,2,1,5,0,0
144037,-111.111111111111,4,2,1,50,0,0
144241,-111.111111111111,4,2,1,5,0,0
144310,-111.111111111111,4,2,1,50,0,0
144514,-111.111111111111,4,2,1,5,0,0
144583,-111.111111111111,4,2,1,50,0,0
144651,-111.111111111111,4,2,1,5,0,0
144719,-111.111111111111,4,2,1,50,0,0
145741,-111.111111111111,4,2,1,50,0,0
145810,-111.111111111111,4,2,1,50,0,0
146151,-111.111111111111,4,2,1,5,0,0
146219,-111.111111111111,4,2,1,50,0,0
146423,-111.111111111111,4,2,1,5,0,0
146492,-111.111111111111,4,2,1,50,0,0
146696,-111.111111111111,4,2,1,5,0,0
146765,-111.111111111111,4,2,1,50,0,0
146833,-111.111111111111,4,2,1,5,0,0
146901,-111.111111111111,4,2,1,50,0,0
147105,-111.111111111111,4,2,1,5,0,0
147174,-111.111111111111,4,2,1,50,0,0
147923,-111.111111111111,4,2,1,50,0,0
147992,-111.111111111111,4,2,1,50,0,0
148060,-111.111111111111,4,2,1,5,0,0
148128,-111.111111111111,4,2,1,50,0,0
148196,-111.111111111111,4,2,1,5,0,0
148265,-111.111111111111,4,2,1,50,0,0
148605,-111.111111111111,4,2,1,5,0,0
148674,-90.9090909090909,4,2,1,50,0,0
148878,-90.9090909090909,4,2,1,5,0,0
148946,-76.9230769230769,4,2,1,50,0,0
149150,-76.9230769230769,4,2,1,5,0,0
149219,-111.111111111111,4,2,1,50,0,0
149423,-111.111111111111,4,2,1,5,0,0
149492,-111.111111111111,4,2,1,50,0,0
149696,-111.111111111111,4,2,1,5,0,0
149765,-111.111111111111,4,2,1,50,0,0
149833,-111.111111111111,4,2,1,5,0,0
149901,-111.111111111111,4,2,1,50,0,0
150105,-111.111111111111,4,2,1,50,0,0
150174,-111.111111111111,4,2,1,50,0,0
150514,-111.111111111111,4,2,1,5,0,0
150583,-111.111111111111,4,2,1,50,0,0
150651,-111.111111111111,4,2,1,5,0,0
150719,-111.111111111111,4,2,1,50,0,0
150856,-111.111111111111,4,2,1,50,0,0
151060,-111.111111111111,4,2,1,5,0,0
151128,-111.111111111111,4,2,1,50,0,0
151537,-111.111111111111,4,2,3,50,0,0
152083,-90.9090909090909,4,2,1,90,0,0
152559,-90.9090909090909,4,2,1,5,0,0
152628,-90.9090909090909,4,2,1,90,0,0
153105,-90.9090909090909,4,2,1,5,0,0
153174,-90.9090909090909,4,2,1,90,0,0
153650,-90.9090909090909,4,2,1,5,0,0
153718,-90.9090909090909,4,2,1,90,0,0
153786,-90.9090909090909,4,2,1,5,0,0
153856,-90.9090909090909,4,2,1,90,0,0
153924,-90.9090909090909,4,2,1,5,0,0
153991,-90.9090909090909,4,2,1,90,0,0
154059,-90.9090909090909,4,2,1,5,0,0
154128,-90.9090909090909,4,2,1,90,0,0
154196,-90.9090909090909,4,2,1,5,0,0
154264,-90.9090909090909,4,2,1,90,0,0
154741,-90.9090909090909,4,2,1,5,0,0
154810,-90.9090909090909,4,2,1,90,0,0
155286,-90.9090909090909,4,2,1,5,0,0
155355,-90.9090909090909,4,2,1,90,0,0
155559,-90.9090909090909,4,2,1,5,0,0
155628,-90.9090909090909,4,2,1,90,0,0
156446,-90.9090909090909,4,2,1,90,0,0
156923,-90.9090909090909,4,2,1,5,0,0
156991,-90.9090909090909,4,2,1,90,0,0
157468,-90.9090909090909,4,2,1,5,0,0
157537,-90.9090909090909,4,2,1,90,0,0
158014,-90.9090909090909,4,2,1,5,0,0
158082,-90.9090909090909,4,2,1,90,0,0
158150,-90.9090909090909,4,2,1,5,0,0
158218,-90.9090909090909,4,2,1,90,0,0
158286,-90.9090909090909,4,2,1,5,0,0
158355,-90.9090909090909,4,2,1,90,0,0
158423,-90.9090909090909,4,2,1,5,0,0
158491,-90.9090909090909,4,2,1,90,0,0
158559,-90.9090909090909,4,2,1,5,0,0
158628,-90.9090909090909,4,2,1,90,0,0
159105,-90.9090909090909,4,2,1,5,0,0
159173,-90.9090909090909,4,2,1,90,0,0
159377,-90.9090909090909,4,2,1,5,0,0
159446,-90.9090909090909,4,2,1,90,0,0
159923,-90.9090909090909,4,2,1,5,0,0
159991,-90.9090909090909,4,2,1,90,0,0
160400,-90.9090909090909,4,2,1,50,0,0
160537,-90.9090909090909,4,2,1,70,0,0
160810,-83.3333333333333,4,2,1,90,0,1
161286,-83.3333333333333,4,2,1,5,0,1
161355,-83.3333333333333,4,2,1,90,0,1
161832,-83.3333333333333,4,2,1,5,0,1
161900,-83.3333333333333,4,2,1,90,0,1
162377,-83.3333333333333,4,2,1,5,0,1
162446,-83.3333333333333,4,2,1,90,0,1
162514,-83.3333333333333,4,2,1,5,0,1
162582,-83.3333333333333,4,2,1,90,0,1
162650,-83.3333333333333,4,2,1,5,0,1
162718,-83.3333333333333,4,2,1,90,0,1
162786,-83.3333333333333,4,2,1,5,0,1
162856,-83.3333333333333,4,2,1,90,0,1
162924,-83.3333333333333,4,2,1,5,0,1
162991,-83.3333333333333,4,2,1,90,0,1
163468,-83.3333333333333,4,2,1,5,0,1
163537,-83.3333333333333,4,2,1,90,0,1
165650,-83.3333333333333,4,2,1,5,0,1
165718,-83.3333333333333,4,2,1,90,0,1
166196,-83.3333333333333,4,2,1,5,0,1
166264,-83.3333333333333,4,2,1,90,0,1
166741,-83.3333333333333,4,2,1,5,0,1
166809,-83.3333333333333,4,2,1,90,0,1
166877,-83.3333333333333,4,2,1,5,0,1
166946,-83.3333333333333,4,2,1,90,0,1
167014,-83.3333333333333,4,2,1,5,0,1
167082,-83.3333333333333,4,2,1,90,0,1
167150,-83.3333333333333,4,2,1,5,0,1
167218,-83.3333333333333,4,2,1,90,0,1
167286,-83.3333333333333,4,2,1,5,0,1
167356,-100,4,2,2,50,0,0
168446,-100,4,2,1,90,0,1
168718,-100,4,2,1,90,0,1
168856,-100,4,2,1,90,0,1
169128,-100,4,2,1,50,0,1
169265,-151.515151515152,4,2,1,70,0,0
169536,-151.515151515152,4,2,2,50,0,0
169538,-151.515151515152,4,2,2,50,0,0
170629,-151.515151515152,4,2,2,50,0,0
171446,-303.030303030303,4,2,2,50,0,0
171719,-303.030303030303,4,2,2,50,0,0

[Colours]
Combo1 : 255,9,9
Combo2 : 214,214,214
Combo3 : 65,65,65
Combo4 : 255,128,128

[HitObjects]
504,12,23356,6,0,L|501:67,1,39.6000012084961,0|0,3:0|3:0,0:0:0:0:
424,3,23628,2,0,L|421:58,1,49.5000015106202,0|0,3:0|3:0,0:0:0:0:
372,120,23901,1,0,1:0:0:0:
338,52,24037,1,0,1:0:0:0:
369,130,24174,1,0,1:0:0:0:
286,142,24310,1,0,1:0:0:0:
377,135,24446,5,4,3:0:0:0:
364,209,24583,1,0,0:0:0:0:
364,209,24651,1,0,0:0:0:0:
364,209,24719,1,2,0:0:0:0:
422,258,24856,1,2,0:0:0:0:
292,235,24992,1,0,3:0:0:0:
278,310,25128,1,0,0:0:0:0:
279,322,25196,1,0,0:0:0:0:
285,331,25265,1,0,1:0:0:0:
102,363,25537,38,0,P|155:341|169:296,1,101.250003862381,10|8,3:2|0:0,0:0:0:0:
169,302,25810,1,0,0:0:0:0:
94,241,25946,2,0,P|83:190|85:159,1,67.5000025749208,10|2,0:0|0:0,0:0:0:0:
5,191,26219,2,0,P|54:206|80:224,1,67.5000025749208,10|0,0:0|0:0,0:0:0:0:
92,138,26492,2,0,P|53:173|25:186,1,67.5000025749208,10|0,0:0|0:0,0:0:0:0:
182,104,26765,2,0,P|143:68|115:55,1,67.5000025749208,10|2,0:0|0:0,0:0:0:0:
272,138,27037,2,0,P|233:173|205:186,1,67.5000025749208,8|2,0:0|0:0,0:0:0:0:
362,104,27310,2,0,P|323:68|295:55,1,67.5000025749208,8|2,0:0|0:0,0:0:0:0:
233,36,27583,1,0,3:0:0:0:
386,185,27719,6,0,P|432:153|446:90,1,101.250003862381,10|8,3:2|0:0,0:0:0:0:
446,112,27992,1,0,0:0:0:0:
504,179,28128,2,0,P|497:213|491:254,1,67.5000025749208,10|2,0:0|0:0,0:0:0:0:
504,336,28401,2,0,P|469:339|428:346,1,67.5000025749208,10|0,0:0|0:0,0:0:0:0:
354,384,28674,2,0,P|339:352|320:315,1,67.5000025749208,10|0,0:0|0:0,0:0:0:0:
193,255,28946,2,0,P|157:267|136:304,1,67.5000025749208,10|2,0:0|0:0,0:0:0:0:
191,357,29219,2,0,P|227:345|248:308,1,67.5000025749208,10|2,0:0|0:0,0:0:0:0:
269,245,29492,37,2,3:0:0:0:
272,236,29560,1,2,0:3:0:0:
278,244,29628,1,2,0:3:0:0:
209,183,29765,1,2,3:0:0:0:
314,160,29901,6,0,P|341:159|398:210,1,101.250003862381,10|8,3:2|0:0,0:0:0:0:
395,203,30174,1,0,0:0:0:0:
490,99,30310,2,0,P|434:94|400:99,1,67.5000025749208,10|2,0:0|0:0,0:0:0:0:
342,8,30582,2,0,P|375:8|409:3,1,67.5000025749208,10|0,0:0|0:0,0:0:0:0:
315,89,30856,2,0,P|277:66|258:37,1,67.5000025749208,10|0,0:0|0:0,0:0:0:0:
160,31,31128,2,0,P|181:67|192:99,1,67.5000025749208,10|2,0:0|0:0,0:0:0:0:
238,175,31401,2,0,P|194:185|160:178,1,67.5000025749208,8|2,0:0|0:0,0:0:0:0:
87,243,31674,2,0,P|127:253|157:268,1,67.5000025749208,8|2,0:0|0:0,0:0:0:0:
187,349,31946,1,0,3:0:0:0:
335,291,32083,38,0,P|272:263|235:292,1,101.250003862381,10|8,3:2|0:0,0:0:0:0:
248,275,32356,1,0,0:0:0:0:
183,361,32492,2,0,L|111:352,1,67.5000025749208,10|2,0:0|0:0,0:0:0:0:
16,263,32765,2,0,L|88:254,1,67.5000025749208,10|0,0:0|0:0,0:0:0:0:
193,120,33037,2,0,L|187:194,1,67.5000025749208,10|0,0:0|0:0,0:0:0:0:
38,170,33310,2,0,L|32:102,1,67.5000025749208,10|2,0:0|0:0,0:0:0:0:
117,62,33583,1,10,0:0:0:0:
106,242,33719,1,10,0:0:0:0:
257,348,34265,22,0,B|320:335|320:335|354:354|354:354|416:344,1,153.000002918243,6|0,3:1|1:0,0:0:0:0:
417,221,34674,2,0,P|388:199|378:181,1,38.2500007295609,2|0,0:1|0:0,0:0:0:0:
354,120,34810,2,0,L|371:277,1,153.000002918243,2|0,1:0|1:0,0:0:0:0:
199,162,35219,2,0,P|228:140|238:122,1,38.2500007295609,2|0,3:1|0:0,0:0:0:0:
262,61,35356,2,0,L|245:218,1,153.000002918243,2|0,1:0|1:0,0:0:0:0:
197,287,35765,2,0,L|140:271,1,38.2500007295609,2|0,0:1|0:0,0:0:0:0:
87,319,35901,22,0,L|30:335,1,45,2|0,3:1|0:0,0:0:0:0:
83,329,36037,2,0,L|26:345,1,45,0|0,3:0|0:0,0:0:0:0:
59,230,36174,2,0,L|2:214,1,45,2|0,1:0|0:0,0:0:0:0:
55,220,36310,2,0,L|-2:204,1,45,2|0,0:1|0:0,0:0:0:0:
141,58,36446,22,0,B|178:95|178:95|148:217,1,153.000002918243,6|0,3:1|1:0,0:0:0:0:
303,161,36856,2,0,P|314:152|308:166,1,38.2500007295609,2|0,0:1|0:0,0:0:0:0:
401,189,36992,2,0,P|351:160|341:64,1,153.000002918243,2|0,1:0|1:0,0:0:0:0:
501,107,37401,2,0,L|494:159,1,38.2500007295609,2|0,3:1|0:0,0:0:0:0:
496,145,37537,2,0,P|518:190|488:253,1,114.750002188683,2|0,1:0|0:0,0:0:0:0:
495,261,37810,22,0,B|451:267|451:267|449:271|449:271|405:277,1,90,2|0,1:0|0:0,0:0:0:0:
288,360,38083,2,0,B|304:318|304:318|302:315|302:315|318:273,1,90,2|0,3:1|3:0,0:0:0:0:
305,131,38356,2,0,B|332:165|332:165|336:165|336:165|364:200,1,90,2|0,1:0|0:0,0:0:0:0:
220,316,38628,22,0,B|104:303|104:303|69:330,1,153.000002918243,6|0,3:1|1:0,0:0:0:0:
76,161,39037,2,0,L|66:116,1,38.2500007295609,2|0,0:1|0:0,0:0:0:0:
126,44,39174,2,0,L|84:199,1,153.000002918243,2|0,1:0|1:0,0:0:0:0:
235,102,39583,2,0,L|263:65,1,38.2500007295609,2|0,3:1|0:0,0:0:0:0:
356,65,39720,2,0,L|210:132,1,153.000002918243,2|0,1:0|1:0,0:0:0:0:
203,230,40128,2,0,P|237:220|261:222,1,38.2500007295609,2|0,0:1|0:0,0:0:0:0:
340,248,40265,22,0,L|330:298,1,45,2|0,3:1|0:0,0:0:0:0:
350,263,40401,2,0,L|340:313,1,45,0|0,3:0|0:0,0:0:0:0:
428,323,40537,2,0,L|438:373,1,45,2|0,1:0|0:0,0:0:0:0:
418,338,40673,2,0,L|428:388,1,45,2|0,0:1|0:0,0:0:0:0:
254,375,40810,22,0,B|179:346|179:346|110:386,1,153.000002918243,6|0,3:1|1:0,0:0:0:0:
25,319,41219,2,0,L|30:266,1,38.2500007295609,2|0,0:1|0:0,0:0:0:0:
78,225,41356,2,0,L|66:108,1,114.750002188683,2|0,1:0|0:0,0:0:0:0:
66,110,41628,1,2,1:0:0:0:
159,155,41765,1,0,3:0:0:0:
249,18,41901,22,0,L|235:148,1,114.750002188683,2|0,1:0|0:0,0:0:0:0:
236,132,42174,2,0,P|289:100|316:98,1,76.5000014591217,0|0,1:0|0:0,0:0:0:0:
399,156,42446,1,0,3:0:0:0:
307,215,42583,2,0,L|305:262,1,38.2500007295609,0|0,3:0|3:0,0:0:0:0:
298,363,42719,1,0,1:0:0:0:
309,359,42787,1,0,1:0:0:0:
313,370,42856,1,0,1:0:0:0:
302,374,42924,1,0,1:0:0:0:
305,366,42992,22,0,B|236:354|236:354|230:361|230:361|119:342,1,180,6|0,3:1|1:0,0:0:0:0:
48,154,43401,2,0,L|58:205,1,45,2|0,0:1|0:0,0:0:0:0:
21,329,43537,2,0,L|44:149,1,180,2|0,1:0|1:0,0:0:0:0:
130,269,43946,2,0,L|120:218,1,45,2|0,3:1|0:0,0:0:0:0:
159,95,44083,2,0,L|131:304,1,180,2|0,1:0|1:0,0:0:0:0:
245,129,44492,2,0,L|289:135,1,45,2|0,0:1|0:0,0:0:0:0:
345,205,44628,22,0,L|395:196,1,51.7500009870529,2|0,3:1|0:0,0:0:0:0:
409,207,44765,2,0,L|460:198,1,51.7500009870529,0|0,3:0|0:0,0:0:0:0:
467,61,44901,2,0,L|474:112,1,51.7500009870529,2|0,1:0|0:0,0:0:0:0:
465,125,45038,2,0,L|472:176,1,51.7500009870529,2|0,0:1|0:0,0:0:0:0:
475,345,45174,22,0,B|466:311|466:311|389:276|322:345,1,180,6|0,3:1|1:0,0:0:0:0:
180,299,45583,2,0,P|174:282|187:294,1,45,2|0,0:1|0:0,0:0:0:0:
111,348,45719,2,0,P|89:297|162:203,1,180,2|0,1:0|1:0,0:0:0:0:
323,171,46128,2,0,L|315:113,1,45,2|0,3:1|0:0,0:0:0:0:
317,127,46265,2,0,B|332:61|332:61|295:1,1,135,2|0,1:0|0:0,0:0:0:0:
276,11,46537,22,0,B|234:18|234:18|221:28|221:28|204:22|204:22|159:28,1,103.500001974106,2|0,1:0|0:0,0:0:0:0:
62,6,46810,2,0,B|69:48|69:48|79:61|79:61|73:77|73:77|79:123,1,103.500001974106,2|0,3:1|3:0,0:0:0:0:
57,220,47083,2,0,B|99:213|99:213|112:203|112:203|128:209|128:209|174:203,1,103.500001974106,2|0,1:0|0:0,0:0:0:0:
256,381,47356,22,0,L|239:199,1,180,6|0,3:1|1:0,0:0:0:0:
390,163,47765,2,0,P|351:167|335:176,1,45,2|0,0:1|0:0,0:0:0:0:
400,304,47901,2,0,P|404:201|342:179,1,180,2|0,1:0|1:0,0:0:0:0:
443,31,48310,2,0,P|406:44|393:57,1,45,2|0,3:1|0:0,0:0:0:0:
488,164,48446,2,0,P|465:63|399:58,1,180,2|0,1:0|1:0,0:0:0:0:
294,107,48856,2,0,L|244:102,1,45,2|0,0:1|0:0,0:0:0:0:
144,41,48992,22,0,P|157:63|160:94,1,51.7500009870529,2|0,3:1|0:0,0:0:0:0:
169,158,49128,2,0,P|155:136|152:110,1,51.7500009870529,0|0,3:0|0:0,0:0:0:0:
32,176,49265,2,0,P|56:182|80:202,1,51.7500009870529,2|0,1:0|0:0,0:0:0:0:
132,241,49401,2,0,P|107:234|86:219,1,51.7500009870529,2|0,0:1|0:0,0:0:0:0:
0,361,49537,22,0,B|71:345|71:345|99:361|99:361|182:344,1,180,6|0,3:1|1:0,0:0:0:0:
282,357,49946,2,0,L|290:295,1,45,2|0,0:1|0:0,0:0:0:0:
273,238,50083,2,0,P|299:291|389:290,1,135,2|0,1:0|0:0,0:0:0:0:
368,301,50356,1,2,1:0:0:0:
399,199,50492,1,0,3:0:0:0:
501,223,50628,22,0,L|515:53,1,135,2|0,1:0|0:0,0:0:0:0:
512,88,50901,2,0,P|469:104|421:83,1,90,0|0,1:0|0:0,0:0:0:0:
348,0,51174,1,0,3:0:0:0:
297,72,51310,2,0,L|306:125,1,45,0|0,3:0|3:0,0:0:0:0:
256,181,51446,5,0,1:0:0:0:
222,177,51514,1,0,1:0:0:0:
188,173,51582,1,0,1:0:0:0:
155,170,51650,1,0,1:0:0:0:
121,166,51719,1,2,3:2:0:0:
119,174,51992,37,0,3:0:0:0:
179,98,52128,1,2,3:2:0:0:
164,244,52265,1,2,1:2:0:0:
99,91,52401,1,0,1:0:0:0:
221,295,52537,1,0,3:0:0:0:
224,304,52810,6,0,L|280:294,2,45,2|0|2,3:0|0:0|0:0,0:0:0:0:
86,245,53219,2,0,L|30:235,2,45,2|2|0,3:0|0:0|0:0,0:0:0:0:
218,380,53628,2,0,L|309:363,1,90,6|0,3:0|0:0,0:0:0:0:
417,202,53901,38,0,P|368:228|365:316,1,135.000005149842,6|0,3:2|0:0,0:0:0:0:
434,278,54310,1,0,1:0:0:0:
441,280,54378,1,0,1:0:0:0:
449,280,54446,1,0,1:0:0:0:
506,226,54583,1,0,3:0:0:0:
401,136,54719,6,0,P|408:170|422:218,1,67.5000025749208,2|0,1:2|0:0,0:0:0:0:
476,98,54992,1,2,3:2:0:0:
391,54,55128,1,0,3:0:0:0:
238,211,55265,1,2,1:2:0:0:
323,167,55401,2,0,P|316:133|302:85,1,67.5000025749208,0|2,3:0|0:0,0:0:0:0:
242,25,55674,1,0,3:0:0:0:
148,157,55810,2,0,P|139:189|132:222,1,67.5000025749208,2|0,1:2|0:0,0:0:0:0:
219,319,56083,38,0,P|155:304|108:348,1,135.000005149842,2|0,3:2|0:0,0:0:0:0:
45,265,56492,1,2,1:2:0:0:
37,275,56560,1,0,0:0:0:0:
33,288,56628,1,0,1:0:0:0:
108,347,56765,1,0,3:0:0:0:
115,157,56901,2,0,P|124:189|131:222,1,67.5000025749208,2|2,1:2|0:0,0:0:0:0:
28,161,57174,1,0,3:0:0:0:
90,75,57310,1,0,3:0:0:0:
305,70,57446,1,0,1:0:0:0:
267,149,57583,5,8,3:2:0:0:
221,45,57719,1,8,0:0:0:0:
265,237,57856,1,8,3:2:0:0:
308,60,57992,1,8,1:2:0:0:
315,53,58265,38,0,P|360:70|385:169,1,135.000005149842,2|0,3:2|0:0,0:0:0:0:
361,231,58674,1,0,1:0:0:0:
355,240,58742,1,0,1:0:0:0:
353,249,58810,1,0,1:0:0:0:
431,304,58946,1,0,3:0:0:0:
358,372,59083,6,0,P|306:354|266:346,1,67.5000025749208,2|0,1:2|0:0,0:0:0:0:
241,273,59356,1,2,3:2:0:0:
193,364,59492,1,0,3:0:0:0:
103,211,59628,1,2,1:2:0:0:
165,292,59765,2,0,P|173:340|176:377,1,67.5000025749208,0|2,3:0|0:0,0:0:0:0:
95,342,60037,1,0,3:0:0:0:
198,198,60174,2,0,P|246:190|283:187,1,67.5000025749208,2|0,1:2|0:0,0:0:0:0:
367,234,60446,38,0,P|421:201|410:121,1,135.000005149842,2|0,3:2|0:0,0:0:0:0:
325,125,60856,1,2,1:2:0:0:
313,128,60924,1,0,0:0:0:0:
302,124,60992,1,0,1:0:0:0:
244,34,61128,1,0,3:0:0:0:
400,70,61265,2,0,P|417:118|422:144,1,67.5000025749208,2|2,1:2|0:0,0:0:0:0:
454,230,61537,5,2,1:2:0:0:
454,221,61605,1,0,3:0:0:0:
456,213,61673,1,0,3:0:0:0:
459,205,61741,1,0,3:0:0:0:
464,198,61810,1,2,3:2:0:0:
466,214,61878,1,0,3:0:0:0:
469,231,61946,1,2,1:2:0:0:
471,248,62014,1,0,3:0:0:0:
474,264,62083,1,0,3:0:0:0:
440,270,62151,1,0,3:0:0:0:
407,276,62219,1,0,3:0:0:0:
374,282,62287,1,0,3:0:0:0:
341,288,62355,1,2,1:3:0:0:
338,296,62628,38,0,L|190:285,1,135.000005149842,6|0,3:2|0:0,0:0:0:0:
116,239,63037,1,0,1:0:0:0:
119,252,63106,1,0,1:0:0:0:
119,264,63174,1,0,1:0:0:0:
76,344,63310,1,0,3:0:0:0:
42,205,63446,6,0,P|72:168|100:155,1,67.5000025749208,2|0,1:2|0:0,0:0:0:0:
177,147,63719,1,2,3:2:0:0:
241,213,63856,1,0,3:0:0:0:
342,27,63992,1,2,1:2:0:0:
258,58,64128,2,0,L|250:133,1,67.5000025749208,0|2,3:0|0:0,0:0:0:0:
336,160,64401,1,0,3:0:0:0:
183,16,64537,2,0,L|108:8,1,67.5000025749208,2|0,1:2|0:0,0:0:0:0:
3,70,64810,38,0,P|12:135|8:210,1,135.000005149842,2|0,3:2|0:0,0:0:0:0:
10,294,65219,1,2,1:2:0:0:
6,308,65287,1,0,0:0:0:0:
8,322,65356,1,0,1:0:0:0:
95,261,65492,1,0,3:0:0:0:
187,350,65628,2,0,P|220:344|251:332,1,67.5000025749208,2|0,1:2|0:0,0:0:0:0:
285,240,65901,1,2,3:2:0:0:
197,267,66037,1,0,3:0:0:0:
398,359,66174,1,0,1:0:0:0:
437,265,66310,5,8,3:2:0:0:
322,319,66446,1,10,0:0:0:0:
475,173,66583,1,8,3:2:0:0:
264,161,66719,1,10,1:2:0:0:
253,160,66992,38,0,P|253:107|276:14,1,135.000005149842,2|2,3:2|0:0,0:0:0:0:
381,48,67401,1,0,1:0:0:0:
370,53,67469,1,0,1:0:0:0:
360,53,67537,1,0,1:0:0:0:
261,19,67674,1,0,3:0:0:0:
477,0,67810,6,0,P|502:39|510:65,1,67.5000025749208,0|0,1:0|0:0,0:0:0:0:
485,163,68083,1,0,3:0:0:0:
389,126,68219,1,0,3:0:0:0:
465,294,68356,1,0,1:0:0:0:
367,274,68492,2,0,L|376:185,1,67.5000025749208,0|2,3:0|0:0,0:0:0:0:
472,301,68765,1,0,3:0:0:0:
298,381,68901,2,0,L|283:291,1,67.5000025749208,2|2,1:2|0:0,3:0:0:0:
142,215,69174,38,0,B|170:220|187:251|187:251|169:288|171:352,1,135.000005149842,2|0,3:2|0:0,0:0:0:0:
276,304,69583,1,2,1:2:0:0:
278,289,69651,1,0,0:0:0:0:
277,274,69719,1,0,1:0:0:0:
237,196,69856,1,0,3:0:0:0:
106,351,69992,2,0,P|72:323|54:290,1,67.5000025749208,2|0,1:2|0:0,0:0:0:0:
40,97,70265,5,2,1:2:0:0:
23,97,70333,1,0,1:0:0:0:
32,109,70401,1,0,1:0:0:0:
47,106,70469,1,0,1:0:0:0:
30,85,70537,1,0,1:0:0:0:
18,109,70605,1,0,1:0:0:0:
32,100,70674,38,0,B|104:91|104:91|149:128|149:128|227:119,1,202.500007724762,2|0,3:0|0:0,0:0:0:0:
301,93,71219,2,0,L|294:135,1,24.7500007553101,2|0,0:1|0:0,0:0:0:0:
411,224,71356,38,0,P|495:251|468:360,1,202.500007724762,6|0,3:1|0:0,0:0:0:0:
409,377,71628,1,0,1:0:0:0:
180,238,71765,38,0,P|163:269|160:295,1,58.4999973220826,2|0,0:1|0:0,0:0:0:0:
188,384,71901,2,0,B|173:328|106:335|106:335|46:342|18:294,1,202.500007724762,2|0,3:1|0:0,0:0:0:0:
0,222,72174,1,0,1:0:0:0:
157,32,72310,6,0,P|178:58|188:90,1,58.4999973220826,2|0,0:1|0:0,0:0:0:0:
128,176,72446,2,0,P|105:99|199:5,1,202.500007724762,2|0,3:1|0:0,0:0:0:0:
253,19,72719,1,0,1:0:0:0:
376,192,72856,38,0,P|347:199|318:202,1,58.4999973220826,2|0,3:1|0:0,0:0:0:0:
394,281,72992,2,0,P|361:285|324:297,1,58.4999973220826,2|0,0:1|0:0,0:0:0:0:
436,39,73128,2,0,P|469:35|506:23,1,58.4999973220826,2|0,3:1|0:0,0:0:0:0:
454,128,73265,2,0,P|482:120|511:117,1,58.4999973220826,2|0,1:0|0:0,0:0:0:0:
334,91,73401,2,0,L|342:34,1,58.4999973220826,2|0,1:0|1:0,0:0:0:0:
496,218,73537,6,0,B|472:371|472:371|422:386,1,207.000003948212,6|0,3:1|1:0,0:0:0:0:
165,335,73946,2,0,P|166:361|176:385,1,51.7500009870529,2|0,0:1|0:0,0:0:0:0:
241,320,74083,2,0,P|250:343|252:369,1,51.7500009870529,2|0,3:1|0:0,0:0:0:0:
291,191,74219,2,0,P|289:217|280:241,1,51.7500009870529,2|0,3:1|0:0,0:0:0:0:
215,176,74356,2,0,P|205:200|204:226,1,51.7500009870529,2|0,1:0|0:0,0:0:0:0:
150,80,74492,1,2,0:1:0:0:
249,0,74628,38,0,L|260:172,1,155.250002961159,2|0,3:1|0:0,0:0:0:0:
204,226,74901,2,0,P|159:206|101:212,1,103.500001974106,2|0,1:0|3:0,0:0:0:0:
343,56,75174,2,0,P|388:76|446:70,1,103.500001974106,2|0,0:1|3:0,0:0:0:0:
261,289,75446,1,2,1:0:0:0:
258,298,75515,1,0,0:0:0:0:
256,306,75583,1,0,1:0:0:0:
270,0,75719,6,0,B|258:77|258:77|282:109|282:109|267:222,1,207.000003948212,6|0,3:1|1:0,0:0:0:0:
82,324,76128,2,8,P|99:332|80:329,1,51.7500009870529,2|8,0:1|3:0,3:0:0:0:
5,273,76265,2,8,B|57:253|103:288|103:288|113:350|165:381,1,207.000003948212,2|0,3:1|1:0,3:0:0:0:
400,311,76674,2,0,P|418:309|404:315,1,51.7500009870529,2|0,0:1|0:0,0:0:0:0:
252,360,76810,2,0,B|314:302|391:321|391:321|394:349|405:374,1,207.000003948212,2|0,3:1|1:0,0:0:0:0:
493,277,77219,2,0,P|505:253|510:224,1,51.7500009870529,2|0,3:1|0:0,0:0:0:0:
433,61,77356,2,0,L|440:112,1,51.7500009870529,2|0,0:1|0:0,0:0:0:0:
351,108,77492,2,0,L|359:160,1,51.7500009870529,2|0,3:1|0:0,0:0:0:0:
253,27,77628,2,0,L|246:79,1,51.7500009870529,2|0,1:0|0:0,0:0:0:0:
186,252,77765,1,2,1:0:0:0:
180,261,77833,1,0,1:0:0:0:
178,271,77901,38,0,B|51:253|51:253|1:270|0:319,1,207.000003948212,6|0,3:1|1:0,0:0:0:0:
54,144,78310,2,0,P|76:94|80:74,1,51.7500009870529,2|0,0:1|0:0,0:0:0:0:
89,10,78446,2,0,P|39:89|71:164,1,155.250002961159,2|0,3:1|0:0,0:0:0:0:
64,153,78719,1,2,1:0:0:0:
236,178,78856,1,2,0:1:0:0:
282,7,78992,5,2,1:0:0:0:
142,97,79128,1,0,3:0:0:0:
128,104,79196,1,0,3:0:0:0:
115,95,79265,1,0,3:0:0:0:
120,82,79333,1,0,3:0:0:0:
135,80,79401,1,0,1:0:0:0:
336,61,79537,1,0,3:0:0:0:
268,254,79674,1,0,3:0:0:0:
359,131,79810,37,0,1:0:0:0:
353,169,79878,1,0,1:0:0:0:
347,208,79946,1,2,1:0:0:0:
341,246,80014,1,0,1:0:0:0:
336,285,80083,6,0,L|425:95,1,202.500007724762,6|0,3:1|0:0,0:0:0:0:
460,36,80356,1,0,1:0:0:0:
413,295,80492,38,0,P|382:295|343:299,1,58.4999973220826,2|0,0:1|0:0,0:0:0:0:
160,249,80628,2,0,L|382:278,1,202.500007724762,2|0,3:1|0:0,0:0:0:0:
433,288,80901,1,0,1:0:0:0:
173,325,81037,6,0,P|168:294|151:260,1,58.4999973220826,2|0,0:1|0:0,0:0:0:0:
140,72,81174,2,0,L|175:283,1,202.500007724762,2|0,3:1|0:0,0:0:0:0:
189,346,81447,1,0,1:0:0:0:
0,259,81583,38,0,P|33:245|69:248,1,58.4999973220826,2|0,3:1|0:0,0:0:0:0:
67,154,81719,2,0,P|100:167|123:194,1,58.4999973220826,2|0,0:1|0:0,0:0:0:0:
325,193,81856,2,0,P|288:187|254:200,1,58.4999973220826,2|0,3:1|0:0,0:0:0:0:
233,109,81992,2,0,P|204:131|189:163,1,58.4999973220826,2|0,1:0|0:0,0:0:0:0:
189,346,82128,2,0,L|172:267,1,58.4999973220826,2|0,1:0|1:0,0:0:0:0:
44,72,82265,6,0,B|124:1|124:1|222:26,1,207.000003948212,6|0,3:1|1:0,0:0:0:0:
338,4,82674,2,0,L|331:60,1,51.7500009870529,2|0,0:1|0:0,0:0:0:0:
393,121,82810,2,0,L|399:177,1,51.7500009870529,2|0,3:1|0:0,0:0:0:0:
335,269,82946,1,2,3:1:0:0:
422,377,83083,2,0,L|427:323,1,51.7500009870529,2|0,1:0|0:0,0:0:0:0:
488,229,83219,1,2,0:1:0:0:
289,348,83356,38,0,L|101:322,1,155.250002961159,2|0,3:1|0:0,0:0:0:0:
70,263,83628,2,0,L|190:243,1,103.500001974106,2|0,1:0|3:0,0:0:0:0:
263,76,83901,2,0,P|252:135|248:189,1,103.500001974106,2|0,0:1|3:0,0:0:0:0:
135,326,84174,1,2,1:0:0:0:
140,336,84242,1,0,0:0:0:0:
139,347,84310,1,0,1:0:0:0:
295,384,84446,6,0,P|346:326|460:370,1,207.000003948212,6|0,3:1|1:0,0:0:0:0:
501,230,84856,38,0,P|457:231|432:223,1,51.7500009870529,2|0,0:1|0:0,0:0:0:0:
315,183,84992,2,0,P|381:186|443:302,1,207.000003948212,2|0,3:1|1:0,0:0:0:0:
431,101,85401,2,0,P|387:100|362:108,1,51.7500009870529,2|0,0:1|0:0,0:0:0:0:
245,148,85537,2,0,P|311:145|373:29,1,207.000003948212,2|0,3:1|1:0,0:0:0:0:
183,54,85946,6,0,P|157:43|123:17,1,51.7500009870529,2|0,3:1|0:0,0:0:0:0:
51,45,86083,2,0,P|40:71|14:105,1,51.7500009870529,2|0,0:1|0:0,0:0:0:0:
27,217,86219,2,0,P|53:206|87:180,1,51.7500009870529,2|0,3:1|0:0,0:0:0:0:
159,208,86356,2,0,P|170:234|196:268,1,51.7500009870529,2|0,1:0|0:0,0:0:0:0:
72,383,86492,2,0,L|87:320,1,51.7500009870529,2|0,1:0|1:0,0:0:0:0:
288,209,86628,22,0,L|332:395,1,180,2|0,1:3|0:0,0:0:0:0:
329,384,87037,1,2,0:1:0:0:
497,71,87174,38,0,L|452:257,1,180,2|2,1:3|0:1,0:0:0:0:
454,245,87583,1,2,0:1:0:0:
322,143,87719,37,2,1:0:0:0:
296,93,87787,1,0,3:0:0:0:
309,40,87855,1,0,3:0:0:0:
353,8,87923,1,0,3:0:0:0:
407,11,87991,1,0,3:0:0:0:
377,55,88060,1,0,3:0:0:0:
325,71,88128,1,0,1:0:0:0:
274,49,88196,1,0,3:0:0:0:
250,1,88265,1,0,3:0:0:0:
303,5,88333,1,0,3:0:0:0:
344,41,88401,1,0,3:0:0:0:
349,95,88469,1,0,3:0:0:0:
322,143,88537,1,2,1:3:0:0:
26,248,88810,6,0,B|19:183|19:183|45:147|45:147|36:57,1,180,6|0,3:1|1:0,0:0:0:0:
99,204,89219,2,0,L|106:267,1,45,2|0,0:1|0:0,0:0:0:0:
146,311,89356,2,0,L|118:121,1,180,2|0,1:0|1:0,0:0:0:0:
225,268,89765,2,0,L|221:313,1,45,2|0,3:1|0:0,0:0:0:0:
241,384,89902,2,0,L|268:206,1,180,2|0,1:0|1:0,0:0:0:0:
300,122,90310,2,0,L|363:109,1,45,2|0,0:1|0:0,0:0:0:0:
406,189,90446,22,0,L|418:249,1,45,2|0,3:1|0:0,0:0:0:0:
486,196,90583,2,0,L|498:256,1,45,0|0,3:0|0:0,0:0:0:0:
408,253,90719,2,0,L|420:313,1,45,2|0,1:0|0:0,0:0:0:0:
489,261,90856,2,0,L|501:321,1,45,2|0,0:1|0:0,0:0:0:0:
349,359,90992,22,0,B|280:351|280:351|246:371|246:371|171:365,1,180,6|0,3:1|1:0,0:0:0:0:
84,316,91401,2,0,B|74:295|74:295|80:268,1,45,2|0,0:1|0:0,0:0:0:0:
157,187,91537,2,0,L|176:375,1,180,2|0,1:0|1:0,0:0:0:0:
250,280,91946,2,0,B|254:258|254:258|244:237,1,45,2|0,3:1|0:0,0:0:0:0:
214,144,92083,2,0,B|99:158|99:158|84:135,1,135,2|0,1:0|0:0,0:0:0:0:
74,141,92356,22,0,B|63:82|63:82|79:50,1,90,2|0,1:0|0:0,0:0:0:0:
167,25,92628,2,0,L|276:34,1,90,2|0,3:1|3:0,0:0:0:0:
383,128,92901,2,0,L|274:137,1,90,2|0,1:0|0:0,0:0:0:0:
423,16,93174,22,0,P|491:32|508:132,1,180,6|0,3:1|1:0,0:0:0:0:
428,208,93583,2,0,P|410:238|411:271,1,45,2|0,0:1|0:0,0:0:0:0:
397,339,93719,2,0,L|359:150,1,180,2|0,1:0|1:0,0:0:0:0:
265,242,94128,2,0,P|255:275|264:307,1,45,2|0,3:1|0:0,0:0:0:0:
268,376,94264,2,0,L|182:203,1,180,2|0,1:0|1:0,0:0:0:0:
99,258,94674,2,0,L|107:189,1,45,2|0,0:1|0:0,0:0:0:0:
93,106,94810,22,0,P|138:112|160:119,1,45,2|0,3:1|0:0,0:0:0:0:
76,30,94946,2,0,P|121:16|143:12,1,45,0|0,3:0|0:0,0:0:0:0:
216,107,95083,2,0,P|235:118|254:132,1,45,2|0,1:0|0:0,0:0:0:0:
195,5,95219,2,0,P|218:5|240:10,1,45,2|0,0:1|0:0,0:0:0:0:
247,224,95356,22,0,L|432:205,1,180,6|0,3:1|1:0,0:0:0:0:
506,236,95765,2,0,B|515:253|515:253|513:277,1,45,2|0,0:1|0:0,0:0:0:0:
445,339,95901,2,0,L|425:199,1,135,2|0,1:0|0:0,0:0:0:0:
434,198,96174,1,2,1:0:0:0:
363,125,96310,1,0,3:0:0:0:
484,10,96446,22,0,L|503:149,1,135,2|0,1:0|0:0,0:0:0:0:
492,155,96719,2,0,L|477:50,1,90,0|0,1:0|0:0,0:0:0:0:
353,7,96992,1,0,3:0:0:0:
288,51,97128,2,0,L|215:43,1,45,0|0,3:0|3:0,0:0:0:0:
165,91,97265,37,0,1:0:0:0:
161,125,97333,1,0,1:0:0:0:
157,159,97401,1,0,1:0:0:0:
154,192,97469,1,0,1:0:0:0:
150,226,97538,1,2,3:2:0:0:
141,220,97810,37,0,3:0:0:0:
177,315,97946,1,2,3:2:0:0:
69,214,98082,1,2,1:2:0:0:
125,374,98219,1,0,1:0:0:0:
230,185,98355,1,0,3:0:0:0:
239,178,98628,6,0,L|285:173,2,45,2|0|2,3:0|0:0|0:0,0:0:0:0:
161,125,99037,2,0,L|116:120,2,45,2|2|0,3:0|0:0|0:0,0:0:0:0:
317,104,99446,1,6,3:0:0:0:
72,189,99719,38,0,P|38:144|67:58,1,135.000005149842,6|0,3:2|0:0,0:0:0:0:
132,28,100128,1,0,1:0:0:0:
143,25,100196,1,0,1:0:0:0:
154,23,100265,1,0,1:0:0:0:
229,71,100401,1,0,3:0:0:0:
176,190,100537,6,0,L|156:106,1,67.5000025749208,2|0,1:2|0:0,0:0:0:0:
263,208,100810,1,2,3:2:0:0:
175,278,100946,1,0,3:0:0:0:
5,239,101082,1,2,1:2:0:0:
72,189,101219,2,0,L|87:254,1,67.5000025749208,0|2,3:0|0:0,0:0:0:0:
112,338,101492,1,0,3:0:0:0:
259,284,101628,2,0,L|274:218,1,67.5000025749208,2|0,1:2|0:0,0:0:0:0:
308,110,101901,38,0,P|338:152|421:142,1,135.000005149842,2|0,3:2|0:0,0:0:0:0:
384,56,102310,1,2,1:2:0:0:
382,67,102378,1,0,0:0:0:0:
379,78,102447,1,0,1:0:0:0:
425,156,102583,1,0,3:0:0:0:
512,81,102719,2,0,P|507:48|496:17,1,67.5000025749208,2|2,1:2|0:0,0:0:0:0:
423,167,102992,1,0,3:0:0:0:
461,249,103128,1,0,3:0:0:0:
364,374,103265,1,0,1:0:0:0:
373,285,103401,5,8,3:2:0:0:
454,370,103537,1,8,0:0:0:0:
291,324,103674,1,8,3:2:0:0:
423,167,103810,1,8,1:2:0:0:
425,156,104083,38,0,P|386:149|311:214,1,135.000005149842,6|0,3:2|0:0,0:0:0:0:
233,253,104492,1,0,1:0:0:0:
222,250,104560,1,0,1:0:0:0:
211,248,104629,1,0,1:0:0:0:
149,174,104765,1,0,3:0:0:0:
236,97,104901,6,0,L|246:174,1,67.5000025749208,2|0,1:2|0:0,0:0:0:0:
155,68,105174,1,2,3:2:0:0:
249,15,105310,1,0,3:0:0:0:
327,173,105446,1,2,1:2:0:0:
406,127,105583,2,0,L|414:60,1,67.5000025749208,0|2,3:0|0:0,0:0:0:0:
327,84,105856,1,0,3:0:0:0:
237,189,105992,2,0,L|247:266,1,67.5000025749208,2|0,1:2|0:0,0:0:0:0:
392,335,106265,38,0,P|330:317|262:337,1,135.000005149842,2|0,3:2|0:0,0:0:0:0:
183,371,106674,1,2,1:2:0:0:
180,360,106743,1,0,0:0:0:0:
178,349,106811,1,0,1:0:0:0:
161,255,106946,1,0,3:0:0:0:
92,360,107083,2,0,P|57:340|32:308,1,67.5000025749208,2|0,1:2|0:0,0:0:0:0:
28,200,107356,5,2,1:2:0:0:
29,191,107424,1,0,3:0:0:0:
30,183,107492,1,0,3:0:0:0:
31,174,107560,1,0,3:0:0:0:
32,166,107628,1,2,3:2:0:0:
48,164,107696,1,0,3:0:0:0:
65,168,107764,1,2,1:2:0:0:
79,176,107832,1,0,3:0:0:0:
91,188,107901,1,0,3:0:0:0:
111,214,107969,1,0,3:0:0:0:
142,227,108037,1,0,3:0:0:0:
175,224,108105,1,0,3:0:0:0:
203,205,108173,1,2,1:3:0:0:
196,194,108446,38,0,L|206:33,1,135.000005149842,6|0,3:2|0:0,0:0:0:0:
276,9,108856,1,0,1:0:0:0:
265,6,108924,1,0,1:0:0:0:
254,4,108993,1,0,1:0:0:0:
133,43,109128,1,0,3:0:0:0:
277,109,109265,6,0,L|356:97,1,67.5000025749208,2|0,1:2|0:0,0:0:0:0:
419,56,109537,1,2,3:2:0:0:
395,162,109674,1,0,3:0:0:0:
510,277,109810,1,2,1:2:0:0:
469,198,109946,2,0,L|390:186,1,67.5000025749208,0|2,3:0|0:0,0:0:0:0:
303,217,110219,1,0,3:0:0:0:
422,309,110356,2,0,L|501:297,1,67.5000025749208,2|0,1:2|0:0,0:0:0:0:
294,225,110628,38,0,L|302:359,1,135.000005149842,2|0,3:2|0:0,0:0:0:0:
199,380,111037,1,2,1:2:0:0:
196,369,111106,1,0,0:0:0:0:
194,358,111174,1,0,1:0:0:0:
204,247,111310,1,0,3:0:0:0:
106,374,111446,2,0,P|69:354|42:327,1,67.5000025749208,2|2,1:2|0:0,0:0:0:0:
39,251,111719,1,0,3:0:0:0:
104,190,111856,1,0,3:0:0:0:
28,66,111992,1,0,1:0:0:0:
23,156,112128,5,8,3:2:0:0:
129,50,112265,1,10,0:0:0:0:
14,60,112401,1,8,3:2:0:0:
170,144,112537,1,10,1:2:0:0:
184,150,112810,38,0,P|240:134|322:130,1,135.000005149842,2|2,3:2|0:0,0:0:0:0:
385,192,113219,1,0,1:0:0:0:
396,195,113287,1,0,1:0:0:0:
407,197,113356,1,0,1:0:0:0:
466,128,113492,1,0,3:0:0:0:
293,222,113628,6,0,P|278:272|273:293,1,67.5000025749208,0|0,1:0|0:0,0:0:0:0:
164,267,113901,1,0,3:0:0:0:
188,375,114037,1,0,3:0:0:0:
82,248,114174,1,0,1:0:0:0:
166,187,114310,2,0,P|216:174|237:168,1,67.5000025749208,0|2,3:0|0:0,0:0:0:0:
258,76,114583,1,0,3:0:0:0:
78,130,114719,2,0,P|27:117|6:111,1,67.5000025749208,2|2,1:2|0:0,0:0:0:0:
183,29,114992,38,0,L|157:169,1,135.000005149842,2|0,3:2|0:0,0:0:0:0:
82,248,115401,1,2,1:2:0:0:
84,259,115469,1,0,0:0:0:0:
87,270,115538,1,0,1:0:0:0:
0,216,115674,1,0,3:0:0:0:
150,175,115810,2,0,L|163:246,1,67.5000025749208,2|0,1:2|0:0,0:0:0:0:
202,384,116083,5,2,1:2:0:0:
208,372,116151,1,0,1:0:0:0:
181,372,116219,1,0,1:0:0:0:
188,384,116287,1,0,1:0:0:0:
202,360,116356,1,0,1:0:0:0:
188,360,116424,1,0,1:0:0:0:
195,372,116492,38,0,B|283:355|283:355|315:373|315:373|403:357,1,202.500007724762,2|0,1:3|0:0,0:0:0:0:
389,359,117037,2,0,L|384:329,1,29.6999999093628
409,252,117174,38,0,B|359:244|359:244|355:250|355:250|319:230|319:230|252:242,1,158.400004833984,6|0,3:2|0:0,0:0:0:0:
161,257,117583,2,0,L|169:285,1,29.6999999093628
115,339,117719,2,0,B|74:335|74:335|74:332|74:332|57:315|34:309|34:309|53:287|60:265|60:265|58:261|58:261|88:243,1,178.199999456177,2|0,1:2|0:0,0:0:0:0:
162,173,118128,2,0,P|161:156|156:171,1,44.5499998640442,0|0,3:0|0:0,0:0:0:0:
12,90,118265,2,0,B|45:125|83:106|83:106|95:114|95:114|128:68|183:82|183:82|183:92|183:92,1,199.80000487793,2|0,0:0|3:0,0:0:0:0:
279,133,118674,21,2,0:0:0:0:
329,42,118810,1,2,1:2:0:0:
304,219,118946,1,0,0:0:0:0:
183,87,119083,1,2,0:0:0:0:
283,146,119219,1,2,0:0:0:0:
405,26,119356,22,0,B|414:70|414:70|430:82|430:82|426:87|426:87|419:150,1,118.800003625488,2|0,3:2|0:0,0:0:0:0:
425,147,119628,2,0,B|408:178|408:178|421:208|417:252,1,89.0999997280884,2|0,0:0|0:0,0:0:0:0:
510,382,119901,2,0,B|510:360|521:334|521:334|496:324|480:305,1,99.9000024389649,2|0,1:2|0:0,0:0:0:0:
361,299,120174,1,2,0:0:0:0:
433,364,120310,1,2,3:2:0:0:
248,312,120446,22,0,B|198:306|198:306|191:310|191:310|151:307|151:307|149:303|149:303|101:297,1,149.850003658447,2|0,0:0|0:0,0:0:0:0:
91,290,120719,2,0,B|81:276|81:276|167:284,1,99.9000024389649,2|0,3:2|0:0,0:0:0:0:
257,318,120992,1,2,1:2:0:0:
163,384,121128,1,0,1:0:0:0:
185,207,121265,1,2,1:2:0:0:
182,197,121333,1,0,0:0:0:0:
188,189,121401,1,0,1:0:0:0:
185,179,121469,1,0,1:0:0:0:
192,166,121537,22,0,L|209:4,1,158.400004833984,6|0,3:2|0:0,0:0:0:0:
294,19,121946,2,0,L|288:67,1,29.6999999093628,2|0,0:0|0:0,0:0:0:0:
335,149,122083,2,0,B|391:126|391:126|443:142|443:142|455:136|455:136|514:132,1,178.199999456177,2|0,1:2|0:0,0:0:0:0:
396,214,122492,2,0,L|396:276,1,44.5499998640442,2|0,3:2|0:0,0:0:0:0:
333,353,122628,2,0,B|265:344|265:344|242:318|242:318|148:311,1,178.199999456177,2|0,0:0|3:0,0:0:0:0:
31,343,123037,21,2,0:0:0:0:
149,241,123174,1,2,1:2:0:0:
57,199,123310,1,0,0:0:0:0:
113,363,123446,1,2,0:0:0:0:
221,232,123583,1,2,0:0:0:0:
18,268,123719,1,2,3:0:0:0:
18,268,124810,37,2,3:2:0:0:
57,199,124946,1,0,3:0:0:0:
149,241,125083,1,0,1:0:0:0:
235,131,125219,1,0,1:0:0:0:
371,192,125356,1,0,1:0:0:0:
382,194,125424,1,0,0:0:0:0:
393,196,125492,1,0,1:0:0:0:
404,198,125560,1,0,1:0:0:0:
415,200,125628,1,2,3:0:0:0:
383,268,125765,5,2,0:1:0:0:
383,268,125901,2,0,L|397:348,1,74.2500022659302,2|0,0:1|0:0,0:0:0:0:
330,380,126174,22,0,B|299:384|299:384|266:358,1,58.4999973220826,4|0,1:0|0:0,0:0:0:0:
145,250,126310,38,0,P|152:294|145:320,1,58.4999973220826,2|0,0:1|0:0,0:0:0:0:
63,384,126446,2,0,B|20:354|20:354|5:151,1,233.999989288331,2|0,3:1|1:0,0:0:0:0:
218,69,126856,6,0,P|220:56|226:75,1,58.4999973220826,2|0,3:1|3:0,3:0:0:0:
167,155,126992,2,0,P|156:85|294:7,1,233.999989288331,2|0,0:1|1:0,0:0:0:0:
382,71,127401,37,2,0:1:0:0:
250,172,127537,1,2,1:0:0:0:
252,186,127605,1,0,1:0:0:0:
255,200,127673,1,2,1:0:0:0:
257,215,127741,1,0,1:0:0:0:
260,229,127809,1,2,3:0:0:0:
325,271,127946,37,2,0:1:0:0:
325,271,128083,2,0,L|320:350,1,67.5,2|0,0:1|0:0,0:0:0:0:
258,383,128356,22,0,B|244:356|244:356|250:317,1,58.4999973220826,4|0,3:1|0:0,0:0:0:0:
414,311,128492,38,0,P|449:313|490:325,1,58.4999973220826,2|0,0:1|0:0,0:0:0:0:
445,231,128628,2,0,P|479:239|517:257,1,58.4999973220826,2|0,1:0|0:0,0:0:0:0:
349,189,128765,2,0,P|314:191|273:203,1,58.4999973220826,2|0,3:1|0:0,0:0:0:0:
318,109,128901,2,0,P|283:117|245:135,1,58.4999973220826,2|0,3:1|0:0,0:0:0:0:
388,0,129037,1,2,1:0:0:0:
432,143,129174,6,0,L|397:333,1,175.499991966248,2|0,0:1|0:0,0:0:0:0:
331,366,129446,2,0,P|270:351|222:373,1,116.999994644165,2|0,1:0|0:0,0:0:0:0:
111,326,129719,1,2,1:0:0:0:
109,340,129787,1,0,1:0:0:0:
106,354,129855,1,0,1:0:0:0:
104,369,129923,1,0,1:0:0:0:
102,383,129992,22,0,L|33:373,1,67.5,2|0,3:0|0:0,0:0:0:0:
0,287,130265,22,0,B|172:310|172:310|223:246,1,233.999989288331,6|0,3:1|1:0,0:0:0:0:
118,171,130674,38,0,L|104:111,1,58.4999973220826,2|0,0:1|0:0,0:0:0:0:
83,22,130810,2,0,P|116:88|237:35,1,233.999989288331,2|0,3:1|1:0,0:0:0:0:
394,58,131219,2,0,L|380:118,1,58.4999973220826,2|0,0:1|0:0,0:0:0:0:
349,207,131355,2,0,P|386:132|468:140,1,175.499991966248,2|0,3:1|0:0,0:0:0:0:
474,159,131628,2,0,B|495:176|495:176|508:226|479:277,1,116.999994644165,0|2,1:0|3:1,0:0:0:0:
319,326,131901,6,0,L|331:383,1,58.4999973220826,2|0,0:1|0:0,0:0:0:0:
230,314,132037,2,0,L|243:372,1,58.4999973220826,2|0,3:1|0:0,0:0:0:0:
115,186,132174,2,0,L|102:246,1,58.4999973220826,2|0,1:0|0:0,0:0:0:0:
9,336,132310,1,2,1:0:0:0:
3,344,132378,1,0,1:0:0:0:
0,353,132446,38,0,L|240:312,1,233.999989288331,6|0,3:1|1:0,0:0:0:0:
349,207,132856,2,0,P|336:171|335:138,1,58.4999973220826,2|0,0:1|0:0,0:0:0:0:
347,62,132992,2,0,P|388:154|347:207,1,175.499991966248,2|0,3:1|0:0,0:0:0:0:
336,212,133265,1,2,1:0:0:0:
471,152,133401,1,2,0:1:0:0:
240,132,133537,5,2,1:0:0:0:
330,44,133674,1,0,3:0:0:0:
344,37,133742,1,0,3:0:0:0:
354,48,133811,1,0,3:0:0:0:
347,62,133879,1,0,3:0:0:0:
332,60,133947,1,0,1:0:0:0:
155,9,134083,1,0,3:0:0:0:
188,207,134219,1,0,3:0:0:0:
90,54,134356,37,0,1:0:0:0:
95,92,134424,1,0,1:0:0:0:
101,130,134492,1,2,1:0:0:0:
106,169,134560,1,0,1:0:0:0:
112,207,134628,6,0,L|68:26,1,182.250000695229,6|0,3:1|0:0,0:0:0:0:
0,13,134901,1,0,1:0:0:0:
24,192,135037,1,10,0:1:0:0:
167,98,135174,1,2,3:1:0:0:
79,276,135310,1,8,3:1:0:0:
8,104,135446,1,0,1:0:0:0:
191,212,135583,1,10,0:1:0:0:
9,264,135719,1,2,3:1:0:0:
228,145,135856,1,8,0:1:0:0:
120,338,135992,1,0,1:0:0:0:
272,212,136128,38,0,L|343:208,1,60.7500002317429,10|0,3:1|0:0,0:0:0:0:
103,136,136265,2,0,L|32:132,1,60.7500002317429,2|0,0:1|0:0,0:0:0:0:
277,220,136401,2,0,L|348:216,1,60.7500002317429,10|0,3:1|0:0,0:0:0:0:
184,293,136537,2,0,P|173:265|167:236,1,60.7500002317429,2|0,1:0|0:0,0:0:0:0:
296,98,136674,2,0,P|307:70|314:41,1,60.7500002317429,10|0,1:0|1:0,0:0:0:0:
409,245,136810,6,0,P|327:256|311:356,1,182.250000695229,6|0,3:1|0:0,0:0:0:0:
369,384,137083,1,0,1:0:0:0:
512,353,137219,2,0,L|504:278,1,60.7500002317429,10|0,0:1|0:0,0:0:0:0:
418,236,137356,2,0,L|424:175,1,60.7500002317429,2|0,3:1|0:0,0:0:0:0:
502,94,137492,1,8,3:1:0:0:
363,0,137628,2,0,L|369:60,1,60.7500002317429,2|0,1:0|0:0,0:0:0:0:
300,174,137764,1,8,0:1:0:0:
146,43,137901,38,0,P|217:48|280:67,1,121.500000463486,2|8,3:1|0:1,0:0:0:0:
119,220,138174,2,0,P|60:235|0:238,1,121.500000463486,2|8,1:0|3:1,0:0:0:0:
42,81,138446,1,2,0:1:0:0:
147,316,138583,1,8,0:1:0:0:
193,130,138719,1,2,1:0:0:0:
198,110,138787,1,0,0:0:0:0:
203,90,138856,1,8,1:0:0:0:
28,344,138992,6,0,L|-3:150,1,182.250000695229,6|0,3:1|0:0,0:0:0:0:
30,96,139265,1,0,1:0:0:0:
142,330,139401,1,10,0:1:0:0:
193,130,139537,1,2,3:1:0:0:
26,256,139674,1,8,3:1:0:0:
233,282,139810,1,0,1:0:0:0:
92,156,139946,1,10,0:1:0:0:
217,359,140083,1,2,3:1:0:0:
287,162,140219,1,8,0:1:0:0:
102,265,140356,1,0,1:0:0:0:
364,248,140492,38,0,P|408:241|442:231,1,60.7500002317429,10|0,3:1|0:0,0:0:0:0:
187,54,140628,2,0,L|199:131,1,60.7500002317429,2|0,0:1|0:0,0:0:0:0:
308,304,140765,2,0,L|294:373,1,60.7500002317429,2|0,3:1|0:0,0:0:0:0:
419,62,140901,2,0,L|407:139,1,60.7500002317429,10|0,1:0|0:0,0:0:0:0:
278,234,141038,1,2,1:0:0:0:
284,263,141106,1,0,1:0:0:0:
289,292,141174,38,0,L|320:91,1,180,2|0,3:0|0:0,0:0:0:0:
316,114,141583,1,2,0:1:0:0:
127,380,141719,38,0,L|96:179,1,180,2|2,3:0|0:1,0:0:0:0:
99,202,142128,1,2,0:1:0:0:
89,38,142265,37,2,1:0:0:0:
137,19,142333,1,0,3:0:0:0:
186,41,142401,1,0,3:0:0:0:
207,91,142469,1,0,3:0:0:0:
188,141,142537,1,0,3:0:0:0:
149,105,142605,1,0,3:0:0:0:
144,52,142673,1,0,1:0:0:0:
175,8,142741,1,0,3:0:0:0:
229,0,142810,1,0,3:0:0:0:
218,51,142878,1,0,3:0:0:0:
174,82,142946,1,0,3:0:0:0:
120,75,143014,1,0,3:0:0:0:
89,38,143082,1,2,3:0:0:0:
310,0,143356,6,0,L|331:135,1,121.499996292114,2|8,3:2|0:0,0:0:0:0:
340,128,143628,2,0,L|392:119,2,40.4999987640381,2|0|8,0:0|0:0|0:0,0:0:0:0:
286,184,143901,2,0,L|233:192,1,40.4999987640381,2|0,0:0|0:0,0:0:0:0:
166,161,144037,2,0,L|187:296,1,121.499996292114,10|0,0:0|0:0,0:0:0:0:
176,287,144310,2,0,L|157:166,1,121.499996292114,10|0,0:0|0:0,0:0:0:0:
144,164,144583,2,0,L|91:172,1,40.4999987640381,10|0,0:0|0:0,0:0:0:0:
30,182,144719,5,2,0:0:0:0:
30,182,144856,1,10,0:0:0:0:
44,257,144992,1,0,0:0:0:0:
44,257,145129,1,10,0:0:0:0:
58,332,145265,37,2,0:0:0:0:
30,182,145401,1,10,3:2:0:0:
58,332,145537,6,0,L|210:309,1,121.499996292114,2|8,3:2|0:0,0:0:0:0:
189,320,145810,2,0,L|200:396,2,40.4999987640381,2|0|8,0:0|0:0|0:0,0:0:0:0:
262,309,146083,2,0,L|267:349,1,40.4999987640381,2|0,0:0|0:0,0:0:0:0:
336,382,146219,2,0,L|488:359,1,121.499996292114,10|0,0:0|0:0,0:0:0:0:
465,351,146492,2,0,L|313:374,1,121.499996292114,10|0,0:0|0:0,0:0:0:0:
336,355,146765,2,0,L|330:314,1,40.4999987640381,10|0,0:0|0:0,0:0:0:0:
321,236,146901,2,0,L|441:217,1,121.499996292114,2|0,0:0|0:0,0:0:0:0:
452,227,147174,2,0,L|458:268,2,40.4999987640381,2|0|8,0:0|0:0|3:2,0:0:0:0:
454,145,147446,37,10,0:0:0:0:
474,267,147583,1,0,3:0:0:0:
454,145,147719,6,0,L|435:25,1,121.499996292114,2|8,3:2|0:0,0:0:0:0:
420,18,147992,2,0,L|360:27,1,40.4999987640381,2|0,0:0|0:0,0:0:0:0:
310,37,148128,2,0,L|250:46,1,40.4999987640381,10|0,0:0|0:0,0:0:0:0:
199,59,148265,1,2,0:0:0:0:
199,59,148401,38,0,L|218:179,1,121.499996292114,10|0,0:0|0:0,0:0:0:0:
147,205,148674,2,0,L|122:47,1,148.50000453186,10|0,0:0|0:0,0:0:0:0:
49,61,148946,2,0,L|79:252,1,175.499991966248,10|0,0:0|0:0,0:0:0:0:
65,242,149219,2,0,L|44:111,1,121.499996292114,10|0,0:0|0:0,0:0:0:0:
32,133,149492,2,0,L|51:253,1,121.499996292114,10|0,0:0|0:0,0:0:0:0:
40,264,149765,2,0,L|-20:273,1,40.4999987640381,10|0,3:2|0:0,0:0:0:0:
0,344,149901,6,0,L|152:319,1,121.499996292114,2|8,3:2|0:0,0:0:0:0:
137,334,150174,2,0,L|177:327,2,40.4999987640381,2|0|8,0:0|0:0|0:0,0:0:0:0:
233,375,150446,2,0,L|273:368,1,40.4999987640381,2|0,0:0|0:0,0:0:0:0:
342,354,150583,2,0,L|382:347,1,40.4999987640381,10|0,0:0|0:0,0:0:0:0:
452,334,150719,1,0,0:0:0:0:
452,334,150856,38,0,L|431:204,1,121.499996292114,10|0,0:0|0:0,0:0:0:0:
423,211,151128,1,8,0:0:0:0:
470,137,151265,1,0,0:0:0:0:
352,103,151401,1,8,0:0:0:0:
462,0,151537,1,8,0:0:0:0:
104,6,152083,22,0,P|33:-2|16:121,1,198.000006042481,6|0,3:1|1:0,0:0:0:0:
69,159,152491,2,0,L|131:153,1,49.5000015106202,2|0,0:1|0:0,0:0:0:0:
211,193,152628,2,0,B|174:163|174:163|14:177,1,198.000006042481,2|0,1:0|1:0,0:0:0:0:
114,340,153037,2,0,L|176:346,1,49.5000015106202,2|0,3:1|0:0,0:0:0:0:
256,306,153174,2,0,B|219:335|219:335|59:321,1,198.000006042481,2|0,1:0|1:0,0:0:0:0:
164,209,153582,2,0,P|196:196|223:191,1,49.5000015106202,2|0,0:1|0:0,0:0:0:0:
309,198,153718,22,0,L|317:257,1,49.5000015106202,2|0,3:1|0:0,0:0:0:0:
365,311,153856,2,0,L|357:370,1,49.5000015106202,0|0,3:0|0:0,0:0:0:0:
497,150,153991,2,0,L|489:209,1,49.5000015106202,2|0,1:0|0:0,0:0:0:0:
441,263,154128,2,0,L|449:322,1,49.5000015106202,2|0,0:1|0:0,0:0:0:0:
392,6,154264,22,0,B|382:89|382:89|401:118|401:118|387:224,1,198.000006042481,6|0,3:1|1:0,0:0:0:0:
296,101,154673,2,0,L|243:88,1,49.5000015106202,2|0,0:1|0:0,0:0:0:0:
124,85,154810,2,0,B|264:62|264:62|302:10,1,198.000006042481,2|0,1:0|1:0,0:0:0:0:
43,8,155218,2,0,L|33:64,1,49.5000015106202,2|0,3:1|0:0,0:0:0:0:
24,141,155355,2,0,B|51:179|51:179|39:303,1,148.50000453186,2|0,1:0|0:0,0:0:0:0:
49,292,155628,22,0,B|116:282|116:282|146:306,1,99.0000030212403,2|0,1:0|0:0,0:0:0:0:
321,347,155900,2,0,B|296:366|296:366|229:356,1,99.0000030212403,2|0,3:1|3:0,0:0:0:0:
201,182,156173,2,0,B|255:222|255:222|259:260,1,99.0000030212403,2|0,1:0|0:0,0:0:0:0:
7,379,156446,22,0,L|0:176,1,198.000006042481,6|0,3:1|1:0,0:0:0:0:
61,58,156855,2,0,L|103:32,1,49.5000015106202,2|0,0:1|0:0,0:0:0:0:
102,127,156992,2,0,B|186:73|186:73|290:108,1,198.000006042481,2|0,1:0|1:0,0:0:0:0:
336,307,157401,2,0,L|294:333,1,49.5000015106202,2|0,3:1|0:0,0:0:0:0:
295,238,157537,2,0,B|210:291|210:291|106:256,1,198.000006042481,2|0,1:0|1:0,0:0:0:0:
326,165,157946,2,0,L|392:161,1,49.5000015106202,2|0,0:1|0:0,0:0:0:0:
483,289,158083,22,0,P|465:247|461:220,1,49.5000015106202,2|0,3:1|0:0,0:0:0:0:
462,137,158218,2,0,P|478:94|494:73,1,49.5000015106202,0|0,3:0|0:0,0:0:0:0:
402,366,158355,2,0,P|411:321|423:297,1,49.5000015106202,2|0,1:0|0:0,0:0:0:0:
471,229,158491,2,0,P|508:204|534:195,1,49.5000015106202,2|0,0:1|0:0,0:0:0:0:
304,384,158628,22,0,P|270:318|145:283,1,198.000006042481,6|0,3:1|1:0,0:0:0:0:
20,309,159037,2,0,P|4:340|-2:367,1,49.5000015106202,2|0,0:1|0:0,0:0:0:0:
83,259,159173,2,0,P|78:172|55:95,1,148.50000453186,2|0,1:0|0:0,0:0:0:0:
51,107,159446,1,2,1:0:0:0:
158,131,159582,1,0,3:0:0:0:
268,30,159719,22,0,P|197:70|171:144,1,148.50000453186,2|0,1:0|0:0,0:0:0:0:
181,137,159991,2,0,P|225:129|262:168,1,99.0000030212403,0|0,1:0|0:0,0:0:0:0:
392,200,160264,2,0,P|376:242|324:254,1,99.0000030212403,0|0,3:0|3:0,0:0:0:0:
226,296,160537,1,0,1:0:0:0:
240,284,160605,1,0,1:0:0:0:
255,295,160673,1,0,1:0:0:0:
248,313,160741,1,0,1:0:0:0:
230,312,160810,38,0,P|302:281|376:377,1,215.999993408203,6|0,3:1|3:0,0:0:0:0:
156,384,161218,2,0,L|146:319,1,53.9999983520508,2|0,1:0|0:0,0:0:0:0:
178,234,161355,37,2,3:1:0:0:
67,347,161491,1,0,1:0:0:0:
186,158,161628,1,0,3:0:0:0:
21,273,161764,2,0,L|86:263,1,53.9999983520508,2|0,1:0|0:0,0:0:0:0:
248,204,161900,5,2,3:1:0:0:
96,193,162037,1,0,1:0:0:0:
309,157,162173,1,0,3:0:0:0:
53,128,162310,2,0,L|-1:136,1,53.9999983520508,2|0,1:0|0:0,0:0:0:0:
227,28,162446,38,0,P|252:63|262:89,1,53.9999983520508,2|0,3:1|0:0,0:0:0:0:
370,46,162582,2,0,P|344:80|322:98,1,53.9999983520508,0|0,1:0|0:0,0:0:0:0:
400,238,162718,2,0,P|359:224|335:209,1,53.9999983520508,2|0,3:1|0:0,0:0:0:0:
274,307,162856,2,0,P|274:263|281:237,1,53.9999983520508,2|0,1:0|0:0,0:0:0:0:
96,193,162992,6,0,L|332:152,1,215.999993408203,6|0,3:1|3:0,0:0:0:0:
506,166,163400,2,0,L|416:181,1,53.9999983520508,2|0,1:0|0:0,0:0:0:0:
400,238,163537,37,2,3:1:0:0:
432,90,163673,1,0,1:0:0:0:
457,291,163809,1,2,3:1:0:0:
434,76,163946,1,2,1:0:0:0:
351,301,164082,5,2,3:1:0:0:
507,238,164218,1,0,1:0:0:0:
262,191,164355,1,2,3:1:0:0:
410,351,164491,1,0,1:0:0:0:
328,138,164628,2,0,P|337:84|348:32,1,107.999996704102,2|0,3:1|1:0,0:0:0:0:
205,252,164900,2,0,P|216:304|225:357,1,107.999996704102,2|0,3:1|1:0,0:0:0:0:
509,341,165173,38,0,P|453:268|335:292,1,215.999993408203,6|0,3:1|3:0,0:0:0:0:
226,359,165582,2,0,P|198:337|181:306,1,53.9999983520508,2|0,1:0|0:0,0:0:0:0:
117,216,165718,5,2,3:1:0:0:
72,354,165855,1,0,1:0:0:0:
166,145,165991,1,0,3:0:0:0:
52,271,166128,2,0,P|80:249|97:218,1,53.9999983520508,2|0,1:0|0:0,0:0:0:0:
116,83,166264,37,2,3:1:0:0:
188,254,166400,1,0,1:0:0:0:
43,63,166537,1,0,3:0:0:0:
238,195,166673,2,0,L|307:184,1,53.9999983520508,2|0,1:0|0:0,0:0:0:0:
234,22,166809,6,0,P|192:46|169:65,1,53.9999983520508,2|0,3:1|0:0,0:0:0:0:
94,154,166946,2,0,L|105:218,1,53.9999983520508,0|0,1:0|0:0,0:0:0:0:
308,30,167082,2,0,P|259:34|230:41,1,53.9999983520508,2|0,3:1|0:0,0:0:0:0:
88,163,167218,2,0,L|99:227,1,53.9999983520508,2|0,1:0|0:0,0:0:0:0:
256,384,167355,21,2,3:0:0:0:
256,384,167900,37,2,3:0:0:0:
332,196,168446,37,2,0:1:0:0:
256,384,168582,1,0,1:0:0:0:
180,124,168718,37,0,0:0:0:0:
256,312,168856,1,0,1:0:0:0:
332,52,168992,5,0,3:0:0:0:
256,240,169128,1,0,1:0:0:0:
256,4,169264,21,0,1:0:0:0:
261,26,169332,1,0,1:0:0:0:
246,12,169400,1,0,1:0:0:0:
267,13,169468,1,0,1:0:0:0:
248,24,169536,1,2,3:2:0:0:
256,99,169810,37,0,3:0:0:0:
344,46,169946,1,2,3:2:0:0:
320,136,170083,1,2,1:2:0:0:
256,16,170219,1,0,1:0:0:0:
324,146,170356,1,0,3:0:0:0:
112,80,170628,6,0,L|44:68,1,59.3999998187256,2|0,3:0|0:0,0:0:0:0:
44,76,170833,1,0,0:0:0:0:
40,84,170901,1,2,0:0:0:0:
144,188,171037,38,0,L|81:158,1,59.3999998187256,2|2,3:0|0:0,0:0:0:0:
79,166,171242,1,0,0:0:0:0:
73,173,171310,1,0,0:0:0:0:
146,300,171446,6,0,L|93:255,1,59.3999998187256,6|0,3:0|0:0,0:0:0:0:
