osu file format v14

[General]
AudioFilename: audio.mp3
AudioLeadIn: 0
PreviewTime: 71219
Countdown: 0
SampleSet: Soft
StackLeniency: 0.7
Mode: 0
LetterboxInBreaks: 0
WidescreenStoryboard: 0

[Editor]
Bookmarks: 23356,88810,152083,171446
DistanceSpacing: 1
BeatDivisor: 4
GridSize: 32
TimelineZoom: 1.8

[Metadata]
Title:Yotsuya-san ni Yoroshiku
TitleUnicode:四ツ谷さんによろしく
Artist:Himeringo
ArtistUnicode:ひめりんご
Creator:Delette
Version:Collab Normal
Source:
Tags:j-rock jrock japanese utaite leave it to eight hatsune miku vocaloid unranked mapper unrankedmapper wenect wenet halgoh nekroman4ik atix174 miraui milr_ 619 maruoko
BeatmapID:2280823
BeatmapSetID:1085236

[Difficulty]
HPDrainRate:3
CircleSize:3.5
OverallDifficulty:4
ApproachRate:6
SliderMultiplier:0.899999999999999
SliderTickRate:1

[Events]
//Background and Video events
0,0,"bg.jpg",0,0
//Break Periods
2,123919,124701
2,143356,151033
//Storyboard Layer 0 (Background)
//Storyboard Layer 1 (Fail)
//Storyboard Layer 2 (Pass)
//Storyboard Layer 3 (Foreground)
//Storyboard Layer 4 (Overlay)
//Storyboard Sound Samples

[TimingPoints]
2629,272.727272727273,4,2,1,20,1,0
20083,291.26213592233,4,2,1,20,1,0
21248,288.461538461538,4,2,1,20,1,0
23356,272.727272727273,4,2,1,20,1,0
23492,-100,4,2,1,25,0,0
23628,-100,4,2,1,30,0,0
23765,-100,4,2,1,35,0,0
23901,-100,4,2,1,40,0,0
24037,-100,4,2,1,45,0,0
24174,-100,4,2,1,50,0,0
24310,-100,4,2,1,55,0,0
24446,-100,4,2,2,50,0,0
25537,-100,4,2,1,50,0,0
34265,-100,4,2,1,90,0,0
42583,-100,4,2,1,50,0,0
42719,-100,4,2,1,70,0,0
42992,-100,4,2,1,90,0,0
51310,-100,4,2,1,50,0,0
51446,-100,4,2,1,70,0,0
51719,-100,4,2,2,50,0,0
53901,-100,4,2,1,60,0,0
57583,-100,4,2,2,45,0,0
57719,-100,4,2,2,50,0,0
57856,-100,4,2,2,55,0,0
57992,-100,4,2,2,60,0,0
58265,-100,4,2,1,60,0,0
61606,-100,4,2,1,40,0,0
61946,-100,4,2,1,60,0,0
62015,-100,4,2,1,40,0,0
62356,-100,4,2,2,60,0,0
66310,-100,4,2,2,45,0,0
66446,-100,4,2,2,50,0,0
66583,-100,4,2,2,55,0,0
66719,-100,4,2,2,60,0,0
66992,-100,4,2,1,60,0,0
70265,-100,4,2,1,70,0,0
70674,-100,4,2,2,70,0,0
71219,-100,4,2,1,60,0,0
71356,-100,4,2,1,90,0,1
79060,-100,4,2,1,70,0,1
79401,-100,4,2,1,90,0,1
79469,-100,4,2,1,70,0,1
79810,-100,4,2,1,90,0,1
86628,-100,4,2,2,60,0,0
87719,-100,4,2,1,70,0,1
87787,-100,4,2,1,50,0,1
88128,-100,4,2,1,70,0,1
88196,-100,4,2,1,50,0,1
88537,-100,4,2,2,70,0,0
88810,-100,4,2,1,90,0,0
97128,-100,4,2,1,50,0,0
97264,-100,4,2,1,70,0,0
97537,-100,4,2,2,50,0,0
99719,-100,4,2,1,60,0,0
103401,-100,4,2,2,45,0,0
103537,-100,4,2,2,50,0,0
103674,-100,4,2,2,55,0,0
103809,-100,4,2,2,60,0,0
104083,-100,4,2,1,60,0,0
107424,-100,4,2,1,40,0,0
107765,-100,4,2,1,60,0,0
107833,-100,4,2,1,40,0,0
108174,-100,4,2,2,60,0,0
108446,-100,4,2,1,60,0,0
112128,-100,4,2,2,45,0,0
112265,-100,4,2,2,50,0,0
112401,-100,4,2,2,55,0,0
112537,-100,4,2,2,60,0,0
112810,-100,4,2,1,60,0,0
116083,-100,4,2,1,70,0,0
116492,-100,4,2,2,70,0,0
117174,-100,4,2,3,70,0,0
117310,-100,4,2,2,70,0,0
123719,-100,4,2,2,50,0,0
124810,-100,4,2,1,50,0,0
124946,-100,4,2,1,55,0,0
125083,-100,4,2,1,65,0,0
125219,-100,4,2,1,70,0,0
125765,-100,4,2,1,60,0,0
126174,-100,4,2,3,90,0,1
126310,-100,4,2,1,90,0,1
127810,-100,4,2,2,90,0,1
128083,-100,4,2,3,90,0,0
128356,-100,4,2,2,90,0,1
129992,-100,4,2,1,90,0,0
130265,-100,4,2,1,90,0,1
133606,-100,4,2,1,70,0,1
133946,-100,4,2,1,90,0,1
134015,-100,4,2,1,70,0,1
134356,-100,4,2,1,90,0,1
134628,-100,4,2,4,90,0,1
134765,-100,4,2,1,90,0,1
141174,-100,4,2,1,60,0,0
142265,-100,4,2,1,70,0,1
142333,-100,4,2,1,50,0,1
142674,-100,4,2,1,70,0,1
142742,-100,4,2,1,50,0,1
143083,-100,4,2,2,70,0,1
143356,-100,4,2,1,50,0,0
151537,-100,4,2,3,50,0,0
152083,-100,4,2,1,90,0,0
160401,-100,4,2,1,50,0,0
160537,-100,4,2,1,70,0,0
160810,-100,4,2,1,90,0,1
167356,-100,4,2,2,50,0,0
168446,-100,4,2,1,90,0,1
169128,-100,4,2,1,50,0,1
169265,-100,4,2,1,70,0,0
169537,-100,4,2,2,50,0,0

[Colours]
Combo1 : 255,9,9
Combo2 : 214,214,214
Combo3 : 65,65,65
Combo4 : 255,128,128

[HitObjects]
0,348,23356,6,0,B|218:275|123:416|358:346,1,360,0|4,3:0|3:0,0:0:0:0:
453,202,24992,1,0,3:0:0:0:
454,111,25265,1,0,1:0:0:0:
398,40,25537,6,0,B|358:20|358:20|302:32,1,89.9999999999999,10|0,3:2|0:0,0:0:0:0:
268,43,25946,2,0,P|200:35|172:19,1,89.9999999999999,10|10,0:0|0:0,0:0:0:0:
92,11,26492,2,0,L|100:115,1,89.9999999999999,10|10,0:0|0:0,0:0:0:0:
63,129,26901,2,0,L|55:233,1,89.9999999999999,2|2,0:0|0:0,0:0:0:0:
100,297,27446,1,2,0:0:0:0:
176,345,27719,38,0,P|240:325|276:325,1,89.9999999999999,10|0,3:2|0:0,0:0:0:0:
302,345,28128,2,0,B|334:364|334:364|410:351,1,89.9999999999999,10|10,0:0|0:0,0:0:0:0:
414,270,28674,2,0,B|443:245|443:245|454:169,1,89.9999999999999,10|10,0:0|0:0,0:0:0:0:
431,152,29083,2,0,B|416:116|416:116|347:82,1,89.9999999999999,2|2,0:0|0:0,0:0:0:0:
327,78,29492,1,2,3:0:0:0:
242,45,29765,1,2,3:0:0:0:
242,45,29901,6,0,B|202:29|178:29|178:29|158:49,1,89.9999999999999,10|0,3:2|0:0,0:0:0:0:
118,59,30310,2,0,P|122:103|122:155,1,89.9999999999999,10|10,0:0|0:0,0:0:0:0:
60,214,30856,2,0,P|56:258|56:310,1,89.9999999999999,10|10,0:0|0:0,0:0:0:0:
70,346,31265,2,0,P|120:313|166:326,1,89.9999999999999,2|2,0:0|0:0,0:0:0:0:
210,382,31810,1,2,0:0:0:0:
283,330,32083,38,0,B|323:334|323:334|327:338|327:338|375:342,1,89.9999999999999,10|0,3:2|0:0,0:0:0:0:
399,306,32492,2,0,P|395:258|371:218,1,89.9999999999999,10|10,0:0|0:0,0:0:0:0:
284,217,33037,2,0,P|268:169|260:121,1,89.9999999999999,10|10,0:0|0:0,0:0:0:0:
259,85,33446,2,0,L|291:37,2,45,2|10|10,0:0|0:0|0:0,0:0:0:0:
82,124,34265,22,0,B|80:169|80:169|86:178|86:178|85:216,1,89.9999999999999,6|0,3:1|1:0,0:0:0:0:
32,285,34810,2,0,L|36:385,1,89.9999999999999,2|0,1:0|1:0,0:0:0:0:
124,381,35356,2,0,P|156:353|212:353,1,89.9999999999999,2|0,1:0|1:0,0:0:0:0:
292,337,35901,2,0,L|352:345,1,45,2|0,3:1|3:0,0:0:0:0:
380,357,36174,1,2,1:0:0:0:
464,329,36446,22,0,P|481:281|492:231,1,89.9999999999999,6|0,3:1|1:0,0:0:0:0:
507,154,36992,2,0,P|497:110|443:71,1,89.9999999999999,2|0,1:0|1:0,0:0:0:0:
378,56,37537,1,2,1:0:0:0:
317,122,37810,1,2,1:0:0:0:
383,182,38083,1,2,3:1:0:0:
355,267,38356,1,2,1:0:0:0:
268,285,38628,22,0,P|232:273|184:237,1,89.9999999999999,6|0,3:1|1:0,0:0:0:0:
148,165,39174,2,0,L|136:65,1,89.9999999999999,2|0,1:0|1:0,0:0:0:0:
60,33,39719,2,0,L|49:122,1,89.9999999999999,2|0,1:0|1:0,0:0:0:0:
24,209,40265,2,0,L|28:253,1,45,2|0,3:1|3:0,0:0:0:0:
16,297,40537,1,2,1:0:0:0:
39,384,40810,22,0,P|75:360|128:354,1,89.9999999999999,6|0,3:1|1:0,0:0:0:0:
208,373,41356,2,0,P|256:361|272:317,1,89.9999999999999,2|2,1:0|1:0,0:0:0:0:
244,241,41901,2,0,B|228:177|228:177|200:161|200:161|176:69,1,180,2|0,1:0|3:0,0:0:0:0:
236,13,42719,2,0,P|268:1|292:1,1,45,0|0,1:0|1:0,0:0:0:0:
320,17,42992,22,0,L|424:9,1,89.9999999999999,6|0,3:1|1:0,0:0:0:0:
472,77,43537,2,0,P|460:121|456:185,1,89.9999999999999,2|0,1:0|1:0,0:0:0:0:
424,249,44083,2,0,P|436:293|440:357,1,89.9999999999999,2|0,1:0|1:0,0:0:0:0:
356,365,44628,2,0,P|324:357|304:353,1,45,2|0,3:1|3:0,0:0:0:0:
276,325,44901,1,2,1:0:0:0:
189,348,45174,22,0,L|81:344,1,89.9999999999999,6|0,3:1|1:0,0:0:0:0:
80,257,45719,2,0,L|188:261,1,89.9999999999999,2|0,1:0|1:0,0:0:0:0:
216,181,46265,1,2,1:0:0:0:
260,101,46537,1,2,1:0:0:0:
347,75,46810,1,2,3:1:0:0:
426,118,47083,1,2,1:0:0:0:
451,204,47356,22,0,L|444:297,1,89.9999999999999,6|0,3:1|1:0,0:0:0:0:
376,353,47901,2,0,P|352:333|284:321,1,89.9999999999999,2|0,1:0|1:0,0:0:0:0:
208,345,48446,2,0,P|160:345|128:305,1,89.9999999999999,2|0,1:0|1:0,0:0:0:0:
131,226,48992,2,0,L|139:178,1,45,2|0,3:1|3:0,0:0:0:0:
168,148,49265,1,2,1:0:0:0:
118,72,49537,22,0,P|67:65|23:83,1,89.9999999999999,6|0,3:1|1:0,0:0:0:0:
12,165,50083,2,0,L|16:261,1,89.9999999999999,2|2,1:0|1:0,0:0:0:0:
70,326,50628,2,0,L|162:351,1,89.9999999999999,2|0,1:0|1:0,0:0:0:0:
242,319,51174,1,0,3:0:0:0:
325,287,51446,2,0,L|377:283,1,45,0|0,1:0|1:0,0:0:0:0:
413,279,51719,5,2,3:2:0:0:
473,209,51992,2,0,L|477:152,1,45,0|2,3:0|3:2,0:0:0:0:
456,123,52265,2,0,P|437:132|410:153,2,45,2|0|0,1:2|1:0|3:0,0:0:0:0:
495,42,52810,38,0,P|439:34|387:54,1,89.9999999999999,2|2,3:0|0:0,0:0:0:0:
368,65,53219,2,0,P|312:73|260:53,1,89.9999999999999,2|0,3:0|0:0,0:0:0:0:
244,44,53628,1,6,3:0:0:0:
157,18,53901,6,0,B|128:47|128:47|137:198,1,180,6|0,3:2|1:0,0:0:0:0:
154,273,54719,2,0,L|146:325,1,45,2|0,1:2|0:0,0:0:0:0:
115,349,54992,2,0,P|61:334|35:301,1,89.9999999999999,2|2,3:2|1:2,0:0:0:0:
0,226,55537,1,2,0:0:0:0:
43,147,55810,1,2,1:2:0:0:
96,74,56083,2,0,B|150:61|190:92|190:92|229:126|282:121,1,180,2|0,3:2|1:0,0:0:0:0:
343,79,56901,37,2,1:2:0:0:
420,124,57174,2,0,L|430:226,1,89.9999999999999,0|0,3:0|1:0,0:0:0:0:
432,303,57719,1,8,0:0:0:0:
373,371,57992,1,8,1:2:0:0:
282,372,58265,6,0,P|230:335|109:351,1,180,2|0,3:2|1:0,0:0:0:0:
35,309,59083,2,0,P|41:269|42:242,1,45,2|0,1:2|0:0,0:0:0:0:
55,221,59356,2,0,P|46:139|60:104,1,89.9999999999999,2|2,3:2|1:2,0:0:0:0:
97,58,59901,1,2,0:0:0:0:
181,88,60174,1,2,1:2:0:0:
256,40,60446,38,0,B|304:42|304:42|315:52|315:52|402:58,1,135,2|2,3:2|1:2,0:0:0:0:
432,59,60992,1,0,1:0:0:0:
480,135,61265,1,2,1:2:0:0:
441,216,61537,2,0,B|367:196|321:262|321:262|274:325|203:316,1,270,2|2,1:2|1:3,0:0:0:0:
124,281,62628,6,0,B|97:195|97:195|154:112,1,180,6|0,3:2|1:0,0:0:0:0:
201,48,63446,2,0,L|251:43,1,45,2|0,1:2|0:0,0:0:0:0:
288,57,63719,2,0,B|321:49|321:49|390:65,1,89.9999999999999,2|2,3:2|1:2,0:0:0:0:
450,112,64265,2,0,L|465:226,1,89.9999999999999,2|2,0:0|1:2,0:0:0:0:
442,289,64810,38,0,P|377:276|306:329,1,135,2|2,3:2|1:2,0:0:0:0:
288,341,65356,1,0,1:0:0:0:
198,335,65628,1,2,1:2:0:0:
108,322,65901,2,0,B|66:298|66:298|55:251,1,89.9999999999999,2|0,3:2|1:0,0:0:0:0:
72,168,66446,1,10,0:0:0:0:
138,107,66719,2,0,P|174:105|202:109,1,45,10|0,1:2|0:0,0:0:0:0:
220,130,66992,5,2,3:2:0:0:
305,101,67265,2,0,P|360:84|399:71,2,89.9999999999999,2|0|0,0:0|1:0|1:0,0:0:0:0:
307,191,68083,2,0,P|291:238|288:253,1,45,0|0,3:0|3:0,0:0:0:0:
299,278,68356,1,0,1:0:0:0:
370,331,68628,1,2,0:0:0:0:
459,321,68901,1,2,1:2:0:0:
499,240,69174,38,0,L|502:136,1,89.9999999999999,2|0,3:2|0:0,0:0:0:0:
463,126,69583,1,2,1:2:0:0:
463,126,69719,2,0,L|460:22,1,89.9999999999999,0|2,1:0|1:2,0:0:0:0:
370,24,70265,2,0,B|329:28|329:28|307:21|307:21|290:35|290:35|236:45,1,135,2|2,1:2|3:0,0:0:0:0:
99,154,71219,37,2,0:1:0:0:
99,154,71356,2,0,L|101:267,1,89.9999999999999,6|0,3:1|1:0,0:0:0:0:
102,289,71765,1,2,0:1:0:0:
102,289,71901,2,0,P|160:262|202:257,1,89.9999999999999,2|0,3:1|1:0,0:0:0:0:
224,279,72310,1,2,0:1:0:0:
224,279,72446,2,0,B|261:310|261:310|314:304,1,89.9999999999999,2|0,3:1|1:0,0:0:0:0:
375,252,72992,2,0,L|368:188,1,45,2|2,0:1|3:1,0:0:0:0:
394,169,73265,2,0,L|401:105,1,45,2|2,1:0|1:0,0:0:0:0:
405,79,73537,38,0,B|381:62|381:62|309:73,1,89.9999999999999,6|0,3:1|1:0,0:0:0:0:
233,49,74083,2,0,L|168:44,1,45,2|2,3:1|3:1,0:0:0:0:
155,76,74356,2,0,L|90:81,1,45,2|2,1:0|0:1,0:0:0:0:
67,65,74628,1,2,3:1:0:0:
27,145,74901,1,2,1:0:0:0:
27,235,75174,1,2,0:1:0:0:
59,318,75446,1,2,1:0:0:0:
124,380,75719,6,0,L|236:362,1,89.9999999999999,6|0,3:1|1:0,0:0:0:0:
258,366,76128,1,2,0:1:0:0:
258,366,76265,2,0,L|370:384,1,89.9999999999999,2|0,3:1|1:0,0:0:0:0:
388,363,76673,1,2,0:1:0:0:
388,363,76810,2,0,L|500:345,1,89.9999999999999,2|0,3:1|1:0,0:0:0:0:
491,259,77356,2,0,L|488:206,1,45,2|2,0:1|3:1,0:0:0:0:
451,188,77628,2,0,L|401:168,1,45,2|2,1:0|1:0,0:0:0:0:
364,179,77901,38,0,L|263:200,1,89.9999999999999,6|0,3:1|1:0,0:0:0:0:
232,208,78310,1,2,0:1:0:0:
232,208,78446,1,2,3:1:0:0:
148,173,78719,2,0,L|95:168,1,45,2|2,1:0|0:1,0:0:0:0:
59,155,78992,2,0,P|49:94|211:70,1,270,2|0,1:0|1:0,0:0:0:0:
292,96,80083,6,0,L|404:79,1,89.9999999999999,6|0,3:1|1:0,0:0:0:0:
425,91,80492,1,2,0:1:0:0:
425,91,80628,2,0,P|409:153|402:192,1,89.9999999999999,2|0,3:1|1:0,0:0:0:0:
385,219,81037,1,2,0:1:0:0:
385,219,81173,2,0,P|401:281|408:320,1,89.9999999999999,2|0,3:1|1:0,0:0:0:0:
337,365,81719,2,0,P|279:359|264:358,1,45,2|2,0:1|3:1,0:0:0:0:
252,339,81992,2,0,P|194:345|179:346,1,45,2|2,1:0|1:0,0:0:0:0:
164,359,82265,38,0,P|126:323|114:273,1,89.9999999999999,6|0,3:1|1:0,0:0:0:0:
119,198,82810,2,0,P|126:151|125:135,1,45,2|2,3:1|3:1,0:0:0:0:
152,117,83083,2,0,P|145:70|146:54,1,45,2|2,1:0|0:1,0:0:0:0:
156,28,83356,1,2,3:1:0:0:
240,57,83628,1,2,1:0:0:0:
324,28,83901,1,2,0:1:0:0:
408,57,84174,1,2,1:0:0:0:
492,28,84446,6,0,L|503:140,1,89.9999999999999,6|0,3:1|1:0,0:0:0:0:
497,163,84856,1,2,0:1:0:0:
497,163,84992,2,0,L|425:249,1,89.9999999999999,2|0,3:1|1:0,0:0:0:0:
405,261,85401,1,2,0:1:0:0:
405,261,85537,2,0,L|292:272,1,89.9999999999999,2|0,3:1|1:0,0:0:0:0:
240,319,86083,2,0,P|186:314|176:315,1,45,2|2,0:1|3:1,0:0:0:0:
150,320,86356,2,0,P|127:270|121:262,1,45,2|2,1:0|1:0,0:0:0:0:
104,242,86628,21,2,1:3:0:0:
203,92,87174,1,2,1:3:0:0:
359,181,87719,22,0,P|440:175|381:28,1,270,2|2,1:0|1:3,0:0:0:0:
332,63,88810,6,0,L|231:51,1,89.9999999999999,6|0,3:1|1:0,0:0:0:0:
175,113,89356,2,0,B|166:134|158:156|158:156|180:176|201:197,1,89.9999999999999,2|0,1:0|1:0,0:0:0:0:
226,214,89765,1,2,3:1:0:0:
226,214,89901,2,0,P|273:208|331:202,1,89.9999999999999,2|0,1:0|1:0,0:0:0:0:
371,274,90446,2,0,P|365:303|357:338,2,45,2|0|2,3:1|3:0|1:0,0:0:0:0:
412,253,90856,1,2,0:1:0:0:
412,253,90992,22,0,B|477:267|477:267|499:200,1,135,6|2,3:1|0:1,0:0:0:0:
512,159,91537,2,0,L|419:170,1,89.9999999999999,2|0,1:0|1:0,0:0:0:0:
400,136,91946,1,2,3:1:0:0:
400,136,92083,2,0,L|416:30,1,89.9999999999999,2|2,1:0|1:0,0:0:0:0:
325,32,92628,2,0,L|309:138,1,89.9999999999999,2|2,3:1|1:0,0:0:0:0:
341,206,93174,22,0,B|372:241|372:241|356:281,1,89.9999999999999,6|0,3:1|1:0,0:0:0:0:
284,336,93719,2,0,L|183:323,1,89.9999999999999,2|0,1:0|1:0,0:0:0:0:
169,295,94128,1,2,3:1:0:0:
169,295,94265,2,0,B|132:327|132:327|82:310,1,89.9999999999999,2|0,1:0|1:0,0:0:0:0:
71,226,94810,2,0,L|16:234,2,45,2|0|2,3:1|3:0|1:0,0:0:0:0:
98,190,95219,1,2,0:1:0:0:
98,190,95356,22,0,B|138:222|138:222|217:195,1,135,6|2,3:1|0:1,0:0:0:0:
230,152,95901,2,0,L|332:164,1,89.9999999999999,2|2,1:0|1:0,0:0:0:0:
353,132,96310,1,0,3:0:0:0:
353,132,96446,2,0,B|372:86|372:86|327:46,1,89.9999999999999,2|0,1:0|1:0,0:0:0:0:
275,1,96992,2,0,L|174:15,1,89.9999999999999,0|0,3:0|1:0,0:0:0:0:
167,49,97401,1,0,1:0:0:0:
167,49,97537,38,0,B|20:35,1,135,2|2,3:2|3:2,0:0:0:0:
11,76,98083,2,0,B|-8:122|-8:122|37:162,1,89.9999999999999,2|0,1:2|3:0,0:0:0:0:
91,206,98628,2,0,L|232:185,2,135,2|2|6,3:0|3:0|3:0,0:0:0:0:
42,282,99719,38,0,B|89:354|89:354|185:323,1,180,6|0,3:2|1:0,0:0:0:0:
261,361,100537,2,0,L|315:351,1,45,2|0,1:2|0:0,0:0:0:0:
328,314,100810,2,0,L|438:328,2,89.9999999999999,2|2|2,3:2|1:2|0:0,0:0:0:0:
306,228,101628,1,2,1:2:0:0:
220,251,101901,6,0,B|152:193|152:193|192:96,1,180,2|0,3:2|1:0,0:0:0:0:
224,27,102719,2,0,L|282:20,1,45,2|2,1:2|0:0,0:0:0:0:
308,44,102992,2,0,L|289:152,1,89.9999999999999,0|0,3:0|1:0,0:0:0:0:
381,148,103537,2,0,L|400:40,1,89.9999999999999,8|8,0:0|1:2,0:0:0:0:
485,41,104083,38,0,B|521:122|521:122|451:201,1,180,6|0,3:2|1:0,0:0:0:0:
385,238,104901,2,0,L|397:297,1,45,2|0,1:2|0:0,0:0:0:0:
427,313,105174,2,0,B|415:357|415:357|365:370,1,89.9999999999999,2|2,3:2|1:2,0:0:0:0:
286,343,105719,2,0,L|299:253,1,89.9999999999999,2|2,0:0|1:2,0:0:0:0:
329,170,106265,6,0,B|238:186|238:186|187:114,1,180,2|0,3:2|1:0,0:0:0:0:
230,36,107083,1,2,1:2:0:0:
148,1,107356,2,0,B|88:35|88:35|101:104,2,135,2|2|2,1:2|1:2|1:3,0:0:0:0:
230,36,108446,38,0,L|428:61,1,180,6|0,3:2|1:0,0:0:0:0:
476,120,109265,2,0,L|486:178,1,45,2|0,1:2|0:0,0:0:0:0:
452,196,109537,2,0,B|404:182|404:182|361:222,1,89.9999999999999,2|2,3:2|1:2,0:0:0:0:
390,299,110083,2,0,B|342:313|342:313|299:273,1,89.9999999999999,2|2,0:0|1:2,0:0:0:0:
247,226,110628,6,0,L|49:251,1,180,2|0,3:2|1:0,0:0:0:0:
10,317,111446,1,2,1:2:0:0:
90,359,111719,2,0,L|195:345,1,89.9999999999999,0|0,3:0|1:0,0:0:0:0:
265,379,112265,2,0,B|300:346|300:346|279:302,1,89.9999999999999,10|10,0:0|1:2,0:0:0:0:
247,226,112810,38,0,L|274:47,1,180,2|0,3:2|1:0,0:0:0:0:
356,10,113628,1,0,1:0:0:0:
402,87,113901,2,0,B|451:75|451:75|481:115,1,89.9999999999999,0|0,3:0|1:0,0:0:0:0:
434,187,114446,2,0,L|341:199,1,89.9999999999999,2|2,0:0|1:2,0:0:0:0:
315,171,114856,1,2,0:0:0:0:
315,171,114992,6,0,L|129:147,1,180,2|0,3:2|1:0,0:0:0:0:
69,208,115810,1,2,1:2:0:0:
136,268,116083,2,0,B|146:312|146:312|95:346,1,89.9999999999999,2|0,1:2|1:0,0:0:0:0:
70,360,116492,1,2,1:3:0:0:
294,383,117174,22,0,L|398:367,1,89.9999999999999,6|0,3:2|0:0,0:0:0:0:
419,286,117719,2,0,L|511:299,1,89.9999999999999,2|0,1:2|0:0,0:0:0:0:
505,208,118265,2,0,L|361:188,1,135,2|2,0:0|0:0,0:0:0:0:
346,153,118810,2,0,B|366:112|366:112|332:75,1,89.9999999999999,2|2,1:2|0:0,0:0:0:0:
274,13,119356,22,0,L|175:22,1,89.9999999999999,2|2,3:2|0:0,0:0:0:0:
125,90,119901,2,0,B|94:122|94:122|114:163,1,89.9999999999999,2|2,1:2|0:0,0:0:0:0:
139,208,120310,1,2,3:2:0:0:
139,208,120446,2,0,L|245:222,2,89.9999999999999,2|2|2,0:0|3:2|1:2,0:0:0:0:
64,258,121265,1,2,1:2:0:0:
103,340,121537,22,0,L|206:354,1,89.9999999999999,6|0,3:2|0:0,0:0:0:0:
277,383,122083,2,0,B|310:352|310:352|292:298,1,89.9999999999999,2|0,1:2|0:0,0:0:0:0:
270,224,122628,2,0,L|409:201,1,135,2|2,0:0|0:0,0:0:0:0:
434,235,123174,2,0,B|477:247|477:247|514:210,2,89.9999999999999,2|2|2,1:2|0:0|3:0,0:0:0:0:
246,33,125901,6,0,L|336:42,2,89.9999999999999,2|4|2,0:1|1:0|3:1,0:0:0:0:
174,86,126719,2,0,L|184:143,1,45,0|2,1:0|3:1,0:0:0:0:
216,159,126992,2,0,B|263:144|263:144|303:187,1,89.9999999999999,2|0,0:1|1:0,0:0:0:0:
322,214,127401,1,2,0:1:0:0:
322,214,127537,2,0,L|312:271,1,45,2|2,1:0|1:0,0:0:0:0:
274,279,127810,2,0,L|287:342,1,45,2|2,3:0|0:1,0:0:0:0:
312,357,128083,6,0,L|203:374,1,89.9999999999999,2|4,0:1|3:1,0:0:0:0:
167,298,128628,2,0,L|107:292,1,45,2|2,1:0|3:1,0:0:0:0:
89,324,128901,2,0,L|39:334,1,45,2|2,3:1|1:0,0:0:0:0:
14,299,129174,2,0,B|-18:263|-18:263|8:208,1,89.9999999999999,2|2,0:1|1:0,0:0:0:0:
70,166,129719,2,0,L|178:184,1,89.9999999999999,2|2,1:0|3:0,0:0:0:0:
242,219,130265,22,0,B|274:183|274:183|248:128,1,89.9999999999999,6|0,3:1|1:0,0:0:0:0:
225,112,130674,1,2,0:1:0:0:
225,112,130810,2,0,L|323:97,1,89.9999999999999,2|0,3:1|1:0,0:0:0:0:
347,67,131219,1,2,0:1:0:0:
347,67,131356,2,0,B|377:27|377:27|427:40,1,89.9999999999999,2|0,3:1|1:0,0:0:0:0:
501,67,131901,2,0,L|493:123,1,45,2|2,0:1|3:1,0:0:0:0:
456,135,132174,2,0,L|465:187,1,45,2|2,1:0|1:0,0:0:0:0:
497,210,132446,38,0,B|467:270|467:270|397:254,1,135,6|2,3:1|0:1,0:0:0:0:
372,221,132992,2,0,L|270:237,1,89.9999999999999,2|2,3:1|1:0,0:0:0:0:
198,205,133537,2,0,B|165:242|165:242|184:294,1,89.9999999999999,2|0,1:0|3:0,0:0:0:0:
198,321,133946,2,0,L|344:341,1,135,0|0,1:0|1:0,0:0:0:0:
414,299,134628,6,0,L|504:287,1,89.9999999999999,6|0,3:1|1:0,0:0:0:0:
478,200,135174,2,0,L|376:214,1,89.9999999999999,2|0,3:1|1:0,0:0:0:0:
358,187,135583,1,10,0:1:0:0:
358,187,135719,2,0,B|388:145|388:145|369:95,1,89.9999999999999,2|0,3:1|1:0,0:0:0:0:
357,73,136128,1,10,3:1:0:0:
357,73,136265,2,0,L|292:64,1,45,2|10,0:1|3:1,0:0:0:0:
283,101,136537,2,0,L|226:108,1,45,2|10,1:0|1:0,0:0:0:0:
209,73,136810,38,0,L|109:59,1,89.9999999999999,6|0,3:1|1:0,0:0:0:0:
74,140,137356,2,0,B|84:195,1,45,2|8,3:1|3:1,0:0:0:0:
120,208,137628,2,0,L|108:260,1,45,2|8,1:0|0:1,0:0:0:0:
77,284,137901,2,0,B|33:271|33:271|-7:305,1,89.9999999999999,2|2,3:1|1:0,0:0:0:0:
62,366,138446,2,0,B|106:379|106:379|146:345,1,89.9999999999999,2|2,3:1|1:0,0:0:0:0:
214,297,138992,6,0,L|308:283,1,89.9999999999999,6|0,3:1|1:0,0:0:0:0:
335,323,139401,1,10,0:1:0:0:
335,323,139537,2,0,B|367:357|367:357|415:344,1,89.9999999999999,2|0,3:1|1:0,0:0:0:0:
450,323,139946,1,10,0:1:0:0:
450,323,140083,2,0,L|436:223,1,89.9999999999999,2|0,3:1|1:0,0:0:0:0:
405,211,140492,1,10,3:1:0:0:
405,211,140628,2,0,L|413:159,2,45,2|2|10,0:1|3:1|1:0,0:0:0:0:
316,226,141174,21,2,3:0:0:0:
291,102,141719,1,2,3:0:0:0:
168,133,142265,22,0,L|157:232,1,89.9999999999999,2|0,1:0|3:0,0:0:0:0:
191,254,142674,2,0,B|238:302|238:302|203:377,1,135,0|2,1:0|3:0,0:0:0:0:
328,53,152083,38,0,P|259:48|226:34,1,89.9999999999999,6|0,3:1|1:0,0:0:0:0:
149,49,152629,2,0,P|144:118|130:151,1,89.9999999999999,2|0,1:0|1:0,0:0:0:0:
145,228,153174,2,0,P|214:233|247:247,1,89.9999999999999,2|0,1:0|1:0,0:0:0:0:
307,290,153719,2,0,L|296:346,1,45,2|0,3:1|3:0,0:0:0:0:
264,364,153992,2,0,L|207:353,1,45,2|2,1:0|0:1,0:0:0:0:
174,361,154265,22,0,B|129:342|129:342|83:358,1,89.9999999999999,6|0,3:1|1:0,0:0:0:0:
28,290,154810,2,0,L|50:171,1,89.9999999999999,2|0,1:0|1:0,0:0:0:0:
69,114,155356,1,2,1:0:0:0:
146,68,155629,1,2,1:0:0:0:
235,59,155901,1,2,3:1:0:0:
317,94,156174,1,2,1:0:0:0:
359,173,156447,22,0,B|354:222|354:222|349:232|349:232|345:286,1,89.9999999999999,6|0,3:1|1:0,0:0:0:0:
302,339,156992,2,0,B|275:316|275:316|209:333,1,89.9999999999999,2|0,1:0|1:0,0:0:0:0:
131,334,157538,2,0,B|104:357|104:357|38:340,1,89.9999999999999,2|0,1:0|1:0,0:0:0:0:
35,254,158083,2,0,L|32:194,1,45,2|0,3:1|3:0,0:0:0:0:
43,165,158356,2,0,L|40:105,1,45,2|2,1:0|0:1,0:0:0:0:
51,76,158629,22,0,B|116:60|116:60|143:73,1,89.9999999999999,6|0,3:1|1:0,0:0:0:0:
216,111,159174,2,0,B|281:127|281:127|308:114,1,89.9999999999999,2|2,1:0|1:0,0:0:0:0:
374,64,159719,2,0,B|433:94|430:169|430:169|383:240|410:311,1,270,2|0,1:0|1:0,0:0:0:0:
334,358,160810,38,0,P|290:320|246:312,1,89.9999999999999,6|0,3:1|3:0,0:0:0:0:
214,312,161219,1,2,1:0:0:0:
214,312,161356,2,0,L|111:321,1,89.9999999999999,2|0,3:1|3:0,0:0:0:0:
79,318,161765,1,2,1:0:0:0:
79,318,161901,2,0,L|70:214,1,89.9999999999999,2|0,3:1|3:0,0:0:0:0:
40,143,162447,2,0,P|79:136|101:135,1,45,2|0,3:1|1:0,0:0:0:0:
105,96,162719,2,0,P|144:103|166:104,1,45,2|2,3:1|1:0,0:0:0:0:
192,116,162992,38,0,L|289:108,1,89.9999999999999,6|0,3:1|3:0,0:0:0:0:
372,109,163538,2,0,L|380:206,1,89.9999999999999,2|2,3:1|3:1,0:0:0:0:
423,277,164083,1,2,3:1:0:0:
495,223,164356,1,2,3:1:0:0:
497,132,164629,1,2,3:1:0:0:
460,50,164901,1,2,3:1:0:0:
372,30,165174,6,0,L|277:25,1,89.9999999999999,6|0,3:1|3:0,0:0:0:0:
239,9,165583,1,2,1:0:0:0:
239,9,165719,2,0,L|144:14,1,89.9999999999999,2|0,3:1|3:0,0:0:0:0:
106,30,166129,1,2,1:0:0:0:
106,30,166265,2,0,P|77:68|71:118,1,89.9999999999999,2|0,3:1|3:0,0:0:0:0:
90,196,166810,2,0,P|97:251|97:272,1,45,2|0,3:1|1:0,0:0:0:0:
98,285,167083,2,0,P|149:306|167:316,1,45,2|2,3:1|1:0,0:0:0:0:
179,322,167356,21,2,3:0:0:0:
319,209,167901,1,2,3:0:0:0:
450,332,168446,22,0,L|474:290,1,45,2|0,0:1|1:0,0:0:0:0:
498,256,168719,2,0,L|485:209,1,45,0|0,0:0|1:0,0:0:0:0:
478,168,168992,2,0,L|436:144,1,45,0|0,3:0|1:0,0:0:0:0:
394,136,169265,1,0,1:0:0:0:
394,136,169401,1,0,1:0:0:0:
256,192,169537,12,6,171446,3:0:0:0:
