osu file format v14

[General]
AudioFilename: audio.mp3
AudioLeadIn: 0
PreviewTime: 71219
Countdown: 0
SampleSet: None
StackLeniency: 0.3
Mode: 0
LetterboxInBreaks: 0
WidescreenStoryboard: 1

[Editor]
Bookmarks: 87174,119083,120446
DistanceSpacing: 1.2
BeatDivisor: 8
GridSize: 8
TimelineZoom: 3.099999

[Metadata]
Title:Yotsuya-san ni Yoroshiku
TitleUnicode:四ツ谷さんによろしく
Artist:Himeringo
ArtistUnicode:ひめりんご
Creator:Delette
Version:619's Hard
Source:
Tags:j-rock jrock japanese utaite leave it to eight hatsune miku vocaloid unranked mapper unrankedmapper wenect wenet halgoh nekroman4ik atix174 miraui milr_ 619 maruoko
BeatmapID:2499276
BeatmapSetID:1085236

[Difficulty]
HPDrainRate:5
CircleSize:3.5
OverallDifficulty:6
ApproachRate:8.2
SliderMultiplier:1.4
SliderTickRate:1

[Events]
//Background and Video events
0,0,"bg.jpg",0,0
//Break Periods
2,143556,149181
//Storyboard Layer 0 (Background)
//Storyboard Layer 1 (Fail)
//Storyboard Layer 2 (Pass)
//Storyboard Layer 3 (Foreground)
//Storyboard Layer 4 (Overlay)
//Storyboard Sound Samples

[TimingPoints]
2629,272.727272727273,4,2,1,20,1,0
20083,291.26213592233,4,2,1,20,1,0
21248,288.461538461538,4,2,1,20,1,0
23356,272.727272727273,4,2,1,20,1,0
23356,-125,4,2,1,20,0,0
23492,-125,4,2,1,25,0,0
23628,-125,4,2,1,30,0,0
23764,-125,4,2,1,35,0,0
23901,-125,4,2,1,40,0,0
24037,-125,4,2,1,45,0,0
24174,-125,4,2,1,50,0,0
24310,-125,4,2,1,55,0,0
24446,-125,4,2,2,50,0,0
25196,-125,4,2,2,5,0,0
25265,-125,4,2,2,50,0,0
25537,-133.333333333333,4,2,1,50,0,0
34265,-111.111111111111,4,2,1,90,0,0
38558,-111.111111111111,4,2,1,5,0,0
38628,-111.111111111111,4,2,1,90,0,0
42582,-111.111111111111,4,2,1,50,0,0
42719,-111.111111111111,4,2,1,70,0,0
42992,-111.111111111111,4,2,1,90,0,0
47287,-111.111111111111,4,2,1,5,0,0
47356,-111.111111111111,4,2,1,90,0,0
51310,-111.111111111111,4,2,1,50,0,0
51446,-111.111111111111,4,2,1,70,0,0
51719,-111.111111111111,4,2,2,50,0,0
53901,-125,4,2,1,60,0,0
57583,-125,4,2,2,45,0,0
57719,-125,4,2,2,50,0,0
57856,-125,4,2,2,55,0,0
57992,-125,4,2,2,60,0,0
58265,-125,4,2,1,60,0,0
61606,-125,4,2,1,40,0,0
61946,-125,4,2,1,60,0,0
62015,-125,4,2,1,40,0,0
62356,-125,4,2,2,60,0,0
62628,-125,4,2,1,60,0,0
66310,-125,4,2,2,45,0,0
66446,-125,4,2,2,50,0,0
66582,-125,4,2,2,55,0,0
66719,-125,4,2,2,60,0,0
66992,-125,4,2,1,60,0,0
69174,-111.111111111111,4,2,1,60,0,0
70265,-100,4,2,1,70,0,0
70674,-100,4,2,2,70,0,0
71219,-100,4,2,1,60,0,0
71356,-100,4,2,1,90,0,1
79060,-100,4,2,1,70,0,1
79333,-100,4,2,1,70,0,1
79401,-100,4,2,1,90,0,1
79469,-100,4,2,1,70,0,1
79810,-100,4,2,1,90,0,1
86628,-100,4,2,2,60,0,1
87719,-100,4,2,1,70,0,1
87787,-100,4,2,1,50,0,1
88128,-100,4,2,1,70,0,1
88196,-100,4,2,1,50,0,1
88469,-100,4,2,1,50,0,1
88537,-100,4,2,2,70,0,1
88810,-111.111111111111,4,2,1,90,0,0
97128,-111.111111111111,4,2,1,50,0,0
97265,-111.111111111111,4,2,1,70,0,0
97537,-111.111111111111,4,2,2,50,0,0
99719,-125,4,2,1,60,0,0
103401,-125,4,2,2,45,0,0
103537,-125,4,2,2,50,0,0
103674,-125,4,2,2,55,0,0
103810,-125,4,2,2,60,0,0
104083,-125,4,2,1,60,0,0
107424,-125,4,2,1,40,0,0
107765,-125,4,2,1,60,0,0
107833,-125,4,2,1,40,0,0
108174,-125,4,2,2,60,0,0
108446,-125,4,2,1,60,0,0
112128,-125,4,2,2,45,0,0
112265,-125,4,2,2,50,0,0
112401,-125,4,2,2,55,0,0
112538,-125,4,2,2,60,0,0
112810,-125,4,2,1,60,0,0
114992,-111.111111111111,4,2,1,60,0,0
116083,-100,4,2,1,70,0,0
116492,-100,4,2,2,70,0,0
117174,-111.111111111111,4,2,3,70,0,0
117310,-111.111111111111,4,2,2,70,0,0
117378,-111.111111111111,4,2,2,5,0,0
117446,-111.111111111111,4,2,2,70,0,0
117924,-111.111111111111,4,2,2,5,0,0
117992,-111.111111111111,4,2,2,70,0,0
119560,-111.111111111111,4,2,2,5,0,0
119628,-111.111111111111,4,2,2,70,0,0
119901,-111.111111111111,4,2,2,70,0,0
122833,-111.111111111111,4,2,2,5,0,0
122901,-111.111111111111,4,2,2,70,0,0
123719,-125,4,2,2,50,0,0
124810,-100,4,2,1,50,0,0
124946,-100,4,2,1,55,0,0
125083,-100,4,2,1,65,0,0
125219,-100,4,2,1,70,0,0
125765,-100,4,2,1,60,0,0
125901,-200,4,2,1,60,0,0
126106,-200,4,2,1,5,0,0
126174,-100,4,2,3,90,0,0
126310,-100,4,2,1,90,0,0
127810,-100,4,2,2,90,0,0
128083,-200,4,2,3,90,0,0
128287,-200,4,2,3,5,0,0
128356,-100,4,2,2,90,0,0
128492,-100,4,2,1,90,0,0
133606,-100,4,2,1,70,0,0
133878,-100,4,2,1,70,0,0
133946,-100,4,2,1,90,0,0
134015,-100,4,2,1,70,0,0
134356,-100,4,2,1,90,0,0
134628,-90.9090909090909,4,2,4,90,0,1
134765,-90.9090909090909,4,2,1,90,0,1
141174,-133.333333333333,4,2,1,60,0,0
142265,-100,4,2,1,70,0,0
142333,-100,4,2,1,50,0,0
142674,-100,4,2,1,70,0,0
142742,-100,4,2,1,50,0,0
143015,-100,4,2,1,50,0,0
143083,-100,4,2,2,70,0,0
143356,-100,4,2,1,50,0,0
151537,-100,4,2,3,50,0,0
152083,-111.111111111111,4,2,1,90,0,0
156378,-111.111111111111,4,2,1,5,0,0
156446,-111.111111111111,4,2,1,90,0,0
160401,-111.111111111111,4,2,1,50,0,0
160538,-111.111111111111,4,2,1,70,0,0
160810,-90.9090909090908,4,2,1,90,0,1
167356,-111.111111111111,4,2,2,50,0,0
168446,-111.111111111111,4,2,1,90,0,0
169128,-111.111111111111,4,2,1,50,0,0
169265,-111.111111111111,4,2,1,70,0,0
169537,-142.857142857143,4,2,2,50,0,0

[Colours]
Combo1 : 255,9,9
Combo2 : 214,214,214
Combo3 : 65,65,65
Combo4 : 255,128,128

[HitObjects]
194,292,23356,6,0,L|128:299,1,56,0|0,3:0|3:0,0:0:0:0:
60,328,23628,2,0,L|53:262,1,56,0|0,3:0|3:0,0:0:0:0:
17,196,23901,2,0,L|83:189,1,56,0|0,1:0|1:0,0:0:0:0:
152,161,24174,2,0,L|159:227,1,56,0|0,1:0|1:0,0:0:0:0:
194,292,24446,6,0,B|238:284|238:284|251:265|251:265|308:255,1,112,4|2,3:0|0:0,0:0:0:0:
383,258,24856,1,2,0:0:0:0:
383,258,24992,2,0,B|415:263|415:263|425:277|425:277|458:283,1,84,0|0,3:0|0:0,0:0:0:0:
473,283,25265,2,0,L|484:217,1,56,0|0,1:0|0:0,0:0:0:0:
476,122,25537,38,0,L|359:116,1,105.000004005432,10|0,3:2|0:0,0:0:0:0:
309,75,25946,1,10,0:0:0:0:
309,75,26083,2,0,P|268:104|268:164,1,105.000004005432,2|0,0:0|0:0,0:0:0:0:
266,234,26492,2,0,L|161:239,1,105.000004005432,10|10,0:0|0:0,0:0:0:0:
90,275,26901,2,0,L|65:217,1,52.5000020027161,2|8,0:0|0:0,0:0:0:0:
3,183,27174,2,0,L|40:132,1,52.5000020027161,2|8,0:0|0:0,0:0:0:0:
36,62,27446,2,0,L|98:69,1,52.5000020027161,2|0,0:0|3:0,0:0:0:0:
159,104,27719,6,0,B|222:98|222:98|239:80|239:80|323:73,1,157.500006008148,10|10,3:2|0:0,0:0:0:0:
350,7,28265,2,0,P|385:51|382:106,1,105.000004005432,2|0,0:0|0:0,0:0:0:0:
359,172,28674,2,0,L|473:189,1,105.000004005432,10|10,0:0|0:0,0:0:0:0:
465,266,29083,2,0,L|391:277,1,52.5000020027161,2|10,0:0|0:0,0:0:0:0:
333,274,29356,2,0,L|281:266,1,52.5000020027161,2|2,0:0|3:0,0:0:0:0:
219,315,29628,1,2,0:3:0:0:
203,314,29765,1,2,3:0:0:0:
191,302,29901,38,0,P|184:251|207:203,1,105.000004005432,10|0,3:2|0:0,0:0:0:0:
220,129,30310,1,10,0:0:0:0:
220,129,30446,2,0,L|106:120,1,105.000004005432,2|0,0:0|0:0,0:0:0:0:
37,137,30856,2,0,B|40:181|40:181|52:194|52:194|56:249,1,105.000004005432,10|10,0:0|0:0,0:0:0:0:
61,316,31265,2,0,L|119:302,1,52.5000020027161,2|8,0:0|0:0,0:0:0:0:
191,302,31537,2,0,L|242:314,1,52.5000020027161,2|8,0:0|0:0,0:0:0:0:
321,315,31810,2,0,L|372:302,1,52.5000020027161,2|0,0:0|3:0,0:0:0:0:
435,254,32083,6,0,B|441:146|398:209|402:94,1,157.500006008148,10|10,3:2|0:0,0:0:0:0:
391,26,32628,2,0,P|343:42|286:22,1,105.000004005432,2|0,0:0|0:0,0:0:0:0:
216,4,33037,2,0,L|216:128,1,105.000004005432,10|10,0:0|0:0,0:0:0:0:
234,185,33446,1,2,0:0:0:0:
227,199,33583,1,10,0:0:0:0:
216,210,33719,37,10,0:0:0:0:
216,210,34265,22,0,B|169:205|169:205|143:185|143:185|86:180,1,125.999996154785,6|0,3:1|1:0,0:0:0:0:
19,190,34674,1,2,0:1:0:0:
19,190,34810,2,0,B|38:232|38:232|33:264|33:264|58:317,1,125.999996154785,2|0,1:0|1:0,0:0:0:0:
106,377,35219,1,2,3:1:0:0:
106,377,35355,2,0,B|132:338|132:338|163:326|163:326|196:279,1,125.999996154785,2|0,1:0|1:0,0:0:0:0:
216,210,35765,1,2,0:1:0:0:
216,210,35901,2,0,L|221:139,1,62.9999980773926,2|0,3:1|3:0,0:0:0:0:
302,147,36174,2,0,L|306:209,1,62.9999980773926,2|2,1:0|0:1,0:0:0:0:
293,290,36446,22,0,P|352:309|419:283,1,125.999996154785,6|0,3:1|1:0,0:0:0:0:
494,269,36856,1,2,0:1:0:0:
494,269,36992,2,0,L|494:134,1,125.999996154785,2|0,1:0|1:0,0:0:0:0:
381,24,37537,2,0,B|335:28|335:28|308:52|308:52|264:56,2,125.999996154785,2|2|2,1:0|1:0|3:1,0:0:0:0:
360,187,38356,2,0,L|261:177,1,94.499997116089,2|0,1:0|0:0,0:0:0:0:
256,165,38628,22,0,P|196:165|148:215,1,125.999996154785,6|0,3:1|1:0,0:0:0:0:
69,222,39037,1,2,0:1:0:0:
69,222,39174,2,0,P|98:273|166:290,1,125.999996154785,2|0,1:0|1:0,0:0:0:0:
210,356,39583,1,2,3:1:0:0:
210,356,39719,2,0,P|240:304|220:237,1,125.999996154785,2|0,1:0|1:0,0:0:0:0:
256,165,40128,1,2,0:1:0:0:
256,165,40265,2,0,L|321:161,1,62.9999980773926,2|0,3:1|3:0,0:0:0:0:
319,79,40537,2,0,L|254:75,1,62.9999980773926,2|2,1:0|0:1,0:0:0:0:
176,56,40810,22,0,B|124:61|124:61|110:77|110:77|39:83,1,125.999996154785,6|0,3:1|1:0,0:0:0:0:
59,164,41219,1,2,0:1:0:0:
59,164,41356,2,0,B|110:169|110:169|124:185|124:185|195:191,1,125.999996154785,2|2,1:0|1:0,0:0:0:0:
340,204,41901,2,0,L|325:280,1,62.9999980773926,2|0,1:0|3:0,0:0:0:0:
326,348,42174,2,0,L|399:322,1,62.9999980773926,0|0,1:0|0:0,0:0:0:0:
457,289,42446,2,0,L|398:238,1,62.9999980773926,0|0,3:0|3:0,0:0:0:0:
340,204,42719,1,0,1:0:0:0:
329,188,42856,1,0,1:0:0:0:
332,169,42992,22,0,L|465:155,1,125.999996154785,6|0,3:1|1:0,0:0:0:0:
457,73,43401,1,2,0:1:0:0:
457,73,43537,2,0,L|324:59,1,125.999996154785,2|0,1:0|1:0,0:0:0:0:
266,19,43946,1,2,3:1:0:0:
266,19,44083,2,0,P|243:44|234:81,1,62.9999980773926,2|0,1:0|3:0,0:0:0:0:
167,118,44356,2,0,P|177:150|205:176,1,62.9999980773926,0|2,1:0|0:1,0:0:0:0:
206,252,44628,2,0,P|239:259|276:248,2,62.9999980773926,2|0|2,3:1|3:0|1:0,0:0:0:0:
41,243,45174,22,0,P|25:180|54:104,1,125.999996154785,6|0,3:1|1:0,0:0:0:0:
104,70,45583,1,2,0:1:0:0:
104,70,45719,2,0,B|153:74|153:74|173:89|173:89|234:94,1,125.999996154785,2|0,1:0|1:0,0:0:0:0:
389,99,46265,2,0,B|440:94|440:94|459:79|459:79|509:75,2,125.999996154785,2|2|2,1:0|1:0|3:1,0:0:0:0:
224,93,47083,2,0,P|214:136|227:191,1,94.499997116089,2|0,1:0|0:0,0:0:0:0:
231,201,47356,22,0,L|372:213,1,125.999996154785,6|0,3:1|1:0,0:0:0:0:
435,190,47765,1,2,0:1:0:0:
435,190,47901,2,0,L|353:306,1,125.999996154785,2|0,1:0|1:0,0:0:0:0:
343,373,48310,1,2,3:1:0:0:
343,373,48446,2,0,L|282:244,1,125.999996154785,2|0,1:0|1:0,0:0:0:0:
231,201,48856,1,2,0:1:0:0:
231,201,48992,2,0,P|214:227|207:259,2,62.9999980773926,2|0|2,3:1|3:0|1:0,0:0:0:0:
232,40,49537,22,0,B|182:50|182:50|162:69|162:69|97:82,1,125.999996154785,6|0,3:1|1:0,0:0:0:0:
114,162,49946,1,2,0:1:0:0:
114,162,50083,2,0,B|163:172|163:172|183:191|183:191|248:204,1,125.999996154785,2|2,1:0|1:0,0:0:0:0:
386,150,50628,2,0,P|393:121|370:67,1,62.9999980773926,2|0,1:0|3:0,0:0:0:0:
351,249,50901,2,0,P|372:269|430:276,1,62.9999980773926,0|0,1:0|0:0,0:0:0:0:
283,170,51174,2,0,P|254:178|219:225,1,62.9999980773926,0|0,3:0|3:0,0:0:0:0:
218,221,51378,1,0,3:0:0:0:
218,221,51446,2,0,L|218:299,1,62.9999980773926,0|0,1:0|1:0,0:0:0:0:
108,352,51719,6,0,P|27:329|20:229,2,188.999994232178,2|2|0,3:2|3:2|3:0,0:0:0:0:
178,121,52810,2,0,B|130:177|130:177|137:213|137:213|74:287,2,188.999994232178,2|2|6,3:0|3:0|3:0,0:0:0:0:
384,33,53901,38,0,P|465:56|470:153,1,168,6|0,3:2|1:0,0:0:0:0:
443,198,54446,2,0,P|390:211|326:193,1,112,0|2,1:0|1:2,0:0:0:0:
216,94,54992,2,0,L|223:25,2,56,2|0|2,3:2|3:0|1:2,0:0:0:0:
172,159,55401,2,0,B|177:203|177:203|193:219|193:219|201:278,1,112,0|0,3:0|3:0,0:0:0:0:
216,340,55810,1,2,1:2:0:0:
62,347,56083,6,0,P|21:296|63:211,1,168,2|2,3:2|1:2,0:0:0:0:
83,137,56628,2,0,L|21:126,2,56,0|0|2,1:0|3:0|1:2,0:0:0:0:
216,220,57174,2,0,L|271:210,1,56,0|0,3:0|3:0,0:0:0:0:
341,176,57446,2,0,L|304:133,1,56,0|8,1:0|3:2,0:0:0:0:
238,90,57719,2,0,L|218:142,1,56,8|8,0:0|3:2,0:0:0:0:
216,220,57992,1,8,1:2:0:0:
290,353,58265,38,0,B|358:334|358:334|373:312|373:312|458:289,1,168,2|0,3:2|1:0,0:0:0:0:
441,215,58810,2,0,B|395:202|395:202|385:187|385:187|328:172,1,112,0|2,1:0|1:2,0:0:0:0:
216,77,59356,2,0,L|143:89,2,56,2|0|2,3:2|3:0|1:2,0:0:0:0:
279,29,59765,2,0,L|389:47,1,112,0|0,3:0|3:0,0:0:0:0:
467,60,60174,1,2,1:2:0:0:
441,215,60446,6,0,P|359:243|277:206,1,168,2|2,3:2|1:2,0:0:0:0:
221,170,60992,2,0,P|197:186|178:213,1,56,0|0,1:0|3:0,0:0:0:0:
103,223,61265,2,0,P|104:251|118:281,1,56,2|2,1:2|0:0,0:0:0:0:
165,336,61537,2,0,L|208:343,5,28,2|0|0|0|2|0,1:2|3:0|3:0|3:0|3:2|3:0,0:0:0:0:
232,340,61946,2,0,L|259:335,5,28,2|0|0|0|0|0,1:2|3:0|3:0|3:0|3:0|3:0,0:0:0:0:
298,327,62356,1,2,1:3:0:0:
356,181,62628,38,0,P|438:192|448:281,1,168,6|0,3:2|1:0,0:0:0:0:
404,327,63174,2,0,P|352:342|287:319,1,112,0|2,1:0|1:2,0:0:0:0:
154,262,63719,2,0,P|149:238|158:191,1,56,2|0,3:2|3:0,0:0:0:0:
147,132,63992,1,2,1:2:0:0:
147,132,64128,2,0,L|17:125,1,112,0|0,3:0|3:0,0:0:0:0:
35,47,64537,2,0,L|112:42,1,56,2|0,1:2|0:0,0:0:0:0:
169,44,64810,6,0,P|231:97|223:181,1,168,2|2,3:2|1:2,0:0:0:0:
152,206,65356,2,0,P|148:234|154:262,1,56,0|0,1:0|3:0,0:0:0:0:
185,333,65628,1,2,1:2:0:0:
339,362,65901,2,0,P|366:366|407:356,1,56,2|0,3:2|3:0,0:0:0:0:
464,324,66174,1,0,1:0:0:0:
477,313,66310,1,8,3:2:0:0:
487,300,66446,2,0,P|492:274|487:239,1,56,10|8,0:0|3:2,0:0:0:0:
456,173,66719,1,10,1:2:0:0:
369,42,66992,38,0,B|299:48|299:48|275:66|275:66|199:72,1,168,2|0,3:2|1:0,0:0:0:0:
132,49,67537,2,0,P|109:96|135:151,1,112,0|0,1:0|1:0,0:0:0:0:
279,199,68083,2,0,L|340:204,1,56,0|0,3:0|3:0,0:0:0:0:
336,282,68356,1,0,1:0:0:0:
336,282,68492,2,0,L|218:291,1,112,0|0,3:0|3:0,0:0:0:0:
145,290,68901,2,0,L|89:285,1,56,2|2,1:2|0:0,0:0:0:0:
27,217,69174,6,0,P|30:149|134:152,2,188.999994232178,2|2|2,3:2|1:2|1:2,0:0:0:0:
220,182,70265,38,0,P|227:149|219:106,2,70,2|0|0,1:2|1:0|1:0,0:0:0:0:
145,290,70674,1,2,3:0:0:0:
145,290,71219,37,2,0:1:0:0:
147,297,71356,2,0,B|203:301|203:301|221:318|221:318|294:324,1,140,6|0,3:1|1:0,0:0:0:0:
365,292,71765,1,2,0:1:0:0:
371,289,71901,2,0,P|399:228|368:162,1,140,2|0,3:1|1:0,0:0:0:0:
306,100,72310,1,2,0:1:0:0:
309,93,72446,2,0,P|336:76|382:71,2,70,2|0|0,3:1|0:0|1:0,0:0:0:0:
170,211,72992,2,0,P|135:206|105:188,1,70,2|2,0:1|3:1,0:0:0:0:
80,100,73265,1,2,1:0:0:0:
77,86,73401,1,2,1:0:0:0:
84,74,73537,38,0,P|150:59|226:75,1,140,6|0,3:1|1:0,0:0:0:0:
309,93,73946,1,2,0:1:0:0:
314,99,74083,2,0,P|321:135|308:178,1,70,2|2,3:1|3:1,0:0:0:0:
243,226,74356,2,0,P|236:262|249:305,1,70,2|2,1:0|0:1,0:0:0:0:
310,354,74628,2,0,P|379:374|455:344,1,140,2|2,3:1|1:0,0:0:0:0:
497,280,75037,1,0,3:0:0:0:
503,275,75174,2,0,P|510:240|503:206,1,70,2|0,0:1|3:0,0:0:0:0:
469,124,75446,1,2,1:0:0:0:
463,111,75583,1,0,1:0:0:0:
454,99,75719,6,0,L|308:99,1,140,6|0,3:1|1:0,0:0:0:0:
225,76,76128,1,2,0:1:0:0:
221,82,76265,2,0,B|226:139|226:139|243:159|243:159|249:228,1,140,2|0,3:1|1:0,0:0:0:0:
232,304,76674,1,2,0:1:0:0:
238,309,76810,2,0,P|275:309|317:286,2,70,2|0|0,3:1|0:0|1:0,0:0:0:0:
55,319,77356,2,0,P|62:290|53:245,1,70,2|2,0:1|3:1,0:0:0:0:
0,178,77628,1,2,1:0:0:0:
5,164,77765,1,2,1:0:0:0:
8,150,77901,38,0,B|56:141|56:141|80:109|80:109|135:99,1,140,6|0,3:1|1:0,0:0:0:0:
221,82,78310,1,2,0:1:0:0:
226,73,78446,2,0,L|312:82,1,70,2|0,3:1|3:0,0:0:0:0:
383,56,78719,1,2,1:0:0:0:
390,67,78856,1,2,0:1:0:0:
394,80,78992,2,0,P|395:93|384:127,5,35,2|0|0|0|0|0,1:0|3:0|3:0|3:0|3:0|3:0,0:0:0:0:
386,160,79401,2,0,P|385:173|396:207,5,35,0|0|0|0|0|0,1:0|3:0|3:0|3:0|3:0|3:0,0:0:0:0:
410,235,79810,2,0,L|479:227,1,70,0|2,1:0|1:0,0:0:0:0:
346,306,80083,6,0,L|194:288,1,140,6|0,3:1|1:0,0:0:0:0:
117,271,80492,1,2,0:1:0:0:
112,264,80628,2,0,B|121:213|121:213|151:188|151:188|162:128,1,140,2|0,3:1|1:0,0:0:0:0:
150,48,81037,1,2,0:1:0:0:
155,42,81174,2,0,L|246:54,2,70,2|0|0,3:1|0:0|1:0,0:0:0:0:
18,162,81719,2,0,P|11:195|22:241,1,70,2|2,0:1|3:1,0:0:0:0:
34,320,81992,1,2,1:0:0:0:
41,331,82128,1,2,1:0:0:0:
51,339,82265,38,0,P|106:361|182:340,1,140,6|0,3:1|1:0,0:0:0:0:
240,269,82674,1,2,0:1:0:0:
245,263,82810,2,0,P|280:264|316:277,1,70,2|2,3:1|3:1,0:0:0:0:
362,352,83083,2,0,P|397:351|433:338,1,70,2|2,1:0|0:1,0:0:0:0:
508,293,83356,2,0,L|508:141,1,140,2|2,3:1|1:0,0:0:0:0:
487,63,83765,1,0,3:0:0:0:
483,55,83901,2,0,L|386:65,1,70,2|0,0:1|3:0,0:0:0:0:
330,23,84174,1,2,1:0:0:0:
318,30,84310,1,0,1:0:0:0:
306,38,84446,6,0,P|279:95|319:172,1,140,6|0,3:1|1:0,0:0:0:0:
317,254,84856,1,2,0:1:0:0:
313,261,84992,2,0,B|258:250|258:250|236:225|236:225|163:211,1,140,2|0,3:1|1:0,0:0:0:0:
104,174,85401,1,2,0:1:0:0:
100,168,85537,2,0,P|92:132|111:80,2,70,2|0|0,3:1|0:0|1:0,0:0:0:0:
177,333,86083,2,0,L|256:323,1,70,2|2,0:1|3:1,0:0:0:0:
313,261,86356,1,2,1:0:0:0:
325,255,86492,1,2,1:0:0:0:
338,250,86628,22,0,B|386:251|412:292|412:292|418:328|396:358|396:358|390:328|359:310,1,210,2|2,1:3|0:1,0:0:0:0:
246,324,87174,2,0,P|220:235|296:140,1,210,2|2,1:3|0:1,0:0:0:0:
398,104,87719,22,0,P|430:98|469:105,1,70,2|0,1:0|3:0,0:0:0:0:
512,183,87992,1,0,3:0:0:0:
387,242,88128,2,0,P|365:217|352:180,1,70,0|0,1:0|3:0,0:0:0:0:
398,104,88401,1,0,3:0:0:0:
512,183,88537,2,0,P|501:213|475:243,1,70,2|0,1:3|0:0,0:0:0:0:
366,324,88810,6,0,B|305:343|305:343|228:318,1,125.999996154785,6|0,3:1|1:0,0:0:0:0:
179,373,89219,1,2,0:1:0:0:
179,373,89356,2,0,B|132:329|132:329|115:250,1,125.999996154785,2|0,1:0|1:0,0:0:0:0:
41,241,89765,1,2,3:1:0:0:
41,241,89902,2,0,B|55:178|55:178|115:124,1,125.999996154785,2|0,1:0|1:0,0:0:0:0:
122,58,90310,1,2,0:1:0:0:
122,58,90446,2,0,P|151:71|177:106,1,62.9999980773926,2|0,3:1|3:0,0:0:0:0:
194,172,90719,1,2,1:0:0:0:
204,179,90856,1,2,0:1:0:0:
214,186,90992,22,0,B|263:177|263:177|279:155|279:155|341:144,1,125.999996154785,6|0,3:1|1:0,0:0:0:0:
402,180,91401,1,2,0:1:0:0:
402,180,91537,2,0,P|406:123|349:69,1,125.999996154785,2|0,1:0|1:0,0:0:0:0:
205,126,92083,2,0,P|201:156|225:197,1,62.9999980773926,2|0,1:0|3:0,0:0:0:0:
271,243,92356,2,0,P|275:273|251:314,1,62.9999980773926,2|0,1:0|0:0,0:0:0:0:
201,356,92628,2,0,L|119:349,2,62.9999980773926,2|0|2,3:1|3:0|1:0,0:0:0:0:
365,368,93174,22,0,P|423:354|423:271,1,125.999996154785,6|0,3:1|1:0,0:0:0:0:
500,242,93583,1,2,0:1:0:0:
500,242,93719,2,0,P|516:184|444:143,1,125.999996154785,2|0,1:0|1:0,0:0:0:0:
466,60,94128,1,2,3:1:0:0:
466,60,94265,2,0,P|424:16|352:58,1,125.999996154785,2|0,1:0|1:0,0:0:0:0:
284,37,94674,1,2,0:1:0:0:
284,37,94810,2,0,P|291:70|319:100,1,62.9999980773926,2|0,3:1|3:0,0:0:0:0:
375,140,95083,1,2,1:0:0:0:
378,152,95219,1,2,0:1:0:0:
370,162,95356,22,0,B|318:171|318:171|301:190|301:190|244:200,1,125.999996154785,6|0,3:1|1:0,0:0:0:0:
173,181,95765,1,2,0:1:0:0:
173,181,95901,2,0,L|160:109,1,62.9999980773926,2|0,1:0|3:0,0:0:0:0:
79,119,96174,2,0,L|67:180,1,62.9999980773926,2|0,1:0|3:0,0:0:0:0:
75,306,96446,22,0,P|44:306|7:290,1,62.9999980773926,2|0,1:0|3:0,0:0:0:0:
172,317,96719,2,0,P|187:343|192:383,1,62.9999980773926,0|0,1:0|0:0,0:0:0:0:
133,228,96992,2,0,P|148:201|180:177,1,62.9999980773926,0|0,3:0|3:0,0:0:0:0:
185,171,97196,1,0,3:0:0:0:
185,171,97265,2,0,L|263:170,1,62.9999980773926,0|0,1:0|1:0,0:0:0:0:
357,232,97537,6,0,P|415:168|358:104,2,188.999994232178,2|2|0,3:2|3:2|3:0,0:0:0:0:
144,125,98628,2,0,B|85:75|85:75|68:192,2,188.999994232178,2|2|6,3:0|3:0|3:0,0:0:0:0:
128,351,99719,38,0,P|47:328|42:231,1,168,6|0,3:2|1:0,0:0:0:0:
68,185,100264,2,0,P|121:172|185:190,1,112,0|2,1:0|1:2,0:0:0:0:
296,290,100810,2,0,L|289:359,2,56,2|0|2,3:2|3:0|1:2,0:0:0:0:
340,225,101219,2,0,B|335:181|335:181|319:165|319:165|311:106,1,112,0|0,3:0|3:0,0:0:0:0:
296,44,101628,1,2,1:2:0:0:
450,37,101901,6,0,P|491:88|449:173,1,168,2|2,3:2|1:2,0:0:0:0:
429,247,102446,2,0,L|491:258,2,56,0|0|2,1:0|3:0|1:2,0:0:0:0:
296,164,102992,2,0,P|270:164|241:174,1,56,0|0,3:0|3:0,0:0:0:0:
171,208,103265,2,0,P|183:230|207:250,1,56,0|8,1:0|3:2,0:0:0:0:
270,292,103537,2,0,P|283:269|288:239,1,56,8|8,0:0|3:2,0:0:0:0:
296,164,103810,1,8,1:2:0:0:
222,31,104083,38,0,B|154:50|154:50|139:72|139:72|54:95,1,168,6|0,3:2|1:0,0:0:0:0:
70,168,104628,2,0,B|116:181|116:181|126:196|126:196|183:211,1,112,0|2,1:0|1:2,0:0:0:0:
296,307,105174,2,0,L|369:295,2,56,2|0|2,3:2|3:0|1:2,0:0:0:0:
233,355,105583,2,0,L|123:337,1,112,0|0,3:0|3:0,0:0:0:0:
45,324,105992,1,2,1:2:0:0:
70,168,106264,6,0,P|152:140|234:177,1,168,2|2,3:2|1:2,0:0:0:0:
291,210,106810,2,0,P|315:194|334:167,1,56,0|0,1:0|3:0,0:0:0:0:
409,161,107083,2,0,P|408:133|394:103,1,56,2|0,1:2|0:0,0:0:0:0:
347,48,107355,2,0,L|304:41,5,28,2|0|0|0|2|0,1:2|3:0|3:0|3:0|3:2|3:0,0:0:0:0:
280,44,107765,2,0,L|253:49,5,28,2|0|0|0|0|0,1:2|3:0|3:0|3:0|3:0|3:0,0:0:0:0:
214,57,108174,1,2,1:3:0:0:
156,203,108446,38,0,P|74:192|64:103,1,168,6|0,3:2|1:0,0:0:0:0:
107,56,108992,2,0,P|159:41|224:64,1,112,0|2,1:0|1:2,0:0:0:0:
358,115,109537,2,0,P|363:139|354:186,1,56,2|0,3:2|3:0,0:0:0:0:
365,252,109810,1,2,1:2:0:0:
365,252,109946,2,0,L|495:259,1,112,0|0,3:0|3:0,0:0:0:0:
477,337,110355,2,0,L|400:342,1,56,2|0,1:2|0:0,0:0:0:0:
343,340,110628,6,0,P|281:287|289:203,1,168,2|2,3:2|1:2,0:0:0:0:
360,178,111174,2,0,P|364:150|358:122,1,56,0|0,1:0|3:0,0:0:0:0:
327,51,111446,1,2,1:2:0:0:
173,22,111719,2,0,P|146:18|105:28,1,56,0|0,3:0|3:0,0:0:0:0:
48,60,111992,1,0,1:0:0:0:
35,71,112128,1,8,3:2:0:0:
25,84,112264,2,0,P|20:110|25:145,1,56,10|8,0:0|3:2,0:0:0:0:
56,211,112537,1,10,1:2:0:0:
143,342,112810,38,0,B|213:336|213:336|237:318|237:318|313:312,1,168,2|0,3:2|1:0,0:0:0:0:
380,335,113355,2,0,P|403:288|377:233,1,112,0|0,1:0|1:0,0:0:0:0:
232,183,113901,2,0,L|171:178,1,56,0|0,3:0|3:0,0:0:0:0:
175,103,114174,1,0,1:0:0:0:
175,103,114310,2,0,L|293:94,1,112,0|0,3:0|3:0,0:0:0:0:
367,94,114719,2,0,L|423:99,1,56,2|2,1:2|0:0,0:0:0:0:
485,167,114992,6,0,P|482:235|378:232,2,188.999994232178,2|2|2,3:2|1:2|1:2,0:0:0:0:
292,202,116083,38,0,P|285:235|293:278,2,70,2|0|0,1:2|1:0|1:0,0:0:0:0:
367,94,116492,1,2,1:3:0:0:
367,94,117037,1,0,0:0:0:0:
362,89,117174,38,0,L|262:97,1,94.499997116089,6|0,3:2|0:0,0:0:0:0:
252,97,117446,2,0,L|174:90,1,62.9999980773926
101,81,117719,2,0,P|114:123|88:188,1,94.499997116089,2|0,1:2|0:0,0:0:0:0:
94,185,117992,2,0,P|87:217|101:260,1,62.9999980773926,0|0,0:0|3:0,0:0:0:0:
123,329,118265,2,0,B|178:329|178:329|191:318|191:318|244:318,1,125.999996154785,2|0,0:0|3:0,0:0:0:0:
420,295,118810,2,0,L|414:363,1,62.9999980773926,2|0,1:2|0:0,0:0:0:0:
325,358,119083,2,0,L|319:295,1,62.9999980773926,2|2,0:0|0:0,0:0:0:0:
329,207,119356,22,0,P|286:199|229:209,1,94.499997116089,2|0,3:2|0:0,0:0:0:0:
221,211,119628,2,0,P|227:180|220:149,1,62.9999980773926,2|0,0:0|0:0,0:0:0:0:
183,69,119901,2,0,L|252:63,1,62.9999980773926,2|0,1:2|0:0,0:0:0:0:
334,62,120174,2,0,L|396:67,1,62.9999980773926,2|2,0:0|3:2,0:0:0:0:
483,51,120446,22,0,P|498:112|482:173,1,125.999996154785,2|2,0:0|3:2,0:0:0:0:
361,301,120992,2,0,P|333:306|298:300,1,62.9999980773926,2|0,1:2|1:0,0:0:0:0:
255,223,121265,1,2,1:2:0:0:
241,210,121401,1,0,1:0:0:0:
223,203,121537,22,0,B|218:251|218:251|201:274|201:274|196:331,2,125.999996154785,6|0|2,3:2|0:0|1:2,0:0:0:0:
201,29,122356,2,0,L|118:33,1,62.9999980773926,0|2,0:0|3:2,0:0:0:0:
50,23,122628,2,0,P|34:63|56:118,1,94.499997116089,2|0,0:0|0:0,0:0:0:0:
60,121,122901,2,0,P|35:138|14:169,1,62.9999980773926,0|2,3:0|0:0,0:0:0:0:
147,214,123174,22,0,P|144:183|128:150,1,62.9999980773926,2|0,1:2|0:0,0:0:0:0:
18,252,123446,2,0,P|45:265|82:267,1,62.9999980773926,2|2,0:0|0:0,0:0:0:0:
147,214,123719,22,0,B|213:222|213:222|234:252|234:252|297:260,2,168,2|2|2,3:0|0:0|0:0,0:0:0:0:
352,180,124810,38,0,P|376:204|391:240,1,70,2|0,3:2|3:0,0:0:0:0:
269,321,125083,2,0,P|277:288|301:257,1,70,0|0,1:0|1:0,0:0:0:0:
429,322,125356,2,0,P|396:330|357:325,2,70,0|0|2,1:0|1:0|3:0,0:0:0:0:
268,189,125901,6,0,P|245:184|210:192,1,52.5,2|0,0:1|0:0,0:0:0:0:
199,202,126174,22,0,P|206:168|185:113,1,70,4|2,1:0|0:1,0:0:0:0:
171,47,126446,2,0,L|343:47,1,140,2|0,3:1|1:0,0:0:0:0:
401,30,126856,1,2,3:1:0:0:
407,25,126992,2,0,P|399:58|406:93,1,70,2|0,0:1|3:0,0:0:0:0:
451,172,127265,2,0,P|458:205|451:240,1,70,0|2,1:0|0:1,0:0:0:0:
398,313,127537,2,0,L|356:317,3,35,2|0|2|0,1:0|1:0|1:0|1:0,0:0:0:0:
326,343,127810,2,0,P|295:350|243:336,1,70,2|2,3:0|0:1,0:0:0:0:
166,307,128083,22,0,L|166:245,1,52.5,2|0,0:1|0:0,0:0:0:0:
166,236,128356,22,0,B|201:245|201:245|248:231,1,70,4|2,3:1|0:1,0:0:0:0:
230,144,128628,2,0,B|195:135|195:135|148:149,1,70,2|2,1:0|3:1,0:0:0:0:
85,193,128901,1,2,3:1:0:0:
64,188,129037,1,2,1:0:0:0:
47,175,129174,2,0,P|31:110|84:62,1,140,2|2,0:1|1:0,0:0:0:0:
258,31,129719,2,0,L|305:34,3,35,2|0|0|0,1:0|1:0|1:0|1:0,0:0:0:0:
338,39,129992,2,0,P|346:74|337:110,1,70,2|0,3:0|0:0,0:0:0:0:
299,189,130265,38,0,L|452:202,1,140,6|0,3:1|1:0,0:0:0:0:
445,291,130674,1,2,0:1:0:0:
440,297,130810,2,0,L|287:310,1,140,2|0,3:1|1:0,0:0:0:0:
215,274,131219,1,2,0:1:0:0:
210,279,131356,2,0,P|205:314|214:348,1,70,2|0,3:1|0:0,0:0:0:0:
123,348,131628,2,0,P|131:314|126:279,1,70,0|2,1:0|3:1,0:0:0:0:
69,208,131901,1,2,0:1:0:0:
69,187,132037,1,2,3:1:0:0:
79,168,132174,2,0,L|169:162,1,70,2|2,1:0|1:0,0:0:0:0:
165,160,132378,1,0,1:0:0:0:
165,160,132446,6,0,B|224:166|224:166|238:184|238:184|307:192,1,140,6|0,3:1|1:0,0:0:0:0:
346,267,132856,1,2,0:1:0:0:
352,262,132992,2,0,P|387:202|364:131,1,140,2|2,3:1|1:0,0:0:0:0:
307,70,133401,1,2,0:1:0:0:
310,63,133537,2,0,L|386:51,2,70,2|0|0,1:0|3:0|3:0,0:0:0:0:
218,64,133946,2,0,L|142:52,1,70,0|0,1:0|3:0,0:0:0:0:
59,72,134219,1,0,3:0:0:0:
54,78,134356,2,0,P|51:97|58:131,3,35,0|0|2|0,1:0|1:0|1:0|1:0,0:0:0:0:
83,146,134628,38,0,P|115:213|68:292,1,154.000004699707,6|0,3:1|1:0,0:0:0:0:
24,352,135037,1,10,0:1:0:0:
27,359,135174,2,0,L|191:371,1,154.000004699707,2|0,3:1|1:0,0:0:0:0:
272,354,135583,1,10,0:1:0:0:
281,355,135719,2,0,P|291:320|277:274,1,77.0000023498536,2|8,3:1|0:1,0:0:0:0:
280,188,135992,1,0,1:0:0:0:
271,175,136128,1,10,3:1:0:0:
262,162,136265,2,0,L|166:168,1,77.0000023498536,2|10,0:1|3:1,0:0:0:0:
186,74,136537,2,0,L|262:78,1,77.0000023498536,2|10,1:0|1:0,0:0:0:0:
353,59,136810,6,0,P|390:119|334:193,1,154.000004699707,6|0,3:1|1:0,0:0:0:0:
304,265,137219,1,10,0:1:0:0:
307,272,137356,2,0,L|385:285,1,77.0000023498536,2|8,3:1|3:1,0:0:0:0:
469,317,137628,1,2,1:0:0:0:
481,307,137765,1,8,0:1:0:0:
494,299,137901,2,0,L|486:139,1,154.000004699707,2|2,3:1|1:0,0:0:0:0:
433,67,138310,1,8,3:1:0:0:
428,60,138446,2,0,P|390:54|330:67,1,77.0000023498536,2|8,0:1|0:1,0:0:0:0:
274,110,138719,2,0,P|236:116|176:103,1,77.0000023498536,2|8,1:0|1:0,0:0:0:0:
107,90,138992,38,0,B|101:199|147:121|139:271,1,154.000004699707,6|0,3:1|1:0,0:0:0:0:
118,326,139401,1,10,0:1:0:0:
112,332,139537,2,0,P|82:332|26:308,2,77.0000023498536,2|8|0,3:1|3:1|1:0,0:0:0:0:
200,304,139946,1,10,0:1:0:0:
203,296,140083,2,0,P|238:281|277:280,1,77.0000023498536,2|8,3:1|0:1,0:0:0:0:
354,330,140356,1,0,1:0:0:0:
365,319,140492,1,10,3:1:0:0:
375,307,140628,2,0,L|369:224,1,77.0000023498536,2|2,0:1|3:1,0:0:0:0:
320,151,140901,2,0,L|326:68,1,77.0000023498536,10|2,1:0|1:0,0:0:0:0:
330,55,141106,1,0,1:0:0:0:
330,55,141174,38,0,P|414:36|431:149,1,210.000008010865,2|2,3:0|3:0,0:0:0:0:
111,347,142265,22,0,B|76:351|76:351|33:319,1,70,2|0,1:0|3:0,0:0:0:0:
2,252,142537,1,0,3:0:0:0:
139,206,142674,2,0,B|159:234|159:234|153:287,1,70,0|0,1:0|3:0,0:0:0:0:
111,347,142946,1,0,3:0:0:0:
2,252,143083,2,0,B|15:220|15:220|64:198,1,70,2|0,3:0|0:0,0:0:0:0:
139,206,143356,5,2,3:2:0:0:
256,192,149901,12,8,151537,0:0:0:0:
296,174,152083,22,0,B|343:179|343:179|369:199|369:199|426:204,1,125.999996154785,6|0,3:1|1:0,0:0:0:0:
493,194,152492,1,2,0:1:0:0:
493,194,152628,2,0,B|474:152|474:152|479:120|479:120|454:67,1,125.999996154785,2|0,1:0|1:0,0:0:0:0:
406,7,153037,1,2,3:1:0:0:
406,7,153173,2,0,B|380:46|380:46|349:58|349:58|316:105,1,125.999996154785,2|0,1:0|1:0,0:0:0:0:
296,174,153583,1,2,0:1:0:0:
296,174,153719,2,0,L|291:245,1,62.9999980773926,2|0,3:1|3:0,0:0:0:0:
210,237,153992,2,0,L|206:175,1,62.9999980773926,2|2,1:0|0:1,0:0:0:0:
219,94,154264,22,0,P|160:75|93:101,1,125.999996154785,6|0,3:1|1:0,0:0:0:0:
18,115,154674,1,2,0:1:0:0:
18,115,154810,2,0,L|18:247,1,125.999996154785,2|0,1:0|1:0,0:0:0:0:
131,360,155355,2,0,B|177:356|177:356|204:332|204:332|248:328,2,125.999996154785,2|2|2,1:0|1:0|3:1,0:0:0:0:
152,197,156174,2,0,L|251:207,1,94.499997116089,2|0,1:0|0:0,0:0:0:0:
256,219,156446,22,0,P|316:219|364:169,1,125.999996154785,6|0,3:1|1:0,0:0:0:0:
443,162,156855,1,2,0:1:0:0:
443,162,156992,2,0,P|414:111|346:94,1,125.999996154785,2|0,1:0|1:0,0:0:0:0:
302,28,157401,1,2,3:1:0:0:
302,28,157537,2,0,P|272:80|292:147,1,125.999996154785,2|0,1:0|1:0,0:0:0:0:
256,219,157946,1,2,0:1:0:0:
256,219,158083,2,0,P|230:222|192:218,1,62.9999980773926,2|0,3:1|3:0,0:0:0:0:
193,300,158356,2,0,P|219:297|257:301,1,62.9999980773926,2|2,1:0|0:1,0:0:0:0:
334,320,158628,22,0,B|386:315|386:315|400:299|400:299|471:293,1,125.999996154785,6|0,3:1|1:0,0:0:0:0:
451,212,159037,1,2,0:1:0:0:
451,212,159174,2,0,B|400:207|400:207|386:191|386:191|315:185,1,125.999996154785,2|2,1:0|1:0,0:0:0:0:
167,166,159719,22,0,L|81:178,2,62.9999980773926,2|0|0,1:0|3:0|1:0,0:0:0:0:
222,105,160128,1,0,0:0:0:0:
222,105,160265,2,0,P|240:128|248:175,1,62.9999980773926,0|0,3:0|3:0,0:0:0:0:
217,235,160537,2,0,P|199:258|191:305,1,62.9999980773926,0|0,1:0|1:0,0:0:0:0:
193,305,160742,1,0,1:0:0:0:
193,305,160810,6,0,L|280:320,1,77.0000023498536,6|0,3:1|1:0,0:0:0:0:
359,337,161083,1,0,3:0:0:0:
373,332,161219,1,2,1:0:0:0:
455,289,161356,2,0,L|448:205,1,77.0000023498536,2|0,3:1|1:0,0:0:0:0:
419,124,161628,1,0,3:0:0:0:
409,111,161765,1,2,1:0:0:0:
319,84,161901,2,0,P|299:118|297:162,1,77.0000023498536,2|0,3:1|1:0,0:0:0:0:
207,183,162174,2,0,P|226:217|263:241,1,77.0000023498536,0|2,3:0|1:0,0:0:0:0:
193,305,162446,2,0,P|173:270|136:246,1,77.0000023498536,2|0,3:1|1:0,0:0:0:0:
61,205,162719,1,2,3:1:0:0:
45,201,162856,1,2,1:0:0:0:
32,192,162992,38,0,P|25:112|98:88,1,154.000004699707,6|0,3:1|3:0,0:0:0:0:
165,41,163401,1,2,1:0:0:0:
169,34,163537,2,0,B|232:40|232:40|249:58|249:58|322:64,1,154.000004699707,2|2,3:1|3:1,0:0:0:0:
399,101,163946,1,2,1:0:0:0:
406,95,164083,2,0,L|416:9,2,77.0000023498536,2|0|2,3:1|1:0|3:1,0:0:0:0:
327,144,164492,1,0,1:0:0:0:
322,150,164629,2,0,L|332:236,1,77.0000023498536,2|0,3:1|1:0,0:0:0:0:
295,311,164901,1,2,3:1:0:0:
305,322,165037,1,0,1:0:0:0:
316,332,165174,6,0,P|361:331|405:305,1,77.0000023498536,6|0,3:1|1:0,0:0:0:0:
252,249,165446,2,0,P|207:250|163:276,1,77.0000023498536,0|2,3:0|1:0,0:0:0:0:
25,289,165719,2,0,L|41:395,1,77.0000023498536,2|0,3:1|1:0,0:0:0:0:
97,222,165992,2,0,L|108:145,1,77.0000023498536,0|2,3:0|1:0,0:0:0:0:
208,28,166265,2,0,B|248:32|248:32|282:59,1,77.0000023498536,2|0,3:1|1:0,0:0:0:0:
359,184,166537,2,0,B|319:180|319:180|285:153,1,77.0000023498536,0|2,3:0|1:0,0:0:0:0:
426,84,166810,1,2,3:1:0:0:
442,96,166946,1,0,1:0:0:0:
457,111,167082,1,2,3:1:0:0:
468,129,167219,1,2,1:0:0:0:
476,148,167356,22,0,B|488:275|488:275|423:306,1,188.999994232178,2|2,3:0|0:1,0:0:0:0:
317,351,167901,2,0,B|243:337|243:337|230:297|230:297|139:281,1,188.999994232178,2|0,3:0|0:0,0:0:0:0:
173,159,168446,22,0,L|235:169,2,62.9999980773926,2|0|0,0:1|1:0|0:0,0:0:0:0:
85,66,168856,2,0,L|22:76,2,62.9999980773926,0|0|0,1:0|3:0|1:0,0:0:0:0:
211,65,169265,2,0,L|261:73,3,31.4999990386963,0|0|0|0,1:0|1:0|1:0|1:0,0:0:0:0:
280,78,169537,22,0,P|326:121|331:206,1,146.999995513916,2|2,3:2|3:2,0:0:0:0:
346,278,170083,2,0,L|404:266,2,48.9999985046387,2|0|0,1:2|1:0|3:0,0:0:0:0:
195,321,170628,38,0,L|87:304,1,97.9999970092774,2|2,3:0|0:0,0:0:0:0:
203,233,171037,2,0,L|95:216,1,97.9999970092774,2|0,3:0|0:0,0:0:0:0:
212,146,171446,2,0,L|146:135,1,48.9999985046387,6|0,3:0|0:0,0:0:0:0:
