osu file format v14

[General]
AudioFilename: audio.mp3
AudioLeadIn: 0
PreviewTime: 217710
Countdown: 0
SampleSet: Normal
StackLeniency: 0.7
Mode: 0
LetterboxInBreaks: 0
WidescreenStoryboard: 0

[Editor]
Bookmarks: 23058,34221,56547,112361,134686,190500,218407,223989,229570,265151,277012,282419
DistanceSpacing: 1.2
BeatDivisor: 4
GridSize: 4
TimelineZoom: 2.849999

[Metadata]
Title:Yonjuunana
TitleUnicode:ヨンジュウナナ
Artist:Himeringo
ArtistUnicode:ひめりんご
Creator:hanyuu_nanodesu
Version:Easy
Source:
Tags:47 Forty-seven Vocaloid Utaite Cover Hatsune Miku Rib Mikito-P みきとP sarishinohara
BeatmapID:1009086
BeatmapSetID:472194

[Difficulty]
HPDrainRate:2
CircleSize:2.7
OverallDifficulty:2
ApproachRate:3
SliderMultiplier:0.8
SliderTickRate:1

[Events]
//Background and Video events
0,0,"Yonjuunana BG.jpg",0,0
Video,-27,"Yonjuunana.avi"
//Break Periods
2,76281,77084
2,101398,105339
2,179538,188014
2,218607,222549
//Storyboard Layer 0 (Background)
//Storyboard Layer 1 (Fail)
//Storyboard Layer 2 (Pass)
//Storyboard Layer 3 (Foreground)
//Storyboard Sound Samples

[TimingPoints]
-662,348.837209302326,4,2,1,50,1,0
733,-100,4,2,2,50,0,0
1343,-100,4,2,1,50,0,0
1518,-100,4,2,2,50,0,0
2739,-100,4,2,1,50,0,0
2913,-100,4,2,2,50,0,0
4134,-100,4,2,1,50,0,0
4308,-100,4,2,2,50,0,0
5529,-100,4,2,1,50,0,0
5704,-100,4,2,2,50,0,0
6925,-100,4,2,1,50,0,0
7099,-100,4,2,2,50,0,0
8320,-100,4,2,1,50,0,0
8494,-100,4,2,2,50,0,0
9715,-100,4,2,1,50,0,0
9890,-100,4,2,2,50,0,0
11111,-100,4,2,1,50,0,0
11285,-100,4,2,2,50,0,0
11896,-100,4,1,4,45,0,0
12855,-100,4,1,2,45,0,0
13029,-100,4,1,4,45,0,0
13901,-100,4,1,1,45,0,0
14076,-100,4,1,2,45,0,0
14686,-100,4,1,4,46,0,0
15646,-100,4,1,2,46,0,0
16082,-100,4,1,2,47,0,0
16779,-100,4,1,2,48,0,0
17477,-100,4,1,1,50,0,0
17739,-100,4,1,2,50,0,0
18436,-100,4,1,1,50,0,0
18960,-100,4,1,2,50,0,0
19832,-100,4,1,1,50,0,0
20529,-100,4,1,2,50,0,0
20704,-100,4,1,1,50,0,0
21227,-100,4,1,2,50,0,0
21401,-100,4,1,1,50,0,0
21663,-100,4,2,1,50,0,0
23058,-100,4,1,1,60,0,0
24279,-100,4,1,2,60,0,0
24367,-100,4,1,1,60,0,0
27070,-100,4,1,2,60,0,0
27157,-100,4,1,1,60,0,0
29599,-100,4,1,3,60,0,0
29774,-100,4,1,1,60,0,0
29861,-100,4,1,2,60,0,0
29948,-100,4,1,1,60,0,0
31692,-100,4,1,3,60,0,0
31867,-100,4,1,1,60,0,0
32651,-100,4,1,2,60,0,0
32739,-100,4,1,1,60,0,0
33175,-100,4,1,2,60,0,0
33262,-100,4,1,1,60,0,0
34221,-100,4,1,1,50,0,0
34483,-100,4,1,3,50,0,0
34657,-100,4,1,1,50,0,0
42855,-100,4,1,3,50,0,0
43029,-100,4,1,1,50,0,0
48436,-100,4,1,3,50,0,0
48611,-100,4,1,1,50,0,0
49832,-100,4,1,3,50,0,0
50006,-100,4,1,1,50,0,0
51227,-100,4,1,3,50,0,0
51401,-100,4,1,1,50,0,0
52622,-100,4,1,3,50,0,0
52797,-100,4,1,1,50,0,0
53756,-100,4,1,2,50,0,0
54018,-100,4,1,3,50,0,0
54192,-100,4,1,2,50,0,0
54715,-100,4,1,3,50,0,0
54890,-100,4,1,2,50,0,0
55151,-100,4,1,1,50,0,0
56547,-100,4,1,1,45,0,0
60733,-100,4,1,1,50,0,0
61082,-100,4,1,1,55,0,0
61431,-100,4,1,1,60,0,0
61779,-100,4,1,1,65,0,0
62128,-100,4,1,1,45,0,0
66663,-100,4,1,1,50,0,0
67012,-100,4,1,3,55,0,0
67099,-100,4,1,1,55,0,0
67361,-100,4,1,1,60,0,0
67710,-100,4,1,1,45,0,0
72593,-100,4,1,1,50,0,0
72942,-100,4,1,3,55,0,0
73029,-100,4,1,1,55,0,0
73291,-100,4,1,1,50,0,0
75646,-100,4,3,3,50,0,0
75820,-100,4,2,1,50,0,0
78524,-100,4,1,1,45,0,0
78872,-100,4,1,1,60,0,1
80093,-100,4,1,2,60,0,1
80181,-100,4,1,1,60,0,1
82884,-100,4,1,2,60,0,1
82971,-100,4,1,1,60,0,1
84715,-100,4,1,3,60,0,1
84890,-100,4,1,1,60,0,1
85675,-100,4,1,2,60,0,1
85762,-100,4,1,1,60,0,1
88465,-100,4,1,2,60,0,1
88553,-100,4,1,1,60,0,1
90297,-100,4,1,3,60,0,1
90471,-100,4,1,1,60,0,1
91692,-100,4,1,3,60,0,1
91867,-100,4,1,1,60,0,1
93088,-100,4,1,3,60,0,1
93262,-100,4,1,1,60,0,1
94047,-100,4,1,2,60,0,1
94134,-100,4,1,1,60,0,1
95878,-100,4,1,3,60,0,1
96053,-100,4,1,1,60,0,1
98669,-100,4,1,3,60,0,1
98843,-100,4,1,1,60,0,1
100064,-100,4,1,3,60,0,1
100326,-100,4,1,2,60,0,1
100413,-100,4,1,1,60,0,1
101198,-100,4,1,1,55,0,0
107041,-100,4,1,3,55,0,0
107390,-100,4,1,2,55,0,0
107564,-100,4,1,1,55,0,0
108436,-100,4,1,3,55,0,0
108785,-100,4,1,2,55,0,0
108960,-100,4,1,1,55,0,0
109832,-100,4,1,3,55,0,0
110006,-100,4,1,1,55,0,0
112361,-100,4,1,1,50,0,0
112622,-100,4,1,3,50,0,0
112797,-100,4,1,1,50,0,0
118204,-100,4,1,3,50,0,0
118378,-100,4,1,1,50,0,0
122477,-100,4,1,1,55,0,0
122826,-100,4,1,1,60,0,0
123175,-100,4,1,1,70,0,0
123524,-100,4,1,1,50,0,0
123785,-100,4,1,3,50,0,0
123960,-100,4,1,1,50,0,0
125181,-100,4,1,3,50,0,0
125355,-100,4,1,1,50,0,0
127971,-100,4,1,3,50,0,0
128146,-100,4,1,1,50,0,0
128669,-100,4,1,3,50,0,0
128843,-100,4,1,1,50,0,0
130762,-100,4,1,3,50,0,0
130936,-100,4,1,1,50,0,0
131896,-100,4,1,2,55,0,0
132157,-100,4,1,3,55,0,0
132332,-100,4,1,2,55,0,0
132855,-100,4,1,3,55,0,0
133291,-100,4,1,1,60,0,0
134686,-100,4,1,1,45,0,0
138872,-100,4,1,1,50,0,0
139221,-100,4,1,1,55,0,0
139570,-100,4,1,1,60,0,0
139919,-100,4,1,1,65,0,0
140268,-100,4,1,1,45,0,0
143320,-100,4,1,3,45,0,0
143494,-100,4,1,1,45,0,0
144454,-100,4,1,1,50,0,0
144803,-100,4,1,1,55,0,0
145151,-100,4,1,1,60,0,0
145500,-100,4,1,1,65,0,0
145849,-100,4,1,1,45,0,0
150733,-100,4,1,1,50,0,0
151082,-100,4,1,1,55,0,0
151431,-100,4,1,1,50,0,0
151692,-100,4,1,3,50,0,0
151867,-100,4,1,1,50,0,0
153088,-100,4,1,3,50,0,0
153262,-100,4,1,1,50,0,0
154221,-100,4,1,1,40,0,0
154570,-100,4,1,4,40,0,0
154919,-100,4,1,3,40,0,0
155268,-100,4,1,4,40,0,0
155617,-100,4,1,1,40,0,0
157012,-100,4,1,1,60,0,1
157274,-100,4,1,3,60,0,1
157448,-100,4,1,1,60,0,1
158233,-100,4,1,2,60,0,1
158320,-100,4,1,1,60,0,1
160762,-100,4,1,3,60,0,1
161024,-100,4,1,2,60,0,1
161111,-100,4,1,1,60,0,1
162855,-100,4,1,3,60,0,1
163029,-100,4,1,1,60,0,1
163814,-100,4,1,2,60,0,1
163901,-100,4,1,1,60,0,1
166605,-100,4,1,2,60,0,1
166692,-100,4,1,1,60,0,1
168436,-100,4,1,3,60,0,1
168611,-100,4,1,1,60,0,1
169832,-100,4,1,3,60,0,1
170006,-100,4,1,1,60,0,1
172186,-100,4,1,2,60,0,1
172274,-100,4,1,1,60,0,1
174018,-100,4,1,3,60,0,1
174192,-100,4,1,1,60,0,1
175413,-100,4,1,3,60,0,1
175588,-100,4,1,1,60,0,1
176111,-100,4,1,3,60,0,1
176285,-100,4,1,1,60,0,1
178204,-100,4,1,3,60,0,1
178378,-100,4,1,1,60,0,1
179338,-100,4,3,1,45,0,0
189454,-100,4,1,2,45,0,0
189541,-100,4,3,1,45,0,0
190500,-100,4,1,1,50,0,0
192157,-100,4,1,3,50,0,0
192332,-100,4,1,1,50,0,0
194250,-100,4,1,3,50,0,0
194425,-100,4,1,1,50,0,0
196343,-100,4,1,3,50,0,0
196518,-100,4,1,1,50,0,0
199134,-100,4,1,3,50,0,0
199308,-100,4,1,1,50,0,0
199919,-100,4,1,1,55,0,0
200268,-100,4,1,1,60,0,0
200617,-100,4,1,2,50,0,0
200704,-100,4,1,1,65,0,0
200965,-100,4,1,2,60,0,0
201053,-100,4,1,1,70,0,0
201663,-100,4,1,1,55,0,0
201925,-100,4,1,3,55,0,0
202099,-100,4,1,1,55,0,0
203320,-100,4,1,3,55,0,0
203494,-100,4,1,1,55,0,0
206111,-100,4,1,3,55,0,0
206285,-100,4,1,1,55,0,0
207593,-100,4,1,3,55,0,0
207942,-100,4,1,3,58,0,0
208204,-100,4,1,1,58,0,0
208640,-100,4,1,1,60,0,0
208989,-100,4,1,3,60,0,0
209338,-100,4,1,3,63,0,0
209599,-100,4,1,1,63,0,0
210035,-100,4,1,1,65,0,0
210297,-100,4,1,3,65,0,0
210733,-100,4,1,3,68,0,0
210994,-100,4,1,1,68,0,0
211431,-100,4,1,1,70,0,0
211692,-100,4,1,3,70,0,0
212128,-100,4,1,1,75,0,0
212826,-100,4,1,1,60,0,0
213524,-100,4,1,1,50,0,0
214221,-100,4,1,1,40,0,0
215617,-100,4,1,1,50,0,0
218407,-100,4,1,1,10,0,0
223989,-100,4,1,1,40,0,0
227477,-100,4,1,1,50,0,0
227826,-100,4,1,1,60,0,0
228088,-100,4,1,1,10,0,0
229570,-100,4,1,1,40,0,0
229832,-100,4,1,2,40,0,0
230006,-100,4,1,1,40,0,0
231053,-100,4,1,2,40,0,0
231576,-100,4,1,1,40,0,0
232622,-100,4,1,2,40,0,0
232797,-100,4,1,1,40,0,0
233843,-100,4,1,2,40,0,0
234367,-100,4,1,1,40,0,0
235151,-100,4,1,1,45,0,0
235500,-100,4,1,2,45,0,0
235849,-100,4,1,3,50,0,0
236198,-100,4,1,1,55,0,0
236547,-100,4,1,1,60,0,0
236896,-100,4,1,1,65,0,0
237244,-100,4,1,1,70,0,0
237593,-100,4,1,1,75,0,0
237942,-100,4,1,1,60,0,1
239163,-100,4,1,2,60,0,1
239250,-100,4,1,1,60,0,1
241692,-100,4,1,3,60,0,1
241954,-100,4,1,2,60,0,1
242041,-100,4,1,1,60,0,1
243785,-100,4,1,3,60,0,1
243960,-100,4,1,1,60,0,1
244744,-100,4,1,2,60,0,1
244832,-100,4,1,1,60,0,1
246576,-100,4,1,3,60,0,1
246750,-100,4,1,1,60,0,1
247535,-100,4,1,2,60,0,1
247622,-100,4,1,1,60,0,1
249367,-100,4,1,3,60,0,1
249541,-100,4,1,1,60,0,1
250762,-100,4,1,3,60,0,1
250936,-100,4,1,1,60,0,1
253553,-100,4,1,3,60,0,1
253727,-100,4,1,1,60,0,1
254948,-100,4,1,3,60,0,1
255122,-100,4,1,1,60,0,1
257739,-100,4,1,3,60,0,1
257913,-100,4,1,1,60,0,1
258436,-100,4,1,3,60,0,1
258611,-100,4,1,1,60,0,1
258872,-100,4,1,1,63,0,1
259221,-100,4,1,1,65,0,1
259570,-100,4,1,1,68,0,1
259919,-100,4,1,1,70,0,1
260268,-100,4,1,1,60,0,1
260529,-100,4,1,2,60,0,1
260704,-100,4,1,1,60,0,1
261663,-100,4,1,1,63,0,1
262361,-100,4,1,1,65,0,1
263058,-100,4,1,1,68,0,1
263756,-100,4,1,1,70,0,1
264454,-100,4,1,1,73,0,1
265151,-100,4,1,1,75,0,1
265849,-100,4,1,1,60,0,0
267070,-100,4,1,2,60,0,0
267157,-100,4,1,1,60,0,0
268901,-100,4,1,3,60,0,0
269076,-100,4,1,1,60,0,0
269861,-100,4,1,2,60,0,0
269948,-100,4,1,1,60,0,0
272390,-100,4,1,3,60,0,0
272651,-100,4,1,2,60,0,0
272739,-100,4,1,1,60,0,0
274919,-100,4,1,1,65,0,0
275093,-100,4,1,1,70,0,0
275268,-100,4,1,3,75,0,0
275442,-100,4,1,1,80,0,0
275965,-100,4,1,1,85,0,0
276140,-100,4,1,1,60,0,0
277012,-100,4,3,1,40,0,0

[Colours]
Combo1 : 255,255,145
Combo2 : 215,17,17
Combo3 : 72,72,72
Combo4 : 239,194,90

[HitObjects]
84,124,733,6,0,B|125:98|194:119|215:175|215:175|255:133|318:124|376:156,2,320,4|0|0,0:0|0:0|0:0,0:0:0:0:
124,212,3872,6,0,P|163:259|263:259,1,160,2|2,0:0|0:0,0:0:0:0:
344,308,4919,2,0,P|242:358|116:336,1,240,0|2,0:0|0:0,0:0:0:0:
92,248,6314,6,0,B|100:168|42:99|42:99|96:108|136:88,1,240,0|2,0:0|0:0,0:0:0:0:
208,60,7710,2,0,P|276:52|340:112,1,160
250,146,8756,1,2,0:0:0:0:
188,220,9105,6,0,P|239:242|305:227,2,120,0|0|2,0:0|0:0|0:0,0:0:0:0:
116,284,10500,2,0,P|218:336|341:319,1,240,0|2,0:0|0:0,0:0:0:0:
420,272,11896,6,0,P|440:232|396:124,1,160,4|0,0:0|0:0,0:0:0:0:
348,208,12942,1,2,0:0:0:0:
260,248,13291,2,0,B|242:201|262:163|262:163|215:188|144:188|100:158,1,240,0|2,0:0|0:0,0:0:0:0:
128,72,14686,6,0,P|183:93|268:30,1,160
360,48,15733,1,2,0:0:0:0:
428,116,16082,2,0,P|447:156|444:204,1,80,0|2,0:0|0:0,0:0:0:0:
364,248,16779,2,0,P|345:208|348:160,1,80,0|2,0:0|0:0,0:0:0:0:
332,76,17477,6,0,B|279:80|254:120|250:153|250:153|217:122|167:122|125:154,1,240,6|2,0:0|0:0,0:0:0:0:
52,108,18872,2,0,P|76:218|188:229,1,240,2|2,0:0|0:0,0:0:0:0:
268,284,20268,6,0,P|219:319|107:336,2,160,2|2|0,0:0|0:0|2:0,0:0:0:0:
392,64,23058,6,0,P|410:104|414:156,2,80,4|8|0,0:0|0:0|0:0,0:0:0:0:
272,144,24279,2,0,P|253:178|263:268,1,120,4|8,0:0|0:0,0:0:0:0:
344,212,25151,2,0,P|392:220|428:236,1,80,0|8,0:0|0:0,0:0:0:0:
440,328,25849,6,0,P|392:320|356:304,1,80,2|8,0:0|0:0,0:0:0:0:
272,336,26547,1,0,0:0:0:0:
144,280,27070,2,0,P|112:228|120:160,1,120,4|8,0:0|0:0,0:0:0:0:
188,112,27942,2,0,L|280:104,1,80,0|8,0:0|0:0,0:0:0:0:
352,148,28640,5,4,0:0:0:0:
312,236,28989,1,8,0:0:0:0:
396,280,29338,2,0,P|355:320|287:327,2,120,0|4|8,0:0|0:0|0:0,0:0:0:0:
432,192,30733,2,0,P|383:186|341:205,1,80,0|8,0:0|0:0,0:0:0:0:
264,224,31431,6,0,B|219:228|188:201|188:201|159:232|107:234,1,160,4|0,0:0|0:0,0:0:0:0:
124,87,32651,2,0,P|180:70|239:79,1,120,4|8,0:0|0:0,0:0:0:0:
324,128,33524,2,0,P|336:87|325:36,1,80,0|8,0:0|0:0,0:0:0:0:
420,8,34221,6,0,P|431:97|394:216,1,200,6|0,0:0|0:0,0:0:0:0:
308,216,35442,2,0,P|264:200|180:204,1,120,8|8,0:0|0:0,0:0:0:0:
124,268,36314,2,0,P|155:288|213:293,1,80,0|8,0:0|0:0,0:0:0:0:
292,320,37012,5,2,0:0:0:0:
376,367,37361,2,0,P|388:310|366:255,1,120,8|0,0:0|0:0,0:0:0:0:
288,200,38233,2,0,P|333:165|408:168,1,120,8|8,0:0|0:0,0:0:0:0:
488,176,39105,1,0,0:0:0:0:
508,82,39454,1,8,0:0:0:0:
420,48,39803,6,0,P|375:38|328:40,1,80,2|8,0:0|0:0,0:0:0:0:
248,56,40500,1,0,0:0:0:0:
132,148,41024,2,0,P|104:192|108:264,1,120,8|8,0:0|0:0,0:0:0:0:
196,224,41896,2,0,P|239:241|269:280,1,80,0|8,0:0|0:0,0:0:0:0:
181,317,42593,6,0,P|85:350|15:282,1,200,2|0,0:0|0:0,0:0:0:0:
12,196,43814,1,0,0:0:0:0:
120,101,44338,2,0,P|124:180|105:257,1,160,8|8,0:0|0:0,0:0:0:0:
200,280,45384,6,0,P|212:241|218:191,2,80,6|8|0,0:0|0:0|0:0,0:0:0:0:
256,360,46431,1,8,0:0:0:0:
352,368,46779,2,0,P|396:364|430:339,1,80,2|8,0:0|0:0,0:0:0:0:
432,248,47477,2,0,P|388:252|354:277,1,80,0|8,0:0|0:0,0:0:0:0:
264,272,48175,6,0,P|228:211|262:119,1,160,2|0,0:0|0:0,0:0:0:0:
344,104,49221,1,8,0:0:0:0:
418,44,49570,2,0,P|424:156|319:195,1,240,2|8,0:0|0:0,0:0:0:0:
248,128,50965,6,0,P|187:66|102:78,1,160,2|0,0:0|0:0,0:0:0:0:
156,156,52012,1,8,0:0:0:0:
164,252,52361,2,0,B|210:248|232:216|232:216|285:223|320:183,1,160
341,106,53407,1,8,0:0:0:0:
329,10,53756,6,0,P|263:51|248:128,2,160,4|4|4,0:0|0:0|0:0,0:0:0:0:
500,100,55849,2,0,P|496:144|484:188,1,80,2|8,0:0|3:0,0:0:0:0:
391,187,56547,6,0,P|332:180|273:186,2,120,2|8|0,0:0|0:0|0:0,0:0:0:0:
432,276,57942,1,2,0:0:0:0:
287,280,58465,2,0,P|231:271|188:226,1,120,8|0,0:0|0:0,0:0:0:0:
168,132,59338,6,0,P|150:180|99:230,1,120,2|8,0:0|0:0,0:0:0:0:
32,108,60384,1,0,0:0:0:0:
116,60,60733,2,0,P|163:43|209:52,1,80,0|8,0:0|0:0,0:0:0:0:
288,56,61431,2,0,P|327:57|364:41,1,80,8|8,0:0|0:0,0:0:0:0:
452,84,62128,6,0,P|482:138|472:206,2,120,6|8|0,0:0|0:0|0:0,0:0:0:0:
388,156,63524,1,0,0:0:0:0:
292,148,63872,2,0,P|241:144|204:158,2,80
264,240,64919,5,2,0:0:0:0:
168,236,65268,2,0,P|131:195|132:115,2,120,8|8|2,0:0|0:0|0:0,0:0:0:0:
88,292,66663,2,0,P|49:234|34:146,1,160,8|8,0:0|3:0,0:0:0:0:
60,52,67710,6,0,P|90:18|139:1,2,80,6|0|0,0:0|0:0|0:0,0:0:0:0:
144,96,68756,1,8,3:0:0:0:
204,172,69105,2,0,P|235:128|228:52,2,120,8|8|8,3:0|3:0|0:0,0:0:0:0:
172,260,70500,6,0,P|176:292|208:340,1,80,2|8,0:0|3:0,0:0:0:0:
296,332,71198,2,0,P|340:328|388:336,1,80,2|2,0:0|0:0,0:0:0:0:
424,328,71721,6,0,P|448:300|444:204,1,120,4|8,0:0|0:0,0:0:0:0:
406,136,72593,2,0,B|326:100|326:160|246:116,1,160,0|2,0:0|0:0,0:0:0:0:
172,64,73640,5,8,0:0:0:0:
116,144,73989,2,0,P|104:184|112:228,1,80,0|8,0:0|0:0,0:0:0:0:
192,268,74686,2,0,P|204:228|196:184,1,80,0|8,0:0|0:0,0:0:0:0:
276,132,75384,2,0,B|313:130|346:97|346:97|372:131|424:140,1,160,8|4,0:0|0:0,0:0:0:0:
416,304,78524,5,8,3:0:0:0:
320,296,78872,6,0,P|272:280|244:252,1,80,4|8,0:0|0:0,0:0:0:0:
208,176,79570,1,0,0:0:0:0:
120,64,80093,2,0,P|164:40|241:37,1,120,4|8,0:0|0:0,0:0:0:0:
324,60,80965,2,0,P|368:68|416:64,1,80,0|8,0:0|0:0,0:0:0:0:
496,44,81663,5,2,0:0:0:0:
471,136,82012,2,0,P|394:154|314:149,1,160,8|8,0:0|0:0,0:0:0:0:
268,148,82884,2,0,P|221:173|194:237,1,120,4|8,0:0|0:0,0:0:0:0:
160,320,83756,2,0,P|206:324|246:307,1,80,0|8,0:0|0:0,0:0:0:0:
288,233,84454,6,0,P|288:291|366:358,1,160,4|0,0:0|0:0,0:0:0:0:
491,295,85675,2,0,P|441:264|382:258,1,120,4|8,0:0|0:0,0:0:0:0:
288,233,86547,1,0,0:0:0:0:
204,280,86896,1,8,0:0:0:0:
128,220,87244,6,0,P|124:176|132:128,2,80,0|8|0,0:0|0:0|0:0,0:0:0:0:
164,360,88465,2,0,P|230:367|280:325,1,120,4|8,0:0|0:0,0:0:0:0:
252,244,89338,1,2,0:0:0:0:
312,168,89686,1,2,0:0:0:0:
384,108,90035,6,0,B|416:161|403:224|350:251|350:251|388:249|418:284,1,240,4|8,0:0|0:0,0:0:0:0:
347,342,91431,2,0,P|263:268|312:168,1,240,2|8,0:0|0:0,0:0:0:0:
408,156,92826,6,0,P|376:95|283:76,1,160,2|0,0:0|0:0,0:0:0:0:
152,36,94047,2,0,P|148:76|172:156,1,120,4|8,0:0|0:0,0:0:0:0:
244,212,94919,2,0,P|214:240|161:249,1,80,0|8,0:0|0:0,0:0:0:0:
112,324,95617,6,0,B|69:292|67:228|94:193|94:193|68:148|61:89,1,240,4|8,0:0|0:0,0:0:0:0:
120,28,97012,1,2,0:0:0:0:
214,49,97361,2,0,P|197:85|168:112,2,80,8|0|8,0:0|0:0|0:0,0:0:0:0:
308,60,98407,6,0,B|296:104|285:121|285:121|335:122|364:172,1,160,6|0,0:0|0:0,0:0:0:0:
280,216,99454,1,8,0:0:0:0:
240,304,99803,2,0,P|204:272|188:196,2,120,2|4|8,0:0|0:0|0:0,0:0:0:0:
336,296,101198,1,6,0:0:0:0:
416,332,106779,6,0,B|384:294|317:286|271:327|271:327|244:285|195:279,1,240,6|8,0:0|0:0,0:0:0:0:
118,317,108175,2,0,B|106:267|125:216|173:194|173:194|148:145|169:102,1,240,2|8,0:0|0:0,0:0:0:0:
196,14,109570,6,0,P|254:66|256:144,1,160,2|8,0:0|0:0,0:0:0:0:
324,272,110791,1,8,0:0:0:0:
60,68,112012,1,8,0:0:0:0:
156,64,112361,6,0,B|264:24|264:108|360:52,1,200,6|0,0:0|0:0,0:0:0:0:
432,104,113582,2,0,P|376:143|314:160,1,120,8|8,0:0|0:0,0:0:0:0:
272,236,114454,2,0,P|242:196|239:150,1,80,0|8,0:0|0:0,0:0:0:0:
160,108,115151,6,0,P|148:143|146:197,1,80,2|8,0:0|0:0,0:0:0:0:
180,276,115849,2,0,P|123:281|64:240,2,120,0|8|8,0:0|0:0|0:0,0:0:0:0:
268,236,117244,1,0,0:0:0:0:
352,284,117593,1,8,0:0:0:0:
444,252,117942,6,0,P|496:170|442:81,1,200,6|0,0:0|0:0,0:0:0:0:
360,64,119163,2,0,P|364:123|403:168,1,120,8|8,0:0|0:0,0:0:0:0:
348,248,120035,2,0,P|310:215|286:179,1,80,0|8,0:0|0:0,0:0:0:0:
244,108,120733,5,2,0:0:0:0:
176,40,121082,2,0,P|152:84|168:166,1,120,8|0,0:0|0:0,0:0:0:0:
200,240,121954,2,0,P|209:298|183:351,1,120,2|8,0:0|0:0,0:0:0:0:
116,284,122826,2,0,P|72:272|38:238,1,80,0|8,0:0|0:0,0:0:0:0:
120,188,123524,6,0,P|166:150|272:177,1,160,6|0,0:0|0:0,0:0:0:0:
296,252,124570,1,8,0:0:0:0:
384,288,124919,2,0,B|399:260|391:203|356:179|356:179|362:144|345:93|297:73,1,240,2|8,0:0|0:0,0:0:0:0:
240,11,126314,6,0,P|215:45|210:85,1,80,2|8,0:0|0:0,0:0:0:0:
259,164,127012,2,0,P|215:177|171:169,1,80,0|8,0:0|0:0,0:0:0:0:
100,124,127710,2,0,B|60:208|128:208|92:288,2,160,2|0|2,0:0|0:0|0:0,0:0:0:0:
184,76,129454,5,8,0:0:0:0:
276,108,129803,2,0,P|304:144|312:192,1,80,0|8,0:0|0:0,0:0:0:0:
304,272,130500,2,0,B|255:262|228:233|219:191|219:191|174:226|108:223,1,240,2|8,0:0|0:0,0:0:0:0:
88,128,131896,6,0,P|159:129|184:40,2,160,4|4|4,0:0|0:0|0:0,0:0:0:0:
372,180,134338,1,8,0:0:0:0:
300,244,134686,6,0,P|235:260|174:250,2,120,2|8|0,0:0|0:0|0:0,0:0:0:0:
284,148,136082,2,0,P|230:174|215:47,1,240,2|0,0:0|0:0,0:0:0:0:
124,8,137477,6,0,P|92:54|83:126,1,120,2|8,0:0|0:0,0:0:0:0:
84,212,138349,1,0,0:0:0:0:
160,272,138698,2,0,P|180:220|160:148,1,120
212,72,139570,2,8,P|240:104|264:148,1,80
300,224,140268,6,0,P|348:259|416:272,2,120,8|8|0,3:0|0:0|0:0,0:0:0:0:
212,264,141663,2,0,P|141:239|60:290,1,160,2|0,0:0|0:0,0:0:0:0:
145,335,142710,1,0,0:0:0:0:
241,355,143058,6,0,P|289:319|305:251,1,120,8|0,0:0|0:0,0:0:0:0:
261,179,143931,1,0,0:0:0:0:
400,220,144454,2,0,P|438:222|476:208,1,80,2|8,0:0|0:0,0:0:0:0:
420,132,145151,2,0,P|416:92|398:57,1,80,8|2,3:0|0:0,0:0:0:0:
328,120,145849,6,0,P|268:111|215:28,1,160,6|0,0:0|0:0,0:0:0:0:
312,28,146896,1,0,0:0:0:0:
398,57,147244,2,0,P|421:119|399:185,2,120,8|8|8,3:0|3:0|0:0,0:0:0:0:
328,120,148640,6,0,P|295:115|244:124,1,80,2|8,0:0|3:0,0:0:0:0:
192,200,149338,2,0,P|152:207|113:202,1,80,8|8,0:0|3:0,0:0:0:0:
88,160,149861,6,0,P|71:123|91:41,1,120,4|8,0:0|0:0,0:0:0:0:
180,44,150733,2,0,P|212:48|264:40,1,80,8|8,0:0|0:0,0:0:0:0:
356,44,151431,6,0,B|320:116|364:184|364:184|314:202|306:257,1,240,2|8,0:0|0:0,0:0:0:0:
284,344,152826,2,0,P|361:334|404:270,1,160,2|8,0:0|0:0,0:0:0:0:
364,184,153872,1,8,3:0:0:0:
280,136,154221,6,0,B|263:153|253:214|292:252|292:252|222:237|161:316|192:381,1,320,4|0,0:0|2:0,0:0:0:0:
72,328,157012,6,0,P|64:288|80:168,1,160,4|0,0:0|0:0,0:0:0:0:
212,112,158233,2,0,P|260:120|340:104,1,120,4|8,0:0|0:0,0:0:0:0:
384,28,159105,2,0,P|410:55|425:104,1,80,0|8,0:0|0:0,0:0:0:0:
388,184,159803,5,2,0:0:0:0:
308,236,160151,2,0,P|360:278|454:259,1,160,8|0,0:0|0:0,0:0:0:0:
482,229,161024,2,0,P|487:168|450:104,1,120,4|8,0:0|0:0,0:0:0:0:
388,56,161896,1,0,0:0:0:0:
292,64,162244,1,8,0:0:0:0:
200,96,162593,6,0,B|214:138|247:159|282:163|282:163|239:181|224:244,1,200,4|0,0:0|0:0,0:0:0:0:
236,324,163814,2,0,P|290:301|320:250,1,120,4|8,0:0|0:0,0:0:0:0:
280,164,164686,1,0,0:0:0:0:
332,84,165035,1,8,0:0:0:0:
424,116,165384,6,0,P|405:150|373:174,2,80,2|8|0,0:0|0:0|0:0,0:0:0:0:
296,52,166605,2,0,B|236:32|236:76|164:52,1,120,4|8,0:0|0:0,0:0:0:0:
92,20,167477,1,2,0:0:0:0:
64,108,167826,1,2,0:0:0:0:
152,148,168175,6,0,P|202:178|213:286,1,160,4|0,0:0|0:0,0:0:0:0:
126,240,169221,1,8,0:0:0:0:
144,336,169570,2,0,P|194:367|296:335,1,160,2|0,0:0|0:0,0:0:0:0:
316,252,170617,1,8,0:0:0:0:
308,156,170965,6,0,P|270:166|236:200,2,80,2|8|0,0:0|0:0|0:0,0:0:0:0:
440,212,172186,2,0,P|444:268|432:336,1,120,4|8,0:0|0:0,0:0:0:0:
344,368,173058,2,0,P|338:336|352:279,1,80,0|8,0:0|0:0,0:0:0:0:
344,192,173756,6,0,B|312:185|274:210|260:237|260:237|240:212|208:204,1,160,4|0,0:0|0:0,0:0:0:0:
184,296,174803,1,8,0:0:0:0:
115,227,175151,2,0,P|128:151|192:107,2,160,2|0|6,0:0|0:0|0:0,0:0:0:0:
253,184,177070,6,0,P|287:127|279:64,1,120,2|6,0:0|0:0,0:0:0:0:
424,36,178117,2,0,P|436:84|440:168,1,120,2|8,0:0|0:0,0:0:0:0:
416,248,178989,1,0,0:0:0:0:
336,300,179338,1,4,0:0:0:0:
416,172,189454,6,0,P|396:208|280:232,1,160,4|0,0:0|0:0,0:0:0:0:
207,183,190500,6,0,P|170:167|130:168,2,80,6|8|0,0:0|0:0|0:0,0:0:0:0:
152,264,191547,1,8,0:0:0:0:
60,236,191896,2,0,P|34:166|80:86,1,160,2|0,0:0|0:0,0:0:0:0:
164,72,192942,1,8,0:0:0:0:
244,128,193291,6,0,P|284:136|336:128,1,80,2|8,0:0|0:0,0:0:0:0:
403,80,193989,2,0,P|378:133|390:191,2,120,0|0|8,0:0|0:0|0:0,0:0:0:0:
476,144,195384,2,0,P|487:182|479:229,1,80,0|8,0:0|0:0,0:0:0:0:
412,288,196082,6,0,B|356:320|356:272|292:300,1,120,6|0,0:0|0:0,0:0:0:0:
208,336,196954,1,0,0:0:0:0:
116,368,197303,2,0,P|114:307|158:251,1,120,0|8,0:0|0:0,0:0:0:0:
228,212,198175,1,0,0:0:0:0:
212,116,198524,1,8,0:0:0:0:
140,53,198872,6,0,P|197:21|283:52,1,160,2|0,0:0|0:0,0:0:0:0:
364,100,199919,2,0,P|337:130|300:143,1,80,8|0,0:0|0:0,0:0:0:0:
217,193,200617,2,0,P|205:155|211:115,2,80,4|4|4,0:0|0:0|0:0,0:0:0:0:
300,240,201663,6,0,B|283:283|225:302|181:284|181:284|172:313|143:340|99:348,1,240,6|8,0:0|0:0,0:0:0:0:
11,330,203058,2,0,P|38:277|90:249,2,120,2|0|8,0:0|0:0|0:0,0:0:0:0:
107,346,204454,5,2,0:0:0:0:
180,276,204803,2,0,P|175:207|93:151,1,160,8|8,0:0|0:0,0:0:0:0:
12,160,205849,2,0,P|24:105|84:58,2,120,2|0|8,0:0|0:0|0:0,0:0:0:0:
107,153,207244,6,0,B|144:180|200:176|237:152|237:152|240:196|280:226|316:232,1,240,6|8,0:0|0:0,0:0:0:0:
384,272,208640,2,0,B|408:223|389:152|326:138|326:138|371:120|382:76,1,240,8|8,0:0|0:0,0:0:0:0:
292,48,210035,6,0,B|249:40|203:47|169:72|169:72|149:46|104:31|55:52,1,240,8|8,0:0|0:0,0:0:0:0:
104,136,211431,2,0,P|135:200|97:286,1,160,8|8,0:0|0:0,0:0:0:0:
40,208,212477,1,8,3:0:0:0:
12,300,212826,6,0,P|37:346|109:376,2,120,4|8|8,0:0|0:0|0:0,0:0:0:0:
105,279,214221,2,0,P|158:303|188:354,2,120,2|8|8,0:0|0:0|3:0,0:0:0:0:
256,192,215617,12,0,218407,0:0:0:0:
256,192,223989,12,0,228088,0:0:0:0:
364,128,229570,6,0,P|328:108|204:136,1,160,6|8,0:0|0:0,0:0:0:0:
128,240,230791,2,0,P|164:260|320:208,1,200,2|8,0:0|0:0,0:0:0:0:
132,148,232361,6,0,P|64:169|26:251,1,160,2|8,0:0|0:0,0:0:0:0:
168,228,233582,2,0,B|218:203|228:150|211:113|211:113|254:114|282:89,1,200,2|8,0:0|0:0,0:0:0:0:
216,20,234803,1,2,0:0:0:0:
312,12,235151,6,0,B|361:28|376:82|368:123|368:123|420:136|434:204,1,240,2|8,0:0|0:0,0:0:0:0:
388,284,236547,2,0,P|359:257|344:221,1,80,8|8,0:0|0:0,0:0:0:0:
248,220,237244,2,0,P|208:228|164:220,1,80,8|8,0:0|0:0,0:0:0:0:
128,136,237942,6,0,P|168:128|212:136,2,80,4|8|0,0:0|0:0|0:0,0:0:0:0:
80,272,239163,2,0,P|116:312|196:324,1,120,4|8,0:0|0:0,0:0:0:0:
272,312,240035,2,0,P|320:304|364:308,1,80,0|8,0:0|0:0,0:0:0:0:
428,360,240733,6,0,P|443:322|437:273,1,80,2|8,0:0|0:0,0:0:0:0:
408,192,241431,2,0,P|392:148|412:72,2,120,0|4|8,0:0|0:0|0:0,0:0:0:0:
328,248,242826,2,0,P|305:202|296:159,1,80,0|8,0:0|0:0,0:0:0:0:
311,80,243524,6,0,P|239:143|145:124,1,200,4|0,0:0|0:0,0:0:0:0:
104,36,244744,2,0,P|63:72|50:143,1,120,4|8,0:0|0:0,0:0:0:0:
112,212,245617,1,0,0:0:0:0:
80,304,245965,1,8,0:0:0:0:
164,352,246314,6,0,P|215:373|292:352,1,120,2|0,0:0|0:0,0:0:0:0:
324,276,247186,1,0,0:0:0:0:
293,184,247535,2,0,P|246:219|228:276,1,120,4|8,0:0|0:0,0:0:0:0:
132,260,248407,2,0,P|141:215|160:176,1,80,8|8,0:0|0:0,0:0:0:0:
224,116,249105,6,0,P|184:91|77:128,1,160,4|0,0:0|0:0,0:0:0:0:
155,184,250151,1,8,0:0:0:0:
248,212,250500,2,0,P|289:189|311:78,1,160,2|0,0:0|0:0,0:0:0:0:
243,22,251547,1,8,0:0:0:0:
161,70,251896,6,0,P|187:99|224:116,1,80,2|8,0:0|0:0,0:0:0:0:
248,212,252593,2,0,P|252:251|240:289,1,80,0|8,0:0|0:0,0:0:0:0:
156,336,253291,2,0,B|200:312|276:312|316:348|316:348|340:308|384:300,1,240,2|8,0:0|0:0,0:0:0:0:
456,348,254686,6,0,P|462:283|397:213,1,160,4|0,0:0|0:0,0:0:0:0:
308,204,255733,1,8,0:0:0:0:
228,256,256082,2,0,P|212:212|221:166,1,80,2|8,0:0|0:0,0:0:0:0:
208,84,256779,2,0,P|254:92|289:122,1,80,0|8,0:0|0:0,0:0:0:0:
308,204,257477,6,0,P|352:175|363:66,2,160,4|0|8,0:0|0:0|0:0,0:0:0:0:
215,179,259221,1,2,0:0:0:0:
148,112,259570,2,0,P|126:149|123:200,1,80,8|8,0:0|0:0,0:0:0:0:
100,280,260268,6,0,B|126:289|160:282|179:263|179:263|208:274|242:269|261:256,1,160,6|8,0:0|0:0,0:0:0:0:
288,172,261314,1,2,0:0:0:0:
340,88,261663,2,0,P|369:123|386:166,1,80,2|2,0:0|0:0,0:0:0:0:
376,252,262361,2,0,P|355:288|324:328,1,80,2|2,0:0|0:0,0:0:0:0:
236,316,263058,6,0,B|222:250|320:246|331:177|280:125|218:129|203:180|203:180|192:129|127:125|97:162|101:228|153:252,1,480
164,60,265849,6,0,P|124:62|88:79,2,80,4|8|0,0:0|0:0|0:0,0:0:0:0:
236,184,267070,2,0,P|233:236|188:288,1,120,4|8,0:0|0:0,0:0:0:0:
124,356,267942,2,0,P|98:325|91:286,1,80,0|8,0:0|0:0,0:0:0:0:
140,204,268640,6,0,P|132:124|64:76,1,160,2|0,0:0|0:0,0:0:0:0:
208,32,269861,2,0,B|272:8|272:56|332:28,1,120,4|8,0:0|0:0,0:0:0:0:
412,68,270733,2,0,P|385:97|341:118,1,80,0|8,0:0|0:0,0:0:0:0:
256,144,271431,6,0,P|272:180|305:208,1,80,4|8,0:0|0:0,0:0:0:0:
392,244,272128,2,0,P|343:249|284:303,2,120,0|4|8,0:0|0:0|0:0,0:0:0:0:
480,280,273524,1,0,0:0:0:0:
508,188,273872,1,8,0:0:0:0:
432,128,274221,6,0,P|388:112|340:112,1,80,2|8,0:0|0:0,0:0:0:0:
264,136,274919,2,0,P|208:156|140:148,1,120,8|4,0:0|0:0,0:0:0:0:
92,72,275791,2,0,P|126:57|173:58,1,80,8|8,0:0|0:0,0:0:0:0:
256,192,277012,12,0,279803,0:0:0:0:
