osu file format v14

[General]
AudioFilename: audio.mp3
AudioLeadIn: 0
PreviewTime: 217710
Countdown: 0
SampleSet: Soft
StackLeniency: 0.4
Mode: 0
LetterboxInBreaks: 0
WidescreenStoryboard: 1

[Editor]
Bookmarks: 11896,23058,34221,45384,56547,67710,78872,90035,101198,106779,112361,123524,134686,145849,157012,168175,176547,179338,190500,201663,218407,223989,237942,249105,257477,260268,265849,277012
DistanceSpacing: 1.6
BeatDivisor: 4
GridSize: 32
TimelineZoom: 2.15

[Metadata]
Title:Yonjuunana
TitleUnicode:ヨンジュウナナ
Artist:Himeringo
ArtistUnicode:ひめりんご
Creator:Gottagof4st
Version:bor's Easy
Source:
Tags:Utaite Cover bor mentai yukiyo 47 Forty Seven MikitoP Kohei Nakaya ggf gottagofast
BeatmapID:1625743
BeatmapSetID:762282

[Difficulty]
HPDrainRate:2
CircleSize:3
OverallDifficulty:3
ApproachRate:4
SliderMultiplier:1.1
SliderTickRate:1

[Events]
//Background and Video events
0,0,"yonjuunanabg.jpg",0,0
//Break Periods
2,101360,110534
2,179500,189022
2,218220,222511
2,226941,228092
//Storyboard Layer 0 (Background)
//Storyboard Layer 1 (Fail)
//Storyboard Layer 2 (Pass)
//Storyboard Layer 3 (Foreground)
//Storyboard Sound Samples

[TimingPoints]
-700,348.837209302326,4,2,1,35,1,0
695,-100,4,2,1,35,0,0
11509,-100,4,2,1,35,0,0
11770,-100,4,2,1,5,0,0
11858,-111.111111111111,4,2,1,45,0,0
19096,-111.111111111111,4,2,1,5,0,0
19183,-111.111111111111,4,2,1,45,0,0
21625,-100,4,2,1,45,0,0
22672,-100,4,2,1,65,0,0
23282,-100,4,2,1,5,0,0
23369,-100,4,2,1,65,0,0
26073,-100,4,2,1,5,0,0
26160,-100,4,2,1,65,0,0
28863,-100,4,2,1,5,0,0
28951,-100,4,2,1,65,0,0
34183,-111.111111111111,4,2,1,55,0,0
44736,-111.111111111111,4,2,1,5,0,0
44823,-111.111111111111,4,2,1,55,0,0
44910,-111.111111111111,4,2,1,5,0,0
44997,-111.111111111111,4,2,1,55,0,0
45084,-111.111111111111,4,2,1,5,0,0
45172,-111.111111111111,4,2,1,55,0,0
45259,-111.111111111111,4,2,1,5,0,0
45346,-111.111111111111,4,2,1,55,0,0
45608,-111.111111111111,4,2,1,5,0,0
45695,-111.111111111111,4,2,1,55,0,0
48398,-111.111111111111,4,2,1,5,0,0
48486,-111.111111111111,4,2,1,55,0,0
52584,-111.111111111111,4,2,1,5,0,0
52672,-111.111111111111,4,2,1,55,0,0
53980,-111.111111111111,4,2,1,5,0,0
54067,-111.111111111111,4,2,1,55,0,0
56509,-111.111111111111,4,2,1,60,0,0
68980,-111.111111111111,4,2,1,5,0,0
69067,-111.111111111111,4,2,1,50,0,0
70724,-111.111111111111,4,2,1,5,0,0
70811,-111.111111111111,4,2,1,45,0,0
71073,-111.111111111111,4,2,1,5,0,0
71160,-111.111111111111,4,2,1,45,0,0
71247,-111.111111111111,4,2,1,5,0,0
71334,-111.111111111111,4,2,1,45,0,0
71596,-111.111111111111,4,2,1,5,0,0
71683,-111.111111111111,4,2,1,45,0,0
72643,-111.111111111111,4,2,1,5,0,0
72730,-111.111111111111,4,2,1,45,0,0
72817,-111.111111111111,4,2,1,5,0,0
72904,-111.111111111111,4,2,1,45,0,0
72991,-111.111111111111,4,2,1,5,0,0
73079,-111.111111111111,4,2,1,45,0,0
73166,-111.111111111111,4,2,1,5,0,0
73253,-111.111111111111,4,2,1,45,0,0
74910,-111.111111111111,4,2,1,5,0,0
74997,-111.111111111111,4,2,1,45,0,0
75259,-111.111111111111,4,2,1,5,0,0
75346,-111.111111111111,4,2,1,45,0,0
75608,-111.111111111111,4,2,1,5,0,0
75695,-111.111111111111,4,2,1,45,0,0
75956,-111.111111111111,4,2,1,5,0,0
76044,-111.111111111111,4,2,1,45,0,0
78137,-111.111111111111,4,2,1,35,0,0
78486,-111.111111111111,4,3,1,50,0,0
78660,-111.111111111111,4,2,1,55,0,0
78834,-100,4,2,1,75,0,1
79096,-100,4,2,1,5,0,1
79183,-100,4,2,1,75,0,1
84677,-100,4,2,1,5,0,1
84765,-100,4,2,1,75,0,1
87119,-100,4,2,1,5,0,1
87206,-100,4,2,1,75,0,1
87468,-100,4,2,1,5,0,1
87555,-100,4,2,1,75,0,1
90259,-100,4,2,1,5,0,1
90346,-100,4,2,1,75,0,1
93050,-100,4,2,1,5,0,1
93137,-100,4,2,1,75,0,1
94445,-100,4,2,1,5,0,1
94532,-100,4,2,1,75,0,1
95840,-100,4,2,1,5,0,1
95927,-100,4,2,1,75,0,1
98369,-100,4,2,1,55,0,0
101160,-100,4,2,1,65,0,0
101422,-100,4,2,1,5,0,0
101509,-100,4,2,1,65,0,0
104212,-100,4,2,1,5,0,0
104300,-100,4,2,1,65,0,0
107003,-100,4,2,1,5,0,0
107090,-100,4,2,1,65,0,0
109794,-100,4,2,1,5,0,0
109881,-100,4,2,1,65,0,0
112323,-111.111111111111,4,2,1,55,0,0
112584,-111.111111111111,4,2,1,5,0,0
112672,-111.111111111111,4,2,1,55,0,0
120956,-111.111111111111,4,2,1,5,0,0
121044,-111.111111111111,4,2,1,55,0,0
125143,-111.111111111111,4,2,1,5,0,0
125230,-111.111111111111,4,2,1,55,0,0
132119,-111.111111111111,4,2,1,5,0,0
132206,-111.111111111111,4,2,1,55,0,0
132817,-111.111111111111,4,2,1,5,0,0
132904,-111.111111111111,4,2,1,55,0,0
134648,-111.111111111111,4,2,1,60,0,0
145811,-111.111111111111,4,2,1,45,0,0
147119,-111.111111111111,4,2,1,5,0,0
147206,-111.111111111111,4,2,1,45,0,0
148863,-111.111111111111,4,2,1,45,0,0
148951,-111.111111111111,4,2,1,45,0,0
149212,-111.111111111111,4,2,1,5,0,0
149300,-111.111111111111,4,2,1,45,0,0
149387,-111.111111111111,4,2,1,5,0,0
149474,-111.111111111111,4,2,1,45,0,0
149736,-111.111111111111,4,2,1,5,0,0
149823,-111.111111111111,4,2,1,45,0,0
150782,-111.111111111111,4,2,1,5,0,0
150869,-111.111111111111,4,2,1,45,0,0
150956,-111.111111111111,4,2,1,5,0,0
151044,-111.111111111111,4,2,1,45,0,0
151131,-111.111111111111,4,2,1,5,0,0
151218,-111.111111111111,4,2,1,45,0,0
151305,-111.111111111111,4,2,1,5,0,0
151393,-111.111111111111,4,2,1,45,0,0
153050,-111.111111111111,4,2,1,5,0,0
153137,-111.111111111111,4,2,1,45,0,0
153398,-111.111111111111,4,2,1,5,0,0
153486,-111.111111111111,4,2,1,45,0,0
153747,-111.111111111111,4,2,1,5,0,0
153834,-111.111111111111,4,2,1,45,0,0
154096,-111.111111111111,4,2,1,5,0,0
154183,-111.111111111111,4,2,1,45,0,0
156887,-111.111111111111,4,2,1,5,0,0
156974,-100,4,2,1,75,0,1
157236,-100,4,2,1,5,0,1
157323,-100,4,2,1,75,0,1
160026,-100,4,2,1,5,0,1
160113,-100,4,2,1,75,0,1
162817,-100,4,2,1,5,0,1
162904,-100,4,2,1,75,0,1
165259,-100,4,2,1,5,0,1
165346,-100,4,2,1,75,0,1
168398,-100,4,2,1,5,0,1
168486,-100,4,2,1,75,0,1
171189,-100,4,2,1,5,0,1
171276,-100,4,2,1,75,0,1
172584,-100,4,2,1,5,0,1
172672,-100,4,2,1,75,0,1
173980,-100,4,2,1,5,0,1
174067,-100,4,2,1,75,0,1
176509,-100,4,2,1,55,0,0
179300,-100,4,2,1,45,0,0
189329,-100,4,2,1,5,0,0
189416,-100,4,2,1,45,0,0
190462,-100,4,2,1,55,0,0
201625,-100,4,2,1,65,0,0
207206,-100,4,2,1,75,0,0
212788,-100,4,2,1,55,0,0
214183,-100,4,2,1,50,0,0
216974,-100,4,2,1,75,0,0
218195,-100,4,2,1,45,0,0
223253,-100,4,2,1,45,0,0
223951,-100,4,2,1,55,0,0
229532,-100,4,2,1,45,0,0
236509,-100,4,2,1,65,0,0
237904,-90.9090909090909,4,2,1,50,0,1
238166,-90.9090909090909,4,2,1,5,0,1
238253,-90.9090909090909,4,2,1,75,0,1
240956,-90.9090909090909,4,2,1,5,0,1
241044,-90.9090909090909,4,2,1,75,0,1
243747,-90.9090909090909,4,2,1,5,0,1
243834,-90.9090909090909,4,2,1,75,0,1
245143,-90.9090909090909,4,2,1,5,0,1
245230,-90.9090909090909,4,2,1,75,0,1
246189,-90.9090909090909,4,2,1,5,0,1
246276,-90.9090909090909,4,2,1,75,0,1
249329,-90.9090909090909,4,2,1,5,0,1
249416,-90.9090909090909,4,2,1,75,0,1
252119,-90.9090909090909,4,2,1,5,0,1
252206,-90.9090909090909,4,2,1,75,0,1
253515,-90.9090909090909,4,2,1,5,0,1
253602,-90.9090909090909,4,2,1,75,0,1
254910,-90.9090909090909,4,2,1,5,0,1
254997,-90.9090909090909,4,2,1,75,0,1
256305,-90.9090909090909,4,2,1,5,0,1
256393,-90.9090909090909,4,2,1,75,0,1
257701,-90.9090909090909,4,2,1,5,0,1
257788,-90.9090909090909,4,2,1,75,0,1
258398,-90.9090909090909,4,2,1,5,0,1
258486,-90.9090909090909,4,2,1,75,0,1
259532,-100,4,2,1,80,0,0
260230,-100,4,2,1,55,0,0
263020,-100,4,2,1,65,0,0
264416,-100,4,2,1,75,0,0
265288,-100,4,2,1,55,0,0
265811,-111.111111111111,4,2,1,65,0,0
266073,-111.111111111111,4,2,1,5,0,0
266160,-111.111111111111,4,2,1,65,0,0
268863,-111.111111111111,4,2,1,5,0,0
268951,-111.111111111111,4,2,1,65,0,0
271654,-111.111111111111,4,2,1,5,0,0
271741,-111.111111111111,4,2,1,65,0,0
276974,-111.111111111111,4,2,1,35,0,0
282555,-111.111111111111,4,2,1,20,0,0
283253,-111.111111111111,4,2,1,5,0,0

[Colours]
Combo1 : 217,215,113
Combo2 : 236,132,62
Combo3 : 205,54,54

[HitObjects]
156,98,11858,5,4,0:0:0:0:
321,27,13253,1,2,0:0:0:0:
471,119,14648,1,2,0:0:0:0:
431,140,17439,6,0,B|428:193|446:238|446:238|397:215|351:215|351:215|389:268|386:318,1,296.999990936279,6|2,3:2|3:2,0:0:0:0:
310,352,18834,2,0,B|269:320|247:275|247:275|223:322|216:366|216:366|160:333|140:276,1,296.999990936279,2|2,3:2|3:2,0:0:0:0:
131,204,20230,2,0,P|108:162|57:126,1,98.9999969787598,2|2,3:2|3:2,0:0:0:0:
0,63,20927,2,0,P|21:28|83:20,2,98.9999969787598,0|0|2,3:2|3:2|3:2,0:0:0:0:
0,63,23020,6,0,B|52:87|78:144|78:144|134:128|177:70,1,220,6|2,3:2|3:2,0:0:0:0:
305,1,24241,1,6,3:2:0:0:
446,98,24765,1,10,0:2:0:0:
446,98,25113,2,0,P|471:149|486:213,1,110,2|10,3:2|0:2,0:0:0:0:
414,285,25811,6,0,B|371:252|316:233|316:233|358:192|374:130,1,220,6|2,3:2|3:2,0:0:0:0:
284,0,27032,1,6,3:2:0:0:
176,125,27555,1,10,0:2:0:0:
176,125,27904,2,0,P|177:189|188:251,1,110,2|10,3:2|0:2,0:0:0:0:
139,335,28602,6,0,B|94:381|40:378|40:378|54:325|31:269,1,220,6|2,3:2|3:2,0:0:0:0:
5,108,29823,1,6,3:2:0:0:
140,13,30346,1,10,0:2:0:0:
140,13,30695,2,0,P|205:38|252:44,1,110,2|10,3:2|0:2,0:0:0:0:
351,15,31393,5,6,3:2:0:0:
456,46,31741,1,10,0:2:0:0:
497,148,32090,1,10,0:2:0:0:
468,310,32613,2,0,B|424:297|388:238|388:238|376:291|364:312,1,165,14|10,0:2|0:2,0:0:0:0:
301,374,33486,2,0,P|230:358|197:326,1,110,2|8,3:2|0:2,0:0:0:0:
172,250,34183,6,0,P|139:203|89:184,1,98.9999969787598,6|8,3:2|0:2,0:0:0:0:
33,243,34881,2,0,P|46:268|68:295,1,49.4999984893799,2|2,3:2|3:2,0:0:0:0:
134,331,35404,1,2,3:2:0:0:
266,347,35927,1,10,0:2:0:0:
347,382,36276,2,0,P|369:339|367:281,1,98.9999969787598,2|10,3:2|0:2,0:0:0:0:
341,204,36974,6,0,P|350:149|387:124,1,98.9999969787598,2|10,3:2|0:2,0:0:0:0:
467,154,37672,2,0,P|472:186|470:216,1,49.4999984893799,0|2,3:2|3:2,0:0:0:0:
408,265,38195,1,2,3:2:0:0:
276,286,38718,1,10,0:2:0:0:
197,244,39067,2,0,P|166:191|161:139,1,98.9999969787598,2|10,3:2|0:2,0:0:0:0:
217,85,39765,6,0,L|328:95,1,98.9999969787598,2|10,3:2|0:2,0:0:0:0:
396,130,40462,2,0,L|427:89,1,49.4999984893799,2|2,3:2|3:2,0:0:0:0:
481,20,40986,1,2,3:2:0:0:
348,5,41509,1,10,0:2:0:0:
274,55,41858,2,0,P|219:64|174:57,1,98.9999969787598,2|10,3:2|0:2,0:0:0:0:
98,14,42555,6,0,L|87:115,1,98.9999969787598,2|10,3:2|0:2,0:0:0:0:
34,184,43253,2,0,L|46:247,1,49.4999984893799,2|2,3:2|3:2,0:0:0:0:
112,347,43951,2,0,P|155:349|214:333,1,98.9999969787598,2|10,0:0|0:2,0:0:0:0:
251,257,44648,1,2,3:2:0:0:
251,257,44997,1,10,0:2:0:0:
315,318,45346,6,0,B|370:312|412:331|412:331|448:309|455:246,1,197.99999395752,6|2,3:2|3:2,0:0:0:0:
453,156,46393,1,8,0:2:0:0:
380,105,46741,2,0,P|335:71|325:22,1,98.9999969787598,0|10,3:2|0:2,0:0:0:0:
413,22,47439,2,0,P|464:37|503:66,1,98.9999969787598,0|8,3:2|0:2,0:0:0:0:
421,141,48137,6,0,B|377:140|326:114|326:114|306:161|248:186,1,197.99999395752,2|2,3:2|3:2,0:0:0:0:
169,194,49183,1,10,0:2:0:0:
110,126,49532,2,0,P|81:90|89:36,1,98.9999969787599,0|10,3:2|0:2,0:0:0:0:
174,21,50230,2,0,P|205:66|199:110,1,98.9999969787599,2|10,3:2|0:2,0:0:0:0:
143,176,50927,6,0,B|91:181|51:206|51:206|91:233|129:287,1,197.99999395752,2|2,3:2|3:2,0:0:0:0:
155,359,51974,1,10,0:2:0:0:
241,379,52323,2,0,P|267:337|277:268,1,98.9999969787599,2|10,3:2|0:2,0:0:0:0:
256,202,53020,1,2,3:2:0:0:
306,128,53369,1,10,0:2:0:0:
395,127,53718,6,0,P|468:107|517:-2,1,197.99999395752,2|2,3:2|3:2,0:0:0:0:
428,6,54765,1,10,0:2:0:0:
392,87,55113,1,2,3:2:0:0:
392,87,55462,1,10,0:2:0:0:
426,169,55811,2,0,B|455:229|440:260|436:266|432:273|417:309|457:368,1,197.99999395752,0|2,3:2|3:0,0:0:0:0:
318,374,57032,6,0,P|254:341|221:269,1,148.49999546814,8|2,0:0|3:3,0:0:0:0:
234,186,57904,2,0,P|272:173|334:80,2,148.49999546814,0|8|2,3:2|0:0|3:3,0:0:0:0:
150,154,59300,2,0,P|62:189|32:251,1,148.49999546814,0|8,3:2|0:0,0:0:0:0:
90,342,60346,1,2,3:3:0:0:
90,342,60695,2,0,B|136:316|176:334|183:337|189:339|236:358|285:343|290:339|299:335|338:317|381:337,1,296.99999093628,2|2,3:3|2:3,0:0:0:0:
462,373,62090,5,4,3:2:0:0:
506,246,62613,2,0,P|519:184|481:98,1,148.49999546814,8|0,0:0|3:2,0:0:0:0:
435,34,63486,2,0,B|392:74|375:110|375:110|329:78|267:73,1,197.99999395752,2|0,3:3|3:2,0:0:0:0:
193,84,64532,1,2,3:3:0:0:
117,36,64881,6,0,P|65:40|-2:107,2,148.49999546814,2|2|0,3:3|0:3|3:2,0:0:0:0:
168,108,66276,2,0,L|203:208,1,98.9999969787599,2|2,3:3|3:3,0:0:0:0:
123,245,66974,2,0,L|42:186,1,98.9999969787599,2|8,3:3|0:3,0:0:0:0:
79,105,67672,5,4,3:2:0:0:
166,4,68195,2,0,P|229:40|267:122,1,148.49999546814,2|6,0:0|0:3,0:0:0:0:
247,192,69067,2,0,P|268:251|304:289,1,98.9999969787599,10|8,0:3|0:0,0:0:0:0:
373,311,69765,2,0,P|433:292|469:258,1,98.9999969787599,2|10,3:0|0:0,0:0:0:0:
449,181,70462,6,0,B|399:189|371:222|365:230|360:236|330:271|276:273,1,197.99999395752,0|10,3:3|3:2,0:0:0:0:
189,269,71509,2,0,P|165:279|144:299,1,49.4999984893799,10|4,0:0|3:2,0:0:0:0:
38,371,72206,1,10,0:0:0:0:
10,286,72555,1,10,0:0:0:0:
10,286,72904,1,10,0:0:0:0:
86,240,73253,6,0,P|183:213|247:144,1,197.99999395752,2|0,3:0|3:0,0:0:0:0:
214,60,74300,1,8,0:0:0:0:
286,8,74648,2,0,L|391:23,1,98.9999969787599,2|10,3:2|0:2,0:0:0:0:
454,77,75346,1,2,3:2:0:0:
414,156,75695,1,10,0:2:0:0:
437,242,76044,5,6,3:2:0:0:
266,365,78486,1,4,3:0:0:0:
266,365,78834,6,0,B|205:348|157:357|157:357|187:316|194:247,1,220,4|2,3:2|3:2,0:0:0:0:
135,173,79881,2,0,P|101:175|63:187,1,55,8|6,0:0|3:2,0:0:0:0:
30,320,80579,1,8,0:0:0:0:
115,368,80927,2,0,L|232:378,1,110,2|8,3:2|0:0,0:0:0:0:
323,376,81625,6,0,P|382:320|380:171,1,220,0|2,3:2|3:2,0:0:0:0:
337,102,82672,2,0,P|329:70|334:33,1,55,10|6,0:0|3:2,0:0:0:0:
475,77,83369,1,8,0:0:0:0:
475,77,83718,2,0,P|455:131|408:167,1,110,2|8,3:2|0:0,0:0:0:0:
323,126,84416,6,0,L|200:140,1,110,4|8,3:2|0:0,0:0:0:0:
123,96,85113,1,2,3:2:0:0:
2,183,85637,2,0,P|27:251|117:288,1,165,6|10,3:2|0:0,0:0:0:0:
204,270,86509,2,0,P|304:291|319:302,1,110,2|8,3:2|0:0,0:0:0:0:
359,379,87206,6,0,L|371:197,1,165,0|2,3:2|0:0,0:0:0:0:
422,130,88079,1,8,0:0:0:0:
395,34,88427,1,6,3:2:0:0:
248,7,88951,1,8,0:0:0:0:
248,7,89300,2,0,P|186:46|139:52,1,110,0|8,3:3|0:0,0:0:0:0:
55,26,89997,6,0,B|12:71|11:124|11:124|67:144|96:196,1,220,4|2,3:2|3:2,0:0:0:0:
138,281,91044,1,8,0:0:0:0:
198,359,91393,2,0,P|242:330|314:315,1,110,4|8,0:0|0:0,0:0:0:0:
395,320,92090,2,0,P|428:302|442:286,1,55,2|2,3:2|3:2,0:0:0:0:
357,165,92788,6,0,B|299:162|254:199|254:199|198:169|188:117,1,220,4|2,3:2|3:2,0:0:0:0:
214,21,93834,2,0,P|243:5|276:-4,1,55,10|2,0:2|0:0,0:0:0:0:
408,31,94532,1,8,0:0:0:0:
438,125,94881,2,0,P|472:100|517:91,2,82.5,2|2|0,3:2|0:0|2:2,0:0:0:0:
417,222,95753,6,0,P|444:272|421:378,1,165,2|0,2:0|3:2,0:0:0:0:
324,374,96625,1,10,0:0:0:0:
240,320,96974,2,0,P|168:323|85:369,2,165,6|2|8,3:2|0:0|0:0,0:0:0:0:
327,365,98369,5,4,3:2:0:0:
435,199,99067,2,0,P|476:168|499:113,1,110,0|8,3:2|0:0,0:0:0:0:
425,47,99765,2,0,P|347:55|268:4,2,165,2|2|8,0:0|3:2|0:0,0:0:0:0:
512,0,101160,1,6,0:0:0:0:
79,267,111974,5,8,0:2:0:0:
79,267,112323,2,0,P|117:311|161:334,1,98.9999969787599,6|10,3:2|0:0,0:0:0:0:
239,310,113020,2,0,P|270:313|297:319,1,49.4999984893799,2|2,3:2|3:2,0:0:0:0:
363,364,113544,1,10,0:2:0:0:
484,307,114067,1,10,0:0:0:0:
485,217,114416,2,0,P|433:209|376:186,1,98.9999969787599,2|8,3:2|0:0,0:0:0:0:
335,122,115113,6,0,L|353:15,1,98.9999969787599,2|10,3:2|0:2,0:0:0:0:
439,7,115811,2,0,L|456:65,1,49.4999984893799,2|2,3:2|3:2,0:0:0:0:
425,139,116334,1,8,3:2:0:0:
331,234,116858,1,10,0:2:0:0:
251,274,117206,2,0,L|223:174,1,98.9999969787599,2|10,3:2|0:2,0:0:0:0:
174,104,117904,6,0,P|147:74|82:55,1,98.9999969787599,2|10,3:2|0:2,0:0:0:0:
16,101,118602,2,0,P|12:129|17:163,1,49.4999984893799,2|2,3:2|3:2,0:0:0:0:
77,212,119125,1,10,3:2:0:0:
162,314,119648,1,10,0:2:0:0:
105,382,119997,2,0,P|57:355|30:315,1,98.9999969787599,2|10,3:2|0:2,0:0:0:0:
42,231,120695,6,0,L|163:219,1,98.9999969787599,2|10,3:2|0:2,0:0:0:0:
219,262,121393,2,0,L|291:270,1,49.4999984893799,2|2,3:2|3:2,0:0:0:0:
379,194,122090,2,2,P|424:177|484:177,1,98.9999969787599,2|10,0:2|0:2,0:0:0:0:
512,263,122788,1,2,3:2:0:0:
512,263,123137,1,10,0:2:0:0:
464,338,123486,6,0,B|412:331|375:295|375:295|351:340|284:358,1,197.99999395752,6|2,3:2|3:2,0:0:0:0:
214,377,124532,1,8,0:2:0:0:
144,321,124881,2,0,P|109:277|112:215,1,98.9999969787599,2|10,3:2|0:2,0:0:0:0:
177,182,125579,2,0,P|226:208|247:267,1,98.9999969787599,2|10,3:2|0:2,0:0:0:0:
326,281,126276,6,0,B|383:269|424:289|424:289|464:258|465:191,1,197.99999395752,2|2,3:2|3:2,0:0:0:0:
457,113,127323,1,10,0:2:0:0:
441,25,127672,2,0,L|342:9,1,98.9999969787599,0|10,3:2|0:2,0:0:0:0:
266,54,128369,2,0,L|153:62,1,98.9999969787599,2|10,3:2|0:2,0:0:0:0:
78,48,129067,6,0,B|65:100|32:134|32:134|57:178|127:189,1,197.99999395752,2|2,3:2|3:2,0:0:0:0:
201,192,130113,1,10,0:2:0:0:
275,240,130462,2,0,P|281:291|256:342,1,98.9999969787599,0|10,3:0|0:2,0:0:0:0:
179,366,131160,2,0,P|130:338|104:288,1,98.9999969787599,2|10,3:2|0:2,0:0:0:0:
132,216,131858,6,0,P|128:116|39:49,1,197.99999395752,2|2,3:2|3:2,0:0:0:0:
25,137,132904,1,8,0:2:0:0:
88,208,133253,1,4,0:3:0:0:
88,208,133602,1,8,0:3:0:0:
176,216,133951,2,0,B|230:208|262:229|270:238|276:246|320:279|384:267,1,197.99999395752,0|2,3:2|3:3,0:0:0:0:
450,169,135172,6,0,P|471:94|446:20,1,148.49999546814,8|2,0:0|3:3,0:0:0:0:
371,67,136044,2,0,L|215:82,2,148.49999546814,2|8|2,3:3|0:0|3:3,0:0:0:0:
421,140,137439,2,0,P|367:188|347:282,1,148.49999546814,2|8,3:3|0:0,0:0:0:0:
426,365,138486,1,2,3:3:0:0:
426,365,138834,2,0,B|352:326|279:353|272:358|263:361|190:392|122:350,1,296.99999093628,0|2,3:0|3:3,0:0:0:0:
52,326,140230,5,2,3:3:0:0:
126,215,140753,2,0,P|146:146|114:70,1,148.49999546814,8|2,0:0|3:3,0:0:0:0:
58,12,141625,2,0,B|86:49|143:57|143:57|185:20|234:25,1,197.99999395752,2|2,3:3|3:3,0:0:0:0:
321,45,142672,1,2,3:3:0:0:
391,98,143020,6,0,P|460:86|515:24,2,148.49999546814,2|2|2,3:3|0:3|3:3,0:0:0:0:
305,125,144416,2,0,P|273:164|258:226,1,98.9999969787599,2|2,3:3|3:3,0:0:0:0:
315,278,145113,2,0,P|377:277|425:251,1,98.9999969787599,2|6,3:3|3:3,0:0:0:0:
396,173,145811,5,4,3:2:0:0:
427,43,146334,2,2,P|360:9|277:8,1,148.49999546814,2|6,0:0|0:3,0:0:0:0:
221,65,147206,2,0,L|118:77,1,98.9999969787599,8|8,3:0|0:0,0:0:0:0:
91,160,147904,2,0,L|188:226,1,98.9999969787599,0|8,3:0|0:0,0:0:0:0:
262,210,148602,6,0,B|221:246|169:247|169:247|177:302|141:348,1,197.99999395752,0|8,3:0|3:2,0:0:0:0:
64,369,149648,2,0,P|25:353|9:339,1,49.4999984893799,8|4,0:0|3:2,0:0:0:0:
1,216,150346,1,8,0:0:0:0:
58,148,150695,1,10,0:0:0:0:
58,148,151044,1,10,0:0:0:0:
146,160,151393,6,0,P|214:107|208:1,1,197.99999395752,4|0,3:2|3:0,0:0:0:0:
121,0,152439,1,8,0:0:0:0:
53,57,152788,2,0,L|38:165,1,98.9999969787599,0|8,3:0|0:0,0:0:0:0:
91,227,153486,1,0,3:0:0:0:
175,198,153834,1,8,0:0:0:0:
248,249,154183,5,2,3:2:0:0:
464,331,156974,6,0,B|446:278|411:235|411:235|453:198|469:134,1,220,6|2,3:2|3:2,0:0:0:0:
506,51,158020,2,0,P|501:19|490:-3,1,55,10|6,0:2|3:2,0:0:0:0:
343,16,158718,1,8,0:2:0:0:
278,91,159067,2,0,L|293:216,1,110,2|8,3:2|0:2,0:0:0:0:
357,274,159765,6,0,P|335:320|169:313,1,220,2|2,3:2|3:2,0:0:0:0:
120,255,160811,2,0,P|98:235|62:223,1,55,10|6,0:2|3:2,0:0:0:0:
6,357,161509,1,8,0:2:0:0:
6,357,161858,2,0,P|56:379|113:380,1,110,2|8,3:2|0:0,0:0:0:0:
194,329,162555,6,0,B|197:272|241:232|241:232|226:175|159:163,1,220,6|2,3:2|3:2,0:0:0:0:
70,129,163602,2,0,P|43:105|32:75,1,55,10|6,0:2|3:2,0:0:0:0:
157,4,164300,1,10,0:2:0:0:
247,42,164648,2,0,P|263:95|261:167,1,110,2|10,3:2|0:2,0:0:0:0:
242,246,165346,6,0,B|299:238|352:251|352:251|388:240|399:213,1,165,6|2,3:2|0:2,0:0:0:0:
395,121,166218,1,10,3:2:0:0:
449,38,166567,1,6,3:2:0:0:
510,173,167090,1,8,0:2:0:0:
510,173,167439,2,0,P|461:228|451:282,1,110,2|10,3:2|0:2,0:0:0:0:
415,354,168137,6,0,B|359:349|313:314|313:314|288:359|225:388,1,220,6|2,3:2|3:2,0:0:0:0:
136,357,169183,1,10,0:2:0:0:
37,363,169532,2,0,P|25:283|39:236,1,110,0|8,3:1|0:2,0:0:0:0:
97,181,170230,2,0,P|118:139|121:115,1,55,2|2,3:2|3:2,0:0:0:0:
222,25,170927,6,0,B|239:134|239:134|357:179,1,220,2|2,3:2|3:2,0:0:0:0:
440,170,171974,2,0,L|499:146,1,55,10|6,0:2|3:2,0:0:0:0:
442,8,172672,1,8,0:2:0:0:
359,62,173020,2,0,P|315:39|269:29,2,82.5,2|2|10,3:2|0:2|0:2,0:0:0:0:
319,152,173893,6,2,P|261:199|168:217,1,165,2|2,0:0|3:2,0:0:0:0:
86,171,174765,1,10,0:2:0:0:
16,240,175113,2,0,P|48:323|127:361,2,165,2|2|10,3:2|0:2|0:2,0:0:0:0:
64,153,176509,5,6,3:2:0:0:
182,63,177032,1,0,3:0:0:0:
309,138,177555,1,4,3:2:0:0:
458,7,178253,1,8,0:0:0:0:
458,7,178602,2,0,P|494:50|515:117,1,110,8|4,0:0|0:3,0:0:0:0:
488,196,179300,5,4,3:2:0:0:
278,69,190462,6,0,B|225:76|169:61|169:61|130:94|48:107,1,220,6|2,3:2|3:2,0:0:0:0:
4,179,191509,1,10,0:2:0:0:
35,272,191858,2,0,P|110:317|144:386,2,165,2|2|8,0:2|0:2|0:2,0:0:0:0:
17,174,193253,6,0,B|72:191|125:173|125:173|174:217|242:222,1,220,2|2,3:2|3:2,0:0:0:0:
322,214,194300,1,10,0:2:0:0:
415,181,194648,2,0,P|427:133|402:16,2,165,2|2|8,0:2|0:2|0:2,0:0:0:0:
322,214,196044,6,0,B|289:258|298:319|298:319|251:350|179:305,1,220,6|0,3:2|3:2,0:0:0:0:
114,259,197090,1,10,0:2:0:0:
72,169,197439,2,0,P|54:86|-3:29,2,165,2|2|8,0:2|0:2|0:2,0:0:0:0:
139,241,198834,6,0,L|189:349,1,110,2|10,3:2|0:2,0:0:0:0:
276,379,199532,2,0,L|319:266,1,110,2|10,3:2|0:2,0:0:0:0:
408,240,200230,2,0,B|452:204|504:192|504:192|445:166|407:128|407:128|456:109|497:45,1,330,2|12,0:2|0:2,0:0:0:0:
403,7,201625,6,0,B|343:37|332:84|332:84|292:44|216:32,1,220,6|0,3:2|3:2,0:0:0:0:
135,19,202672,2,0,P|100:26|69:43,1,55,8|2,0:2|3:2,0:0:0:0:
10,163,203369,1,8,0:2:0:0:
10,163,203718,2,0,P|63:186|130:187,1,110,0|10,3:2|0:2,0:0:0:0:
205,149,204416,6,0,B|241:191|254:245|254:245|206:266|159:321,1,220,2|2,3:2|3:2,0:0:0:0:
69,330,205462,2,0,P|35:313|19:291,1,55,8|2,0:2|3:2,0:0:0:0:
85,164,206160,1,8,0:2:0:0:
85,164,206509,2,0,P|128:126|149:70,1,110,0|8,3:2|0:2,0:0:0:0:
225,16,207206,6,0,B|263:63|279:115|279:115|333:89|360:49|360:49|406:87|418:164,1,330,8|8,0:2|0:2,0:0:0:0:
451,235,208602,2,0,B|435:299|398:330|398:330|349:311|306:268|306:268|293:325|262:368,1,330,8|8,0:2|0:2,0:0:0:0:
164,363,209997,5,8,0:2:0:0:
164,363,210346,1,8,0:2:0:0:
97,289,210695,2,0,P|40:268|-4:239,1,110,8|8,0:2|0:2,0:0:0:0:
60,163,211393,5,8,0:2:0:0:
60,163,211741,1,8,0:0:0:0:
120,84,212090,2,0,P|177:74|229:40,1,110,4|8,0:3|0:0,0:0:0:0:
310,4,212788,5,4,3:2:0:0:
256,192,212962,12,4,215579,3:2:0:0:
388,139,216974,6,0,L|369:259,1,110,8|8,0:0|0:0,0:0:0:0:
274,270,217672,2,0,L|250:156,1,110,8|4,0:0|0:3,0:0:0:0:
160,0,223951,5,4,3:2:0:0:
160,0,225346,1,4,3:2:0:0:
14,105,226741,1,4,3:2:0:0:
11,186,229532,6,0,P|120:206|190:293,1,220,6|8,3:2|0:0,0:0:0:0:
367,375,230927,2,0,P|413:352|470:203,1,220,2|8,3:2|0:0,0:0:0:0:
365,35,232323,6,0,P|325:79|161:92,1,220,2|10,3:2|0:2,0:0:0:0:
17,230,233718,2,0,P|-3:311|107:331,1,220,0|8,3:0|0:0,0:0:0:0:
305,331,235113,2,0,B|340:293|342:231|342:231|395:247|423:304|423:304|479:277|482:204,1,330,6|0,3:2|3:0,0:0:0:0:
496,124,236509,5,10,0:2:0:0:
496,124,236858,1,10,0:2:0:0:
446,37,237206,1,8,0:0:0:0:
351,67,237555,1,8,0:0:0:0:
251,19,237904,6,0,B|195:55|171:112|171:112|107:117|63:60,1,242.000007385254,6|2,3:2|3:2,0:0:0:0:
5,156,238951,2,0,P|22:187|33:223,1,60.5000018463135,10|6,0:2|3:2,0:0:0:0:
2,371,239648,1,10,0:2:0:0:
110,383,239997,2,0,P|148:358|192:284,1,121.000003692627,2|10,3:2|0:2,0:0:0:0:
242,200,240695,6,0,B|301:178|361:197|361:197|378:270|426:308,1,242.000007385254,6|2,3:2|3:2,0:0:0:0:
502,232,241741,2,0,P|512:189|510:160,1,60.5000018463135,10|6,0:2|3:2,0:0:0:0:
436,27,242439,1,10,0:2:0:0:
436,27,242788,2,0,P|358:51|325:86,1,121.000003692627,10|8,3:2|0:0,0:0:0:0:
279,174,243486,6,0,B|212:186|162:158|162:158|143:217|84:254,1,242.000007385254,6|2,3:2|3:2,0:0:0:0:
12,174,244532,2,0,P|9:136|24:92,1,60.5000018463135,10|2,0:2|3:2,0:0:0:0:
137,7,245230,1,10,0:2:0:0:
240,39,245579,2,0,P|265:86|336:119,1,121.000003692627,2|10,3:2|0:2,0:0:0:0:
431,125,246276,6,0,P|491:180|492:295,1,181.500005538941,6|2,3:2|0:2,0:0:0:0:
393,298,247148,1,2,3:2:0:0:
310,368,247497,2,0,P|228:345|171:257,1,181.500005538941,6|10,3:2|0:2,0:0:0:0:
223,172,248369,1,8,0:2:0:0:
191,67,248718,1,10,0:2:0:0:
102,3,249067,6,0,B|61:67|12:80|12:80|35:141|15:224,1,242.000007385254,6|2,3:2|3:2,0:0:0:0:
22,308,250113,2,0,P|48:345|72:363,1,60.5000018463135,10|2,0:2|0:2,0:0:0:0:
221,376,250811,1,10,0:2:0:0:
221,376,251160,2,0,P|272:334|341:306,1,121.000003692627,2|10,3:2|0:2,0:0:0:0:
429,292,251858,6,0,P|495:212|492:59,1,242.000007385254,2|2,3:2|3:2,0:0:0:0:
406,22,252904,2,0,P|342:40|291:94,1,121.000003692627,10|2,0:2|3:2,0:0:0:0:
281,182,253602,1,10,0:2:0:0:
227,280,253951,2,0,P|171:316|104:330,1,121.000003692627,2|10,3:2|0:2,0:0:0:0:
17,287,254648,6,0,B|47:228|29:170|29:170|84:130|163:157,1,242.000007385254,6|2,3:2|3:2,0:0:0:0:
248,186,255695,1,10,0:2:0:0:
356,174,256044,2,0,P|406:253|388:347,2,181.500005538941,2|2|8,3:2|3:2|3:2,0:0:0:0:
249,198,257439,6,0,L|109:224,1,121.000003692627,6|8,3:2|0:2,0:0:0:0:
41,155,258137,2,0,L|121:48,1,121.000003692627,2|10,3:2|0:2,0:0:0:0:
218,87,258834,1,4,3:3:0:0:
402,14,259532,1,8,0:2:0:0:
402,14,259881,1,8,0:0:0:0:
491,56,260230,6,0,P|482:147|384:232,1,220,4|0,3:2|3:0,0:0:0:0:
292,214,261276,1,0,3:0:0:0:
202,171,261625,2,0,P|115:200|65:319,1,220,0|0,3:0|3:0,0:0:0:0:
134,380,262672,1,0,3:0:0:0:
231,363,263020,5,8,3:0:0:0:
256,192,263195,12,0,264416,3:0:0:0:
385,197,265811,6,0,B|432:217|454:264|454:264|401:293|383:351,1,197.99999395752,6|2,3:2|3:2,0:0:0:0:
309,378,266858,2,0,P|279:359|259:337,1,49.4999984893799,10|6,0:2|3:2,0:0:0:0:
211,229,267555,1,10,0:2:0:0:
127,196,267904,2,0,P|122:146|147:88,1,98.9999969787599,0|10,3:2|0:2,0:0:0:0:
204,40,268602,6,0,B|242:68|299:53|299:53|319:98|361:134,1,197.99999395752,6|2,3:2|3:2,0:0:0:0:
437,171,269648,2,0,P|482:159|499:144,1,49.4999984893799,10|6,0:2|3:2,0:0:0:0:
510,26,270346,1,10,0:2:0:0:
510,26,270695,2,0,P|453:3|402:0,1,98.9999969787599,2|10,3:2|0:2,0:0:0:0:
376,79,271393,6,0,B|361:128|374:178|374:178|345:212|277:222,1,197.99999395752,6|2,3:2|3:2,0:0:0:0:
200,201,272439,2,0,P|165:213|141:233,1,49.4999984893799,10|6,0:2|3:2,0:0:0:0:
59,313,273137,1,10,0:2:0:0:
0,246,273486,2,0,P|19:187|51:136,1,98.9999969787599,2|10,3:2|0:2,0:0:0:0:
109,103,274183,6,0,B|159:78|183:38|183:38|217:78|272:92,1,197.99999395752,6|10,3:2|0:2,0:0:0:0:
396,69,275404,1,4,3:2:0:0:
472,178,275927,1,8,0:2:0:0:
472,178,276276,2,0,B|441:216|441:216|392:204|392:204|359:238|359:238|286:222,1,197.99999395752,2|2,0:2|3:0,0:0:0:0:
