osu file format v14

[General]
AudioFilename: audio.mp3
AudioLeadIn: 0
PreviewTime: 217710
Countdown: 0
SampleSet: Soft
StackLeniency: 0.4
Mode: 0
LetterboxInBreaks: 0
WidescreenStoryboard: 1

[Editor]
Bookmarks: 11896,23058,34221,45384,56547,67710,78872,90035,101198,106779,112361,123524,134686,145849,157012,168175,176547,179338,190500,201663,207244,212826,218407,223989,237942,249105,257477,260268,265849,277012
DistanceSpacing: 1.6
BeatDivisor: 4
GridSize: 4
TimelineZoom: 1.55

[Metadata]
Title:Yonjuunana
TitleUnicode:ヨンジュウナナ
Artist:Himeringo
ArtistUnicode:ひめりんご
Creator:Gottagof4st
Version:Northern Star
Source:
Tags:Utaite Cover bor mentai yukiyo 47 Forty Seven MikitoP Kohei Nakaya ggf gottagofast
BeatmapID:1602763
BeatmapSetID:762282

[Difficulty]
HPDrainRate:6
CircleSize:3.8
OverallDifficulty:8.5
ApproachRate:9
SliderMultiplier:1.7
SliderTickRate:1

[Events]
//Background and Video events
0,0,"yonjuunanabg.jpg",0,0
//Break Periods
2,218395,223253
//Storyboard Layer 0 (Background)
//Storyboard Layer 1 (Fail)
//Storyboard Layer 2 (Pass)
//Storyboard Layer 3 (Foreground)
//Storyboard Sound Samples

[TimingPoints]
-700,348.837209302326,4,2,1,35,1,0
695,-125,4,2,1,35,0,0
11509,-200,4,2,1,35,0,0
11770,-200,4,2,1,5,0,0
11858,-111.111111111111,4,2,1,45,0,0
19096,-111.111111111111,4,2,1,5,0,0
19183,-111.111111111111,4,2,1,45,0,0
21625,-166.666666666666,4,2,1,45,0,0
22672,-99.9999999999999,4,2,1,65,0,0
23282,-99.9999999999999,4,2,1,5,0,0
23369,-99.9999999999999,4,2,1,65,0,0
26073,-99.9999999999999,4,2,1,5,0,0
26160,-99.9999999999999,4,2,1,65,0,0
28863,-99.9999999999999,4,2,1,5,0,0
28951,-99.9999999999999,4,2,1,65,0,0
34183,-99.9999999999999,4,2,1,55,0,0
44736,-99.9999999999999,4,2,1,5,0,0
44823,-99.9999999999999,4,2,1,55,0,0
44910,-99.9999999999999,4,2,1,5,0,0
44997,-99.9999999999999,4,2,1,55,0,0
45084,-99.9999999999999,4,2,1,5,0,0
45172,-99.9999999999999,4,2,1,55,0,0
45259,-99.9999999999999,4,2,1,5,0,0
45346,-99.9999999999999,4,2,1,55,0,0
45608,-99.9999999999999,4,2,1,5,0,0
45695,-99.9999999999999,4,2,1,55,0,0
48398,-99.9999999999999,4,2,1,5,0,0
48486,-99.9999999999999,4,2,1,55,0,0
52584,-99.9999999999999,4,2,1,5,0,0
52672,-99.9999999999999,4,2,1,55,0,0
53980,-99.9999999999999,4,2,1,5,0,0
54067,-99.9999999999999,4,2,1,55,0,0
56509,-99.9999999999999,4,2,1,60,0,0
67672,-125,4,2,1,50,0,0
68980,-125,4,2,1,5,0,0
69067,-125,4,2,1,50,0,0
70462,-111.111111111111,4,2,1,50,0,0
70724,-111.111111111111,4,2,1,5,0,0
70811,-90.9090909090909,4,2,1,45,0,0
71073,-90.9090909090909,4,2,1,5,0,0
71160,-90.9090909090909,4,2,1,45,0,0
71247,-90.9090909090909,4,2,1,5,0,0
71334,-90.9090909090909,4,2,1,45,0,0
71596,-90.9090909090909,4,2,1,5,0,0
71683,-90.9090909090909,4,2,1,45,0,0
72643,-90.9090909090909,4,2,1,5,0,0
72730,-90.9090909090909,4,2,1,45,0,0
72817,-90.9090909090909,4,2,1,5,0,0
72904,-90.9090909090909,4,2,1,45,0,0
72991,-90.9090909090909,4,2,1,5,0,0
73079,-90.9090909090909,4,2,1,45,0,0
73166,-90.9090909090909,4,2,1,5,0,0
73253,-125,4,2,1,45,0,0
74648,-100,4,2,1,45,0,0
74910,-100,4,2,1,5,0,0
74997,-100,4,2,1,45,0,0
75259,-100,4,2,1,5,0,0
75346,-100,4,2,1,45,0,0
75608,-100,4,2,1,5,0,0
75695,-100,4,2,1,45,0,0
75956,-100,4,2,1,5,0,0
76044,-125,4,2,1,45,0,0
78137,-200,4,2,1,35,0,0
78486,-50,4,3,1,50,0,0
78747,-200,4,2,1,5,0,0
78834,-76.9230769230769,4,2,1,75,0,1
79096,-76.9230769230769,4,2,1,5,0,1
79183,-76.9230769230769,4,2,1,75,0,1
81887,-76.9230769230769,4,2,1,5,0,1
81974,-76.9230769230769,4,2,1,75,0,1
84677,-76.9230769230769,4,2,1,5,0,1
84765,-76.9230769230769,4,2,1,75,0,1
87119,-76.9230769230769,4,2,1,5,0,1
87206,-76.9230769230769,4,2,1,75,0,1
87468,-76.9230769230769,4,2,1,5,0,1
87555,-76.9230769230769,4,2,1,75,0,1
90259,-76.9230769230769,4,2,1,5,0,1
90346,-76.9230769230769,4,2,1,75,0,1
93050,-76.9230769230769,4,2,1,5,0,1
93137,-76.9230769230769,4,2,1,75,0,1
94445,-76.9230769230769,4,2,1,5,0,1
94532,-76.9230769230769,4,2,1,75,0,1
95840,-76.9230769230769,4,2,1,5,0,1
95927,-76.9230769230769,4,2,1,75,0,1
98369,-76.9230769230769,4,2,1,55,0,0
101160,-100,4,2,1,65,0,0
101422,-100,4,2,1,5,0,0
101509,-100,4,2,1,65,0,0
104212,-100,4,2,1,5,0,0
104300,-100,4,2,1,65,0,0
107003,-100,4,2,1,5,0,0
107090,-100,4,2,1,65,0,0
109794,-100,4,2,1,5,0,0
109881,-100,4,2,1,65,0,0
112323,-100,4,2,1,55,0,0
112584,-100,4,2,1,5,0,0
112672,-100,4,2,1,55,0,0
120956,-100,4,2,1,5,0,0
121044,-100,4,2,1,55,0,0
125143,-100,4,2,1,5,0,0
125230,-100,4,2,1,55,0,0
132119,-100,4,2,1,5,0,0
132206,-100,4,2,1,55,0,0
132817,-100,4,2,1,5,0,0
132904,-100,4,2,1,55,0,0
134648,-100,4,2,1,60,0,0
145811,-125,4,2,1,45,0,0
147119,-125,4,2,1,5,0,0
147206,-125,4,2,1,45,0,0
148602,-111.111111111111,4,2,1,45,0,0
148863,-111.111111111111,4,2,1,45,0,0
148951,-90.9090909090909,4,2,1,45,0,0
149212,-90.9090909090909,4,2,1,5,0,0
149300,-90.9090909090909,4,2,1,45,0,0
149387,-90.9090909090909,4,2,1,5,0,0
149474,-90.9090909090909,4,2,1,45,0,0
149736,-90.9090909090909,4,2,1,5,0,0
149823,-90.9090909090909,4,2,1,45,0,0
150782,-90.9090909090909,4,2,1,5,0,0
150869,-90.9090909090909,4,2,1,45,0,0
150956,-90.9090909090909,4,2,1,5,0,0
151044,-90.9090909090909,4,2,1,45,0,0
151131,-90.9090909090909,4,2,1,5,0,0
151218,-90.9090909090909,4,2,1,45,0,0
151305,-90.9090909090909,4,2,1,5,0,0
151393,-125,4,2,1,45,0,0
152788,-100,4,2,1,45,0,0
153050,-100,4,2,1,5,0,0
153137,-100,4,2,1,45,0,0
153398,-100,4,2,1,5,0,0
153486,-100,4,2,1,45,0,0
153747,-100,4,2,1,5,0,0
153834,-100,4,2,1,45,0,0
154096,-100,4,2,1,5,0,0
154183,-125,4,2,1,45,0,0
156887,-125,4,2,1,5,0,0
156974,-76.9230769230769,4,2,1,75,0,1
157236,-76.9230769230769,4,2,1,5,0,1
157323,-76.9230769230769,4,2,1,75,0,1
160026,-76.9230769230769,4,2,1,5,0,1
160113,-76.9230769230769,4,2,1,75,0,1
162817,-76.9230769230769,4,2,1,5,0,1
162904,-76.9230769230769,4,2,1,75,0,1
165259,-76.9230769230769,4,2,1,5,0,1
165346,-76.9230769230769,4,2,1,75,0,1
168398,-100,4,2,1,5,0,1
168486,-76.9230769230769,4,2,1,75,0,1
171189,-76.9230769230769,4,2,1,5,0,1
171276,-76.9230769230769,4,2,1,75,0,1
172584,-76.9230769230769,4,2,1,5,0,1
172672,-76.9230769230769,4,2,1,75,0,1
173980,-76.9230769230769,4,2,1,5,0,1
174067,-76.9230769230769,4,2,1,75,0,1
176509,-76.9230769230769,4,2,1,55,0,0
179300,-100,4,2,1,45,0,0
189329,-100,4,2,1,5,0,0
189416,-100,4,2,1,45,0,0
190462,-100,4,2,1,55,0,0
201625,-83.3333333333333,4,2,1,65,0,0
207206,-83.3333333333333,4,2,1,75,0,0
209997,-71.4285714285714,4,2,1,75,0,0
212439,-83.3333333333333,4,2,1,75,0,0
212788,-83.3333333333333,4,2,1,55,0,0
214183,-100,4,2,1,50,0,0
216974,-100,4,2,1,75,0,0
218195,-100,4,2,1,45,0,0
223951,-125,4,2,1,55,0,0
229532,-125,4,2,1,45,0,0
236509,-125,4,2,1,65,0,0
237904,-71.4285714285714,4,2,1,75,0,1
238166,-71.4285714285714,4,2,1,5,0,1
238253,-71.4285714285714,4,2,1,75,0,1
240956,-71.4285714285714,4,2,1,5,0,1
241044,-71.4285714285714,4,2,1,75,0,1
243747,-71.4285714285714,4,2,1,5,0,1
243834,-71.4285714285714,4,2,1,75,0,1
245143,-71.4285714285714,4,2,1,5,0,1
245230,-71.4285714285714,4,2,1,75,0,1
246189,-71.4285714285714,4,2,1,5,0,1
246276,-71.4285714285714,4,2,1,75,0,1
249329,-71.4285714285714,4,2,1,5,0,1
249416,-71.4285714285714,4,2,1,75,0,1
252119,-71.4285714285714,4,2,1,5,0,1
252206,-71.4285714285714,4,2,1,75,0,1
253515,-71.4285714285714,4,2,1,5,0,1
253602,-71.4285714285714,4,2,1,75,0,1
254910,-71.4285714285714,4,2,1,5,0,1
254997,-71.4285714285714,4,2,1,75,0,1
256305,-71.4285714285714,4,2,1,5,0,1
256393,-71.4285714285714,4,2,1,75,0,1
257439,-71.4285714285714,4,2,1,75,0,1
257701,-71.4285714285714,4,2,1,5,0,1
257788,-71.4285714285714,4,2,1,75,0,1
258398,-71.4285714285714,4,2,1,5,0,1
258486,-71.4285714285714,4,2,1,75,0,1
259532,-90.9090909090909,4,2,1,80,0,0
260230,-90.9090909090909,4,2,1,55,0,0
263020,-90.9090909090909,4,2,1,65,0,0
264416,-90.9090909090909,4,2,1,75,0,0
265288,-142.857142857143,4,2,1,55,0,0
265811,-100,4,2,1,65,0,0
266073,-100,4,2,1,5,0,0
266160,-100,4,2,1,65,0,0
268863,-100,4,2,1,5,0,0
268951,-100,4,2,1,65,0,0
271654,-100,4,2,1,5,0,0
271741,-100,4,2,1,65,0,0
276974,-125,4,2,1,35,0,0
282555,-125,4,2,1,20,0,0
283253,-125,4,2,1,5,0,0

[Colours]
Combo1 : 217,215,113
Combo2 : 236,132,62
Combo3 : 205,54,54

[HitObjects]
81,196,695,6,0,L|187:185,1,102,6|0,0:0|0:0,0:0:0:0:
211,183,1044,2,0,P|227:217|226:264,1,68,2|2,0:0|0:0,0:0:0:0:
146,346,1393,1,2,0:0:0:0:
256,329,1567,2,0,L|347:315,1,68,2|0,0:0|0:0,0:0:0:0:
454,363,1916,6,0,B|431:295|431:295|446:223,1,136,2|2,0:0|0:0,0:0:0:0:
504,90,2613,1,2,0:0:0:0:
504,90,2788,2,0,P|468:120|428:127,2,68,2|2|0,0:0|0:0|0:0,0:0:0:0:
418,17,3311,1,2,0:0:0:0:
418,17,3486,6,0,L|312:6,1,102,2|2,0:0|0:0,0:0:0:0:
288,4,3835,2,0,P|272:38|273:85,1,68,0|2,0:0|0:0,0:0:0:0:
330,149,4183,2,0,P|346:183|345:230,1,68,2|0,0:0|0:0,0:0:0:0:
294,300,4532,1,2,0:0:0:0:
294,300,4706,2,0,L|150:314,1,136,2|2,0:0|0:0,0:0:0:0:
158,314,6276,5,6,0:0:0:0:
158,314,6451,2,0,L|150:246,1,68,2|0,0:0|0:0,0:0:0:0:
83,169,6800,1,2,0:0:0:0:
83,169,6975,2,0,L|90:101,2,68,2|2|0,0:0|0:0|0:0,0:0:0:0:
149,17,7497,2,0,B|186:44|186:44|177:136,1,136,2|2,0:0|0:0,0:0:0:0:
181,138,8544,5,2,0:0:0:0:
181,138,8718,2,0,L|263:154,1,68,2|0,0:0|0:0,0:0:0:0:
363,215,9067,2,0,B|340:147|340:147|355:75,1,136,2|2,0:0|0:0,0:0:0:0:
470,78,9590,2,0,B|493:146|493:146|478:218,1,136,2|2,0:0|0:0,0:0:0:0:
428,293,10113,1,2,0:0:0:0:
428,293,10288,2,0,B|365:283|295:308|295:308|258:293|228:295|228:295|220:271|186:235,1,272,2|0,0:0|0:0,0:0:0:0:
127,101,11509,6,0,P|133:67|127:34,1,63.75,2|0,0:0|0:0,0:0:0:0:
97,17,11858,6,0,L|-3:13,2,76.4999976654053,4|2|2,0:0|0:0|0:0,0:0:0:0:
127,101,12381,1,2,0:0:0:0:
134,192,12555,1,2,0:0:0:0:
51,233,12730,2,0,P|42:280|56:319,1,76.4999976654053,2|0,0:0|0:0,0:0:0:0:
197,272,13079,1,2,0:0:0:0:
197,272,13253,1,0,0:0:0:0:
372,344,13776,5,2,0:0:0:0:
372,344,13951,2,0,L|273:344,2,76.4999976654053,2|2|0,0:0|0:0|0:0,0:0:0:0:
464,276,14474,1,2,0:0:0:0:
372,164,14648,6,0,B|380:204|380:204|372:239,1,76.4999976654053,2|0,0:0|0:0,0:0:0:0:
295,344,14997,1,2,0:0:0:0:
192,268,15171,1,2,0:0:0:0:
292,204,15345,1,2,0:0:0:0:
192,356,15520,2,0,P|144:344|120:320,1,76.4999976654053,2|0,0:0|0:0,0:0:0:0:
56,196,15869,2,0,P|100:224|40:328,1,191.249994163513,2|0,0:0|0:0,0:0:0:0:
20,328,16393,5,2,0:0:0:0:
64,168,16567,1,2,0:0:0:0:
16,308,16916,5,2,0:0:0:0:
60,148,17090,1,2,0:0:0:0:
360,56,17439,6,0,L|280:41,1,76.4999976654053,2|0,3:2|0:0,0:0:0:0:
216,144,17788,2,0,L|295:129,1,76.4999976654053,2|0,3:2|0:0,0:0:0:0:
360,232,18137,2,0,L|284:217,1,76.4999976654053,2|0,3:2|0:0,0:0:0:0:
216,328,18485,1,2,3:2:0:0:
317,314,18660,1,2,0:0:0:0:
152,248,18834,6,0,P|115:307|120:368,1,114.749996498108,2|0,3:2|0:0,0:0:0:0:
120,380,19183,2,0,P|76:384|36:380,1,76.4999976654053,2|0,3:2|0:0,0:0:0:0:
52,232,19532,2,0,P|96:228|136:232,1,76.4999976654053,2|0,3:2|0:0,0:0:0:0:
298,318,19881,1,2,3:2:0:0:
181,315,20055,1,0,0:0:0:0:
244,168,20230,6,0,L|252:268,1,76.4999976654053,2|0,3:2|0:0,0:0:0:0:
376,376,20579,1,2,3:2:0:0:
376,376,20753,2,0,L|384:276,1,76.4999976654053,2|0,0:0|3:2,0:0:0:0:
488,172,21102,2,0,L|496:272,1,76.4999976654053,2|0,0:0|3:2,0:0:0:0:
376,176,21451,1,2,0:0:0:0:
492,44,21625,6,0,B|384:20|384:84|292:44,1,203.999993774414,2|0,3:2|0:0,0:0:0:0:
76,24,22846,5,2,0:2:0:0:
76,24,22933,1,2,0:2:0:0:
76,24,23020,2,0,P|101:86|96:148,1,127.5,6|0,3:2|0:2,0:0:0:0:
72,180,23369,2,0,L|180:176,1,85,10|0,0:2|0:2,0:0:0:0:
270,250,23718,1,2,3:2:0:0:
184,358,23893,1,2,3:2:0:0:
156,176,24067,1,10,0:2:0:0:
362,180,24241,6,0,B|383:255|383:255|365:344,1,170,6|0,3:2|3:2,0:0:0:0:
261,139,24765,1,10,0:2:0:0:
285,341,24939,1,2,0:2:0:0:
285,341,25026,1,8,0:2:0:0:
285,341,25113,1,2,3:2:0:0:
156,176,25288,1,2,3:2:0:0:
177,358,25462,1,10,0:2:0:0:
81,238,25637,1,2,0:2:0:0:
285,341,25811,6,0,P|347:316|409:321,1,127.5,6|0,3:2|0:2,0:0:0:0:
442,345,26160,2,0,L|438:237,1,85,10|0,0:2|0:2,0:0:0:0:
368,112,26509,1,2,3:2:0:0:
344,272,26683,1,2,3:2:0:0:
480,104,26858,1,10,0:2:0:0:
228,54,27032,6,0,P|280:112|372:109,1,170,6|0,3:2|3:2,0:0:0:0:
324,18,27555,1,10,0:2:0:0:
197,190,27730,1,2,0:2:0:0:
197,190,27817,1,8,0:2:0:0:
197,190,27904,1,2,3:2:0:0:
349,237,28079,1,2,3:2:0:0:
367,111,28253,1,10,0:2:0:0:
181,290,28427,1,10,0:2:0:0:
181,290,28515,1,8,0:2:0:0:
181,290,28602,6,0,P|124:262|96:200,1,127.5,6|0,3:2|0:2,0:0:0:0:
97,177,28951,2,0,L|101:81,1,85,10|0,0:2|0:2,0:0:0:0:
215,35,29300,1,2,3:2:0:0:
197,190,29474,1,2,3:2:0:0:
15,121,29648,1,10,0:2:0:0:
233,59,29823,6,0,B|336:83|315:29|421:71,1,170,6|0,3:2|3:2,0:0:0:0:
354,217,30346,2,0,P|350:162|354:118,1,85,10|0,0:2|0:2,0:0:0:0:
352,132,30608,1,8,0:2:0:0:
352,132,30695,1,2,3:2:0:0:
505,214,30869,1,2,3:2:0:0:
363,313,31044,1,10,0:2:0:0:
257,197,31218,1,2,0:2:0:0:
451,50,31393,6,0,P|455:105|451:149,1,85,6|0,3:2|0:2,0:0:0:0:
340,4,31741,1,10,0:2:0:0:
340,4,32090,1,10,0:2:0:0:
199,115,32265,1,2,3:2:0:0:
361,138,32439,1,2,3:2:0:0:
158,35,32613,6,0,L|42:36,1,85,14|0,0:2|0:2,0:0:0:0:
228,115,32962,1,2,3:2:0:0:
84,199,33137,2,0,L|-32:200,1,85,10|0,0:2|0:2,0:0:0:0:
158,154,33486,1,2,3:2:0:0:
158,154,33660,2,0,P|169:219|155:251,1,85,2|8,3:2|0:2,0:0:0:0:
15,341,34009,5,8,0:2:0:0:
15,341,34096,1,8,0:2:0:0:
15,341,34183,2,0,B|102:328|102:328|197:343,1,170,6|8,3:2|0:2,0:0:0:0:
306,366,34706,1,2,0:2:0:0:
252,189,34881,2,0,P|251:240|264:278,2,85,2|2|2,3:2|3:2|0:2,0:0:0:0:
359,49,35404,6,0,L|351:219,1,170,10|0,3:2|3:2,0:0:0:0:
437,380,35927,2,0,L|432:295,1,85,10|0,0:2|0:2,0:0:0:0:
351,219,36276,1,2,3:2:0:0:
306,366,36451,1,2,3:2:0:0:
504,237,36625,2,0,L|499:152,1,85,10|0,0:2|0:2,0:0:0:0:
359,49,36974,6,0,L|355:134,1,85,2|0,3:2|0:2,0:0:0:0:
392,328,37323,2,0,P|356:267|261:256,1,170,10|0,0:2|3:2,0:0:0:0:
167,315,37846,1,2,3:2:0:0:
63,263,38020,1,2,0:2:0:0:
252,171,38195,6,0,P|262:216|262:272,1,85,10|0,3:2|3:2,0:0:0:0:
167,315,38544,1,2,3:2:0:0:
201,130,38718,2,0,P|218:172|228:227,1,85,10|0,0:2|0:2,0:0:0:0:
63,263,39067,1,2,3:2:0:0:
147,109,39241,2,0,P|171:147|190:200,2,85,2|10|0,3:2|0:2|0:2,0:0:0:0:
0,27,39765,6,0,L|112:38,1,85,2|0,3:2|0:2,0:0:0:0:
231,100,40113,2,0,L|119:111,1,85,10|0,0:2|0:2,0:0:0:0:
298,40,40462,1,2,3:2:0:0:
298,40,40637,2,0,P|321:88|318:131,1,85,2|0,3:2|0:2,0:0:0:0:
223,266,40986,6,0,P|253:222|291:203,1,85,10|0,3:2|0:2,0:0:0:0:
393,205,41334,1,2,3:2:0:0:
232,324,41509,2,0,P|245:272|275:241,1,85,10|0,0:2|0:2,0:0:0:0:
393,205,41858,1,2,3:2:0:0:
466,303,42032,1,2,3:2:0:0:
261,372,42206,2,0,P|255:319|273:279,1,85,10|0,0:2|0:2,0:0:0:0:
477,197,42555,6,0,L|368:207,1,85,2|0,3:2|0:2,0:0:0:0:
238,122,42904,2,0,L|347:132,1,85,10|0,0:2|0:2,0:0:0:0:
445,20,43253,1,2,3:2:0:0:
445,20,43427,2,0,P|414:51|405:92,1,85,2|0,3:2|0:2,0:0:0:0:
477,197,43776,6,0,P|505:282|478:357,1,170,2|0,3:2|3:2,0:0:0:0:
324,264,44300,2,0,L|433:274,1,85,10|0,0:2|0:2,0:0:0:0:
246,203,44648,6,0,L|242:249,1,42.5,2|2,3:2|0:2,0:0:0:0:
183,337,44823,2,0,L|179:291,1,42.5,2|2,3:2|0:2,0:0:0:0:
138,132,44997,2,0,L|134:178,1,42.5,10|2,0:2|0:2,0:0:0:0:
75,266,45172,2,0,L|71:220,1,42.5,10|2,0:2|0:2,0:0:0:0:
72,48,45346,6,0,P|141:33|199:49,1,127.5,6|0,3:2|0:2,0:0:0:0:
221,71,45695,2,0,L|225:164,1,85,10|0,0:2|0:2,0:0:0:0:
164,259,46044,1,2,3:2:0:0:
279,347,46218,2,0,L|373:353,1,85,2|8,3:2|0:2,0:0:0:0:
512,268,46567,6,0,L|418:274,1,85,2|0,3:2|0:2,0:0:0:0:
363,352,46916,1,2,3:2:0:0:
283,213,47090,1,10,0:2:0:0:
447,99,47265,2,0,P|463:148|455:186,1,85,2|0,0:2|3:2,0:0:0:0:
283,213,47613,2,0,P|267:164|275:126,1,85,2|8,3:2|0:2,0:0:0:0:
344,11,47962,1,2,0:2:0:0:
344,11,48137,6,0,L|364:160,1,127.5,2|0,3:2|0:2,0:0:0:0:
366,164,48486,2,0,L|377:251,1,85,10|0,0:2|0:2,0:0:0:0:
281,338,48834,1,2,3:2:0:0:
190,240,49009,1,2,3:2:0:0:
376,248,49183,1,10,0:2:0:0:
168,331,49358,6,0,L|77:323,1,85,2|0,3:2|0:2,0:0:0:0:
285,244,49706,1,2,3:2:0:0:
187,365,49881,2,0,L|96:357,1,85,10|0,0:2|0:2,0:0:0:0:
59,222,50230,1,2,3:2:0:0:
82,371,50404,1,2,3:2:0:0:
76,191,50579,1,10,0:2:0:0:
47,384,50753,1,2,0:2:0:0:
35,113,50927,6,0,P|75:103|121:113,1,85,2|0,3:2|0:2,0:0:0:0:
285,244,51276,2,0,P|245:254|199:244,1,85,10|0,0:2|0:2,0:0:0:0:
242,63,51625,2,0,L|243:150,1,85,2|0,3:2|3:2,0:0:0:0:
202,245,51974,1,10,0:2:0:0:
117,111,52148,1,2,3:2:0:0:
342,31,52323,6,0,P|360:88|345:153,1,127.5,2|0,0:2|0:2,0:0:0:0:
334,175,52672,2,0,P|322:224|332:267,1,85,10|0,0:2|0:2,0:0:0:0:
420,339,53020,1,2,3:2:0:0:
434,225,53195,1,2,3:2:0:0:
240,168,53369,1,10,0:2:0:0:
328,257,53544,1,2,0:2:0:0:
432,70,53718,6,0,P|455:131|444:194,1,127.5,2|0,3:2|0:2,0:0:0:0:
434,225,54067,1,10,0:2:0:0:
240,168,54241,1,2,0:2:0:0:
321,100,54416,2,0,P|344:161|333:224,1,127.5,2|0,3:2|0:2,0:0:0:0:
328,257,54765,2,0,P|326:299|337:339,1,85,10|0,0:2|3:2,0:0:0:0:
233,378,55113,6,0,P|234:335|223:295,1,85,2|0,0:2|3:2,0:0:0:0:
115,241,55462,2,0,P|77:260|48:291,1,85,10|0,0:2|0:2,0:0:0:0:
131,350,55811,1,0,3:2:0:0:
115,241,55986,1,4,0:3:0:0:
183,91,56160,1,8,0:3:0:0:
108,215,56334,1,2,0:3:0:0:
108,215,56422,1,2,0:3:0:0:
108,213,56509,5,0,3:0:0:0:
20,160,56683,2,0,P|9:114|22:75,1,85,2|2,0:3|3:3,0:0:0:0:
110,31,57032,2,0,L|287:51,1,170,8|0,0:0|0:0,0:0:0:0:
334,135,57555,1,2,3:3:0:0:
233,199,57730,1,2,0:3:0:0:
233,199,57817,1,2,0:3:0:0:
233,199,57904,6,0,P|223:256|231:284,1,85,0|2,3:2|0:3,0:0:0:0:
302,353,58253,1,2,3:3:0:0:
403,353,58427,1,8,0:0:0:0:
482,288,58602,2,0,P|492:231|484:203,1,85,0|2,3:2|0:3,0:0:0:0:
416,128,58951,1,2,3:3:0:0:
317,191,59125,1,2,0:3:0:0:
317,191,59212,1,2,0:3:0:0:
317,191,59300,6,0,L|217:200,1,85,0|2,3:2|0:3,0:0:0:0:
131,189,59648,1,2,3:3:0:0:
40,236,59823,2,0,P|27:285|39:322,1,85,8|2,0:0|3:3,0:0:0:0:
128,360,60172,2,0,L|228:351,1,85,2|2,0:3|3:3,0:0:0:0:
310,285,60520,1,2,0:3:0:0:
310,285,60608,1,2,0:3:0:0:
310,285,60695,6,0,L|410:297,2,85,2|8|2,3:3|0:0|3:3,0:0:0:0:
239,211,61218,1,2,3:0:0:0:
239,211,61305,1,2,3:0:0:0:
239,211,61393,2,0,L|139:223,1,85,8|2,3:2|0:3,0:0:0:0:
154,221,61654,1,2,3:0:0:0:
154,221,61741,1,2,2:3:0:0:
154,118,61916,1,2,0:3:0:0:
246,31,62090,5,4,3:2:0:0:
144,18,62265,2,0,L|48:26,1,85,2|2,0:3|3:3,0:0:0:0:
0,106,62613,2,0,P|-6:153|3:190,1,85,8|2,0:0|3:3,0:0:0:0:
77,258,62962,2,0,L|173:250,1,85,2|0,0:3|3:2,0:0:0:0:
264,311,63311,1,2,0:3:0:0:
264,311,63398,1,2,0:3:0:0:
264,311,63486,6,0,L|360:319,1,85,2|2,3:3|0:3,0:0:0:0:
429,256,63834,1,2,3:3:0:0:
376,168,64009,1,8,0:2:0:0:
446,94,64183,2,0,P|406:73|355:71,1,85,0|2,3:2|0:3,0:0:0:0:
278,121,64532,1,2,3:3:0:0:
205,27,64706,1,2,0:3:0:0:
205,27,64794,1,2,0:3:0:0:
205,27,64881,6,0,L|116:33,1,85,2|2,3:3|0:3,0:0:0:0:
37,93,65230,1,8,3:2:0:0:
108,165,65404,2,0,L|197:171,1,85,2|2,0:3|3:3,0:0:0:0:
276,230,65753,2,0,P|288:285|282:317,1,85,8|0,0:0|3:2,0:0:0:0:
204,378,66102,1,2,0:3:0:0:
204,378,66189,1,2,0:3:0:0:
204,378,66276,6,0,L|115:372,1,85,2|2,3:3|0:3,0:0:0:0:
35,313,66625,2,0,P|23:258|29:226,1,85,2|2,3:3|0:3,0:0:0:0:
89,149,66974,1,2,3:3:0:0:
188,171,67148,1,4,0:3:0:0:
285,88,67323,1,8,0:3:0:0:
383,113,67497,1,10,0:0:0:0:
383,113,67584,1,10,0:0:0:0:
383,113,67672,6,0,L|376:204,1,68,6|2,3:2|0:0,0:0:0:0:
288,248,68020,2,0,L|281:157,1,68,10|2,0:0|0:0,0:0:0:0:
383,113,68369,1,2,3:0:0:0:
472,176,68544,1,2,3:0:0:0:
460,332,68718,2,0,B|384:332|384:332|432:312,1,102,6|0,0:3|0:0,0:0:0:0:
484,352,69067,6,0,L|336:352,1,136,10|10,0:3|0:0,0:0:0:0:
232,352,69590,1,2,0:0:0:0:
264,200,69765,2,0,P|276:240|272:280,1,68,2|0,3:0|3:0,0:0:0:0:
208,368,70113,2,0,P|168:356|128:360,1,68,10|0,0:0|0:0,0:0:0:0:
48,268,70462,6,0,P|92:292|132:248,1,114.749996498108,2|0,3:3|0:0,0:0:0:0:
27,256,70811,6,0,B|39:184|39:184|31:104,1,140.25000428009,10|0,0:3|0:0,0:0:0:0:
24,24,71160,6,0,L|91:31,1,46.7500014266968,8|0,3:2|0:0,0:0:0:0:
172,40,71334,1,10,0:0:0:0:
136,144,71509,6,0,L|203:137,1,46.7500014266968,10|0,0:0|0:0,0:0:0:0:
372,144,71683,6,0,P|291:148|240:241,1,187.000005706787,6|0,3:2|3:0,0:0:0:0:
355,328,72206,2,0,P|355:281|341:237,1,93.5000028533936,10|0,0:0|0:0,0:0:0:0:
205,227,72555,6,0,L|204:281,1,46.7500014266968,10|8,0:0|0:0,0:0:0:0:
150,375,72730,2,0,L|149:321,1,46.7500014266968,10|8,0:0|0:0,0:0:0:0:
105,189,72904,2,0,L|104:243,1,46.7500014266968,10|8,0:0|0:0,0:0:0:0:
32,382,73079,2,0,L|31:328,1,46.7500014266968,10|8,0:0|0:0,0:0:0:0:
29,108,73253,5,2,3:0:0:0:
29,108,73427,1,2,0:0:0:0:
29,108,73602,2,0,L|119:97,1,68,10|2,0:0|0:0,0:0:0:0:
180,41,73951,1,0,3:0:0:0:
180,41,74125,1,2,3:2:0:0:
180,41,74300,2,0,L|270:52,1,68,8|2,0:0|0:0,0:0:0:0:
384,71,74648,6,0,P|368:131|386:193,1,127.5,2|0,3:2|0:0,0:0:0:0:
458,215,74997,2,0,P|397:231|352:278,1,127.5,10|0,0:2|0:0,0:0:0:0:
370,351,75346,2,0,P|325:307|262:291,1,127.5,2|0,3:2|0:0,0:0:0:0:
208,342,75695,2,0,P|223:281|205:219,1,127.5,10|0,0:2|0:0,0:0:0:0:
178,179,76044,6,0,B|104:29|104:29|60:155|60:155|167:110,1,408,6|0,3:2|0:0,0:0:0:0:
158,113,77439,1,2,0:0:0:0:
158,113,78137,6,0,L|234:113,1,63.75,2|2,0:0|0:0,0:0:0:0:
270,49,78486,6,0,P|254:129|322:57,1,255,4|0,3:0|0:0,0:0:0:0:
141,125,78834,6,0,B|100:194|174:222|134:290,1,165.749992412568,4|0,3:2|0:0,0:0:0:0:
124,320,79183,2,0,P|176:332|232:328,1,110.499994941712,8|0,0:0|0:0,0:0:0:0:
372,188,79532,5,2,3:2:0:0:
225,171,79706,1,2,3:2:0:0:
420,319,79881,1,8,0:0:0:0:
476,75,80055,6,0,B|359:66|359:66|254:78,1,220.999989883423,6|0,3:2|3:2,0:0:0:0:
195,274,80579,2,0,P|201:208|182:165,1,110.499994941712,8|2,0:0|0:0,0:0:0:0:
119,54,80927,1,2,3:2:0:0:
42,172,81102,1,2,3:2:0:0:
215,288,81276,2,0,L|330:275,1,110.499994941712,8|2,0:0|0:0,0:0:0:0:
426,369,81625,6,0,P|374:304|379:223,1,165.749992412568,0|0,3:2|0:0,0:0:0:0:
398,195,81974,1,10,0:0:0:0:
483,271,82148,1,2,0:0:0:0:
300,372,82323,1,2,3:2:0:0:
361,113,82497,1,2,3:2:0:0:
426,369,82672,1,10,0:0:0:0:
215,288,82846,6,0,B|151:243|96:286|96:286|50:302|1:278,1,220.999989883423,6|0,3:2|3:2,0:0:0:0:
54,91,83369,2,0,P|60:155|56:213,1,110.499994941712,8|0,0:0|0:0,0:0:0:0:
0,17,83718,2,0,P|62:2|118:23,1,110.499994941712,2|0,3:2|3:0,0:0:0:0:
140,41,83980,2,0,P|202:56|258:35,1,110.499994941712,2|0,0:0|0:0,0:0:0:0:
323,7,84241,1,2,3:2:0:0:
323,7,84329,1,0,3:2:0:0:
323,7,84416,6,0,L|338:175,1,165.749992412568,4|0,3:2|0:0,0:0:0:0:
342,207,84765,2,0,P|286:244|236:249,1,110.499994941712,8|0,0:0|0:0,0:0:0:0:
434,118,85113,1,2,3:2:0:0:
484,233,85288,1,2,3:2:0:0:
257,150,85462,1,8,0:0:0:0:
470,13,85637,6,0,L|486:249,1,220.999989883423,6|0,3:2|3:2,0:0:0:0:
257,150,86160,2,0,P|313:113|363:108,1,110.499994941712,10|0,0:0|0:0,0:0:0:0:
466,253,86509,2,0,P|418:299|369:312,1,110.499994941712,2|0,3:2|3:2,0:0:0:0:
140,300,86858,2,0,P|115:241|167:281,1,165.749992412568,8|0,0:0|0:0,0:0:0:0:
140,384,87206,6,0,P|64:361|21:287,1,165.749992412568,0|0,3:2|0:0,0:0:0:0:
21,264,87555,2,0,L|21:145,1,110.499994941712,8|2,0:0|0:0,0:0:0:0:
192,81,87904,1,0,3:2:0:0:
140,300,88079,1,8,0:0:0:0:
32,34,88253,1,8,0:0:0:0:
283,30,88427,6,0,B|408:62|392:-18|507:33,1,220.999989883423,6|0,3:2|3:2,0:0:0:0:
486,178,88951,1,8,0:0:0:0:
317,194,89125,1,8,2:0:0:0:
441,99,89300,1,2,0:0:0:0:
358,278,89474,1,10,3:2:0:0:
283,30,89648,1,8,0:0:0:0:
471,316,89823,1,10,3:2:0:0:
471,316,89910,1,8,3:2:0:0:
471,316,89997,6,0,P|389:300|312:337,1,165.749992412568,4|0,3:2|0:0,0:0:0:0:
293,355,90346,2,0,P|224:374|177:362,1,110.499994941712,8|0,0:0|0:0,0:0:0:0:
52,198,90695,1,2,3:2:0:0:
229,260,90869,1,2,3:2:0:0:
55,331,91044,2,0,P|37:279|41:224,1,110.499994941712,8|2,0:0|0:0,0:0:0:0:
197,64,91393,5,2,3:2:0:0:
229,260,91567,1,0,3:2:0:0:
74,117,91741,2,0,P|122:80|177:67,1,110.499994941712,8|0,0:0|0:0,0:0:0:0:
342,135,92090,1,2,3:2:0:0:
229,260,92265,2,0,P|212:202|229:156,1,110.499994941712,2|8,3:2|0:0,0:0:0:0:
329,41,92613,1,2,0:0:0:0:
485,185,92788,6,0,P|456:257|465:348,1,165.749992412568,4|0,3:2|0:0,0:0:0:0:
486,377,93137,1,8,0:0:0:0:
297,261,93311,1,2,0:0:0:0:
378,195,93486,1,2,3:2:0:0:
359,375,93660,1,2,3:2:0:0:
265,154,93834,1,10,0:2:0:0:
472,75,94009,6,0,L|487:209,1,110.499994941712,2|2,3:2|0:0,0:0:0:0:
392,43,94358,1,0,3:2:0:0:
244,168,94532,2,0,P|172:162|132:134,1,110.499994941712,8|0,0:0|0:0,0:0:0:0:
40,20,94881,2,0,L|31:148,1,110.499994941712,2|0,3:2|3:0,0:0:0:0:
47,159,95143,2,0,L|56:287,1,110.499994941712,2|0,0:0|0:0,0:0:0:0:
16,344,95404,1,2,3:2:0:0:
16,344,95491,1,0,3:1:0:0:
16,344,95579,6,0,B|89:373|95:314|176:351,1,165.749992412568,4|0,0:0|0:0,0:0:0:0:
204,368,95927,2,0,L|328:364,1,110.499994941712,8|0,0:0|0:0,0:0:0:0:
404,240,96276,1,0,3:2:0:0:
272,240,96451,1,0,3:2:0:0:
448,340,96625,1,10,0:0:0:0:
332,148,96800,1,2,0:0:0:0:
324,384,96974,5,6,3:2:0:0:
432,140,97148,1,0,0:0:0:0:
188,192,97323,2,0,P|176:256|208:316,1,110.499994941712,10|2,0:0|0:0,0:0:0:0:
324,384,97672,1,0,3:2:0:0:
332,148,97846,1,2,3:2:0:0:
81,286,98020,2,0,L|209:298,1,110.499994941712,8|2,0:0|0:0,0:0:0:0:
328,116,98369,6,0,L|102:137,1,220.999989883423,4|8,3:2|0:0,0:0:0:0:
29,219,98893,1,0,3:1:0:0:
191,296,99067,1,0,3:2:0:0:
87,53,99241,2,0,P|75:109|91:165,1,110.499994941712,0|8,3:2|0:0,0:0:0:0:
264,216,99590,1,0,3:2:0:0:
303,37,99765,2,0,P|248:54|208:96,1,110.499994941712,2|2,0:0|3:2,0:0:0:0:
264,216,100113,1,8,0:0:0:0:
420,104,100288,1,6,3:2:0:0:
420,104,100637,5,10,0:0:0:0:
488,8,100811,1,8,0:0:0:0:
496,224,100986,1,2,3:2:0:0:
496,224,101073,1,0,3:2:0:0:
496,224,101160,6,0,P|422:227|364:252,1,127.5,6|0,0:0|0:0,0:0:0:0:
348,268,101509,2,0,P|304:284|248:280,1,85,2|0,3:2|0:2,0:0:0:0:
144,212,101858,1,2,3:2:0:0:
284,172,102032,1,2,0:2:0:0:
171,302,102206,1,2,3:2:0:0:
69,171,102381,6,0,P|102:136|139:125,1,85,2|0,0:2|3:2,0:0:0:0:
284,172,102730,1,2,0:2:0:0:
144,212,102904,1,2,3:2:0:0:
156,36,103079,1,2,0:2:0:0:
156,36,103166,1,2,0:2:0:0:
156,36,103253,1,2,3:2:0:0:
144,212,103427,1,2,0:2:0:0:
246,66,103602,1,2,3:2:0:0:
284,172,103776,1,2,0:2:0:0:
376,0,103951,6,0,P|365:68|381:129,1,127.5,2|0,3:2|0:2,0:0:0:0:
392,148,104300,2,0,P|406:198|401:234,1,85,2|0,3:2|0:2,0:0:0:0:
285,293,104648,1,2,3:2:0:0:
284,172,104823,1,2,0:2:0:0:
402,230,104997,1,2,3:2:0:0:
263,314,105172,6,0,B|87:329,1,170,2|2,0:2|0:2,0:0:0:0:
5,287,105695,1,2,3:2:0:0:
106,214,105869,1,2,0:2:0:0:
106,214,105956,1,2,0:2:0:0:
106,214,106044,1,2,3:2:0:0:
181,352,106218,1,2,0:2:0:0:
0,253,106393,1,2,3:2:0:0:
60,57,106567,1,8,0:0:0:0:
60,57,106654,1,8,0:0:0:0:
60,57,106741,6,0,L|218:43,1,127.5,6|0,3:2|0:0,0:0:0:0:
218,42,107090,2,0,P|224:93|217:129,1,85,10|0,0:0|0:0,0:0:0:0:
183,250,107439,1,2,3:2:0:0:
22,134,107613,1,2,3:2:0:0:
218,125,107788,1,10,0:2:0:0:
55,327,107962,6,0,B|127:296|159:355|222:323,1,170,2|2,3:2|3:2,0:0:0:0:
326,145,108486,1,10,0:2:0:0:
183,250,108660,1,2,0:2:0:0:
183,250,108747,1,10,0:2:0:0:
183,250,108834,1,2,3:2:0:0:
351,243,109009,1,0,3:2:0:0:
250,310,109183,1,8,0:2:0:0:
349,372,109358,1,0,0:2:0:0:
469,237,109532,6,0,L|464:99,1,127.5,2|0,3:2|0:2,0:0:0:0:
462,78,109881,2,0,P|416:59|377:59,1,85,10|0,0:2|0:2,0:0:0:0:
217,137,110230,1,10,0:2:0:0:
272,222,110404,1,2,3:2:0:0:
270,50,110579,1,2,3:2:0:0:
76,142,110753,5,10,0:2:0:0:
76,142,111102,5,2,0:2:0:0:
56,224,111276,1,2,0:2:0:0:
33,306,111451,1,2,0:2:0:0:
33,306,111974,5,8,0:2:0:0:
129,353,112148,1,2,0:2:0:0:
129,353,112236,1,2,0:2:0:0:
129,353,112323,2,0,P|189:362|256:353,1,127.5,6|0,3:2|0:2,0:0:0:0:
275,342,112672,2,0,P|324:332|365:342,1,85,10|0,0:0|0:0,0:0:0:0:
458,369,113020,1,2,3:2:0:0:
415,188,113195,2,0,P|405:237|415:278,1,85,2|0,3:2|0:0,0:0:0:0:
500,117,113544,6,0,B|417:98|417:98|331:114,1,170,10|0,0:2|3:0,0:0:0:0:
150,62,114067,2,0,B|198:71|198:71|226:97,1,85,10|2,0:0|0:0,0:0:0:0:
261,225,114416,1,2,3:2:0:0:
135,175,114591,1,2,3:2:0:0:
247,13,114765,2,0,L|221:107,1,85,8|2,0:0|0:0,0:0:0:0:
170,268,115113,5,2,3:2:0:0:
261,225,115288,1,2,0:2:0:0:
135,175,115462,1,10,0:2:0:0:
170,268,115637,1,2,0:2:0:0:
224,94,115811,1,2,3:2:0:0:
71,253,115986,1,2,3:2:0:0:
261,225,116160,1,2,0:2:0:0:
53,140,116334,6,0,P|47:184|64:234,1,85,8|0,3:2|0:2,0:0:0:0:
170,268,116683,1,2,3:2:0:0:
110,95,116858,2,0,P|82:130|72:181,1,85,10|0,0:2|0:2,0:0:0:0:
170,268,117206,1,2,3:2:0:0:
261,225,117381,1,2,3:2:0:0:
182,79,117555,2,0,P|140:95|106:135,1,85,10|0,0:2|0:2,0:0:0:0:
261,225,117904,5,6,3:2:0:0:
333,152,118079,1,2,0:2:0:0:
332,305,118253,1,10,0:2:0:0:
252,132,118427,1,2,0:2:0:0:
425,262,118602,1,2,3:2:0:0:
220,308,118776,2,0,P|181:270|166:220,1,85,2|0,3:2|0:2,0:0:0:0:
283,55,119125,6,0,P|269:107|233:145,1,85,10|0,3:2|0:2,0:0:0:0:
114,69,119474,1,2,3:2:0:0:
295,122,119648,2,0,P|257:161|207:176,1,85,10|0,0:2|0:2,0:0:0:0:
114,69,119997,1,2,3:2:0:0:
191,0,120172,1,2,3:2:0:0:
272,186,120346,2,0,P|219:200|168:188,1,85,10|0,0:2|0:2,0:0:0:0:
42,122,120695,6,0,P|53:185|44:255,1,127.5,2|0,3:2|0:2,0:0:0:0:
30,281,121044,2,0,P|73:295|125:294,1,85,10|0,0:2|0:2,0:0:0:0:
264,248,121393,1,2,3:2:0:0:
140,216,121567,1,2,3:2:0:0:
168,360,121741,1,2,0:2:0:0:
275,225,121916,6,0,L|363:227,1,85,2|0,3:2|0:2,0:0:0:0:
435,353,122265,1,2,3:2:0:0:
388,211,122439,1,10,0:2:0:0:
408,375,122613,1,0,0:2:0:0:
412,189,122788,2,0,L|414:101,1,85,2|0,3:2|3:2,0:0:0:0:
241,29,123137,2,0,P|276:56|325:73,1,85,10|0,0:2|0:2,0:0:0:0:
182,117,123486,5,6,3:2:0:0:
110,37,123660,1,2,3:2:0:0:
111,198,123834,1,10,0:2:0:0:
182,117,124009,1,2,0:2:0:0:
24,116,124183,1,2,3:2:0:0:
210,218,124358,2,0,L|298:220,1,85,2|8,3:2|0:2,0:0:0:0:
182,117,124706,1,2,0:2:0:0:
16,239,124881,6,0,P|81:243|125:287,1,127.5,2|0,3:2|0:2,0:0:0:0:
135,313,125230,2,0,P|176:321|221:316,1,85,10|0,0:2|0:2,0:0:0:0:
326,250,125579,1,2,3:2:0:0:
198,170,125753,1,2,3:2:0:0:
224,338,125927,1,10,0:2:0:0:
408,340,126102,6,0,B|426:251|426:251|404:173,1,170,2|2,0:2|0:2,0:0:0:0:
257,95,126625,1,10,0:2:0:0:
326,250,126800,1,2,0:2:0:0:
397,93,126974,1,2,3:2:0:0:
245,193,127148,1,2,3:2:0:0:
319,27,127323,1,10,0:2:0:0:
143,56,127497,6,0,P|135:103|147:149,1,85,2|0,0:2|3:2,0:0:0:0:
245,193,127846,1,0,3:2:0:0:
116,281,128020,2,0,L|4:280,1,85,10|0,0:2|0:2,0:0:0:0:
142,139,128369,1,2,3:2:0:0:
245,193,128544,1,2,3:2:0:0:
93,312,128718,2,0,L|-19:311,1,85,10|0,0:2|0:2,0:0:0:0:
171,249,129067,5,2,3:2:0:0:
182,345,129241,1,2,3:2:0:0:
93,311,129416,1,10,0:2:0:0:
256,287,129590,1,2,0:2:0:0:
33,376,129765,2,0,P|7:311|19:268,1,85,2|0,3:2|3:2,0:0:0:0:
73,194,130113,1,10,0:2:0:0:
202,369,130288,6,0,L|387:372,1,170,2|0,0:2|3:2,0:0:0:0:
418,203,130811,2,0,P|408:258|426:312,1,85,10|0,0:2|0:2,0:0:0:0:
467,379,131160,1,2,3:2:0:0:
512,201,131334,1,2,3:2:0:0:
354,118,131509,1,10,0:2:0:0:
418,203,131683,1,0,0:2:0:0:
422,11,131858,6,0,L|266:19,1,127.5,2|0,3:2|0:2,0:0:0:0:
258,21,132206,1,10,0:2:0:0:
354,118,132381,1,0,3:2:0:0:
280,235,132555,6,0,L|124:227,1,127.5,2|2,3:2|0:2,0:0:0:0:
116,225,132903,1,8,0:2:0:0:
201,120,133079,1,0,0:2:0:0:
304,251,133253,5,4,0:3:0:0:
188,384,133427,1,4,0:3:0:0:
116,225,133602,1,8,0:3:0:0:
278,259,133776,5,8,0:3:0:0:
191,359,133950,1,0,3:2:0:0:
137,240,134125,1,0,3:2:0:0:
204,283,134300,5,8,0:2:0:0:
61,286,134473,1,2,0:3:0:0:
61,286,134561,1,2,0:3:0:0:
61,286,134648,5,2,3:3:0:0:
86,172,134823,2,0,L|80:61,1,85,0|2,3:2|0:3,0:0:0:0:
197,30,135172,2,0,L|386:37,1,170,8|2,0:0|0:3,0:0:0:0:
433,113,135695,1,2,3:3:0:0:
369,192,135869,1,2,0:3:0:0:
369,192,135956,1,2,0:3:0:0:
369,192,136044,6,0,P|358:237|367:278,1,85,2|2,3:3|0:3,0:0:0:0:
467,277,136393,1,2,3:3:0:0:
507,183,136567,1,8,0:0:0:0:
433,113,136741,2,0,L|334:108,1,85,2|2,3:3|0:3,0:0:0:0:
255,152,137090,1,2,3:3:0:0:
142,90,137265,1,2,0:3:0:0:
142,90,137352,1,2,0:3:0:0:
142,90,137439,6,0,L|43:95,1,85,2|0,3:3|0:0,0:0:0:0:
0,171,137788,1,2,3:3:0:0:
54,249,137962,2,0,L|153:254,1,85,8|2,0:0|3:3,0:0:0:0:
217,319,138311,1,2,0:3:0:0:
300,260,138486,1,2,3:3:0:0:
420,299,138660,1,2,0:3:0:0:
420,299,138747,1,2,0:3:0:0:
420,299,138834,6,0,L|415:383,2,85,0|2|2,3:0|0:3|3:3,0:0:0:0:
398,172,139358,1,8,0:2:0:0:
489,126,139532,2,0,B|499:79|499:79|485:33,1,85,2|2,3:3|0:3,0:0:0:0:
367,1,139881,2,0,B|357:48|357:48|371:94,1,85,2|2,3:3|0:3,0:0:0:0:
489,126,140230,5,2,3:3:0:0:
501,227,140404,2,0,L|496:311,1,85,2|2,0:3|3:3,0:0:0:0:
412,371,140753,2,0,L|328:366,1,85,8|2,0:0|3:3,0:0:0:0:
255,293,141102,2,0,L|171:298,1,85,2|2,0:3|3:3,0:0:0:0:
51,347,141451,1,2,0:3:0:0:
51,347,141538,1,2,0:3:0:0:
51,347,141625,6,0,P|37:300|48:250,1,85,2|2,3:3|0:3,0:0:0:0:
104,184,141974,1,2,3:3:0:0:
199,220,142148,1,8,0:0:0:0:
272,149,142323,2,0,L|356:154,1,85,2|2,3:3|0:3,0:0:0:0:
436,218,142672,2,0,P|457:174|455:122,1,85,2|2,3:3|0:3,0:0:0:0:
450,37,143020,6,0,L|353:38,1,85,2|0,3:3|0:0,0:0:0:0:
268,3,143369,1,8,3:2:0:0:
222,92,143544,2,0,L|113:84,1,85,2|2,0:3|3:3,0:0:0:0:
45,130,143893,2,0,P|31:178|44:214,1,85,2|2,0:3|3:3,0:0:0:0:
114,313,144241,1,2,0:3:0:0:
114,313,144329,1,2,0:3:0:0:
114,313,144416,6,0,L|211:318,1,85,2|2,3:3|0:3,0:0:0:0:
289,270,144765,1,10,3:2:0:0:
344,379,144939,1,2,0:3:0:0:
345,371,145026,1,2,0:3:0:0:
345,362,145113,1,2,3:3:0:0:
401,242,145288,1,2,0:3:0:0:
402,255,145375,1,6,0:3:0:0:
403,268,145462,1,6,3:3:0:0:
490,371,145637,1,10,0:3:0:0:
490,350,145724,1,10,0:3:0:0:
489,333,145811,6,0,L|493:257,1,68,6|2,3:2|0:0,0:0:0:0:
397,174,146160,2,0,L|402:268,1,68,8|2,0:0|0:0,0:0:0:0:
508,128,146509,1,0,3:0:0:0:
389,73,146683,1,0,3:0:0:0:
284,146,146858,2,0,B|290:221|290:221|306:172,1,102,6|0,0:3|0:0,0:0:0:0:
261,123,147207,6,0,L|273:270,1,136,10|10,3:0|0:0,0:0:0:0:
200,344,147730,1,0,0:0:0:0:
286,242,147904,2,0,P|326:230|366:234,1,68,2|0,3:0|3:0,0:0:0:0:
191,327,148253,2,0,P|151:315|111:319,1,68,10|0,0:0|0:0,0:0:0:0:
43,194,148602,6,0,P|70:240|29:279,1,114.749996498108,2|0,3:0|0:0,0:0:0:0:
21,171,148951,6,0,B|114:152|79:201|180:164,1,140.25000428009,10|0,0:3|0:0,0:0:0:0:
241,124,149300,6,0,P|241:96|236:73,1,46.7500014266968,10|0,3:2|0:0,0:0:0:0:
157,0,149474,1,10,0:0:0:0:
331,0,149648,6,0,P|331:28|326:51,1,46.7500014266968,8|0,0:0|0:0,0:0:0:0:
318,244,149823,6,0,P|350:178|467:179,1,187.000005706787,6|0,3:2|3:0,0:0:0:0:
412,342,150346,2,0,L|408:248,1,93.5000028533936,10|0,0:0|0:0,0:0:0:0:
489,18,150695,6,0,L|487:77,1,46.7500014266968,10|8,0:0|0:0,0:0:0:0:
409,149,150869,2,0,L|407:90,1,46.7500014266968,10|8,0:0|0:0,0:0:0:0:
331,0,151044,2,0,L|329:59,1,46.7500014266968,10|8,0:0|0:0,0:0:0:0:
242,170,151218,2,0,L|240:111,1,46.7500014266968,10|8,0:0|0:0,0:0:0:0:
116,15,151393,5,4,3:2:0:0:
116,15,151567,1,0,3:0:0:0:
116,15,151741,2,0,L|114:99,1,68,8|0,0:0|0:0,0:0:0:0:
54,170,152090,1,0,3:0:0:0:
54,170,152264,1,0,3:0:0:0:
54,170,152438,2,0,L|56:254,1,68,8|0,0:0|0:0,0:0:0:0:
162,347,152788,6,0,P|205:303|268:287,1,127.5,0|0,3:0|0:0,0:0:0:0:
323,339,153137,2,0,P|306:278|324:215,1,127.5,8|0,0:0|0:0,0:0:0:0:
397,194,153486,2,0,P|336:177|291:130,1,127.5,0|0,3:0|0:0,0:0:0:0:
308,59,153835,2,0,P|262:102|199:117,1,127.5,8|0,0:0|0:0,0:0:0:0:
93,97,154183,6,0,B|138:123|200:117|200:117|161:189|123:193|123:193|194:205|194:205|158:210|158:210|146:294,1,408,2|0,3:2|0:0,0:0:0:0:
147,286,155579,1,2,0:0:0:0:
194,351,156276,6,0,L|279:344,1,68,2|2,0:0|0:0,0:0:0:0:
261,345,156800,2,0,L|306:341,1,34,2|2,0:0|0:0,0:0:0:0:
427,356,156974,6,0,P|393:262|411:199,1,165.749992412568,6|0,3:2|0:2,0:0:0:0:
428,167,157323,2,0,L|305:153,1,110.499994941712,10|0,0:2|0:2,0:0:0:0:
200,223,157672,1,2,3:2:0:0:
294,341,157846,1,2,3:2:0:0:
428,167,158020,1,10,0:2:0:0:
161,55,158195,6,0,B|131:118|161:167|161:167|179:222|164:272,1,220.999989883423,6|0,3:2|3:2,0:0:0:0:
12,336,158718,2,0,P|-4:280|9:210,1,110.499994941712,8|2,0:2|0:2,0:0:0:0:
72,72,159067,1,2,3:2:0:0:
248,112,159242,1,2,3:2:0:0:
117,264,159416,2,0,P|131:207|177:153,1,110.499994941712,8|2,0:2|0:2,0:0:0:0:
343,0,159765,6,0,L|358:171,1,165.749992412568,2|0,3:2|0:2,0:0:0:0:
361,203,160114,1,10,0:2:0:0:
262,241,160288,1,2,0:2:0:0:
254,75,160463,1,2,3:2:0:0:
387,299,160637,1,2,3:2:0:0:
161,166,160812,1,10,0:2:0:0:
432,148,160986,6,0,B|462:211|432:260|432:260|414:315|429:365,1,220.999989883423,6|0,3:2|3:2,0:0:0:0:
255,213,161509,2,0,P|310:197|381:210,1,110.499994941712,8|0,0:2|0:2,0:0:0:0:
336,351,161858,2,0,P|280:366|210:354,1,110.499994941712,2|0,3:2|3:0,0:0:0:0:
199,336,162119,2,0,P|143:320|73:333,1,110.499994941712,2|0,0:0|0:0,0:0:0:0:
19,368,162381,1,10,0:2:0:0:
19,368,162469,1,8,0:2:0:0:
19,368,162556,6,0,P|51:277|36:211,1,165.749992412568,6|0,3:2|0:2,0:0:0:0:
24,174,162905,2,0,L|148:161,1,110.499994941712,10|0,0:2|0:2,0:0:0:0:
279,233,163253,1,2,3:2:0:0:
199,336,163428,1,2,3:2:0:0:
134,131,163602,1,10,0:2:0:0:
369,0,163776,6,0,L|392:221,1,220.999989883423,6|0,3:2|3:2,0:0:0:0:
149,240,164300,2,0,L|132:116,1,110.499994941712,10|0,0:2|0:2,0:0:0:0:
279,233,164648,2,0,L|262:357,1,110.499994941712,2|2,3:2|3:2,0:0:0:0:
434,303,164998,2,0,B|473:281|481:237|481:237|473:281|495:331,1,165.749992412568,10|0,0:2|0:2,0:0:0:0:
408,384,165346,6,0,L|390:200,1,165.749992412568,6|0,3:2|0:2,0:0:0:0:
384,177,165695,2,0,P|328:182|243:178,1,110.499994941712,10|2,0:2|0:2,0:0:0:0:
192,81,166044,1,2,3:2:0:0:
113,253,166218,1,10,3:2:0:0:
32,34,166393,1,10,0:2:0:0:
271,278,166567,6,0,B|146:246|162:326|47:275,1,220.999989883423,6|0,3:2|3:2,0:0:0:0:
10,172,167091,1,8,0:2:0:0:
112,336,167265,1,8,0:2:0:0:
273,181,167440,1,2,3:2:0:0:
113,253,167613,1,10,3:2:0:0:
274,365,167788,1,10,0:2:0:0:
351,109,167963,1,10,0:2:0:0:
351,109,168050,1,10,0:2:0:0:
351,109,168137,6,0,P|281:77|196:106,1,165.749992412568,6|0,3:2|0:2,0:0:0:0:
190,140,168486,2,0,L|197:256,1,110.499994941712,10|0,0:2|0:2,0:0:0:0:
274,365,168835,1,2,3:2:0:0:
273,181,169009,1,2,3:2:0:0:
111,210,169183,2,0,L|118:326,1,110.499994941712,10|2,0:2|3:2,0:0:0:0:
274,365,169532,5,0,3:1:0:0:
273,181,169706,1,0,3:2:0:0:
32,272,169881,2,0,L|39:388,1,110.499994941712,8|0,0:2|0:2,0:0:0:0:
111,210,170230,1,2,3:2:0:0:
21,54,170405,2,0,P|4:112|21:158,1,110.499994941712,2|8,3:2|0:2,0:0:0:0:
111,210,170753,1,2,0:2:0:0:
241,50,170927,6,0,L|412:63,1,165.749992412568,2|0,3:2|0:2,0:0:0:0:
445,66,171277,1,8,0:2:0:0:
384,228,171451,1,2,0:2:0:0:
333,20,171626,1,2,3:2:0:0:
500,210,171800,1,2,3:2:0:0:
255,175,171974,1,10,0:2:0:0:
483,131,172148,6,0,L|487:250,1,110.499994941712,2|2,3:2|0:2,3:2:0:0:
436,356,172497,1,0,3:1:0:0:
272,305,172672,2,0,B|215:290|215:290|153:306,1,110.499994941712,8|0,0:2|0:2,0:0:0:0:
40,363,173021,2,0,P|27:310|36:252,1,110.499994941712,2|0,3:2|3:0,3:0:0:0:
48,220,173282,2,0,P|61:167|52:109,1,110.499994941712,2|0,0:0|0:0,0:0:0:0:
9,36,173544,1,10,0:2:0:0:
9,36,173631,1,8,0:2:0:0:
9,36,173718,6,0,B|68:26|68:26|129:45|129:45|180:37,1,165.749992412568,4|0,3:2|0:2,0:0:0:0:
209,33,174067,2,0,P|227:94|222:150,1,110.499994941712,8|0,0:2|0:2,0:0:0:0:
137,250,174416,1,0,3:2:0:0:
53,112,174591,1,0,3:2:0:0:
224,140,174765,1,10,0:2:0:0:
48,220,174940,1,2,0:2:0:0:
209,33,175114,5,2,3:2:0:0:
267,271,175288,1,0,3:2:0:0:
53,112,175463,2,0,P|41:48|73:-12,1,110.499994941712,10|2,0:2|0:2,0:0:0:0:
305,84,175812,1,0,3:2:0:0:
137,250,175986,1,2,3:2:0:0:
56,7,176160,2,0,L|184:19,1,110.499994941712,8|0,0:2|0:2,0:0:0:0:
432,101,176509,6,0,P|323:111|288:210,1,220.999989883423,6|8,3:2|0:0,0:0:0:0:
457,239,177032,2,4,L|218:260,1,220.999989883423,2|8,3:0|0:0,0:0:0:0:
109,359,177555,6,0,P|124:297|40:349,1,220.999989883423,6|0,3:2|3:0,0:0:0:0:
236,258,178079,1,2,3:0:0:0:
141,151,178253,2,0,B|83:130|83:130|25:150,1,110.499994941712,8|0,0:0|0:0,0:0:0:0:
173,45,178602,2,0,B|231:66|231:66|289:46,1,110.499994941712,10|8,0:0|3:0,0:0:0:0:
290,43,178863,1,4,0:3:0:0:
304,35,178951,1,6,0:3:0:0:
371,144,179125,1,8,0:3:0:0:
377,129,179212,1,8,0:3:0:0:
384,113,179300,5,6,3:2:0:0:
501,111,179648,1,0,3:0:0:0:
503,228,179997,1,0,3:0:0:0:
386,230,180346,1,0,3:0:0:0:
275,8,180695,5,0,3:0:0:0:
384,113,181043,1,0,3:0:0:0:
278,222,181392,1,0,3:0:0:0:
169,117,181741,1,0,3:0:0:0:
96,330,182090,5,0,3:0:0:0:
109,221,182439,1,0,3:0:0:0:
33,140,182787,1,0,3:0:0:0:
46,31,183137,1,0,3:0:0:0:
96,330,183486,5,0,3:0:0:0:
109,221,183835,1,0,3:0:0:0:
33,140,184183,1,0,3:0:0:0:
46,31,184533,1,0,3:0:0:0:
226,223,184881,5,4,3:2:0:0:
109,221,185229,1,0,3:0:0:0:
107,338,185578,1,0,3:0:0:0:
224,340,185927,1,0,3:0:0:0:
335,118,186276,5,0,3:0:0:0:
226,223,186624,1,0,3:0:0:0:
332,332,186973,1,0,3:0:0:0:
441,227,187322,1,0,3:0:0:0:
435,16,187672,5,0,3:0:0:0:
308,26,188020,1,0,3:0:0:0:
181,36,188369,1,0,3:0:0:0:
53,47,188718,1,0,3:0:0:0:
434,16,189067,6,0,P|407:72|436:69,1,127.5,0|0,3:0|0:0,0:0:0:0:
419,2,189416,6,0,L|328:8,1,85,12|0,0:2|0:0,0:0:0:0:
215,123,189765,1,4,0:3:0:0:
300,228,189939,1,8,0:3:0:0:
318,217,190026,1,8,0:3:0:0:
333,202,190113,1,8,0:3:0:0:
343,183,190201,1,8,0:3:0:0:
347,162,190288,1,8,0:3:0:0:
344,140,190375,1,8,0:3:0:0:
328,107,190462,6,0,L|224:119,1,85,6|0,3:2|0:2,0:0:0:0:
51,184,190811,2,0,L|155:196,1,85,10|0,0:2|0:2,0:0:0:0:
243,116,191160,1,2,3:2:0:0:
99,145,191334,1,2,3:2:0:0:
307,252,191509,1,10,0:2:0:0:
243,116,191683,1,2,3:2:0:0:
203,318,191858,5,2,0:2:0:0:
314,160,192032,1,2,3:2:0:0:
109,253,192206,1,10,0:2:0:0:
300,356,192381,2,0,L|500:365,1,170,2|0,0:2|3:2,0:0:0:0:
399,181,192904,2,0,P|386:228|392:264,1,85,8|0,0:2|0:2,0:0:0:0:
493,140,193253,5,2,3:2:0:0:
411,288,193427,1,2,0:2:0:0:
323,126,193602,1,10,0:2:0:0:
481,224,193776,1,2,0:2:0:0:
310,205,193951,1,2,3:2:0:0:
512,119,194125,1,2,3:2:0:0:
281,29,194300,1,10,0:2:0:0:
231,247,194474,6,0,P|268:284|310:292,1,85,2|0,3:2|0:2,0:0:0:0:
341,104,194823,1,2,3:2:0:0:
196,229,194997,2,0,P|209:279|241:307,1,85,8|2,0:2|0:2,0:0:0:0:
391,263,195346,1,0,3:2:0:0:
341,104,195520,1,0,3:2:0:0:
174,195,195695,2,0,P|160:245|174:285,1,85,8|0,0:2|0:2,0:0:0:0:
14,369,196044,6,0,P|65:316|55:224,1,170,6|8,3:2|0:2,0:0:0:0:
6,48,196567,2,0,P|-7:98|6:138,1,85,2|0,0:2|3:2,0:0:0:0:
56,226,196916,1,2,3:2:0:0:
136,60,197090,1,10,0:2:0:0:
174,195,197265,6,0,L|274:189,1,85,2|0,3:2|0:2,0:0:0:0:
374,138,197613,1,2,3:2:0:0:
303,270,197788,1,10,0:2:0:0:
449,210,197962,2,0,P|477:128|429:53,1,170,2|0,0:2|3:2,0:0:0:0:
193,121,198486,2,0,L|293:127,1,85,8|0,0:2|0:2,0:0:0:0:
449,210,198834,6,0,P|392:209|349:225,1,85,2|0,3:2|0:2,0:0:0:0:
243,352,199183,1,10,0:2:0:0:
412,295,199358,1,2,0:2:0:0:
266,271,199532,2,0,L|166:277,1,85,2|0,3:2|3:2,0:0:0:0:
2,323,199881,1,10,0:2:0:0:
125,384,200055,1,2,3:2:0:0:
42,166,200230,6,0,P|41:223|57:266,1,85,2|0,0:2|3:2,0:0:0:0:
234,139,200579,2,0,L|135:151,1,85,10|2,0:2|0:2,0:0:0:0:
350,281,200927,2,0,L|251:269,1,85,12|0,3:2|3:2,0:0:0:0:
445,55,201276,2,0,L|346:67,1,85,12|0,0:2|0:2,0:0:0:0:
149,149,201625,5,6,3:2:0:0:
242,23,201800,2,0,L|236:126,1,101.999996887207,2|8,0:2|0:2,0:0:0:0:
192,226,202148,1,2,0:2:0:0:
106,72,202323,1,0,3:2:0:0:
278,0,202497,2,0,L|272:111,1,101.999996887207,2|8,3:2|0:2,0:0:0:0:
350,281,202846,6,0,P|322:231|413:130,1,203.999993774414,2|0,3:2|3:2,0:0:0:0:
455,308,203369,1,8,0:2:0:0:
341,377,203544,2,0,L|210:387,1,101.999996887207,0|0,0:2|3:2,0:0:0:0:
85,233,203893,1,2,3:2:0:0:
265,278,204067,1,10,0:2:0:0:
154,339,204241,1,2,0:2:0:0:
142,160,204416,6,0,P|143:101|170:60,1,101.999996887207,2|0,3:2|0:2,0:0:0:0:
203,217,204765,1,10,0:2:0:0:
69,87,204939,1,2,0:2:0:0:
240,38,205113,1,2,3:2:0:0:
254,282,205288,2,0,L|260:384,1,101.999996887207,2|8,3:2|0:2,0:0:0:0:
397,211,205637,6,0,B|318:264|283:165|202:218,1,203.999993774414,2|0,3:2|3:2,0:0:0:0:
92,383,206160,1,8,0:2:0:0:
37,196,206334,2,0,L|29:309,1,101.999996887207,0|0,0:2|3:2,0:0:0:0:
246,180,206683,2,0,L|254:293,1,101.999996887207,0|8,3:2|0:2,0:0:0:0:
111,199,207032,1,0,0:2:0:0:
148,99,207206,5,12,0:2:0:0:
174,286,207381,1,0,3:2:0:0:
212,40,207555,5,8,0:2:0:0:
111,199,207730,1,0,3:2:0:0:
328,43,207904,5,8,0:2:0:0:
148,99,208079,1,0,3:2:0:0:
428,108,208253,5,8,0:2:0:0:
212,40,208428,1,0,3:2:0:0:
351,267,208602,5,12,0:2:0:0:
330,70,208776,1,0,3:2:0:0:
248,343,208951,5,8,0:2:0:0:
272,128,209125,1,0,3:2:0:0:
84,370,209300,5,8,0:2:0:0:
191,142,209474,1,0,3:2:0:0:
174,384,209648,5,8,0:2:0:0:
74,126,209822,1,0,3:2:0:0:
248,342,209997,6,0,L|371:352,1,118.999996368408,12|0,0:2|3:2,0:0:0:0:
512,100,210346,2,0,L|391:110,1,118.999996368408,8|0,0:2|3:2,0:0:0:0:
269,138,210695,5,8,0:2:0:0:
506,198,210869,1,0,3:2:0:0:
145,222,211044,5,8,0:2:0:0:
410,108,211218,1,0,3:2:0:0:
167,28,211393,6,0,L|154:151,1,118.999996368408,12|0,0:2|3:2,0:0:0:0:
293,374,211741,2,0,L|281:254,1,118.999996368408,8|0,0:0|3:0,0:0:0:0:
278,233,212003,1,4,0:3:0:0:
275,211,212090,1,4,0:3:0:0:
159,117,212265,1,8,0:3:0:0:
87,297,212439,2,0,P|138:313|184:306,1,101.999996887207,8|0,0:0|0:0,0:0:0:0:
376,177,212788,6,0,L|384:277,1,101.999996887207,4|0,3:2|0:2,0:0:0:0:
472,326,213137,1,0,3:2:0:0:
371,85,213311,2,0,P|319:102|289:138,1,101.999996887207,8|0,0:2|0:2,0:0:0:0:
383,261,213660,1,0,3:2:0:0:
448,44,213834,2,0,P|407:8|360:0,1,101.999996887207,8|0,0:2|0:2,0:0:0:0:
212,142,214183,5,0,3:2:0:0:
371,85,214358,1,0,3:2:0:0:
371,85,214706,6,0,P|324:101|296:134,1,85,8|0,0:2|0:2,0:0:0:0:
383,261,215055,1,8,3:2:0:0:
498,220,215230,1,8,3:2:0:0:
416,172,215404,1,8,0:3:0:0:
340,381,215579,5,4,3:2:0:0:
340,381,216974,5,8,0:0:0:0:
263,145,217148,1,0,3:0:0:0:
263,346,217323,5,8,0:0:0:0:
340,110,217497,1,0,3:0:0:0:
169,238,217672,5,8,0:0:0:0:
263,346,217846,1,0,3:0:0:0:
263,145,218020,1,4,0:3:0:0:
263,145,218195,5,2,0:0:0:0:
190,28,223951,6,0,P|45:96|197:107,1,408,4|0,3:2|0:0,0:0:0:0:
124,74,225346,6,0,B|107:163|107:163|135:241|135:241|123:331|123:331|73:355|73:355|36:321|36:321|40:281,1,408,4|0,3:2|0:0,0:0:0:0:
11,196,226567,1,2,0:3:0:0:
11,196,226654,1,2,0:3:0:0:
11,196,226741,6,0,B|61:182|98:212|98:212|185:171|185:171|216:240|216:240|288:197|355:247,1,408,4|0,3:2|0:0,0:0:0:0:
350,244,228718,6,0,L|371:238,2,22.6666666666667,0|0|8,0:0|0:0|0:0,0:0:0:0:
252,274,229009,1,8,0:3:0:0:
154,304,229183,2,0,L|75:327,1,68,0|0,3:0|3:0,0:0:0:0:
14,223,229532,5,6,3:2:0:0:
48,105,229881,1,0,3:0:0:0:
189,76,230230,1,8,0:0:0:0:
189,76,230404,2,0,P|191:112|180:145,2,68,2|2|0,0:2|3:2|0:0,0:0:0:0:
283,0,230927,6,0,L|300:210,1,204,2|0,3:2|0:0,0:0:0:0:
406,273,231625,1,8,0:0:0:0:
406,273,231800,2,0,L|412:189,2,68,2|2|0,0:2|3:2|0:0,0:0:0:0:
404,290,232236,1,0,0:0:0:0:
404,306,232323,5,2,3:2:0:0:
404,306,232672,2,0,L|321:301,1,68,2|0,3:2|0:0,0:0:0:0:
247,251,233020,2,0,L|164:256,1,68,10|0,0:2|0:0,0:0:0:0:
93,311,233369,1,2,3:2:0:0:
93,311,233544,1,2,0:2:0:0:
38,161,233718,6,0,B|99:130|149:164|149:164|195:180|251:159,1,204,0|0,3:0|0:0,0:0:0:0:
294,63,234416,5,8,0:0:0:0:
348,148,234765,1,0,3:0:0:0:
416,268,235113,5,6,3:2:0:0:
189,214,235462,1,0,3:0:0:0:
452,153,235811,1,10,0:2:0:0:
138,114,236160,1,0,3:0:0:0:
366,42,236509,5,10,0:2:0:0:
407,248,236683,1,0,3:0:0:0:
230,8,236858,5,10,0:2:0:0:
189,214,237032,1,0,3:0:0:0:
53,86,237206,5,8,0:0:0:0:
75,107,237294,1,8,0:0:0:0:
93,131,237381,1,8,0:0:0:0:
107,158,237468,1,8,0:0:0:0:
113,187,237555,1,8,0:0:0:0:
111,217,237643,1,8,0:0:0:0:
104,246,237730,1,8,0:0:0:0:
93,274,237817,1,8,0:0:0:0:
68,307,237904,6,0,P|170:293|241:328,1,178.499994552612,6|0,3:2|0:2,0:0:0:0:
268,350,238253,2,0,L|267:212,1,118.999996368408,10|0,0:2|0:2,0:0:0:0:
182,120,238602,1,2,3:2:0:0:
236,323,238776,1,2,3:2:0:0:
408,171,238950,1,10,0:2:0:0:
166,55,239125,6,0,B|103:157|222:170|160:292,1,237.999992736817,6|0,3:2|3:2,0:0:0:0:
40,369,239648,2,0,P|17:306|30:254,1,118.999996368408,10|0,0:2|0:2,0:0:0:0:
162,163,239997,1,2,3:2:0:0:
95,305,240172,1,2,3:2:0:0:
0,111,240346,2,0,L|122:103,1,118.999996368408,10|0,0:2|0:2,0:0:0:0:
437,31,240695,6,0,P|329:39|285:94,1,178.499994552612,6|0,3:2|0:2,0:0:0:0:
278,124,241044,1,10,0:2:0:0:
446,189,241218,1,2,0:2:0:0:
320,4,241393,1,2,3:2:0:0:
330,241,241567,1,2,3:2:0:0:
512,101,241742,1,10,0:2:0:0:
226,65,241916,6,0,B|257:132|226:184|226:184|206:242|222:295,1,237.999992736817,6|0,3:2|3:2,0:0:0:0:
445,248,242439,2,0,P|390:232|315:247,1,118.999996368408,10|0,0:2|0:2,0:0:0:0:
442,384,242788,2,0,P|457:328|446:255,1,118.999996368408,10|0,3:2|3:0,0:0:0:0:
438,234,243050,2,0,P|423:178|434:105,1,118.999996368408,10|0,0:2|0:2,0:0:0:0:
500,56,243311,1,10,0:2:0:0:
500,56,243399,1,8,0:2:0:0:
500,56,243486,6,0,L|320:71,1,178.499994552612,6|0,3:2|0:2,0:0:0:0:
286,75,243835,2,0,P|279:139|296:198,1,118.999996368408,10|0,0:2|0:2,0:0:0:0:
438,234,244183,1,2,3:2:0:0:
322,70,244358,1,2,3:2:0:0:
288,309,244532,1,10,0:2:0:0:
447,30,244707,1,2,0:2:0:0:
447,30,244794,1,2,0:2:0:0:
447,30,244881,6,0,P|466:117|453:228,1,178.499994552612,2|0,3:2|0:2,0:0:0:0:
437,229,245230,2,0,L|310:241,1,118.999996368408,10|0,0:2|0:2,0:0:0:0:
116,130,245579,2,0,L|243:142,1,118.999996368408,2|0,3:2|3:2,0:0:0:0:
383,25,245928,2,0,B|395:58|422:70|422:70|405:64|343:47|291:79,1,178.499994552612,10|0,0:2|0:2,0:0:0:0:
234,141,246276,6,0,L|220:318,1,178.499994552612,6|0,3:2|0:2,0:0:0:0:
219,354,246625,2,0,P|155:361|96:344,1,118.999996368408,10|0,0:2|0:2,0:0:0:0:
105,204,246974,1,2,3:2:0:0:
219,318,247149,1,2,3:2:0:0:
8,384,247323,1,10,0:2:0:0:
50,117,247497,6,0,B|119:84|173:117|173:117|233:136|288:120,1,237.999992736817,6|0,3:2|3:2,0:0:0:0:
213,29,248021,1,10,0:2:0:0:
105,204,248195,1,0,0:2:0:0:
105,204,248282,1,2,0:2:0:0:
105,204,248369,1,8,0:2:0:0:
305,115,248544,1,2,3:2:0:0:
50,117,248718,1,10,0:2:0:0:
22,139,248805,1,8,0:2:0:0:
8,172,248893,1,8,0:2:0:0:
4,207,248980,1,8,0:2:0:0:
18,239,249067,6,0,L|195:253,1,178.499994552612,6|0,3:2|0:2,0:0:0:0:
231,252,249416,2,0,P|240:184|224:128,1,118.999996368408,10|0,0:2|0:2,0:0:0:0:
125,38,249765,1,2,3:2:0:0:
105,204,249939,1,2,3:2:0:0:
296,200,250113,2,0,P|269:136|227:96,1,118.999996368408,10|2,0:2|0:2,0:0:0:0:
125,38,250462,5,2,3:2:0:0:
195,253,250636,1,2,3:2:0:0:
326,122,250811,2,0,P|271:80|215:66,1,118.999996368408,10|0,0:2|0:2,0:0:0:0:
231,252,251159,1,2,3:2:0:0:
326,122,251334,1,2,3:2:0:0:
151,143,251509,1,10,0:2:0:0:
309,286,251682,1,2,0:2:0:0:
398,42,251857,6,0,P|366:124|405:210,1,178.499994552612,2|0,3:2|0:2,0:0:0:0:
419,232,252206,1,10,0:2:0:0:
503,122,252380,1,2,0:2:0:0:
279,29,252555,2,0,L|136:44,1,118.999996368408,2|0,3:2|3:2,0:0:0:0:
129,227,252903,1,10,0:2:0:0:
241,132,253078,1,2,0:2:0:0:
17,16,253253,6,0,L|12:221,1,178.499994552612,2|0,3:2|0:2,0:0:0:0:
13,231,253602,2,0,P|81:240|137:224,1,118.999996368408,10|0,0:2|0:2,0:0:0:0:
89,89,253951,1,2,3:2:0:0:
13,231,254125,1,2,3:2:0:0:
206,271,254300,1,10,0:2:0:0:
136,14,254474,1,2,0:2:0:0:
136,14,254561,1,8,0:2:0:0:
136,14,254648,6,0,L|133:199,1,178.499994552612,6|0,3:2|0:2,0:0:0:0:
132,229,254997,2,0,P|187:235|263:223,1,118.999996368408,10|0,0:2|0:2,0:0:0:0:
327,106,255346,1,2,3:2:0:0:
132,193,255520,1,2,3:2:0:0:
267,331,255695,2,0,P|322:325|398:337,1,118.999996368408,10|0,0:2|0:2,0:0:0:0:
490,204,256044,6,0,P|414:203|335:116,1,178.499994552612,2|0,3:2|0:2,0:0:0:0:
373,0,256393,1,10,0:2:0:0:
419,232,256567,2,0,L|433:355,1,118.999996368408,2|0,0:2|3:2,0:0:0:0:
224,244,256916,2,0,L|238:121,1,118.999996368408,2|8,3:2|0:2,0:0:0:0:
373,0,257265,1,2,0:2:0:0:
306,271,257439,6,0,B|177:257|177:257|242:237,1,178.499994552612,6|0,3:2|0:2,0:0:0:0:
303,232,257788,2,0,L|317:355,1,118.999996368408,8|0,0:2|0:2,0:0:0:0:
313,152,258137,6,0,B|442:138|442:138|377:118,1,178.499994552612,2|0,3:2|0:2,0:0:0:0:
316,113,258486,2,0,L|302:236,1,118.999996368408,10|0,0:2|0:2,0:0:0:0:
301,248,258747,1,8,0:2:0:0:
299,265,258834,5,4,3:3:0:0:
207,342,259009,1,8,0:3:0:0:
88,342,259183,1,12,0:3:0:0:
11,250,259358,1,8,0:3:0:0:
108,59,259532,6,0,L|100:179,1,93.5000028533936,8|0,0:2|0:0,0:0:0:0:
207,342,259881,2,0,L|199:222,1,93.5000028533936,8|0,0:0|0:0,0:0:0:0:
88,342,260230,5,4,3:2:0:0:
80,229,260579,1,0,3:0:0:0:
73,117,260927,1,0,3:0:0:0:
66,4,261276,1,0,3:0:0:0:
43,119,261625,5,0,3:0:0:0:
156,111,261974,1,0,3:0:0:0:
268,104,262322,1,0,3:0:0:0:
381,97,262671,1,0,3:0:0:0:
427,203,263020,6,0,L|300:187,1,93.5000028533936,8|0,3:0|0:0,0:0:0:0:
180,280,263369,2,0,L|307:264,1,93.5000028533936,0|0,3:0|0:0,0:0:0:0:
473,108,263718,2,0,L|346:92,1,93.5000028533936,0|0,3:0|0:0,0:0:0:0:
115,175,264067,2,0,L|242:159,1,93.5000028533936,0|0,3:0|0:0,0:0:0:0:
30,6,264416,6,0,P|18:62|36:107,1,93.5000028533936,0|0,3:0|0:0,0:0:0:0:
206,252,264765,2,0,P|218:196|200:151,1,93.5000028533936,0|0,3:0|0:0,0:0:0:0:
28,95,265113,1,0,3:0:0:0:
0,309,265288,6,0,B|60:294|60:294|129:312,1,118.999996368408,0|2,0:0|0:0,0:0:0:0:
125,325,265724,1,2,0:0:0:0:
133,341,265811,6,0,L|127:205,1,127.5,6|0,3:2|0:2,0:0:0:0:
123,179,266160,2,0,P|169:172|217:176,1,85,10|0,0:2|0:2,0:0:0:0:
330,231,266509,1,2,3:2:0:0:
243,341,266684,1,2,3:2:0:0:
207,174,266858,1,10,0:2:0:0:
347,336,267032,6,0,B|429:360|429:360|511:341,1,170,6|0,3:2|3:2,0:0:0:0:
330,231,267556,1,10,0:2:0:0:
489,185,267730,1,2,0:2:0:0:
489,185,267817,1,8,0:2:0:0:
489,185,267904,1,0,3:2:0:0:
325,131,268079,1,2,3:2:0:0:
455,90,268253,1,10,0:2:0:0:
361,39,268428,1,2,0:2:0:0:
302,234,268602,6,0,L|166:240,1,127.5,6|0,3:2|0:2,0:0:0:0:
140,244,268951,2,0,P|133:198|137:150,1,85,10|0,0:2|0:2,0:0:0:0:
261,74,269300,1,2,3:2:0:0:
174,239,269474,1,2,3:2:0:0:
169,18,269649,1,10,0:2:0:0:
377,114,269823,6,0,P|299:102|231:164,1,170,6|0,3:2|3:2,0:0:0:0:
245,352,270346,1,10,0:2:0:0:
329,200,270521,1,2,0:2:0:0:
329,200,270608,1,8,0:2:0:0:
329,200,270695,1,2,3:2:0:0:
369,329,270870,1,2,3:2:0:0:
485,224,271044,1,10,0:2:0:0:
486,207,271131,1,8,0:2:0:0:
488,190,271218,1,8,0:2:0:0:
490,173,271306,1,8,0:2:0:0:
491,154,271393,6,0,B|496:89|496:89|456:24,1,127.5,6|0,3:2|0:2,0:0:0:0:
433,27,271742,2,0,L|337:23,1,85,10|0,0:2|0:2,0:0:0:0:
220,78,272091,1,2,3:2:0:0:
316,178,272265,1,2,3:2:0:0:
348,23,272439,1,10,0:2:0:0:
140,0,272614,6,0,B|121:77|121:77|132:168,1,170,6|0,3:2|3:2,0:0:0:0:
236,321,273137,2,0,L|224:215,1,85,10|0,0:2|0:2,0:0:0:0:
226,236,273399,1,8,0:2:0:0:
226,236,273486,1,2,3:2:0:0:
70,283,273660,1,2,3:2:0:0:
264,332,273835,1,10,0:2:0:0:
132,372,274009,1,2,0:2:0:0:
339,266,274183,6,0,L|351:160,1,85,6|0,3:2|0:2,0:0:0:0:
415,345,274532,1,10,0:2:0:0:
415,345,274881,1,10,0:2:0:0:
467,217,275056,1,2,3:2:0:0:
339,266,275230,1,10,0:2:0:0:
457,132,275404,6,0,L|469:238,1,85,4|0,3:2|0:2,0:0:0:0:
371,82,275753,1,8,0:2:0:0:
209,118,275927,1,8,0:2:0:0:
281,38,276102,1,2,0:2:0:0:
281,38,276189,1,8,0:2:0:0:
281,38,276276,5,2,0:2:0:0:
306,158,276451,1,2,0:2:0:0:
205,221,276625,1,2,0:2:0:0:
101,161,276800,1,2,0:2:0:0:
24,315,276974,6,0,L|163:307,1,136,2|0,2:0|0:0,0:0:0:0:
246,361,277497,2,0,L|385:369,1,136,2|0,0:3|0:0,0:0:0:0:
467,313,278020,1,2,3:3:0:0:
503,181,278195,1,2,0:3:0:0:
503,181,278282,1,2,0:3:0:0:
503,181,278369,6,0,L|364:173,1,136,2|0,3:3|0:0,0:0:0:0:
280,228,278893,2,0,L|141:236,1,136,2|0,0:3|0:0,0:0:0:0:
32,222,279416,1,2,3:3:0:0:
109,150,279590,1,2,0:3:0:0:
109,150,279677,1,2,0:3:0:0:
109,150,279765,5,2,0:3:0:0:
272,82,280113,1,2,0:0:0:0:
36,57,280462,1,2,0:0:0:0:
272,82,280811,5,2,0:0:0:0:
36,57,280986,1,2,0:0:0:0:
127,257,281334,5,2,0:0:0:0:
36,57,281683,5,2,0:0:0:0:
127,257,281858,1,2,0:0:0:0:
307,59,282206,6,0,P|290:62|275:70,1,34,2|2,0:0|0:0,0:0:0:0:
272,82,282381,2,0,P|380:141|246:154,1,340,2|0,0:0|0:0,0:0:0:0:
