osu file format v14

[General]
AudioFilename: audio.mp3
AudioLeadIn: 0
PreviewTime: 217710
Countdown: 0
SampleSet: Soft
StackLeniency: 0.4
Mode: 0
LetterboxInBreaks: 0
WidescreenStoryboard: 1

[Editor]
Bookmarks: 11896,23058,34221,45384,56547,67710,78872,90035,101198,106779,112361,123524,134686,145849,157012,168175,176547,179338,190500,201663,207244,212826,218407,223989,237942,249105,257477,260268,265849,277012
DistanceSpacing: 1.4
BeatDivisor: 4
GridSize: 8
TimelineZoom: 2.45

[Metadata]
Title:Yonjuunana
TitleUnicode:ヨンジュウナナ
Artist:Himeringo
ArtistUnicode:ひめりんご
Creator:Gottagof4st
Version:Mentai's Hard
Source:
Tags:Utaite Cover bor mentai yukiyo 47 Forty Seven MikitoP Kohei Nakaya ggf gottagofast
BeatmapID:1689998
BeatmapSetID:762282

[Difficulty]
HPDrainRate:5
CircleSize:4
OverallDifficulty:6
ApproachRate:7.5
SliderMultiplier:1.5
SliderTickRate:1

[Events]
//Background and Video events
0,0,"yonjuunanabg.jpg",0,0
//Break Periods
2,179500,189637
2,218569,223126
//Storyboard Layer 0 (Background)
//Storyboard Layer 1 (Fail)
//Storyboard Layer 2 (Pass)
//Storyboard Layer 3 (Foreground)
//Storyboard Sound Samples

[TimingPoints]
-700,348.837209302326,4,2,1,35,1,0
695,-125,4,2,1,35,0,0
11509,-200,4,2,1,35,0,0
11770,-200,4,2,1,5,0,0
11858,-111.111111111111,4,2,1,45,0,0
19096,-111.111111111111,4,2,1,5,0,0
19183,-111.111111111111,4,2,1,45,0,0
22672,-99.9999999999999,4,2,1,65,0,0
23282,-99.9999999999999,4,2,1,5,0,0
23369,-99.9999999999999,4,2,1,65,0,0
26073,-99.9999999999999,4,2,1,5,0,0
26160,-99.9999999999999,4,2,1,65,0,0
28863,-99.9999999999999,4,2,1,5,0,0
28951,-99.9999999999999,4,2,1,65,0,0
34183,-111.111111111111,4,2,1,55,0,0
44736,-111.111111111111,4,2,1,5,0,0
44823,-111.111111111111,4,2,1,55,0,0
44910,-111.111111111111,4,2,1,5,0,0
44997,-111.111111111111,4,2,1,55,0,0
45084,-111.111111111111,4,2,1,5,0,0
45172,-111.111111111111,4,2,1,55,0,0
45259,-111.111111111111,4,2,1,5,0,0
45346,-111.111111111111,4,2,1,55,0,0
45608,-111.111111111111,4,2,1,5,0,0
45695,-111.111111111111,4,2,1,55,0,0
48398,-111.111111111111,4,2,1,5,0,0
48486,-111.111111111111,4,2,1,55,0,0
52584,-111.111111111111,4,2,1,5,0,0
52672,-111.111111111111,4,2,1,55,0,0
53980,-111.111111111111,4,2,1,5,0,0
54067,-111.111111111111,4,2,1,55,0,0
56509,-125,4,2,1,60,0,0
67672,-111.111111111111,4,2,1,50,0,0
68980,-111.111111111111,4,2,1,5,0,0
69067,-111.111111111111,4,2,1,50,0,0
70462,-111.111111111111,4,2,1,50,0,0
70724,-111.111111111111,4,2,1,5,0,0
70811,-111.111111111111,4,2,1,45,0,0
71073,-111.111111111111,4,2,1,5,0,0
71160,-111.111111111111,4,2,1,45,0,0
71247,-111.111111111111,4,2,1,5,0,0
71334,-111.111111111111,4,2,1,45,0,0
71596,-111.111111111111,4,2,1,5,0,0
71683,-111.111111111111,4,2,1,45,0,0
72730,-111.111111111111,4,2,1,45,0,0
72904,-111.111111111111,4,2,1,45,0,0
73079,-111.111111111111,4,2,1,45,0,0
73253,-111.111111111111,4,2,1,45,0,0
74648,-111.111111111111,4,2,1,45,0,0
74910,-111.111111111111,4,2,1,5,0,0
74997,-111.111111111111,4,2,1,45,0,0
75259,-111.111111111111,4,2,1,5,0,0
75346,-111.111111111111,4,2,1,45,0,0
75608,-111.111111111111,4,2,1,5,0,0
75695,-111.111111111111,4,2,1,45,0,0
75956,-111.111111111111,4,2,1,5,0,0
76044,-133.333333333333,4,2,1,45,0,0
78137,-111.111111111111,4,2,1,35,0,0
78486,-100,4,3,1,50,0,0
78660,-200,4,2,1,55,0,0
78834,-90.9090909090909,4,2,1,75,0,1
79096,-90.9090909090909,4,2,1,5,0,1
79183,-90.9090909090909,4,2,1,75,0,1
84677,-90.9090909090909,4,2,1,5,0,1
84765,-90.9090909090909,4,2,1,75,0,1
87119,-90.9090909090909,4,2,1,5,0,1
87206,-90.9090909090909,4,2,1,75,0,1
87468,-90.9090909090909,4,2,1,5,0,1
87555,-90.9090909090909,4,2,1,75,0,1
90259,-90.9090909090909,4,2,1,5,0,1
90346,-90.9090909090909,4,2,1,75,0,1
93050,-90.9090909090909,4,2,1,5,0,1
93137,-90.9090909090909,4,2,1,75,0,1
94445,-90.9090909090909,4,2,1,5,0,1
94532,-90.9090909090909,4,2,1,75,0,1
95840,-90.9090909090909,4,2,1,5,0,1
95927,-90.9090909090909,4,2,1,75,0,1
98369,-90.9090909090909,4,2,1,55,0,0
101160,-100,4,2,1,65,0,0
101422,-100,4,2,1,5,0,0
101509,-100,4,2,1,65,0,0
104212,-100,4,2,1,5,0,0
104300,-100,4,2,1,65,0,0
107003,-100,4,2,1,5,0,0
107090,-100,4,2,1,65,0,0
109794,-100,4,2,1,5,0,0
109881,-100,4,2,1,65,0,0
112148,-111.111111111111,4,2,1,65,0,0
112323,-111.111111111111,4,2,1,55,0,0
112584,-111.111111111111,4,2,1,5,0,0
112672,-111.111111111111,4,2,1,55,0,0
120956,-111.111111111111,4,2,1,5,0,0
121044,-111.111111111111,4,2,1,55,0,0
125143,-111.111111111111,4,2,1,5,0,0
125230,-111.111111111111,4,2,1,55,0,0
132119,-111.111111111111,4,2,1,5,0,0
132206,-111.111111111111,4,2,1,55,0,0
132817,-111.111111111111,4,2,1,5,0,0
132904,-111.111111111111,4,2,1,55,0,0
134648,-125,4,2,1,60,0,0
145811,-111.111111111111,4,2,1,45,0,0
147119,-111.111111111111,4,2,1,5,0,0
147206,-111.111111111111,4,2,1,45,0,0
148602,-111.111111111111,4,2,1,45,0,0
148863,-111.111111111111,4,2,1,45,0,0
148951,-111.111111111111,4,2,1,45,0,0
149212,-111.111111111111,4,2,1,5,0,0
149300,-111.111111111111,4,2,1,45,0,0
149387,-111.111111111111,4,2,1,5,0,0
149474,-111.111111111111,4,2,1,45,0,0
149736,-111.111111111111,4,2,1,5,0,0
149823,-111.111111111111,4,2,1,45,0,0
150869,-111.111111111111,4,2,1,45,0,0
151044,-111.111111111111,4,2,1,45,0,0
151218,-111.111111111111,4,2,1,45,0,0
151393,-111.111111111111,4,2,1,45,0,0
152788,-100,4,2,1,45,0,0
153050,-100,4,2,1,5,0,0
153137,-100,4,2,1,45,0,0
153398,-100,4,2,1,5,0,0
153486,-100,4,2,1,45,0,0
153747,-100,4,2,1,5,0,0
153834,-100,4,2,1,45,0,0
154096,-100,4,2,1,5,0,0
154183,-133.333333333333,4,2,1,45,0,0
156887,-133.333333333333,4,2,1,5,0,0
156974,-90.9090909090909,4,2,1,75,0,1
157236,-90.9090909090909,4,2,1,5,0,1
157323,-90.9090909090909,4,2,1,75,0,1
160026,-90.9090909090909,4,2,1,5,0,1
160113,-90.9090909090909,4,2,1,75,0,1
162817,-90.9090909090909,4,2,1,5,0,1
162904,-90.9090909090909,4,2,1,75,0,1
165259,-90.9090909090909,4,2,1,5,0,1
165346,-90.9090909090909,4,2,1,75,0,1
168398,-90.9090909090909,4,2,1,5,0,1
168486,-90.9090909090909,4,2,1,75,0,1
171189,-90.9090909090909,4,2,1,5,0,1
171276,-90.9090909090909,4,2,1,75,0,1
172584,-90.9090909090909,4,2,1,5,0,1
172672,-90.9090909090909,4,2,1,75,0,1
173980,-90.9090909090909,4,2,1,5,0,1
174067,-90.9090909090909,4,2,1,75,0,1
176509,-83.3333333333333,4,2,1,55,0,0
179300,-100,4,2,1,45,0,0
189329,-100,4,2,1,5,0,0
189416,-100,4,2,1,45,0,0
190462,-111.111111111111,4,2,1,55,0,0
201625,-100,4,2,1,65,0,0
207206,-100,4,2,1,75,0,0
212788,-100,4,2,1,55,0,0
214183,-100,4,2,1,50,0,0
215579,-125,4,2,1,50,0,0
216974,-100,4,2,1,75,0,0
218195,-100,4,2,1,45,0,0
223253,-200,4,2,1,45,0,0
223951,-133.333333333333,4,2,1,55,0,0
228834,-125,4,2,1,55,0,0
229532,-111.111111111111,4,2,1,45,0,0
236509,-111.111111111111,4,2,1,65,0,0
237730,-90.9090909090908,4,2,1,65,0,1
237904,-90.9090909090909,4,2,1,50,0,1
238166,-90.9090909090909,4,2,1,5,0,1
238253,-90.9090909090909,4,2,1,75,0,1
240956,-90.9090909090909,4,2,1,5,0,1
241044,-90.9090909090909,4,2,1,75,0,1
243747,-90.9090909090909,4,2,1,5,0,1
243834,-90.9090909090909,4,2,1,75,0,1
245143,-90.9090909090909,4,2,1,5,0,1
245230,-90.9090909090909,4,2,1,75,0,1
246189,-90.9090909090909,4,2,1,5,0,1
246276,-90.9090909090909,4,2,1,75,0,1
249329,-90.9090909090909,4,2,1,5,0,1
249416,-90.9090909090909,4,2,1,75,0,1
252119,-90.9090909090909,4,2,1,5,0,1
252206,-90.9090909090909,4,2,1,75,0,1
253515,-90.9090909090909,4,2,1,5,0,1
253602,-90.9090909090909,4,2,1,75,0,1
254910,-90.9090909090909,4,2,1,5,0,1
254997,-90.9090909090909,4,2,1,75,0,1
256305,-90.9090909090909,4,2,1,5,0,1
256393,-90.9090909090909,4,2,1,75,0,1
257439,-90.9090909090909,4,2,1,75,0,1
257701,-90.9090909090909,4,2,1,5,0,1
257788,-90.9090909090909,4,2,1,75,0,1
258398,-90.9090909090909,4,2,1,5,0,1
258486,-90.9090909090909,4,2,1,75,0,1
259532,-90.9090909090909,4,2,1,80,0,0
260230,-90.9090909090909,4,2,1,55,0,0
263020,-90.9090909090909,4,2,1,65,0,0
264416,-90.9090909090909,4,2,1,75,0,0
265288,-142.857142857143,4,2,1,55,0,0
265811,-100,4,2,1,65,0,0
266073,-100,4,2,1,5,0,0
266160,-100,4,2,1,65,0,0
268863,-100,4,2,1,5,0,0
268951,-100,4,2,1,65,0,0
271654,-100,4,2,1,5,0,0
271741,-100,4,2,1,65,0,0
276276,-125,4,2,1,65,0,0
276974,-125,4,2,1,35,0,0
282555,-125,4,2,1,20,0,0
283253,-125,4,2,1,5,0,0

[Colours]
Combo1 : 217,215,113
Combo2 : 236,132,62
Combo3 : 205,54,54

[HitObjects]
54,248,695,6,0,L|47:384,2,120,6|2|2,0:0|0:0|0:0,0:0:0:0:
40,158,1567,1,2,0:0:0:0:
40,158,1916,2,0,P|130:144|228:173,1,180,2|0,0:0|0:0,0:0:0:0:
236,253,2613,1,2,0:0:0:0:
318,289,2788,2,0,P|380:289|405:286,1,60,2|2,0:0|0:0,0:0:0:0:
435,184,3311,6,0,P|387:266|372:302,1,120,2|0,0:0|0:0,0:0:0:0:
325,362,3834,2,0,B|264:342|266:378|183:352,1,120,0|2,0:0|0:0,0:0:0:0:
116,343,4358,2,0,L|35:338,1,60,0|2,0:0|0:0,0:0:0:0:
176,273,4706,2,0,B|178:237|165:214|165:214|174:175|187:150|187:150|218:159|225:204,1,180,2|0,0:0|0:0,0:0:0:0:
221,187,6276,6,0,P|198:148|169:122,1,60,6|2,0:0|0:0,0:0:0:0:
279,112,6625,2,0,P|302:73|331:47,1,60,0|2,0:0|0:0,0:0:0:0:
237,8,6974,1,2,0:0:0:0:
154,44,7148,1,2,0:0:0:0:
28,155,7497,2,0,P|105:125|155:44,1,180,2|0,0:0|0:0,0:0:0:0:
154,45,8544,2,0,P|121:36|74:36,2,60,2|2|0,0:0|0:0|0:0,0:0:0:0:
214,111,9067,6,0,P|309:127|356:119,1,120,2|2,0:0|0:0,0:0:0:0:
393,61,9590,2,0,B|376:98|376:98|374:140|383:202,1,120,2|2,0:0|0:0,0:0:0:0:
342,259,10113,1,2,0:0:0:0:
432,256,10288,2,0,B|451:218|486:208|486:208|507:159|475:94,1,180,2|0,0:0|0:0,0:0:0:0:
480,105,11858,6,0,P|442:97|407:98,1,67.4999979400635,4|2,0:0|0:0,0:0:0:0:
312,103,12206,2,0,P|275:115|245:133,1,67.4999979400635,2|2,0:0|0:0,0:0:0:0:
369,169,12555,1,2,0:0:0:0:
371,252,12730,1,2,0:0:0:0:
175,261,13079,2,0,B|232:253|271:274|271:274|303:252|372:253,1,202.499993820191,2|0,0:0|0:0,0:0:0:0:
464,212,13776,2,0,P|468:283|465:293,2,67.4999979400635,2|2|2,0:0|0:0|0:0,0:0:0:0:
345,166,14474,6,0,P|431:180|476:235,1,134.999995880127,2|0,0:0|0:0,0:0:0:0:
395,287,14997,1,2,0:0:0:0:
299,251,15172,2,0,P|221:251|217:252,1,67.4999979400635,2|0,0:0|0:0,0:0:0:0:
146,303,15520,2,0,P|68:303|64:302,1,67.4999979400635,2|0,0:0|0:0,0:0:0:0:
0,241,15869,2,0,B|15:208|36:188|36:188|22:145|27:108|27:108|55:84|56:44,1,202.499993820191,2|2,0:0|0:0,0:0:0:0:
54,59,17439,6,0,P|95:57|141:34,1,67.4999979400635,6|0,3:2|0:0,0:0:0:0:
154,135,17788,2,0,P|195:137|241:160,1,67.4999979400635,2|0,3:2|0:0,0:0:0:0:
287,67,18137,2,0,L|358:68,2,67.4999979400635,2|0|2,3:2|0:0|3:2,0:0:0:0:
416,9,18660,2,0,P|437:45|410:137,1,134.999995880127,2|0,0:0|0:0,0:0:0:0:
321,169,19183,2,0,P|300:205|327:297,1,134.999995880127,2|2,3:2|3:2,0:0:0:0:
409,341,19706,2,0,P|376:379|354:385,2,67.4999979400635,0|2|0,0:0|3:2|0:0,0:0:0:0:
406,238,20230,6,0,B|434:202|434:202|432:80,1,134.999995880127,2|2,3:2|3:2,0:0:0:0:
485,25,20753,2,0,P|410:13|355:45,1,134.999995880127,2|2,0:0|0:0,0:0:0:0:
209,175,21451,1,2,0:0:0:0:
209,175,21625,1,2,3:2:0:0:
29,35,22846,1,2,0:2:0:0:
29,35,22933,1,2,0:2:0:0:
29,35,23020,6,0,L|24:121,1,75,6|0,3:2|0:0,0:0:0:0:
109,171,23369,2,0,L|114:257,1,75,10|0,0:2|0:2,0:0:0:0:
93,349,23718,2,0,P|44:354|15:348,2,75,2|2|10,3:2|3:2|0:2,0:0:0:0:
191,312,24241,2,0,P|272:301|348:316,1,150,6|0,3:2|3:2,0:0:0:0:
426,372,24765,1,10,0:2:0:0:
479,281,24939,1,2,0:2:0:0:
479,281,25026,1,8,0:2:0:0:
479,281,25113,2,0,L|479:195,1,75,2|2,3:2|3:2,0:0:0:0:
416,120,25462,2,0,P|383:155|375:182,1,75,10|2,0:2|0:2,0:0:0:0:
502,78,25811,6,0,B|422:54|430:99|326:64,1,150,6|10,3:2|0:2,0:0:0:0:
257,29,26334,1,0,0:2:0:0:
206,121,26509,2,0,L|210:213,2,75,2|2|10,3:2|3:2|0:2,0:0:0:0:
103,68,27032,2,0,L|96:223,1,150,6|0,3:2|3:2,0:0:0:0:
164,298,27555,1,10,0:2:0:0:
57,321,27730,1,2,0:2:0:0:
57,321,27817,1,8,0:2:0:0:
57,321,27904,2,0,P|5:278|-3:245,1,75,2|2,3:2|3:2,0:0:0:0:
0,166,28253,1,10,0:2:0:0:
96,217,28427,1,10,0:2:0:0:
96,217,28602,6,0,L|182:215,1,75,6|0,3:2|0:0,0:0:0:0:
241,293,28951,2,0,L|327:295,1,75,10|0,0:2|0:2,0:0:0:0:
410,247,29300,2,0,P|419:313|414:333,2,75,2|2|10,3:2|3:2|0:2,0:0:0:0:
323,186,29823,2,0,P|315:110|333:35,1,150,6|0,3:2|3:2,0:0:0:0:
431,6,30346,1,10,0:2:0:0:
500,84,30520,1,0,0:2:0:0:
500,84,30608,1,8,0:2:0:0:
500,84,30695,2,0,L|503:170,1,75,2|2,3:2|3:2,0:0:0:0:
426,232,31044,2,0,P|400:183|400:134,1,75,10|2,0:2|0:2,0:0:0:0:
511,266,31393,6,0,L|348:264,1,150,6|10,3:2|0:2,0:0:0:0:
280,196,31916,1,0,0:0:0:0:
207,272,32090,2,0,P|200:319|205:363,2,75,10|2|2,0:2|3:2|3:2,0:0:0:0:
280,196,32613,2,0,B|299:154|302:122|302:122|285:92|281:39,1,150,14|2,0:2|3:2,0:0:0:0:
189,1,33137,1,10,0:2:0:0:
110,70,33311,1,0,0:2:0:0:
148,168,33486,1,2,3:2:0:0:
252,159,33660,2,0,P|334:147|417:162,1,150,2|8,3:2|0:2,0:0:0:0:
462,227,34183,6,0,L|459:307,1,67.4999979400635,6|0,3:2|0:0,0:0:0:0:
381,348,34532,2,0,P|338:355|304:352,1,67.4999979400635,8|2,0:2|0:2,0:0:0:0:
264,261,34881,1,2,3:2:0:0:
167,297,35055,1,2,3:2:0:0:
111,176,35404,2,0,P|141:257|180:312,1,134.999995880127,10|0,3:2|3:2,0:0:0:0:
252,340,35927,1,10,0:2:0:0:
339,302,36102,2,0,L|428:309,2,67.4999979400635,0|2|2,0:2|3:2|3:2,0:0:0:0:
339,207,36625,1,10,0:2:0:0:
339,207,36800,6,0,B|307:129|361:142|321:45,1,134.999995880127,2|0,0:2|0:2,0:0:0:0:
260,12,37323,2,0,P|192:13|170:20,1,67.4999979400635,10|0,0:2|0:0,0:0:0:0:
133,86,37672,2,0,P|65:85|43:78,2,67.4999979400635,0|2|2,3:2|3:2|0:2,0:0:0:0:
27,20,38195,2,0,L|29:164,1,134.999995880127,10|2,3:2|3:2,0:0:0:0:
102,215,38718,2,0,L|100:305,1,67.4999979400635,10|0,0:2|0:2,0:0:0:0:
49,361,39067,1,2,3:2:0:0:
49,361,39241,1,2,3:2:0:0:
143,365,39416,2,0,P|185:365|219:371,1,67.4999979400635,10|0,0:2|0:2,0:0:0:0:
295,326,39765,6,0,P|315:299|331:269,1,67.4999979400635,2|0,3:2|0:2,0:0:0:0:
355,178,40113,2,0,L|360:91,1,67.4999979400635,10|0,0:2|0:2,0:0:0:0:
432,51,40462,1,2,3:2:0:0:
453,137,40637,1,2,3:2:0:0:
512,252,40986,2,0,P|473:214|454:129,1,134.999995880127,10|2,3:2|3:2,0:0:0:0:
380,77,41509,2,0,L|301:73,1,67.4999979400635,10|0,0:2|0:2,0:0:0:0:
234,127,41858,1,2,3:2:0:0:
234,127,42032,2,0,L|155:131,2,67.4999979400635,2|10|0,3:2|0:2|0:2,0:0:0:0:
318,170,42555,6,0,P|332:247|304:319,1,134.999995880127,2|10,3:2|0:2,0:0:0:0:
234,349,43079,1,0,0:2:0:0:
158,293,43253,2,0,P|112:291|71:301,2,67.4999979400635,2|2|0,3:2|3:2|0:2,0:0:0:0:
42,348,43776,2,0,B|64:306|64:306|61:209,1,134.999995880127,2|0,3:2|3:2,0:0:0:0:
16,134,44300,2,0,P|40:99|47:52,1,67.4999979400635,10|0,0:2|0:2,0:0:0:0:
116,11,44648,1,2,3:2:0:0:
116,11,44823,1,2,3:2:0:0:
187,71,44997,2,0,L|276:69,1,67.4999979400635,10|10,0:2|0:2,0:0:0:0:
342,0,45346,6,0,P|348:61|349:159,1,134.999995880127,6|10,3:2|0:2,0:0:0:0:
322,225,45869,1,0,0:2:0:0:
409,261,46044,2,0,P|450:246|473:222,2,67.4999979400635,2|2|8,3:2|3:2|0:2,0:0:0:0:
322,225,46567,2,0,P|265:176|184:154,1,134.999995880127,2|2,3:2|3:2,0:0:0:0:
115,139,47090,1,10,0:2:0:0:
50,208,47265,2,0,L|45:294,1,67.4999979400635,2|0,0:2|3:2,0:0:0:0:
115,139,47613,2,0,L|111:71,1,67.4999979400635,2|8,3:2|0:2,0:0:0:0:
209,156,47962,6,0,B|247:153|271:171|271:171|296:153|365:154,1,134.999995880127,2|0,0:2|0:0,0:0:0:0:
415,98,48486,2,0,P|434:155|428:187,1,67.4999979400635,10|0,0:2|0:2,0:0:0:0:
378,244,48834,2,0,P|359:301|365:333,2,67.4999979400635,2|2|10,3:2|3:2|0:2,0:0:0:0:
430,350,49358,2,0,L|281:349,1,134.999995880127,2|2,3:2|3:2,0:0:0:0:
210,306,49881,2,0,P|210:236|218:208,1,67.4999979400635,10|0,0:2|0:2,0:0:0:0:
262,160,50230,1,2,3:2:0:0:
219,75,50404,1,2,3:2:0:0:
124,83,50579,2,0,P|54:83|26:91,1,67.4999979400635,10|2,0:2|0:2,0:0:0:0:
12,165,50927,6,0,L|6:253,1,67.4999979400635,2|0,3:2|0:2,0:0:0:0:
111,272,51276,2,0,L|105:184,1,67.4999979400635,10|0,0:2|0:2,0:0:0:0:
29,338,51625,2,0,P|73:373|162:363,1,134.999995880127,2|10,3:2|0:2,0:0:0:0:
216,288,52148,2,0,P|260:253|349:263,1,134.999995880127,2|0,3:2|0:0,0:0:0:0:
414,309,52672,2,0,P|429:261|424:222,1,67.4999979400635,10|0,0:2|0:2,0:0:0:0:
371,168,53020,2,0,P|356:120|361:81,1,67.4999979400635,2|2,3:2|3:2,0:0:0:0:
308,21,53369,1,10,0:2:0:0:
214,37,53544,1,2,0:2:0:0:
200,130,53718,6,0,B|219:196|176:195|206:275,1,134.999995880127,2|10,3:2|0:2,0:0:0:0:
171,359,54241,2,0,P|102:356|92:359,1,67.4999979400635,2|2,0:2|3:2,0:0:0:0:
267,338,54590,2,0,P|336:335|346:338,1,67.4999979400635,0|10,0:0|0:2,0:0:0:0:
201,262,54939,1,0,3:2:0:0:
201,262,55113,2,0,L|198:180,1,67.4999979400635,2|0,0:2|3:2,0:0:0:0:
230,105,55462,2,0,P|259:64|287:47,1,67.4999979400635,10|0,0:2|0:2,0:0:0:0:
365,1,55811,2,0,L|359:143,1,134.999995880127,0|8,3:2|0:3,0:0:0:0:
359,135,56509,5,0,3:0:0:0:
326,218,56683,2,0,L|327:284,1,60,2|2,0:3|3:3,0:0:0:0:
390,341,57032,2,0,B|363:327|332:325|332:325|303:342|263:340,1,120,8|2,0:0|3:3,0:0:0:0:
198,381,57555,1,2,3:3:0:0:
31,360,57904,2,0,P|31:326|21:287,1,60,0|2,3:2|0:3,0:0:0:0:
120,300,58253,2,0,P|120:266|130:227,1,60,2|8,3:3|0:0,0:0:0:0:
39,208,58602,2,0,P|39:174|29:135,1,60,0|2,3:2|0:3,0:0:0:0:
114,147,58951,2,0,L|186:149,1,60,2|2,3:3|0:3,0:0:0:0:
264,148,59300,6,0,P|351:107|374:69,1,120,0|2,3:2|3:3,0:0:0:0:
316,12,59823,2,0,L|244:14,1,60,8|2,0:0|3:3,0:0:0:0:
165,15,60172,2,0,L|93:17,1,60,2|2,0:3|3:3,0:0:0:0:
211,92,60520,2,0,B|196:140|196:140|208:172|205:207|205:207|179:263,1,180,2|2,0:3|3:3,0:0:0:0:
178,353,61218,1,2,3:0:0:0:
267,362,61393,1,8,3:2:0:0:
302,279,61567,1,2,0:3:0:0:
302,279,61654,1,2,3:0:0:0:
302,279,61741,2,0,L|382:282,1,60,2|2,2:3|0:3,0:0:0:0:
451,290,62090,5,4,3:2:0:0:
451,290,62265,2,0,B|471:259|471:259|469:157,2,120,2|8|2,0:3|0:0|0:3,0:0:0:0:
284,357,63311,2,0,P|212:366|151:342,1,120,2|2,0:3|0:3,0:0:0:0:
111,281,63834,2,0,L|107:205,1,60,2|8,3:3|0:2,0:0:0:0:
152,142,64183,2,0,P|189:112|213:99,1,60,0|2,3:2|0:3,0:0:0:0:
59,142,64532,2,0,P|22:112|-2:99,1,60,2|2,3:3|0:3,0:0:0:0:
107,221,64881,6,0,L|111:281,1,60,2|2,3:3|0:3,0:0:0:0:
165,352,65230,1,8,3:2:0:0:
235,295,65404,2,0,P|278:288|311:288,1,60,2|2,0:3|3:3,0:0:0:0:
352,212,65753,2,0,P|368:236|388:259,1,60,8|0,0:0|3:2,0:0:0:0:
509,217,66102,6,0,P|481:273|460:332,1,120,2|2,0:3|0:3,0:0:0:0:
371,357,66625,1,2,3:3:0:0:
301,294,66800,1,2,0:3:0:0:
301,294,66974,2,0,L|225:291,1,60,2|4,3:3|0:3,0:0:0:0:
161,355,67323,1,8,0:3:0:0:
82,289,67497,1,10,0:0:0:0:
132,197,67672,5,6,3:2:0:0:
132,197,67846,2,0,P|122:162|97:132,1,67.4999979400635,2|10,0:0|0:0,0:0:0:0:
9,98,68195,2,0,B|85:120|86:75|166:107,1,134.999995880127,2|6,0:0|0:3,0:0:0:0:
243,101,68718,1,0,3:0:0:0:
321,277,69067,2,0,P|401:282|417:287,1,67.4999979400635,10|0,0:3|0:0,0:0:0:0:
470,233,69416,2,0,P|489:206|505:176,1,67.4999979400635,10|2,0:0|0:0,0:0:0:0:
493,82,69765,2,0,P|479:51|462:22,1,67.4999979400635,2|0,3:0|3:0,0:0:0:0:
392,101,70113,2,0,L|319:103,1,67.4999979400635,10|0,0:0|0:0,0:0:0:0:
218,33,70462,6,0,P|219:97|222:182,2,134.999995880127,2|10|8,3:3|0:3|3:2,0:0:0:0:
125,10,71334,1,10,0:0:0:0:
63,82,71509,1,8,0:0:0:0:
114,160,71683,2,0,P|116:212|89:302,1,134.999995880127,6|0,3:2|3:0,0:0:0:0:
56,378,72206,2,0,L|137:380,1,67.4999979400635,10|0,0:0|0:0,0:0:0:0:
188,310,72555,2,0,L|248:308,3,33.7499989700318,10|8|10|8,0:0|0:0|0:0|0:0,0:0:0:0:
259,338,72904,2,0,L|319:339,3,33.7499989700318,10|8|10|8,0:0|0:0|0:0|0:0,0:0:0:0:
330,309,73253,5,6,3:2:0:0:
413,353,73427,2,0,P|423:302|414:268,1,67.4999979400635,2|10,0:0|0:0,0:0:0:0:
355,218,73776,2,0,P|345:167|354:133,1,67.4999979400635,2|0,0:0|3:0,0:0:0:0:
367,59,74125,2,0,L|299:62,1,67.4999979400635,2|8,3:2|0:0,0:0:0:0:
439,127,74474,2,0,P|463:77|436:-7,1,134.999995880127,2|0,0:0|0:0,0:0:0:0:
299,62,74997,6,0,L|367:59,1,67.4999979400635,10|0,0:2|0:0,0:0:0:0:
347,152,75346,2,0,P|329:179|316:212,1,67.4999979400635,2|0,3:2|0:0,0:0:0:0:
246,148,75695,1,10,0:2:0:0:
199,66,75869,1,0,3:0:0:0:
146,145,76044,6,0,B|119:179|105:212|105:212|90:255|110:296|110:296|176:314|210:226,1,281.250010728836,6|0,3:2|0:0,0:0:0:0:
261,165,77090,2,0,P|321:158|396:170,1,112.500004291535,0|2,0:0|0:0,0:0:0:0:
450,359,78834,6,0,B|480:326|480:326|476:181,1,165.000005035401,4|8,3:2|0:0,0:0:0:0:
452,91,79358,1,0,0:0:0:0:
344,132,79532,2,0,P|269:138|229:132,2,82.5000025177003,2|2|8,3:2|3:2|0:0,0:0:0:0:
221,67,80055,2,0,L|224:238,1,165.000005035401,6|0,3:2|3:2,0:0:0:0:
160,329,80579,1,8,0:0:0:0:
97,231,80753,2,0,L|95:119,2,82.5000025177003,2|2|2,0:0|3:2|3:2,0:0:0:0:
160,329,81276,1,8,0:0:0:0:
223,231,81451,6,0,B|269:222|301:213|301:213|342:214|399:232,1,165.000005035401,6|0,0:0|0:0,0:0:0:0:
498,245,81974,1,10,0:0:0:0:
455,137,82148,1,2,0:0:0:0:
340,121,82323,2,0,P|285:122|246:133,1,82.5000025177003,2|2,3:2|3:2,0:0:0:0:
151,173,82672,1,10,0:0:0:0:
264,290,82846,2,0,P|274:204|257:124,1,165.000005035401,6|0,3:2|3:2,0:0:0:0:
168,55,83369,2,0,L|77:54,1,82.5000025177003,8|0,0:0|0:0,0:0:0:0:
27,174,83718,2,0,L|156:172,1,123.75000377655,2|2,3:2|0:0,0:0:0:0:
192,172,84067,1,8,0:0:0:0:
282,100,84241,1,2,3:2:0:0:
282,100,84329,1,0,3:2:0:0:
282,100,84416,6,0,P|323:130|343:159,1,82.5000025177003,4|0,3:2|0:0,0:0:0:0:
446,210,84765,2,0,P|405:240|385:269,1,82.5000025177003,8|0,0:0|0:0,0:0:0:0:
292,331,85113,2,0,L|207:327,2,82.5000025177003,2|2|8,3:2|3:2|0:0,0:0:0:0:
148,363,85637,2,0,B|182:318|182:318|182:195,1,165.000005035401,6|0,3:2|3:2,0:0:0:0:
127,107,86160,2,0,P|87:140|70:177,1,82.5000025177003,10|0,0:0|0:0,0:0:0:0:
182,209,86509,2,0,P|230:227|271:223,1,82.5000025177003,2|0,3:2|3:2,0:0:0:0:
244,106,86858,2,0,P|235:54|211:21,1,82.5000025177003,8|0,0:0|0:0,0:0:0:0:
352,150,87206,6,0,L|350:279,1,123.75000377655,0|0,3:2|0:0,0:0:0:0:
349,315,87555,1,8,0:0:0:0:
459,350,87730,2,0,L|457:238,1,82.5000025177003,2|0,0:0|3:2,0:0:0:0:
498,158,88079,1,8,0:0:0:0:
429,65,88253,1,8,0:0:0:0:
352,150,88427,6,0,B|297:142|250:156|250:156|179:148,1,165.000005035401,6|0,3:2|3:2,0:0:0:0:
94,80,88951,1,8,0:0:0:0:
73,193,89125,1,8,3:2:0:0:
73,193,89300,2,0,P|111:251|154:263,1,82.5000025177003,2|10,3:0|3:2,0:0:0:0:
226,301,89648,1,8,0:0:0:0:
269,193,89823,1,10,3:2:0:0:
269,193,89910,1,8,3:2:0:0:
269,193,89997,6,0,B|286:153|286:153|284:21,1,165.000005035401,4|8,3:2|0:0,0:0:0:0:
399,16,90520,1,0,0:0:0:0:
458,115,90695,2,0,L|460:205,2,82.5000025177003,2|2|8,3:2|3:2|0:0,0:0:0:0:
512,247,91218,2,0,B|458:224|389:239|389:239|376:256|356:269,1,165.000005035401,2|0,3:2|3:2,0:0:0:0:
284,354,91741,2,0,L|187:351,1,82.5000025177003,8|0,0:0|0:0,0:0:0:0:
89,323,92090,1,2,3:2:0:0:
170,241,92265,2,0,P|161:179|138:143,1,82.5000025177003,2|8,3:2|0:0,0:0:0:0:
46,116,92613,6,0,P|100:60|189:55,1,165.000005035401,2|0,0:0|0:0,0:0:0:0:
288,104,93137,1,8,0:0:0:0:
255,214,93311,2,0,L|251:302,2,82.5000025177003,2|2|2,0:0|3:2|3:2,0:0:0:0:
288,104,93834,1,10,0:2:0:0:
183,53,94009,2,0,B|155:84|120:97|120:97|120:142|81:180,1,165.000005035401,2|0,0:0|0:0,0:0:0:0:
12,264,94532,2,0,P|72:290|107:288,1,82.5000025177003,8|0,0:0|0:0,0:0:0:0:
183,224,94881,2,0,P|263:189|309:191,1,123.75000377655,2|2,3:2|0:0,0:0:0:0:
338,200,95230,1,0,0:0:0:0:
429,279,95404,1,0,2:2:0:0:
429,279,95579,6,0,L|434:110,1,165.000005035401,4|8,0:0|0:0,0:0:0:0:
365,20,96102,1,0,0:0:0:0:
298,113,96276,2,0,L|301:223,1,82.5000025177003,0|0,3:2|3:2,0:0:0:0:
232,288,96625,1,10,0:0:0:0:
120,256,96800,1,2,0:0:0:0:
128,141,96974,2,0,P|120:70|33:81,1,165.000005035401,6|10,3:2|0:0,0:0:0:0:
25,191,97497,2,0,L|22:283,1,82.5000025177003,2|0,0:0|3:2,0:0:0:0:
188,301,97846,2,0,P|152:272|109:252,1,82.5000025177003,2|8,3:2|0:0,0:0:0:0:
237,383,98195,6,0,L|231:211,1,165.000005035401,2|0,0:0|0:0,0:0:0:0:
147,138,98718,1,8,0:0:0:0:
257,101,98893,2,0,P|316:101|363:109,2,82.5000025177003,0|0|0,3:1|3:2|3:2,0:0:0:0:
147,138,99416,1,8,0:0:0:0:
92,239,99590,2,0,L|91:330,2,82.5000025177003,0|2|2,3:2|0:0|3:2,0:0:0:0:
147,138,100113,1,8,0:0:0:0:
60,65,100288,2,0,P|38:105|33:160,1,82.5000025177003,6|0,3:2|0:0,0:0:0:0:
147,138,100637,2,0,P|192:141|241:120,1,82.5000025177003,10|8,0:0|0:0,0:0:0:0:
319,44,100986,1,2,3:2:0:0:
319,44,101073,1,0,3:2:0:0:
319,44,101160,6,0,L|328:218,2,150,6|2|2,0:0|3:2|3:2,0:0:0:0:
226,130,102032,2,0,P|200:168|194:220,1,75,2|2,0:2|3:2,0:0:0:0:
276,329,102381,2,0,P|315:270|325:189,1,150,2|2,0:2|0:2,0:0:0:0:
323,88,102904,1,2,3:2:0:0:
420,142,103079,1,2,0:2:0:0:
420,142,103166,1,2,0:2:0:0:
420,142,103253,2,0,L|428:224,1,75,2|2,3:2|0:2,0:0:0:0:
383,309,103602,2,0,L|375:391,1,75,2|2,3:2|0:2,0:0:0:0:
322,227,103951,6,0,P|253:219|148:243,2,150,2|2|2,3:2|3:2|3:2,0:0:0:0:
427,216,104823,2,0,P|427:162|421:121,1,75,2|2,0:2|3:2,0:0:0:0:
364,54,105172,2,0,L|183:56,1,150,2|2,0:2|0:2,0:0:0:0:
111,32,105695,1,2,3:2:0:0:
70,128,105869,1,2,0:2:0:0:
70,128,105956,1,2,0:2:0:0:
70,128,106044,2,0,L|68:219,1,75,2|2,3:2|0:2,0:0:0:0:
40,304,106393,1,2,3:2:0:0:
146,283,106567,1,8,0:0:0:0:
146,283,106741,6,0,P|176:220|176:199,1,75,6|0,3:2|0:0,0:0:0:0:
268,140,107090,2,0,L|267:292,1,150,10|2,0:0|3:2,0:0:0:0:
337,367,107613,2,0,P|386:372|419:369,1,75,2|10,3:2|0:2,0:0:0:0:
487,296,107962,2,0,B|465:216|511:225|486:136,1,150,2|2,3:2|3:2,0:0:0:0:
430,60,108486,1,10,0:2:0:0:
371,146,108660,1,2,0:2:0:0:
371,146,108747,1,10,0:2:0:0:
371,146,108834,2,0,P|316:147|287:141,1,75,2|0,3:2|3:2,0:0:0:0:
198,106,109183,2,0,P|149:79|127:59,1,75,8|0,0:2|0:2,0:0:0:0:
218,214,109532,6,0,B|238:256|238:256|235:364,1,150,2|10,3:2|0:2,0:0:0:0:
235,359,110230,2,0,P|294:347|325:349,2,75,10|2|2,0:2|3:2|3:2,0:0:0:0:
130,374,110753,1,10,0:2:0:0:
130,374,111974,1,8,0:0:0:0:
130,374,112148,6,0,P|134:324|115:230,1,134.999995880127,2|0,0:2|0:0,0:0:0:0:
52,173,112672,2,0,P|63:130|85:97,1,67.4999979400635,10|0,0:0|0:0,0:0:0:0:
129,33,113020,1,2,3:2:0:0:
217,52,113195,1,2,3:2:0:0:
299,158,113544,2,0,P|264:97|210:48,1,134.999995880127,10|0,0:2|3:0,0:0:0:0:
129,88,114067,1,10,0:0:0:0:
37,66,114241,2,0,L|36:-13,2,67.4999979400635,2|2|2,0:0|3:2|3:2,0:0:0:0:
16,159,114765,1,8,0:0:0:0:
16,159,114939,6,0,B|31:223|-11:213|21:304,1,134.999995880127,2|2,0:0|0:2,0:0:0:0:
97,341,115462,2,0,P|169:348|181:346,1,67.4999979400635,10|2,0:2|0:2,0:0:0:0:
238,290,115811,2,0,P|310:283|322:285,2,67.4999979400635,2|2|2,3:2|3:2|0:2,0:0:0:0:
339,352,116334,2,0,L|338:209,1,134.999995880127,8|2,3:2|3:2,0:0:0:0:
285,137,116858,2,0,P|331:122|366:126,1,67.4999979400635,10|0,0:2|0:2,0:0:0:0:
426,177,117206,1,2,3:2:0:0:
426,177,117381,1,2,3:2:0:0:
497,115,117555,2,0,L|496:43,1,67.4999979400635,10|0,0:2|0:2,0:0:0:0:
404,23,117904,6,0,P|358:8|323:12,1,67.4999979400635,6|2,3:2|0:2,0:0:0:0:
244,14,118253,2,0,P|196:24|168:44,1,67.4999979400635,10|2,0:2|0:2,0:0:0:0:
93,81,118602,1,2,3:2:0:0:
119,172,118776,1,2,3:2:0:0:
10,245,119125,2,0,P|56:229|123:167,1,134.999995880127,10|2,3:2|3:2,0:0:0:0:
138,79,119648,2,0,L|215:77,1,67.4999979400635,10|0,0:2|0:2,0:0:0:0:
282,132,119997,1,2,3:2:0:0:
282,132,120172,2,0,L|359:134,2,67.4999979400635,2|10|0,3:2|0:2|0:2,0:0:0:0:
212,200,120695,6,0,B|197:237|197:237|196:348,1,134.999995880127,2|10,3:2|0:2,0:0:0:0:
279,377,121218,1,0,0:2:0:0:
358,325,121393,2,0,P|410:324|444:330,2,67.4999979400635,2|2|2,3:2|3:2|0:2,0:0:0:0:
470,384,121916,2,0,P|464:330|470:242,1,134.999995880127,2|2,3:2|3:2,0:0:0:0:
467,154,122439,2,0,P|439:125|410:109,1,67.4999979400635,10|0,0:2|0:2,0:0:0:0:
328,75,122788,1,2,3:2:0:0:
328,75,122962,1,0,3:2:0:0:
290,162,123137,2,0,L|288:239,1,67.4999979400635,10|0,0:2|0:2,0:0:0:0:
268,337,123486,6,0,P|241:316|202:296,1,67.4999979400635,6|2,3:2|3:2,0:0:0:0:
117,303,123834,2,0,P|85:315|57:333,1,67.4999979400635,10|2,0:2|0:2,0:0:0:0:
164,216,124183,2,0,L|165:148,2,67.4999979400635,2|2|8,3:2|3:2|0:2,0:0:0:0:
211,300,124706,2,0,B|256:321|256:321|296:325|355:312,1,134.999995880127,2|0,0:2|0:0,0:0:0:0:
435,333,125230,2,0,L|425:256,1,67.4999979400635,10|0,0:2|0:2,0:0:0:0:
358,199,125579,2,0,L|368:122,1,67.4999979400635,2|2,3:2|3:2,0:0:0:0:
429,61,125927,1,10,0:2:0:0:
310,56,126102,6,0,P|233:66|149:56,1,134.999995880127,2|2,0:2|0:2,0:0:0:0:
91,19,126625,2,0,P|81:74|88:105,1,67.4999979400635,10|2,0:2|0:2,0:0:0:0:
151,150,126974,2,0,P|161:205|154:236,2,67.4999979400635,2|2|10,3:2|3:2|0:2,0:0:0:0:
91,255,127497,2,0,B|160:240|160:240|229:254,1,134.999995880127,2|0,0:2|3:2,0:0:0:0:
302,314,128020,2,0,P|267:342|242:352,1,67.4999979400635,10|0,0:2|0:2,0:0:0:0:
160,384,128369,1,2,3:2:0:0:
70,348,128544,1,2,3:2:0:0:
91,255,128718,2,0,P|96:215|92:162,1,67.4999979400635,10|0,0:2|0:2,0:0:0:0:
54,96,129067,6,0,L|129:92,1,67.4999979400635,2|2,3:2|3:2,0:0:0:0:
256,169,129416,2,0,L|181:165,1,67.4999979400635,10|2,0:2|0:2,0:0:0:0:
317,102,129765,2,0,P|302:165|314:251,1,134.999995880127,2|10,3:2|0:2,0:0:0:0:
379,296,130288,2,0,B|414:291|448:298|448:298|465:272|507:260,1,134.999995880127,2|0,0:2|3:2,0:0:0:0:
495,167,130811,2,0,L|496:88,1,67.4999979400635,10|0,0:2|0:2,0:0:0:0:
415,48,131160,2,0,P|384:43|329:51,1,67.4999979400635,2|2,3:2|3:2,0:0:0:0:
264,90,131509,1,10,0:2:0:0:
311,171,131683,1,0,0:2:0:0:
396,129,131858,6,0,P|405:179|361:255,1,134.999995880127,2|10,3:2|0:2,0:0:0:0:
273,265,132381,2,0,L|191:262,1,67.4999979400635,0|2,3:2|3:2,0:0:0:0:
334,346,132730,2,0,L|416:343,1,67.4999979400635,0|8,0:0|0:0,0:0:0:0:
366,250,133079,1,0,0:2:0:0:
366,250,133253,2,0,P|395:213|406:175,1,67.4999979400635,4|4,0:3|0:3,0:0:0:0:
411,93,133602,1,8,0:3:0:0:
329,44,133776,2,0,B|305:37|291:29|291:29|188:31,1,134.999995880127,8|0,0:3|3:2,0:0:0:0:
101,35,134300,1,8,0:2:0:0:
101,35,134648,5,0,3:2:0:0:
151,109,134823,2,0,P|156:159|155:181,1,60,2|2,0:3|3:3,0:0:0:0:
95,236,135172,2,0,B|124:217|152:213|152:213|179:225|224:229,1,120,8|2,0:0|3:3,0:0:0:0:
277,170,135695,1,2,3:0:0:0:
405,308,136044,2,0,P|471:315|487:319,1,60,2|2,3:3|0:3,0:0:0:0:
438,221,136393,2,0,P|419:197|403:172,1,60,2|8,3:3|0:0,0:0:0:0:
344,233,136741,2,0,P|304:286|293:298,1,60,2|2,3:3|0:3,0:0:0:0:
224,312,137090,2,0,L|154:313,1,60,2|2,3:3|0:3,0:0:0:0:
83,352,137439,6,0,P|80:284|119:236,1,120,2|2,3:3|3:3,0:0:0:0:
196,223,137962,2,0,L|266:224,1,60,8|2,0:0|3:3,0:0:0:0:
340,192,138311,1,2,0:3:0:0:
340,101,138486,1,2,3:3:0:0:
255,70,138660,2,0,B|195:70|195:70|148:62|148:62|74:63,1,180,2|2,0:3|3:3,0:0:0:0:
28,139,139358,1,8,0:2:0:0:
87,207,139532,2,0,P|80:252|63:282,2,60,2|2|2,3:3|0:3|3:3,0:0:0:0:
170,171,140055,1,2,0:3:0:0:
162,82,140230,5,2,3:3:0:0:
162,82,140404,2,0,B|196:55|196:55|288:55,2,120,2|8|2,0:3|0:0|0:3,0:0:0:0:
105,253,141451,2,0,B|173:240|165:274|249:251,1,120,2|2,0:3|0:3,0:0:0:0:
313,265,141974,2,0,P|350:303|360:323,1,60,2|8,3:3|0:0,0:0:0:0:
443,302,142323,2,0,P|460:277|483:258,1,60,2|2,3:3|0:3,0:0:0:0:
391,223,142672,2,0,L|388:161,1,60,2|2,3:3|0:3,0:0:0:0:
313,265,143020,6,0,L|251:262,1,60,2|2,3:3|0:3,0:0:0:0:
169,295,143369,1,8,3:2:0:0:
98,238,143544,2,0,P|66:211|41:202,1,60,2|2,0:3|3:3,0:0:0:0:
193,123,143893,2,0,P|153:137|133:154,1,60,2|2,0:3|3:3,0:0:0:0:
299,69,144241,6,0,P|284:151|293:203,1,120,2|2,0:3|0:3,0:0:0:0:
317,273,144765,1,2,3:3:0:0:
406,274,144939,1,2,0:3:0:0:
406,274,145113,2,0,P|419:314|419:347,1,60,2|2,3:3|0:3,0:0:0:0:
503,366,145462,1,6,3:3:0:0:
493,276,145637,1,10,0:3:0:0:
444,194,145811,5,6,3:2:0:0:
444,194,145986,2,0,L|374:191,1,67.4999979400635,2|8,0:0|0:0,0:0:0:0:
312,112,146334,2,0,B|330:136|335:158|335:158|322:199|322:199|325:229|336:257,1,134.999995880127,2|4,0:0|0:3,0:0:0:0:
376,329,146858,1,2,3:0:0:0:
182,364,147206,2,0,P|136:357|109:346,1,67.4999979400635,10|0,3:0|0:0,0:0:0:0:
62,286,147555,2,0,L|56:207,1,67.4999979400635,10|0,0:0|0:0,0:0:0:0:
155,157,147904,2,0,L|149:236,1,67.4999979400635,2|0,3:0|3:0,0:0:0:0:
70,128,148253,2,0,L|64:49,1,67.4999979400635,10|0,0:0|0:0,0:0:0:0:
175,67,148602,6,0,P|223:61|310:79,2,134.999995880127,2|10|10,3:0|0:3|3:2,0:0:0:0:
83,89,149474,1,10,0:0:0:0:
71,182,149648,1,8,0:0:0:0:
157,221,149823,2,0,B|181:252|181:252|179:364,1,134.999995880127,6|0,3:2|3:0,0:0:0:0:
271,317,150346,2,0,P|313:304|358:300,1,67.4999979400635,10|0,0:0|0:0,0:0:0:0:
430,310,150695,2,0,L|428:250,3,33.7499989700318,10|8|10|8,0:0|0:0|0:0|0:0,0:0:0:0:
458,239,151044,2,0,L|459:179,3,33.7499989700318,10|8|10|8,0:0|0:0|0:0|0:0,0:0:0:0:
429,168,151393,5,6,3:2:0:0:
342,130,151567,2,0,P|309:111|286:81,1,67.4999979400635,2|8,3:2|0:2,0:2:0:0:
248,2,151916,2,0,P|225:27|196:43,1,67.4999979400635,2|0,0:0|3:0,0:0:0:0:
102,56,152265,2,0,L|30:53,1,67.4999979400635,2|8,3:2|0:0,0:0:0:0:
156,134,152613,2,0,B|164:179|164:179|151:197|146:219|146:219|158:289,1,134.999995880127,2|0,0:0|0:0,0:0:0:0:
215,347,153137,2,0,P|247:306|255:273,1,75,10|0,0:0|0:0,0:0:0:0:
117,361,153486,2,0,P|65:353|32:363,1,75,2|0,3:2|0:0,0:0:0:0:
3,263,153834,1,10,0:0:0:0:
68,180,154009,1,8,0:0:0:0:
161,233,154183,6,0,B|239:241|290:220|343:182|343:182|321:236|346:291,1,281.250010728836,2|0,3:2|0:0,0:0:0:0:
396,371,155230,2,0,L|272:372,1,112.500004291535,0|2,0:0|0:0,0:0:0:0:
477,46,156974,6,0,B|398:27|398:27|305:51,1,165.000005035401,6|10,3:2|0:2,0:0:0:0:
239,134,157497,1,0,0:2:0:0:
156,52,157672,2,0,P|81:52|50:44,2,82.5000025177003,2|2|10,3:2|3:2|0:2,0:0:0:0:
22,0,158195,2,0,B|41:45|41:45|32:166,1,165.000005035401,6|0,3:2|3:2,0:0:0:0:
67,271,158718,1,8,0:2:0:0:
141,182,158893,2,0,L|238:181,2,82.5000025177003,2|2|2,0:2|3:2|3:2,0:0:0:0:
67,271,159416,1,8,0:2:0:0:
32,160,159590,6,0,B|24:135|17:115|17:115|21:64|57:1,1,165.000005035401,6|0,0:2|0:0,0:0:0:0:
171,3,160113,1,10,0:2:0:0:
220,107,160288,1,2,0:2:0:0:
136,185,160462,2,0,P|131:235|141:277,1,82.5000025177003,2|2,3:2|3:2,0:0:0:0:
215,352,160811,1,10,0:2:0:0:
295,236,160986,2,0,P|202:239|130:270,1,165.000005035401,6|0,3:2|3:2,0:0:0:0:
215,352,161509,2,0,P|276:353|323:374,1,82.5000025177003,8|0,0:2|0:2,0:0:0:0:
396,301,161858,2,0,L|400:158,1,123.75000377655,2|10,3:2|0:2,0:0:0:0:
401,136,162206,1,8,0:0:0:0:
312,60,162381,1,10,0:2:0:0:
312,60,162468,1,8,0:2:0:0:
312,60,162555,6,0,P|281:116|243:143,1,82.5000025177003,6|0,3:2|0:0,0:0:0:0:
192,215,162904,2,0,P|159:160|154:113,1,82.5000025177003,10|0,0:2|0:2,0:0:0:0:
204,37,163253,2,0,L|111:37,2,82.5000025177003,2|2|10,3:2|3:2|0:2,0:0:0:0:
56,11,163776,2,0,B|92:34|92:34|54:93|73:174,1,165.000005035401,6|0,3:2|3:2,0:0:0:0:
74,266,164300,2,0,P|14:253|-9:233,1,82.5000025177003,10|0,0:2|0:2,0:0:0:0:
68,151,164648,2,0,P|109:105|138:95,1,82.5000025177003,2|2,3:2|3:2,0:0:0:0:
170,204,164997,2,0,P|188:262|182:292,1,82.5000025177003,10|0,0:2|0:0,0:0:0:0:
291,345,165346,6,0,L|294:208,1,123.75000377655,6|0,3:2|0:2,0:0:0:0:
295,179,165695,1,10,0:2:0:0:
400,132,165869,2,0,L|402:238,1,82.5000025177003,2|2,0:2|3:2,0:0:0:0:
432,326,166218,1,10,3:2:0:0:
509,240,166393,1,10,0:2:0:0:
401,214,166567,6,0,B|319:194|275:224|275:224|304:250,1,165.000005035401,6|0,3:2|3:2,0:0:0:0:
314,363,167090,1,8,0:2:0:0:
207,317,167265,1,8,0:2:0:0:
207,317,167439,2,0,P|151:303|112:300,1,82.5000025177003,2|10,3:2|3:2,3:0:0:0:
10,295,167788,1,10,0:2:0:0:
73,199,167962,1,10,0:2:0:0:
73,199,168050,1,10,0:2:0:0:
73,199,168137,6,0,B|83:148|83:148|56:87|56:87|66:29,1,165.000005035401,6|10,3:2|0:2,0:0:0:0:
173,2,168660,1,0,0:2:0:0:
260,76,168834,2,0,P|317:79|351:73,2,82.5000025177003,2|2|10,3:2|3:2|0:2,0:0:0:0:
370,11,169358,2,0,B|348:90|405:83|371:186,1,165.000005035401,2|0,3:2|3:2,0:0:0:0:
470,239,169881,2,0,P|488:178|484:143,1,82.5000025177003,8|0,0:2|0:2,0:0:0:0:
442,49,170230,1,2,3:2:0:0:
327,65,170404,2,0,L|228:67,1,82.5000025177003,2|8,3:2|0:2,0:0:0:0:
142,0,170753,6,0,B|131:96|115:108|115:108|65:151,1,165.000005035401,2|0,0:2|0:0,0:0:0:0:
5,234,171276,1,8,0:2:0:0:
104,294,171451,2,0,L|195:296,2,82.5000025177003,2|2|2,0:2|3:2|3:2,0:0:0:0:
5,234,171974,1,10,0:2:0:0:
75,142,172148,2,0,B|94:103|84:48|84:48|156:17,1,165.000005035401,6|0,3:2|0:0,0:0:0:0:
249,77,172672,2,0,P|209:122|177:131,1,82.5000025177003,8|0,0:2|0:2,0:0:0:0:
344,23,173020,2,0,P|429:40|463:74,1,123.75000377655,2|2,3:2|0:2,0:0:0:0:
478,97,173369,1,8,0:0:0:0:
366,139,173544,1,10,0:2:0:0:
366,139,173718,6,0,B|334:177|334:177|334:312,1,165.000005035401,4|8,3:2|0:2,0:0:0:0:
255,377,174241,1,0,0:2:0:0:
162,307,174416,2,0,P|98:300|64:304,1,82.5000025177003,0|0,3:2|3:2,0:0:0:0:
11,207,174765,1,10,0:2:0:0:
104,139,174939,1,2,0:2:0:0:
174,230,175113,2,0,B|221:226|259:214|259:214|294:217|342:231,1,165.000005035401,2|10,3:2|0:2,0:0:0:0:
447,197,175637,2,0,L|450:105,1,82.5000025177003,2|0,0:2|3:2,0:0:0:0:
284,87,175986,2,0,P|320:116|363:136,1,82.5000025177003,2|8,3:2|0:2,0:0:0:0:
232,25,176334,6,0,B|265:113|212:95|242:203,1,165.000005035401,2|0,0:2|0:0,0:0:0:0:
298,310,176858,1,8,0:0:0:0:
162,299,177032,2,0,P|103:303|166:373,1,179.999994506836,0|8,3:0|0:0,0:0:0:0:
235,236,177555,2,0,B|232:203|239:179|239:179|184:132|108:117,1,179.999994506836,4|0,3:2|3:0,0:0:0:0:
250,61,178079,2,0,B|338:70|392:110|392:110|396:178,1,179.999994506836,0|0,3:0|0:0,0:0:0:0:
457,247,178602,2,0,P|506:198|515:162,1,89.9999972534181,8|8,0:0|3:0,0:0:0:0:
338,246,178951,2,0,P|271:228|235:238,1,89.9999972534181,4|8,0:3|0:3,0:0:0:0:
135,285,179300,5,4,3:2:0:0:
503,310,190462,6,0,B|509:221|509:221|482:206|464:184,2,134.999995880127,6|10|2,3:2|0:2|3:2,0:0:0:0:
423,361,191334,1,2,3:2:0:0:
346,304,191509,2,0,P|275:299|262:301,1,67.4999979400635,10|2,0:2|3:2,0:0:0:0:
200,352,191858,2,0,L|125:348,2,67.4999979400635,2|2|10,0:2|3:2|0:2,0:0:0:0:
279,298,192381,2,0,B|295:251|295:251|293:142,1,134.999995880127,2|0,0:2|3:2,0:0:0:0:
331,78,192904,2,0,P|277:71|243:85,1,67.4999979400635,8|0,0:2|0:2,0:0:0:0:
173,96,193253,6,0,P|122:116|100:146,1,67.4999979400635,2|2,3:2|0:2,0:0:0:0:
68,208,193602,2,0,L|64:299,1,67.4999979400635,10|2,0:2|0:2,0:0:0:0:
166,316,193951,2,0,L|162:225,2,67.4999979400635,2|2|10,3:2|3:2|0:2,0:0:0:0:
252,354,194474,2,0,B|300:351|335:320|335:320|408:319,1,134.999995880127,2|2,3:2|3:2,0:0:0:0:
470,341,194997,1,8,0:2:0:0:
446,249,195172,2,0,P|415:229|306:252,1,134.999995880127,2|0,0:2|3:2,0:0:0:0:
234,275,195695,2,0,L|151:272,1,67.4999979400635,8|0,0:2|0:2,0:0:0:0:
83,317,196044,6,0,P|77:240|120:190,1,134.999995880127,6|8,3:2|0:2,0:0:0:0:
176,128,196567,2,0,P|144:108|112:102,1,67.4999979400635,2|0,0:2|3:2,0:0:0:0:
20,98,196916,1,2,3:2:0:0:
13,192,197090,1,10,0:2:0:0:
109,196,197265,2,0,B|138:226|138:226|135:327,1,134.999995880127,2|2,3:2|3:2,0:0:0:0:
217,365,197788,1,10,0:2:0:0:
284,299,197962,2,0,L|287:155,1,134.999995880127,2|0,0:2|3:2,0:0:0:0:
213,103,198486,2,0,P|258:73|286:69,1,67.4999979400635,8|0,0:2|0:2,0:0:0:0:
358,103,198834,6,0,B|390:119|406:142|406:142|437:129|478:137,1,134.999995880127,2|10,3:2|0:2,0:0:0:0:
448,232,199358,1,2,0:2:0:0:
353,228,199532,2,0,B|254:226|254:226|300:258,1,134.999995880127,2|10,3:2|0:2,0:0:0:0:
327,330,200055,1,2,3:2:0:0:
245,377,200230,1,2,0:2:0:0:
195,297,200404,2,0,P|130:297|62:256,1,134.999995880127,0|2,3:2|0:2,0:0:0:0:
16,185,200927,2,0,L|21:105,1,67.4999979400635,12|0,3:2|3:2,0:0:0:0:
113,71,201276,2,0,L|118:151,1,67.4999979400635,12|0,0:2|0:2,0:0:0:0:
218,159,201625,6,0,B|254:137|254:137|305:129|369:137,1,150,6|8,3:2|0:2,0:0:0:0:
460,171,202148,1,2,0:2:0:0:
382,242,202323,2,0,P|376:293|378:322,2,75,0|2|8,3:2|3:2|0:2,0:0:0:0:
453,353,202846,2,0,L|295:352,1,150,2|0,3:2|3:2,0:0:0:0:
229,276,203369,2,0,P|201:234|177:217,1,75,8|0,0:2|0:2,0:0:0:0:
93,162,203718,1,0,3:2:0:0:
184,109,203893,2,0,P|212:84|231:52,2,75,2|10|2,3:2|0:2|0:2,0:0:0:0:
93,162,204416,6,0,B|87:216|47:243|47:243|63:313,1,150,2|10,3:2|0:2,0:0:0:0:
139,362,204939,1,2,0:2:0:0:
214,289,205113,2,0,P|286:284|306:288,2,75,2|2|8,3:2|3:2|0:2,0:0:0:0:
341,329,205637,2,0,B|318:292|318:292|315:178,1,150,2|0,3:2|3:2,0:0:0:0:
363,92,206160,1,8,0:2:0:0:
430,171,206334,2,0,P|487:127|506:120,1,75,0|0,0:2|3:2,0:0:0:0:
363,92,206683,2,0,P|306:48|287:41,2,75,0|8|0,3:2|0:2|0:2,0:0:0:0:
315,185,207206,6,0,L|153:183,1,150,12|8,0:2|0:2,0:0:0:0:
76,241,207730,1,0,3:2:0:0:
29,147,207904,2,0,L|25:65,1,75,8|0,0:2|3:2,0:0:0:0:
103,1,208253,1,8,0:2:0:0:
191,56,208427,1,0,3:2:0:0:
191,56,208602,2,0,P|234:37|278:30,1,75,12|0,0:2|3:2,0:0:0:0:
366,35,208951,2,0,P|402:43|436:59,1,75,8|0,0:2|3:2,0:0:0:0:
500,143,209300,1,8,0:2:0:0:
435,225,209474,2,0,L|439:307,2,75,0|8|0,3:2|0:2|3:2,0:0:0:0:
344,170,209997,6,0,B|346:109|346:109|357:76|357:76|357:16,2,150,12|8|8,0:2|0:2|0:2,0:0:0:0:
256,228,210869,1,0,3:2:0:0:
161,180,211044,2,0,P|112:201|87:226,1,75,8|0,0:2|3:2,0:0:0:0:
256,228,211393,2,0,P|266:172|202:80,2,150,12|8|4,0:2|0:0|0:3,0:0:0:0:
165,295,212265,1,8,0:3:0:0:
267,346,212439,2,0,L|353:344,1,75,8|0,0:0|0:0,0:0:0:0:
431,289,212788,6,0,P|468:254|407:188,1,150,4|0,3:2|3:2,0:0:0:0:
314,171,213311,2,0,P|254:171|233:166,2,75,8|0|0,0:2|0:2|3:2,0:0:0:0:
380,89,213834,2,0,P|410:37|424:21,1,75,8|0,0:2|0:2,0:0:0:0:
282,67,214183,2,0,B|234:63|209:51|209:51|194:76|144:117,1,150,0|0,3:2|0:0,0:0:0:0:
125,205,214706,2,0,L|124:303,2,75,8|0|4,0:2|0:2|0:3,0:0:0:0:
23,174,215230,1,0,0:3:0:0:
51,73,215404,1,8,0:3:0:0:
157,105,215579,6,0,B|226:116|282:196|282:196|360:102|334:68|334:68|281:47|259:32,1,360,4|0,3:2|0:0,0:0:0:0:
63,68,216974,6,0,L|59:154,1,75,8|0,0:0|3:0,0:0:0:0:
147,201,217323,2,0,L|151:287,1,75,8|0,0:0|3:0,0:0:0:0:
219,355,217672,2,0,P|164:381|134:379,1,75,8|0,0:0|3:0,0:0:0:0:
252,255,218020,2,0,P|302:289|315:316,1,75,4|2,0:3|0:0,0:0:0:0:
382,375,218369,5,0,0:0:0:0:
413,27,223951,6,0,B|411:118|361:192|361:192|431:162|525:189,1,337.500012874604,4|0,3:2|0:0,0:0:0:0:
411,302,225346,2,0,B|360:286|322:308|322:308|297:260|244:232|244:232|267:289|239:385,1,337.500012874604,4|0,3:2|0:0,0:0:0:0:
119,246,226741,2,0,B|198:176|112:105|112:105|-1:126|42:227,1,337.500012874604,4|0,3:2|0:0,0:0:0:0:
69,377,228137,1,2,0:0:0:0:
302,340,228660,1,2,0:3:0:0:
302,340,228747,1,2,0:3:0:0:
302,340,228834,2,0,L|312:266,1,60,2|2,0:3|0:3,0:0:0:0:
249,222,229183,2,0,L|239:148,1,60,8|0,0:3|0:0,0:0:0:0:
301,90,229532,6,0,P|340:111|443:110,1,134.999995880127,6|0,3:2|3:0,0:0:0:0:
357,264,230230,2,0,P|319:287|268:376,1,134.999995880127,8|2,0:0|3:2,0:0:0:0:
177,368,230753,1,0,0:0:0:0:
174,273,230927,2,0,L|178:131,1,134.999995880127,2|0,3:2|0:0,0:0:0:0:
48,27,231625,2,0,B|57:69|57:69|53:177,1,134.999995880127,8|2,0:0|3:2,0:0:0:0:
32,253,232148,1,0,0:0:0:0:
97,321,232323,6,0,P|138:314|236:321,1,134.999995880127,2|2,3:2|3:2,0:0:0:0:
314,364,232846,1,0,0:0:0:0:
388,305,233020,2,0,P|434:283|465:276,1,67.4999979400635,10|0,0:2|0:0,0:0:0:0:
362,212,233369,2,0,P|316:190|285:183,1,67.4999979400635,2|2,3:2|0:2,0:0:0:0:
426,136,233718,2,0,P|437:98|496:22,1,134.999995880127,0|0,3:0|0:0,0:0:0:0:
328,50,234416,2,0,L|182:47,1,134.999995880127,8|0,0:0|3:0,0:0:0:0:
26,136,235113,5,6,3:2:0:0:
107,185,235288,2,0,L|195:183,2,67.4999979400635,0|0|0,0:0|3:0|0:0,0:0:0:0:
58,266,235811,2,0,P|48:317|51:350,1,67.4999979400635,10|0,0:2|0:0,0:0:0:0:
194,353,236160,2,0,P|154:318|124:304,1,67.4999979400635,0|0,3:0|0:0,0:0:0:0:
234,269,236509,2,0,B|301:262|301:262|390:272,2,134.999995880127,10|10|8,0:2|0:2|0:0,0:0:0:0:
141,311,237381,2,0,L|65:306,1,67.4999979400635,8|8,0:0|0:0,0:0:0:0:
16,196,237730,1,8,0:0:0:0:
57,79,237904,6,0,B|142:49|143:102|236:72,1,165.000005035401,6|10,0:0|0:2,0:0:0:0:
304,167,238427,1,0,0:0:0:0:
212,251,238602,2,0,L|209:358,2,82.5000025177003,2|2|10,3:2|3:2|0:2,0:0:0:0:
128,377,239125,2,0,P|218:362|299:384,1,165.000005035401,6|0,3:2|3:2,0:0:0:0:
403,364,239648,1,10,0:2:0:0:
330,273,239823,2,0,P|327:184|328:178,2,82.5000025177003,0|2|2,0:2|3:2|3:2,0:0:0:0:
403,364,240346,1,10,0:2:0:0:
288,379,240520,6,0,B|249:373|218:346|218:346|181:340|99:368,1,165.000005035401,6|0,0:2|0:0,0:0:0:0:
18,337,241044,1,10,0:2:0:0:
7,222,241218,1,2,0:2:0:0:
111,172,241393,2,0,P|107:123|113:81,1,82.5000025177003,2|2,3:2|3:2,0:0:0:0:
220,10,241741,1,10,0:2:0:0:
268,129,241916,2,0,P|199:96|99:93,1,165.000005035401,6|0,3:2|3:2,0:0:0:0:
26,169,242439,2,0,L|30:268,1,82.5000025177003,10|0,0:2|0:2,0:0:0:0:
134,320,242788,2,0,L|139:175,1,123.75000377655,10|10,3:2|0:2,0:0:0:0:
141,154,243137,1,8,0:0:0:0:
210,62,243311,1,10,0:2:0:0:
210,62,243486,6,0,P|261:56|310:17,1,82.5000025177003,6|0,3:2|0:0,0:0:0:0:
396,3,243834,2,0,P|426:44|484:67,1,82.5000025177003,10|0,0:2|0:2,0:0:0:0:
374,119,244183,2,0,L|372:213,2,82.5000025177003,2|2|10,3:2|3:2|0:2,0:0:0:0:
445,252,244706,2,0,P|377:289|299:252,1,165.000005035401,2|0,3:2|3:0,0:0:0:0:
244,154,245230,2,0,P|204:187|187:224,1,82.5000025177003,10|0,0:2|0:2,0:0:0:0:
361,153,245579,2,0,P|352:101|328:68,1,82.5000025177003,2|0,3:2|3:2,0:0:0:0:
302,255,245927,2,0,P|350:273|391:269,1,82.5000025177003,10|0,0:2|0:0,0:0:0:0:
469,197,246276,6,0,L|469:70,1,123.75000377655,6|0,3:2|0:2,0:0:0:0:
468,31,246625,1,10,0:2:0:0:
353,13,246800,2,0,P|270:19|242:27,1,82.5000025177003,0|2,0:2|3:2,0:0:0:0:
169,72,247148,1,2,3:2:0:0:
222,174,247323,1,10,0:2:0:0:
325,123,247497,2,0,B|313:178|313:178|318:198|332:219|332:219|311:295,1,165.000005035401,6|0,3:2|3:2,0:0:0:0:
233,361,248020,1,10,0:2:0:0:
151,278,248195,1,0,0:2:0:0:
151,278,248369,2,0,L|56:274,1,82.5000025177003,8|2,0:2|3:2,0:0:0:0:
2,179,248718,1,10,0:2:0:0:
105,126,248893,1,8,0:2:0:0:
105,126,248980,1,8,0:2:0:0:
105,126,249067,6,0,B|168:112|201:76|201:76|233:73|281:78,1,165.000005035401,6|10,3:2|0:2,0:0:0:0:
367,107,249590,1,0,0:2:0:0:
286,190,249765,2,0,P|281:233|286:293,2,82.5000025177003,2|2|10,3:2|3:2|0:2,0:0:0:0:
243,335,250288,2,0,B|286:306|286:306|410:306,1,165.000005035401,2|2,0:2|3:2,0:0:0:0:
511,335,250811,2,0,L|511:244,1,82.5000025177003,10|0,0:2|0:2,0:0:0:0:
413,189,251160,1,2,3:2:0:0:
512,133,251334,2,0,P|470:100|443:65,1,82.5000025177003,2|10,3:2|0:2,0:0:0:0:
353,15,251683,6,0,B|263:-4|287:35|170:14,1,165.000005035401,2|0,0:2|0:0,0:0:0:0:
90,77,252206,2,0,L|89:174,1,82.5000025177003,10|2,0:2|0:2,0:0:0:0:
24,256,252555,2,0,P|107:272|182:221,1,165.000005035401,2|10,3:2|0:2,0:0:0:0:
241,138,253079,1,2,0:2:0:0:
241,138,253253,2,0,P|324:122|399:173,1,165.000005035401,2|10,3:2|0:2,0:0:0:0:
426,271,253776,1,0,0:2:0:0:
313,299,253951,2,0,P|264:313|229:335,1,82.5000025177003,2|2,3:2|3:2,0:0:0:0:
130,375,254300,1,10,0:2:0:0:
47,294,254474,1,2,0:2:0:0:
47,294,254561,1,8,0:2:0:0:
47,294,254648,6,0,B|18:261|18:261|20:124,1,165.000005035401,6|10,3:2|0:2,0:0:0:0:
42,25,255172,1,0,0:2:0:0:
136,90,255346,2,0,P|148:138|140:178,1,82.5000025177003,2|2,3:2|3:2,0:0:0:0:
145,285,255695,1,10,0:2:0:0:
252,326,255869,1,2,0:2:0:0:
340,250,256044,2,0,B|355:226|356:204|356:204|411:175|475:180,1,165.000005035401,2|10,3:2|0:2,0:0:0:0:
460,63,256567,2,0,L|368:62,1,82.5000025177003,2|0,0:2|3:2,0:0:0:0:
232,99,256916,2,0,P|261:63|281:20,1,82.5000025177003,2|8,3:2|0:2,0:0:0:0:
194,164,257265,6,0,L|195:-6,1,165.000005035401,2|0,0:2|0:0,0:0:0:0:
83,81,257788,2,0,P|54:117|34:160,1,82.5000025177003,8|0,0:2|0:2,0:0:0:0:
194,164,258137,2,0,P|220:195|239:232,1,82.5000025177003,2|0,3:2|0:0,0:0:0:0:
104,272,258486,1,10,0:2:0:0:
201,342,258660,1,8,0:2:0:0:
201,342,258747,1,8,0:2:0:0:
201,342,258834,6,0,L|291:339,1,82.5000025177003,4|8,3:3|0:3,0:0:0:0:
104,272,259183,2,0,L|14:269,1,82.5000025177003,12|8,0:3|0:3,0:0:0:0:
209,221,259532,1,8,0:2:0:0:
122,152,259706,1,0,0:0:0:0:
226,102,259881,2,0,P|276:102|315:110,1,82.5000025177003,8|0,0:0|0:0,0:0:0:0:
408,196,260230,6,0,L|412:26,2,165.000005035401,4|0|0,3:2|3:0|3:0,0:0:0:0:
326,278,261102,1,0,0:0:0:0:
436,311,261276,2,0,P|488:282|507:253,1,82.5000025177003,0|0,3:0|0:0,0:0:0:0:
326,278,261625,2,0,B|254:279|254:279|224:269|224:269|149:269,2,165.000005035401,0|0|0,3:0|3:0|3:0,0:0:0:0:
408,196,262497,2,0,L|409:93,1,82.5000025177003,0|0,0:0|3:0,0:0:0:0:
350,13,262846,1,0,0:0:0:0:
236,31,263020,5,8,3:0:0:0:
256,192,263108,12,0,265288,0:0:0:0:
472,357,265637,5,2,0:0:0:0:
472,357,265724,1,2,0:0:0:0:
472,357,265811,6,0,L|478:268,1,75,6|0,3:2|0:0,0:0:0:0:
418,194,266160,2,0,P|381:146|370:109,1,75,10|0,0:2|0:2,0:0:0:0:
331,37,266509,2,0,P|391:28|428:37,2,75,2|2|10,3:2|3:2|0:2,0:0:0:0:
266,120,267032,2,0,P|205:130|114:110,1,150,6|0,3:2|3:2,0:0:0:0:
30,56,267555,1,10,0:2:0:0:
2,159,267730,1,2,0:2:0:0:
2,159,267817,1,8,0:2:0:0:
2,159,267904,2,0,L|-2:237,1,75,0|2,3:2|3:2,0:0:0:0:
99,287,268253,2,0,L|95:209,1,75,10|2,0:2|0:2,0:0:0:0:
29,355,268602,6,0,B|57:343|82:331|82:331|121:326|188:329,1,150,6|10,3:2|0:2,0:0:0:0:
265,380,269125,1,0,0:2:0:0:
357,329,269300,2,0,L|449:333,2,75,2|2|10,3:2|3:2|0:2,0:0:0:0:
327,227,269823,2,0,L|482:220,1,150,6|0,3:2|3:2,0:0:0:0:
369,134,270346,1,10,0:2:0:0:
242,175,270520,1,2,0:2:0:0:
242,175,270608,1,8,0:2:0:0:
242,175,270695,2,0,P|227:224|236:277,1,75,2|2,3:2|3:2,0:0:0:0:
223,352,271044,1,10,0:2:0:0:
118,351,271218,1,8,0:2:0:0:
118,351,271393,6,0,P|69:308|39:297,1,75,6|0,3:2|0:0,0:0:0:0:
69,199,271741,2,0,P|118:156|148:145,1,75,10|0,0:2|0:2,0:0:0:0:
152,252,272090,2,0,L|227:256,2,75,2|2|10,3:2|3:2|0:2,0:0:0:0:
275,310,272613,2,0,B|253:282|257:257|257:257|297:217|276:151,1,150,6|0,3:2|3:2,0:0:0:0:
257,68,273137,1,10,0:2:0:0:
370,45,273311,1,0,0:2:0:0:
370,45,273398,1,8,0:2:0:0:
370,45,273486,2,0,P|420:78|447:82,1,75,2|2,3:2|3:2,0:0:0:0:
384,228,273834,2,0,P|387:168|377:142,1,75,10|2,0:2|0:2,0:0:0:0:
472,261,274183,6,0,L|290:257,1,150,6|10,3:2|0:2,0:0:0:0:
223,296,274706,1,0,0:0:0:0:
131,243,274881,2,0,P|73:237|28:248,2,75,10|2|10,0:2|3:2|0:2,0:0:0:0:
223,296,275404,2,0,B|255:325|255:358|255:358|296:350|344:368,1,150,4|8,3:2|0:2,0:0:0:0:
436,373,275927,1,8,0:2:0:0:
470,273,276102,1,2,0:2:0:0:
470,273,276189,1,8,0:2:0:0:
470,273,276276,6,0,P|463:227|448:194,1,60,2|2,0:2|0:2,0:0:0:0:
425,137,276625,2,0,P|395:100|366:79,1,60,2|2,0:2|0:2,0:0:0:0:
314,46,276974,5,2,3:0:0:0:
256,192,277061,12,2,282381,0:0:0:0:
