osu file format v14

[General]
AudioFilename: audio.mp3
AudioLeadIn: 0
PreviewTime: 88871
Countdown: 0
SampleSet: Soft
StackLeniency: 0.7
Mode: 0
LetterboxInBreaks: 0
WidescreenStoryboard: 1

[Editor]
Bookmarks: 118172,118483,118793,119104,119415,119726,120037,120348,120659,120970,121280,121591,121902,122213,122524,122835,123146,123457,123768,124078,124389,124700,125011,125322,125633,125944,126255,126565,126876,127187,127498,127809,128120,128431,128742,129053,129363,129674,129985,130296,130607,130918,131229,131540,131850,132161,132472,132783,133094,133405,133716,134027,134337,134648,134959,135270,135581,259933,284648
DistanceSpacing: 0.3
BeatDivisor: 4
GridSize: 8
TimelineZoom: 1.7

[Metadata]
Title:World Lampshade
TitleUnicode:ワールド・ランプシェード
Artist:Himeringo
ArtistUnicode:ひめりんご
Creator:Nevo
Version:Shizuwari's Insane
Source:
Tags:kowari Ayesha Altugle shizuku- shikibe mayu japanese rock jrock utaite cover buzzg Kazato Asa J-Rock
BeatmapID:3544589
BeatmapSetID:1062817

[Difficulty]
HPDrainRate:6
CircleSize:3.8
OverallDifficulty:8
ApproachRate:9
SliderMultiplier:1.75
SliderTickRate:1

[Events]
//Background and Video events
0,0,"a.jpg",0,0
Video,0,"himer.avi"
//Break Periods
2,118372,134670
2,215367,221095
//Storyboard Layer 0 (Background)
//Storyboard Layer 1 (Fail)
//Storyboard Layer 2 (Pass)
//Storyboard Layer 3 (Foreground)
//Storyboard Layer 4 (Overlay)
//Storyboard Sound Samples

[TimingPoints]
1281,310.880829015544,4,2,1,70,1,0
21177,-111.111111111111,4,2,1,60,0,0
41073,-99.9999999999999,4,2,1,70,0,0
51021,-111.111111111111,4,2,1,60,0,0
90814,-90.9090909090909,4,2,1,90,0,1
115685,-100,4,2,1,70,0,0
135581,-142.857142857143,4,2,1,60,0,0
139312,-111.111111111111,4,2,1,60,0,0
175374,-100,4,2,1,70,0,0
210192,-125,4,2,1,60,0,0
215167,-111.111111111111,4,2,1,50,0,0
221695,-111.111111111111,4,2,1,55,0,0
222628,-111.111111111111,4,2,1,70,0,0
222939,-111.111111111111,4,2,1,5,0,0
223249,-111.111111111111,4,2,1,70,0,0
223560,-111.111111111111,4,2,1,5,0,0
223871,-111.111111111111,4,2,1,70,0,0
224182,-111.111111111111,4,2,1,5,0,0
224493,-111.111111111111,4,2,1,70,0,0
224804,-111.111111111111,4,2,1,5,0,0
225115,-200,4,2,1,60,0,0
225426,-111.111111111111,4,2,1,5,0,0
225736,-111.111111111111,4,2,1,60,0,0
226047,-111.111111111111,4,2,1,5,0,0
226358,-111.111111111111,4,2,1,60,0,0
226669,-111.111111111111,4,2,1,5,0,0
226980,-166.666666666666,4,2,1,60,0,0
232887,-111.111111111111,4,2,1,40,0,0
235063,-90.0900900900901,4,2,1,90,0,1
248664,-90.0900900900901,4,2,1,5,0,1
248742,-90.0900900900901,4,2,1,90,0,1
248975,-90.0900900900901,4,2,1,5,0,1
249053,-90.0900900900901,4,2,1,90,0,1
249286,-90.0900900900901,4,2,1,5,0,1
249364,-90.0900900900901,4,2,1,90,0,1
249597,-90.0900900900901,4,2,1,5,0,1
249675,-90.0900900900901,4,2,1,90,0,1
259933,-90.9090909090909,4,2,1,75,0,0
274856,-90.9090909090909,4,2,1,70,0,0
275944,310.880829015544,4,2,1,70,1,0

[Colours]
Combo1 : 191,149,128
Combo2 : 3,100,180
Combo3 : 244,192,70
Combo4 : 128,128,192

[HitObjects]
264,105,1281,6,0,B|357:49|444:124,1,175,6|8,3:2|0:2,0:0:0:0:
271,248,1747,2,0,B|185:238|93:219,1,175,2|0,0:2|3:2,0:0:0:0:
359,183,2213,2,0,P|367:251|368:288,1,87.5,8|0,0:2|0:0,0:0:0:0:
288,384,2524,5,0,3:2:0:0:
232,261,2679,1,2,3:2:0:0:
367,269,2835,2,0,P|423:276|474:280,1,87.5,8|0,0:2|0:0,0:0:0:0:
310,123,3146,2,0,P|294:169|290:216,1,87.5,2|0,3:2|3:2,0:0:0:0:
455,146,3457,2,0,P|449:102|434:61,1,87.5,10|0,0:2|0:0,0:0:0:0:
319,11,3768,5,2,3:2:0:0:
201,89,3923,2,0,P|145:84|108:79,1,87.5,0|8,3:2|0:2,0:0:0:0:
282,221,4234,2,0,B|348:147|293:36,1,175,2|0,0:2|3:2,0:0:0:0:
170,202,4700,2,0,P|179:261|188:305,1,87.5,10|0,0:2|0:0,0:0:0:0:
71,157,5011,6,0,P|73:262|92:337,2,175,0|10|0,3:2|0:2|3:2,0:0:0:0:
163,27,5788,1,0,3:2:0:0:
7,64,5944,1,10,0:2:0:0:
163,27,6099,1,0,0:0:0:0:
255,89,6255,6,0,L|362:74,1,87.5,6|2,3:2|3:2,0:0:0:0:
184,199,6565,2,0,L|77:214,1,87.5,10|2,0:2|0:2,0:0:0:0:
271,320,6876,2,0,P|337:318|429:253,1,175,2|10,3:2|0:2,0:0:0:0:
465,158,7343,5,8,0:0:0:0:
465,158,7420,1,8,0:2:0:0:
465,158,7498,1,2,3:2:0:0:
373,118,7654,2,0,P|368:74|368:30,1,87.5,0|8,3:2|0:2,0:0:0:0:
334,229,7964,1,2,0:2:0:0:
222,184,8120,2,0,P|174:195|133:209,1,87.5,0|0,3:2|3:2,0:0:0:0:
311,362,8431,2,0,P|329:255|332:175,1,175,10|2,0:2|3:2,0:0:0:0:
185,83,8897,5,0,3:2:0:0:
94,109,9053,2,0,P|47:100|5:85,1,87.5,8|2,0:2|0:2,0:0:0:0:
218,17,9363,2,0,P|198:76|191:106,1,87.5,0|0,3:2|3:2,0:0:0:0:
41,228,9674,2,0,P|99:219|176:303,1,175,10|0,0:2|3:2,0:0:0:0:
257,366,10141,6,0,P|265:302|278:258,1,87.5,10|0,0:2|3:2,0:0:0:0:
321,33,10451,2,0,P|313:97|300:141,1,87.5,10|0,0:2|3:2,0:0:0:0:
459,208,10762,1,8,0:2:0:0:
459,208,10840,1,8,0:2:0:0:
459,208,10918,1,8,0:2:0:0:
459,208,10996,1,8,0:2:0:0:
459,208,11073,1,8,0:2:0:0:
459,208,11151,1,8,0:2:0:0:
459,208,11229,6,0,B|371:192|374:234|271:210,1,175,6|8,3:2|0:2,0:0:0:0:
138,129,11695,2,0,P|195:117|242:98,1,87.5,2|0,0:2|3:2,0:0:0:0:
138,246,12006,1,0,3:2:0:0:
26,163,12161,2,0,P|34:107|34:67,1,87.5,8|0,0:2|0:0,0:0:0:0:
98,257,12472,6,0,P|155:270|193:286,1,87.5,0|2,3:2|3:2,0:0:0:0:
303,97,12783,2,0,P|237:170|140:147,1,175,8|2,0:2|3:2,0:0:0:0:
130,60,13249,1,0,3:2:0:0:
211,6,13405,2,0,P|284:11|312:19,1,87.5,10|0,0:2|0:0,0:0:0:0:
377,132,13716,5,2,3:2:0:0:
459,79,13871,2,0,P|470:18|470:-18,1,87.5,0|8,3:2|0:2,0:0:0:0:
496,190,14182,2,0,P|443:170|398:162,1,87.5,2|0,0:2|3:2,0:0:0:0:
248,217,14493,1,0,3:2:0:0:
274,318,14648,2,0,P|351:333|431:257,1,175,10|0,0:2|3:2,0:0:0:0:
367,164,15115,5,2,3:2:0:0:
229,228,15270,2,0,P|166:216|133:202,1,87.5,10|0,0:2|0:0,0:0:0:0:
321,364,15582,2,0,P|384:376|417:390,1,87.5,0|0,3:2|3:2,0:0:0:0:
193,324,15892,2,0,P|115:309|55:286,1,131.25,10|0,0:2|0:0,0:0:0:0:
26,260,16203,5,6,3:2:0:0:
146,171,16358,1,2,3:2:0:0:
32,76,16514,1,10,0:2:0:0:
146,171,16669,2,0,P|232:162|281:77,1,175,2|0,0:2|3:2,0:0:0:0:
367,0,17135,2,0,P|378:55|386:91,1,87.5,10|0,0:2|0:0,0:0:0:0:
510,185,17446,6,0,B|431:161|422:215|314:176,1,175,2|8,3:2|0:2,0:0:0:0:
473,276,17913,2,0,P|455:332|331:345,1,175,2|0,0:2|3:2,0:0:0:0:
248,254,18379,2,0,P|304:269|356:270,1,87.5,10|8,0:2|0:2,0:0:0:0:
222,167,18690,5,2,3:2:0:0:
146,242,18845,1,8,0:2:0:0:
197,339,19001,1,8,0:2:0:0:
115,154,19156,5,8,0:2:0:0:
115,154,19235,1,8,0:2:0:0:
115,154,19312,1,10,0:2:0:0:
248,254,19467,1,8,0:2:0:0:
100,327,19622,1,10,0:2:0:0:
48,246,19778,6,0,P|43:199|43:152,1,87.5,6|0,3:2|0:0,0:0:0:0:
146,43,20089,2,0,P|151:90|151:137,1,87.5,0|8,3:2|0:2,0:0:0:0:
263,255,20400,2,0,P|248:182|284:69,1,175,2|0,3:2|3:2,0:0:0:0:
156,227,20866,2,0,P|99:233|47:229,1,87.5,8|0,0:2|3:2,0:0:0:0:
277,142,21177,6,0,P|350:141|417:223,1,157.499995193482,6|8,3:2|0:2,0:0:0:0:
512,292,21643,2,0,P|448:294|348:326,1,157.499995193482,2|0,3:2|0:0,0:0:0:0:
278,370,22110,1,10,0:2:0:0:
260,359,22731,1,8,0:2:0:0:
237,350,23353,1,10,0:2:0:0:
231,200,23664,6,0,P|166:205|84:146,1,157.499995193482,6|8,3:2|0:2,0:0:0:0:
245,107,24130,2,0,P|301:116|382:50,1,157.499995193482,0|0,3:2|0:0,0:0:0:0:
223,14,24597,1,8,0:2:0:0:
223,14,25218,1,10,0:2:0:0:
223,14,25840,1,10,0:2:0:0:
163,102,26151,6,0,P|170:166|179:273,1,157.499995193482,2|8,3:2|0:2,0:0:0:0:
89,222,26617,2,0,P|42:232|7:237,1,78.7499975967408,2|0,3:2|0:0,0:0:0:0:
112,321,26928,1,2,0:2:0:0:
112,321,27084,2,0,P|174:304|247:366,1,157.499995193482,10|0,0:2|0:0,0:0:0:0:
266,357,27706,1,10,0:2:0:0:
284,355,28328,1,10,0:2:0:0:
383,364,28638,6,0,P|390:285|403:205,1,157.499995193482,2|10,3:2|0:2,0:0:0:0:
505,159,29104,2,0,P|498:238|485:318,1,157.499995193482,0|0,3:2|0:0,0:0:0:0:
324,220,29571,2,0,P|378:210|413:206,1,78.7499975967408,10|0,0:2|0:0,0:0:0:0:
504,112,29882,2,0,P|450:122|415:126,1,78.7499975967408,2|0,0:2|0:0,0:0:0:0:
301,60,30192,2,0,P|367:51|398:51,1,78.7499975967408,10|0,0:2|0:0,0:0:0:0:
512,126,30503,2,0,P|458:136|423:140,1,78.7499975967408,2|0,0:2|0:0,0:0:0:0:
324,229,30815,2,0,P|378:219|413:215,1,78.7499975967408,10|0,0:2|0:0,0:0:0:0:
248,144,31125,6,0,P|206:137|117:227,1,157.499995193482,6|8,3:2|0:2,0:0:0:0:
51,299,31591,2,0,P|43:234|25:130,1,157.499995193482,0|0,3:2|0:0,0:0:0:0:
3,57,32058,1,10,0:2:0:0:
1,46,32679,1,8,0:2:0:0:
0,36,33301,1,8,0:2:0:0:
139,97,33612,6,0,P|189:87|237:73,1,78.7499975967408,0|0,3:2|0:0,0:0:0:0:
316,71,33923,2,0,P|299:119|287:167,1,78.7499975967408,10|0,0:2|3:2,0:0:0:0:
257,245,34234,2,0,P|223:206|187:172,1,78.7499975967408,2|0,0:2|0:0,0:0:0:0:
128,85,34545,2,0,P|178:75|226:61,1,78.7499975967408,10|0,0:2|0:0,0:0:0:0:
350,35,34856,6,0,P|330:125|320:198,1,157.499995193482,2|8,0:2|0:2,0:0:0:0:
362,272,35322,1,0,0:0:0:0:
456,238,35477,2,0,P|469:192|475:148,1,78.7499975967408,2|0,0:2|0:0,0:0:0:0:
414,92,35788,2,0,P|401:138|395:182,1,78.7499975967408,10|0,0:2|0:0,0:0:0:0:
512,295,36099,6,0,P|441:286|363:346,1,157.499995193482,0|10,3:2|0:2,0:0:0:0:
276,362,36565,2,0,P|205:342|170:327,1,78.7499975967408,2|0,3:2|0:0,0:0:0:0:
121,254,36876,2,0,P|169:240|234:232,1,78.7499975967408,2|8,0:2|0:2,0:0:0:0:
306,161,37187,6,0,P|291:225|286:253,1,78.7499975967408,2|0,0:2|0:0,0:0:0:0:
219,152,37498,2,0,P|234:88|239:60,1,78.7499975967408,2|8,0:2|0:2,0:0:0:0:
104,85,37809,2,0,P|89:21|84:-7,1,78.7499975967408,2|0,0:2|0:0,0:0:0:0:
17,94,38120,2,0,P|32:158|37:186,1,78.7499975967408,2|8,0:2|0:2,0:0:0:0:
13,261,38431,1,2,0:0:0:0:
141,177,38586,5,10,0:2:0:0:
141,177,38742,2,0,P|133:290|125:347,2,157.499995193482,2|2|2,3:2|3:2|3:2,0:0:0:0:
124,19,39519,1,10,0:2:0:0:
125,19,39830,1,0,0:0:0:0:
125,19,40141,1,2,0:2:0:0:
125,19,40451,1,2,0:2:0:0:
125,19,40762,1,2,0:2:0:0:
234,135,41073,6,0,P|341:132|393:47,1,175,6|8,3:2|0:2,0:0:0:0:
481,240,41540,2,0,P|434:218|391:210,1,87.5,2|8,3:2|0:2,0:0:0:0:
309,263,41850,1,0,3:2:0:0:
399,309,42006,1,8,0:2:0:0:
257,319,42161,6,0,P|321:356|435:349,1,175,0|2,3:2|3:2,0:0:0:0:
272,210,42628,2,0,P|224:218|185:228,1,87.5,8|0,0:2|0:0,0:0:0:0:
76,356,42939,1,8,0:2:0:0:
76,356,43016,1,8,0:2:0:0:
76,356,43094,1,8,0:2:0:0:
76,356,43172,1,8,0:2:0:0:
76,356,43249,2,0,P|128:346|174:335,1,87.5,8|0,0:2|0:0,0:0:0:0:
203,141,43560,5,6,3:2:0:0:
109,123,43716,2,0,P|96:67|97:18,1,87.5,0|8,3:2|0:2,0:0:0:0:
2,172,44027,2,0,P|67:158|138:266,1,175,2|0,3:2|3:2,0:0:0:0:
207,75,44493,1,10,0:2:0:0:
207,75,44648,2,0,P|254:64|304:47,1,87.5,6|0,3:2|0:0,0:0:0:0:
243,188,44959,5,0,3:2:0:0:
243,188,45115,2,0,P|235:249|227:284,1,87.5,10|0,0:2|3:2,0:0:0:0:
392,177,45426,2,0,P|337:159|301:135,1,87.5,10|0,0:2|3:2,0:0:0:0:
140,320,45736,5,10,0:2:0:0:
140,320,45814,1,8,0:0:0:0:
140,320,45892,1,8,0:2:0:0:
140,320,45970,1,8,0:2:0:0:
140,320,46047,2,0,B|231:298|231:338|328:314,1,175,6|10,3:2|0:2,0:0:0:0:
404,194,46514,1,2,3:2:0:0:
472,261,46669,2,0,P|484:317|487:363,1,87.5,10|2,0:2|3:2,0:0:0:0:
294,221,46980,5,10,0:2:0:0:
394,159,47135,2,0,P|425:99|392:-9,1,175,2|2,3:2|3:2,0:0:0:0:
292,121,47602,2,0,P|241:110|198:107,1,87.5,8|0,0:2|0:0,0:0:0:0:
382,269,47913,2,0,P|444:258|486:244,1,87.5,8|8,0:2|0:2,0:0:0:0:
267,213,48224,2,0,P|279:265|285:317,1,87.5,8|8,0:2|0:2,0:0:0:0:
149,367,48534,5,14,3:2:0:0:
149,367,48690,2,0,P|113:312|139:201,2,175,0|10|0,3:2|0:2|3:2,0:0:0:0:
242,168,49467,2,0,P|148:156|65:130,1,175,14|0,0:2|3:2,0:0:0:0:
173,22,49933,6,0,P|183:83|188:126,1,87.5,10|0,0:2|3:2,0:0:0:0:
345,233,50244,2,0,P|325:166|325:53,1,175,10|8,0:2|0:2,0:0:0:0:
497,133,50711,2,0,P|430:147|403:148,1,87.5,10|8,0:2|0:2,0:0:0:0:
282,287,51021,6,0,P|343:267|432:302,1,157.499995193482,6|8,3:2|0:2,0:0:0:0:
296,379,51488,2,0,P|255:371|208:365,1,78.7499975967408,2|0,3:2|0:0,0:0:0:0:
129,380,51799,1,0,0:0:0:0:
129,380,51954,1,10,0:2:0:0:
109,289,52575,1,8,0:2:0:0:
89,195,53043,5,0,3:0:0:0:
89,195,53198,2,0,P|135:185|180:180,1,78.7499975967408,10|0,0:2|0:0,0:0:0:0:
75,65,53508,2,0,P|152:41|212:103,1,157.499995193482,2|8,3:2|0:2,0:0:0:0:
303,15,53975,2,0,P|298:84|288:184,1,157.499995193482,0|0,3:2|0:0,0:0:0:0:
400,126,54441,2,0,P|403:68|407:37,1,78.7499975967408,10|0,0:2|0:0,0:0:0:0:
496,18,54752,5,2,0:0:0:0:
489,106,55064,1,10,0:2:0:0:
482,200,55374,1,2,0:2:0:0:
482,200,55529,1,0,3:0:0:0:
482,200,55685,2,0,B|481:254|475:302,1,78.7499975967408,10|2,0:2|0:2,0:0:0:0:
512,358,55996,6,0,P|442:330|376:373,1,157.499995193482,6|8,3:2|0:2,0:0:0:0:
288,316,56462,2,0,P|233:305|202:292,1,78.7499975967408,2|0,3:2|0:0,0:0:0:0:
141,229,56773,1,2,0:2:0:0:
91,326,56928,5,10,0:2:0:0:
184,297,57551,1,10,0:2:0:0:
184,297,57861,1,2,0:2:0:0:
272,255,58016,1,0,3:0:0:0:
272,255,58172,1,10,0:2:0:0:
357,207,58483,6,0,P|405:213|523:243,1,157.499995193482,2|10,3:2|0:2,0:0:0:0:
435,109,58949,2,0,P|358:97|278:70,1,157.499995193482,2|0,3:2|0:0,0:0:0:0:
192,16,59416,5,10,0:2:0:0:
200,114,59726,1,2,0:2:0:0:
211,203,60037,1,10,0:2:0:0:
223,296,60348,1,2,0:2:0:0:
223,296,60504,1,0,3:0:0:0:
233,384,60659,1,10,0:2:0:0:
233,384,60815,1,2,0:0:0:0:
130,260,60970,6,0,P|88:243|-1:319,1,157.499995193482,6|8,3:2|0:2,0:0:0:0:
186,177,61436,2,0,P|234:166|302:245,1,157.499995193482,0|0,3:2|0:0,0:0:0:0:
123,103,61902,2,0,P|117:50|120:15,1,78.7499975967408,10|0,0:2|0:0,0:0:0:0:
255,109,62213,6,0,P|312:97|419:83,2,157.499995193482,2|10|2,0:0|0:2|0:0,0:0:0:0:
192,192,62990,1,0,3:2:0:0:
275,248,63146,2,0,P|287:301|289:348,1,78.7499975967408,8|0,0:2|0:0,0:0:0:0:
462,272,63457,6,0,P|419:281|378:292,1,78.7499975967408,2|0,3:2|0:0,0:0:0:0:
394,198,63768,2,0,P|432:188|471:181,1,78.7499975967408,10|0,0:2|3:2,0:0:0:0:
279,157,64078,2,0,P|240:147|202:139,1,78.7499975967408,2|0,0:0|0:0,0:0:0:0:
192,47,64389,2,0,P|230:54|268:64,1,78.7499975967408,10|0,0:2|0:0,0:0:0:0:
382,4,64700,6,0,P|375:79|358:176,1,157.499995193482,2|8,0:0|0:2,0:0:0:0:
297,242,65167,1,0,0:0:0:0:
398,332,65322,2,0,P|450:323|489:308,1,78.7499975967408,2|0,0:0|3:2,0:0:0:0:
510,215,65633,2,0,P|453:224|416:237,1,78.7499975967408,10|0,0:2|0:0,0:0:0:0:
305,362,65944,6,0,P|225:364|174:298,1,157.499995193482,0|10,3:2|0:2,0:0:0:0:
85,221,66410,2,0,P|162:218|247:182,1,157.499995193482,2|0,3:2|0:0,0:0:0:0:
169,104,66876,2,0,P|178:51|178:6,1,78.7499975967408,8|2,0:2|0:0,0:0:0:0:
282,6,67187,5,0,0:0:0:0:
282,6,67343,2,0,P|272:77|273:104,1,78.7499975967408,2|8,0:0|0:2,0:0:0:0:
399,176,67654,2,0,P|427:121|373:34,1,157.499995193482,2|2,0:0|3:2,0:0:0:0:
326,253,68120,2,0,P|388:267|409:275,1,78.7499975967408,8|2,0:2|0:0,0:0:0:0:
248,196,68431,6,0,P|240:252|231:369,1,157.499995193482,14|0,0:2|3:2,0:0:0:0:
156,159,68897,2,0,P|164:103|173:-14,1,157.499995193482,10|0,0:2|3:2,0:0:0:0:
55,181,69363,2,0,P|45:245|42:278,1,78.7499975967408,10|0,0:2|0:0,0:0:0:0:
104,329,69674,5,0,3:2:0:0:
104,329,69752,1,0,3:0:0:0:
104,329,69830,1,8,0:2:0:0:
208,377,69984,2,0,P|218:329|224:288,1,78.7499975967408,2|0,0:0|3:2,0:0:0:0:
380,270,70296,2,0,P|433:282|488:302,1,78.7499975967408,10|0,0:2|3:2,0:0:0:0:
264,178,70607,2,0,P|221:164|183:149,1,78.7499975967408,10|10,0:0|0:0,0:0:0:0:
403,61,70918,5,6,3:2:0:0:
367,153,71073,1,0,3:0:0:0:
403,61,71229,1,0,0:0:0:0:
367,153,71383,1,8,0:0:0:0:
367,153,71850,5,0,3:2:0:0:
308,34,72006,1,2,3:2:0:0:
367,153,72161,1,0,0:0:0:0:
308,34,72317,1,10,0:0:0:0:
264,181,72628,5,0,3:2:0:0:
264,181,72783,2,0,P|257:232|256:263,1,78.7499975967408,10|0,0:0|3:2,0:0:0:0:
168,143,73094,2,0,P|103:138|43:213,1,157.499995193482,10|6,0:0|3:2,0:0:0:0:
0,303,73560,6,0,P|57:305|155:338,1,157.499995193482,0|2,3:2|0:0,0:0:0:0:
291,381,74027,2,0,P|319:335|245:269,1,157.499995193482,8|2,0:0|0:0,0:0:0:0:
188,184,74493,2,0,P|196:132|202:102,1,78.7499975967408,0|0,3:2|0:0,0:0:0:0:
300,10,74804,6,0,P|301:79|282:178,1,157.499995193482,8|0,0:2|3:2,0:0:0:0:
360,231,75270,1,8,0:0:0:0:
441,174,75426,1,8,0:0:0:0:
379,97,75581,1,8,0:3:0:0:
284,165,75892,5,6,3:2:0:0:
188,200,76047,1,0,3:2:0:0:
283,162,76203,1,0,0:0:0:0:
188,200,76358,1,8,0:0:0:0:
188,200,76825,5,0,3:2:0:0:
314,268,76980,1,0,3:2:0:0:
188,200,77135,1,0,0:0:0:0:
314,268,77291,1,8,0:0:0:0:
123,308,77602,5,0,3:2:0:0:
40,268,77758,2,0,P|37:313|38:361,1,78.7499975967408,10|0,0:0|3:2,0:0:0:0:
171,197,78068,2,0,P|107:206|56:128,1,157.499995193482,10|6,0:0|3:2,0:0:0:0:
132,68,78534,6,0,P|191:58|227:43,1,78.7499975967408,0|2,3:2|0:0,0:0:0:0:
338,117,78845,1,2,0:0:0:0:
304,9,79001,2,0,P|303:80|284:181,1,157.499995193482,8|2,0:0|0:0,0:0:0:0:
364,272,79467,2,0,P|372:213|381:181,1,78.7499975967408,0|0,3:2|0:0,0:0:0:0:
459,271,79778,5,8,0:0:0:0:
357,383,79933,1,0,0:0:0:0:
282,260,80089,1,0,3:2:0:0:
232,343,80244,1,0,3:2:0:0:
364,298,80400,1,0,3:2:0:0:
376,282,80477,1,0,3:0:0:0:
385,265,80555,1,8,0:0:0:0:
392,246,80633,1,8,0:0:0:0:
395,227,80710,1,8,0:0:0:0:
396,207,80788,1,8,0:0:0:0:
393,189,80866,6,0,P|380:129|380:94,1,78.7499975967408,14|0,0:0|0:0,0:0:0:0:
510,242,81177,2,0,P|472:283|356:265,1,157.499995193482,10|2,0:0|3:2,0:0:0:0:
300,206,81643,1,0,3:2:0:0:
196,289,81799,5,10,0:0:0:0:
196,289,81954,2,0,P|189:341|186:378,1,78.7499975967408,0|0,0:0|3:2,0:0:0:0:
113,211,82266,1,0,0:0:0:0:
113,211,82421,2,0,P|120:159|123:122,1,78.7499975967408,8|0,0:0|0:0,0:0:0:0:
22,243,82731,2,0,P|102:234|193:216,1,157.499995193482,2|10,3:2|0:0,0:0:0:0:
252,155,83198,1,0,0:0:0:0:
151,36,83353,6,0,P|146:86|142:123,1,78.7499975967408,2|0,3:2|0:0,0:0:0:0:
264,279,83664,2,0,P|298:213|278:116,2,157.499995193482,10|0|10,0:0|3:2|0:0,0:0:0:0:
174,233,84441,1,0,0:0:0:0:
336,186,84597,6,0,P|385:193|425:204,1,78.7499975967408,0|0,3:2|0:0,0:0:0:0:
272,102,84907,2,0,P|223:95|183:84,1,78.7499975967408,8|0,0:0|0:0,0:0:0:0:
385,17,85218,2,0,P|370:77|367:115,1,78.7499975967408,2|0,3:2|3:2,0:0:0:0:
228,280,85529,2,0,P|243:220|246:182,1,78.7499975967408,10|8,0:0|0:0,0:0:0:0:
172,22,85840,5,2,3:2:0:0:
172,22,85996,2,0,P|157:88|144:192,2,157.499995193482,0|10|2,3:2|0:0|3:2,0:0:0:0:
262,122,86773,2,0,P|314:119|380:198,1,157.499995193482,10|0,0:0|3:2,0:0:0:0:
231,212,87239,5,10,0:0:0:0:
231,212,87394,2,0,P|183:220|146:236,1,78.7499975967408,0|0,0:0|3:2,0:0:0:0:
155,231,87628,1,0,3:2:0:0:
155,231,87705,2,0,P|161:283|166:323,1,78.7499975967408,2|0,3:2|0:0,0:0:0:0:
78,379,88016,2,0,P|72:327|67:287,1,78.7499975967408,2|2,3:2|0:0,0:0:0:0:
42,103,88327,5,6,3:2:0:0:
256,192,88483,12,2,89882,0:0:0:0:
337,144,90814,6,0,P|343:75|348:39,1,96.250002937317,6|0,3:2|0:0,0:0:0:0:
478,210,91125,2,0,P|408:267|287:221,1,192.500005874634,8|0,0:2|3:2,0:0:0:0:
241,170,91591,1,0,3:2:0:0:
142,284,91747,2,0,P|134:343|133:398,1,96.250002937317,10|0,0:2|0:0,0:0:0:0:
60,194,92058,6,0,P|77:127|86:1,1,192.500005874634,2|8,3:2|0:2,0:0:0:0:
5,69,92524,1,0,0:0:0:0:
163,149,92679,2,0,P|174:82|176:49,1,96.250002937317,0|0,3:2|3:2,0:0:0:0:
58,192,92990,1,10,0:2:0:0:
260,117,93146,5,2,0:0:0:0:
260,117,93224,1,0,0:0:0:0:
260,117,93301,2,0,P|321:127|363:135,1,96.250002937317,2|0,3:2|3:2,0:0:0:0:
217,299,93612,2,0,P|135:324|55:250,1,192.500005874634,10|0,0:2|3:2,0:0:0:0:
152,222,94078,1,0,3:2:0:0:
295,365,94234,6,0,P|308:304|323:268,1,96.250002937317,10|0,0:2|0:0,0:0:0:0:
439,71,94545,2,0,P|405:104|365:130,1,96.250002937317,2|0,3:2|3:2,0:0:0:0:
138,225,94856,2,0,P|185:218|234:221,1,96.250002937317,10|0,0:2|0:0,0:0:0:0:
480,273,95167,2,0,P|438:251|401:221,1,96.250002937317,2|0,3:2|3:2,0:0:0:0:
239,50,95477,2,0,P|262:92|279:137,1,96.250002937317,10|0,0:2|0:0,0:0:0:0:
400,358,95788,6,0,P|408:271|445:152,1,192.500005874634,2|8,3:2|0:2,0:0:0:0:
493,260,96255,1,2,0:0:0:0:
315,296,96410,2,0,P|250:282|215:268,1,96.250002937317,0|0,3:2|3:2,0:0:0:0:
347,97,96721,6,0,P|430:79|516:146,1,192.500005874634,10|0,0:2|3:2,0:0:0:0:
412,175,97187,1,0,3:2:0:0:
268,118,97343,2,0,P|262:49|261:9,1,96.250002937317,10|0,0:2|0:0,0:0:0:0:
355,243,97654,2,0,P|297:228|256:225,1,96.250002937317,2|0,3:2|3:2,0:0:0:0:
33,159,97964,2,0,P|93:149|179:124,1,144.375004405975,10|0,0:2|0:0,0:0:0:0:
195,95,98275,6,0,P|171:40|41:36,2,192.500005874634,2|10|0,3:2|0:2|3:2,0:0:0:0:
282,145,99053,1,0,3:2:0:0:
219,228,99208,2,0,P|209:280|203:338,1,96.250002937317,10|0,0:2|0:0,0:0:0:0:
119,233,99519,2,0,P|113:185|104:138,1,96.250002937317,0|0,3:2|3:2,0:0:0:0:
305,278,99830,2,0,P|310:325|319:372,1,96.250002937317,10|0,0:2|0:0,0:0:0:0:
491,261,100141,5,10,0:3:0:0:
346,189,100296,1,10,0:2:0:0:
494,224,100451,2,0,L|441:230,1,48.1250014686585,8|8,0:2|0:0,0:0:0:0:
362,218,100607,2,0,L|415:212,1,48.1250014686585,8|8,0:0|0:0,0:0:0:0:
483,102,100762,6,0,P|430:110|380:113,1,96.250002937317,6|0,3:2|0:0,0:0:0:0:
253,251,101073,2,0,P|337:243|397:352,1,192.500005874634,8|0,0:2|3:2,0:0:0:0:
314,376,101540,1,0,3:2:0:0:
226,340,101695,2,0,P|170:341|119:348,1,96.250002937317,10|0,0:2|0:0,0:0:0:0:
225,163,102006,6,0,P|288:159|331:151,1,96.250002937317,2|0,3:2|3:2,0:0:0:0:
165,59,102317,2,0,P|165:138|188:256,1,192.500005874634,8|0,0:2|3:2,0:0:0:0:
272,148,102783,1,0,3:2:0:0:
82,122,102939,2,0,P|86:186|92:223,1,96.250002937317,10|2,0:2|0:0,0:0:0:0:
200,360,103249,6,0,P|136:346|92:343,1,96.250002937317,0|0,3:2|3:2,0:0:0:0:
1,232,103560,2,0,P|54:249|176:173,1,192.500005874634,10|0,0:2|3:2,0:0:0:0:
219,41,104027,1,0,3:2:0:0:
45,31,104182,6,0,B|52:91|57:131,1,96.250002937317,10|0,0:2|0:0,0:0:0:0:
168,292,104493,2,0,B|161:232|156:192,1,96.250002937317,2|0,3:2|3:2,0:0:0:0:
231,9,104805,2,0,B|238:69|243:109,1,96.250002937317,10|0,0:2|0:0,0:0:0:0:
354,270,105115,2,0,B|347:210|342:170,1,96.250002937317,2|0,3:2|3:2,0:0:0:0:
427,0,105426,2,0,B|434:60|439:100,1,96.250002937317,10|0,0:2|0:0,0:0:0:0:
478,316,105736,6,0,P|400:334|312:257,2,192.500005874634,2|8|2,3:2|0:2|3:2,0:0:0:0:
509,215,106514,1,0,3:2:0:0:
415,159,106669,2,0,P|356:168|315:167,1,96.250002937317,10|0,0:2|0:0,0:0:0:0:
204,82,106980,5,6,3:2:0:0:
222,256,107135,1,0,3:2:0:0:
125,185,107291,2,0,P|115:128|113:87,1,96.250002937317,10|0,0:2|0:0,0:0:0:0:
306,209,107602,2,0,P|316:266|318:307,1,96.250002937317,2|0,3:2|3:2,0:0:0:0:
63,321,107913,2,0,P|46:262|42:227,1,96.250002937317,10|0,0:2|0:0,0:0:0:0:
230,123,108224,6,0,P|277:113|326:96,1,96.250002937317,0|0,3:2|3:2,0:0:0:0:
184,255,108534,2,0,P|120:260|50:155,1,192.500005874634,10|0,0:2|3:2,0:0:0:0:
102,68,109001,1,0,3:2:0:0:
261,165,109156,2,0,P|270:228|275:275,1,96.250002937317,10|8,0:2|0:0,0:0:0:0:
357,331,109467,5,2,3:2:0:0:
496,279,109622,1,8,0:2:0:0:
404,220,109778,1,10,3:2:0:0:
450,380,109933,1,8,0:3:0:0:
489,174,110089,5,10,0:0:0:0:
302,224,110244,1,6,3:2:0:0:
467,80,110400,5,8,0:2:0:0:
315,53,110555,1,8,0:0:0:0:
280,282,110711,6,0,P|363:297|478:307,1,192.500005874634,6|0,3:2|0:0,0:0:0:0:
204,203,111177,2,0,P|149:267|83:361,1,192.500005874634,10|0,0:0|3:0,0:0:0:0:
310,177,111643,2,0,P|281:97|232:-6,1,192.500005874634,10|0,0:0|3:0,0:0:0:0:
189,111,112110,5,2,3:2:0:0:
354,76,112265,2,0,B|411:57|451:40,1,96.250002937317,0|8,0:0|0:0,0:0:0:0:
495,227,112576,2,0,P|428:186|349:192,1,144.375004405975,6|0,3:2|0:0,0:0:0:0:
364,186,112887,2,0,P|298:207|246:227,1,96.250002937317,2|2,0:0|0:0,0:0:0:0:
117,343,113198,6,0,L|59:334,3,48.1250014686585,6|0|0|0,3:2|3:0|3:0|3:0,0:0:0:0:
62,255,113508,2,0,L|4:246,3,48.1250014686585,10|8|8|8,0:0|0:0|0:0|0:0,0:0:0:0:
155,187,113819,2,0,L|97:178,3,48.1250014686585,10|8|8|8,0:0|0:0|0:0|0:0,0:0:0:0:
74,103,114130,2,0,L|16:94,3,48.1250014686585,10|8|8|8,0:0|0:0|0:0|0:0,0:0:0:0:
147,42,114441,6,0,P|209:54|257:56,1,96.250002937317,10|8,0:0|0:0,0:0:0:0:
342,14,114752,1,10,0:0:0:0:
403,124,114907,1,8,0:0:0:0:
403,124,114985,1,8,0:0:0:0:
403,124,115063,2,0,P|397:186|390:231,1,96.250002937317,10|8,0:0|0:0,0:0:0:0:
369,241,115296,1,8,0:0:0:0:
332,246,115374,1,10,0:0:0:0:
298,234,115451,1,8,0:0:0:0:
262,243,115529,1,8,0:0:0:0:
243,277,115607,1,8,0:0:0:0:
248,313,115685,1,6,3:2:0:0:
256,192,115762,12,4,118172,3:2:0:0:
441,53,135270,6,0,L|355:69,1,87.5,10|0,0:0|0:0,0:0:0:0:
355,69,135503,1,2,0:0:0:0:
355,69,135581,1,2,0:2:0:0:
248,97,135736,2,0,P|257:67|262:37,1,61.2499981307984
320,162,136047,1,2,0:2:0:0:
320,162,136358,1,0,0:0:0:0:
239,238,136514,2,0,P|260:295|272:355,1,122.499996261597,2|0,0:2|0:0,0:0:0:0:
355,384,136980,2,0,P|408:351|413:286,1,122.499996261597,2|0,0:2|0:0,0:0:0:0:
361,237,137446,1,2,0:2:0:0:
512,117,137757,5,2,0:2:0:0:
512,117,137913,2,0,P|447:136|378:153,1,122.499996261597,6|2,3:2|3:2,0:0:0:0:
267,15,138379,2,0,P|256:51|242:90,1,61.2499981307984,6|0,3:2|3:2,0:0:0:0:
281,151,138690,1,2,3:2:0:0:
165,111,138845,2,0,P|173:140|180:170,1,61.2499981307984,2|10,3:2|0:0,0:0:0:0:
126,337,139156,1,0,0:0:0:0:
0,293,139312,6,0,P|50:259|165:259,1,157.499995193482,2|8,0:2|0:0,0:0:0:0:
290,365,139778,1,2,0:0:0:0:
290,365,139856,1,2,0:0:0:0:
290,365,139933,2,0,L|310:282,1,78.7499975967408,0|0,0:0|3:2,0:0:0:0:
233,217,140244,2,0,B|200:177|200:177|225:80,1,118.124996395111,10|0,0:0|0:0,0:0:0:0:
224,90,140555,6,0,P|264:78|304:62,1,78.7499975967408,2|2,3:2|0:2,0:0:0:0:
364,159,140866,1,10,0:2:0:0:
472,87,141021,1,0,3:0:0:0:
369,2,141177,2,0,P|381:42|389:81,1,78.7499975967408,2|0,0:0|0:0,0:0:0:0:
500,200,141488,6,0,P|425:207|361:155,1,157.499995193482,10|2,0:2|0:2,0:0:0:0:
277,207,141954,1,0,0:0:0:0:
209,120,142110,2,0,P|227:71|231:38,1,78.7499975967408,10|0,0:0|0:0,0:0:0:0:
277,207,142420,2,0,P|259:256|255:289,1,78.7499975967408,2|0,0:0|3:0,0:0:0:0:
173,243,142731,1,10,0:0:0:0:
310,363,142887,5,2,0:0:0:0:
310,363,142964,1,2,0:0:0:0:
310,363,143042,2,0,P|259:328|161:337,2,157.499995193482,0|10|2,3:0|0:0|0:0,0:0:0:0:
376,274,143819,1,0,3:0:0:0:
482,308,143975,2,0,P|471:345|461:388,1,78.7499975967408,10|0,0:0|0:0,0:0:0:0:
376,274,144286,6,0,B|391:221|406:197|406:197|395:162|378:127,1,157.499995193482,2|10,0:0|0:0,0:0:0:0:
500,55,144752,1,2,0:2:0:0:
500,55,144830,1,2,0:0:0:0:
500,55,144907,2,0,P|485:94|473:131,1,78.7499975967408,2|0,0:0|0:0,0:0:0:0:
317,194,145218,2,0,P|279:181|242:167,1,78.7499975967408,10|0,0:0|0:0,0:0:0:0:
242,167,145451,1,0,3:0:0:0:
242,167,145529,6,0,P|213:87|218:14,2,157.499995193482,6|8|2,3:2|0:0|0:0,0:0:0:0:
170,275,146306,1,2,0:0:0:0:
88,170,146462,2,0,P|128:184|169:195,1,78.7499975967408,10|0,0:0|0:0,0:0:0:0:
305,310,146773,6,0,P|244:319|189:356,1,118.124996395111,2|0,0:0|0:0,0:0:0:0:
196,348,147084,2,0,P|181:296|162:261,1,78.7499975967408,8|0,0:0|0:0,0:0:0:0:
325,217,147394,2,0,P|348:304|382:375,1,157.499995193482,2|8,0:0|0:0,0:0:0:0:
512,304,147861,5,2,0:0:0:0:
512,304,147939,1,2,0:0:0:0:
512,304,148016,2,0,P|464:298|430:289,1,78.7499975967408,2|0,3:2|0:0,0:0:0:0:
384,104,148327,2,0,P|402:148|412:182,1,78.7499975967408,10|0,0:0|3:0,0:0:0:0:
275,315,148638,2,0,P|304:276|328:251,1,78.7499975967408,2|0,0:0|0:0,0:0:0:0:
237,109,148949,1,10,0:0:0:0:
296,40,149104,5,2,0:0:0:0:
296,40,149182,1,2,0:0:0:0:
296,40,149260,2,0,P|278:115|261:193,1,157.499995193482,2|8,0:0|0:0,0:0:0:0:
94,137,149726,1,2,0:0:0:0:
94,137,149804,1,2,0:0:0:0:
94,137,149882,2,0,L|19:161,1,78.7499975967408,2|0,0:0|3:0,0:0:0:0:
178,239,150192,1,10,0:0:0:0:
76,303,150348,5,2,0:0:0:0:
76,303,150426,1,2,0:0:0:0:
76,303,150503,2,0,P|89:265|98:222,1,78.7499975967408,2|0,3:2|0:0,0:0:0:0:
211,167,150814,1,10,0:0:0:0:
275,315,150970,2,0,B|354:293|354:345|439:320,1,157.499995193482,2|2,3:2|0:0,0:0:0:0:
489,249,151436,1,8,0:0:0:0:
370,152,151591,6,0,P|379:193|388:237,1,78.7499975967408,2|0,0:0|0:0,0:0:0:0:
274,384,151902,2,0,P|265:343|256:299,1,78.7499975967408,2|8,0:0|0:0,0:0:0:0:
282,151,152213,2,0,P|220:187|131:187,1,157.499995193482,2|2,0:0|0:0,0:0:0:0:
135,188,152602,1,0,3:0:0:0:
135,188,152679,1,8,0:0:0:0:
9,282,152835,1,2,0:0:0:0:
104,312,152990,6,0,P|93:278|76:236,1,78.7499975967408,10|0,0:0|0:0,0:0:0:0:
160,64,153301,2,0,P|72:120|8:112,1,157.499995193482,2|10,3:2|0:0,0:0:0:0:
191,176,153768,1,0,3:0:0:0:
258,33,153923,2,0,L|241:116,1,78.7499975967408,10|0,0:0|0:0,0:0:0:0:
341,213,154234,5,2,3:2:0:0:
243,303,154389,2,0,B|296:289|296:289|340:306|340:306|415:284,1,157.499995193482,8|2,0:0|3:2,0:0:0:0:
473,226,154856,2,0,P|440:294|440:380,1,157.499995193482,10|10,0:0|0:0,0:0:0:0:
473,226,155322,1,8,0:0:0:0:
493,127,155477,6,0,B|430:141|430:141|408:163|408:163|324:180,1,157.499995193482,6|2,3:2|0:0,0:0:0:0:
124,24,155944,2,0,P|199:20|262:80,1,157.499995193482,10|0,0:0|3:0,0:0:0:0:
189,191,156410,2,0,P|181:156|168:108,1,78.7499975967408,10|0,0:0|0:0,0:0:0:0:
347,176,156721,5,0,3:0:0:0:
273,235,156876,2,0,B|223:220|176:243|176:243|143:239|114:224,1,157.499995193482,2|8,3:2|0:0,0:0:0:0:
12,172,157343,2,0,P|32:242|59:353,1,157.499995193482,2|10,3:2|0:0,0:0:0:0:
208,384,157809,5,0,3:0:0:0:
208,384,157887,1,0,3:0:0:0:
208,384,157964,2,0,P|267:343|355:356,1,157.499995193482,2|2,3:2|0:0,0:0:0:0:
484,235,158431,2,0,L|391:259,1,78.7499975967408,10|0,0:0|0:0,0:0:0:0:
464,324,158742,1,0,3:2:0:0:
301,257,158897,6,0,B|318:201|318:201|310:168|310:168|329:92,1,157.499995193482,10|0,0:0|3:0,0:0:0:0:
512,92,159363,2,0,P|481:149|384:157,1,157.499995193482,0|8,3:0|0:0,0:0:0:0:
176,36,159830,2,0,P|190:78|201:117,1,78.7499975967408,0|0,3:0|3:0,0:0:0:0:
273,51,160141,1,8,3:3:0:0:
258,177,160296,5,0,3:0:0:0:
258,177,160374,1,0,3:0:0:0:
258,177,160451,2,0,B|164:147|164:147|136:166|99:175,1,157.499995193482,6|0,3:2|0:0,0:0:0:0:
0,117,160918,2,0,P|21:194|38:277,1,157.499995193482,10|0,0:0|3:0,0:0:0:0:
178,384,161384,2,0,P|185:340|195:306,1,78.7499975967408,10|0,0:0|0:0,0:0:0:0:
282,257,161695,5,2,3:2:0:0:
147,225,161850,2,0,P|201:270|295:247,1,157.499995193482,0|10,3:0|0:0,0:0:0:0:
416,267,162317,1,2,3:2:0:0:
351,208,162472,1,0,3:2:0:0:
391,348,162628,1,8,0:0:0:0:
508,270,162783,5,0,3:0:0:0:
508,270,162861,1,0,3:0:0:0:
508,270,162939,2,0,B|503:244|495:217|495:217|503:185|503:185|490:151|487:117,1,157.499995193482,2|0,3:2|0:0,0:0:0:0:
512,0,163405,2,0,P|435:49|362:32,1,157.499995193482,10|0,0:0|3:0,0:0:0:0:
217,17,163871,2,0,P|232:71|242:109,1,78.7499975967408,8|0,0:0|0:0,0:0:0:0:
326,282,164182,5,2,3:2:0:0:
326,282,164337,2,0,P|342:246|350:207,1,78.7499975967408,2|2,3:2|0:0,0:0:0:0:
237,92,164648,2,0,B|148:70|167:118|80:87,1,157.499995193482,10|0,0:0|3:0,0:0:0:0:
66,263,165115,1,8,0:0:0:0:
17,188,165270,5,0,3:0:0:0:
17,188,165348,1,0,3:0:0:0:
17,188,165426,2,0,P|90:180|158:254,1,157.499995193482,6|0,3:2|0:0,0:0:0:0:
291,184,165892,2,0,P|302:145|317:106,1,78.7499975967408,10|0,0:0|0:0,0:0:0:0:
262,54,166203,1,0,3:0:0:0:
402,6,166358,6,0,B|378:19|363:43|363:43|320:62|261:53,1,157.499995193482,10|0,0:0|3:0,0:0:0:0:
150,26,166825,2,0,P|161:63|169:102,1,78.7499975967408,2|0,3:2|0:0,0:0:0:0:
68,180,167135,1,8,0:0:0:0:
120,288,167291,2,0,P|190:280|261:342,1,157.499995193482,0|8,3:0|0:0,0:0:0:0:
414,271,167757,1,0,0:0:0:0:
355,384,167913,6,0,P|336:309|310:227,1,157.499995193482,2|0,3:2|0:0,0:0:0:0:
440,180,168379,2,0,P|425:221|414:261,1,78.7499975967408,8|0,0:0|0:0,0:0:0:0:
510,250,168690,1,0,3:0:0:0:
491,104,168845,6,0,P|427:149|342:145,1,157.499995193482,10|0,0:0|3:0,0:0:0:0:
215,74,169312,1,0,3:0:0:0:
321,6,169467,2,0,P|308:43|298:81,1,78.7499975967408,0|8,0:0|0:0,0:0:0:0:
212,162,169778,1,0,3:0:0:0:
122,137,169933,1,0,3:0:0:0:
58,200,170089,1,8,3:3:0:0:
148,227,170244,1,8,3:3:0:0:
283,105,170400,6,0,P|263:179|244:259,1,157.499995193482,6|0,3:2|0:0,0:0:0:0:
189,342,170866,2,0,P|261:302|343:321,1,157.499995193482,10|0,0:0|3:0,0:0:0:0:
447,211,171332,2,0,P|434:252|422:286,1,78.7499975967408,10|0,0:0|0:0,0:0:0:0:
477,347,171643,1,0,3:0:0:0:
391,384,171799,6,0,P|377:307|351:219,1,157.499995193482,2|8,3:2|0:0,0:0:0:0:
505,73,172265,2,0,P|441:125|356:109,1,157.499995193482,0|8,3:0|0:0,0:0:0:0:
217,39,172731,1,0,0:0:0:0:
314,0,172887,6,0,P|300:44|289:86,1,78.7499975967408,2|0,3:2|0:0,0:0:0:0:
251,170,173198,1,2,0:0:0:0:
155,120,173353,2,0,B|99:103|99:103|57:112|57:112|-7:96,1,157.499995193482,10|0,0:0|3:0,0:0:0:0:
62,289,173819,6,0,P|136:268|240:245,1,157.499995193482,10|0,0:0|3:0,0:0:0:0:
392,304,174286,1,8,0:0:0:0:
392,304,174363,1,8,0:0:0:0:
392,304,174441,1,8,0:0:0:0:
331,177,174597,1,8,0:0:0:0:
279,343,174752,5,0,3:0:0:0:
311,262,174907,1,0,3:0:0:0:
392,304,175063,2,0,P|428:289|466:278,1,78.7499975967408,2|0,3:2|3:0,0:0:0:0:
487,147,175374,6,0,P|422:188|341:183,1,131.25,6|0,3:2|0:0,0:0:0:0:
331,177,175685,2,0,P|318:133|304:91,1,87.5,2|0,0:2|3:2,0:0:0:0:
359,23,175996,1,2,0:2:0:0:
225,138,176151,1,0,3:2:0:0:
153,19,176306,2,0,P|203:37|238:48,1,87.5,10|0,0:2|0:0,0:0:0:0:
251,217,176617,5,0,3:2:0:0:
159,200,176773,1,0,3:2:0:0:
159,200,176850,1,0,3:2:0:0:
159,200,176928,1,2,3:2:0:0:
94,269,177084,1,0,3:2:0:0:
166,368,177239,6,0,P|175:325|187:283,1,87.5,8|0,0:2|3:2,0:0:0:0:
308,212,177550,1,10,0:2:0:0:
349,368,177705,1,8,0:2:0:0:
472,200,177861,5,2,3:2:0:0:
472,200,178016,2,0,B|476:219|486:242|486:242|445:303|371:283,1,175,8|2,0:2|3:2,0:0:0:0:
299,115,178483,2,0,P|337:131|385:142,1,87.5,0|0,0:0|3:2,0:0:0:0:
308,212,178793,1,10,0:2:0:0:
348,29,178949,5,0,0:0:0:0:
348,29,179027,1,0,0:0:0:0:
348,29,179104,1,2,0:2:0:0:
169,130,179260,2,0,P|254:143|307:211,1,175,10|2,0:2|0:2,0:0:0:0:
423,147,179726,2,0,P|428:118|436:90,2,58.3333333333333,2|0|0,3:2|3:0|3:0,0:0:0:0:
499,272,180037,5,2,3:2:0:0:
459,261,180141,1,0,3:0:0:0:
416,282,180244,1,0,3:0:0:0:
402,326,180348,6,0,B|308:311|330:374|224:355,1,175,6|2,3:2|0:2,0:0:0:0:
156,323,180814,1,0,3:2:0:0:
156,323,181125,1,0,3:2:0:0:
248,182,181281,2,0,P|233:226|223:271,1,87.5,10|0,0:2|0:0,0:0:0:0:
65,383,181591,5,0,0:0:0:0:
65,383,181747,2,0,P|50:318|39:288,1,87.5,0|2,3:2|0:2,0:0:0:0:
124,247,182058,1,0,3:2:0:0:
0,140,182213,6,0,P|46:155|88:164,1,87.5,8|0,0:2|0:0,0:0:0:0:
181,96,182524,1,2,0:2:0:0:
223,265,182679,1,8,0:2:0:0:
391,213,182835,6,0,P|323:160|230:185,1,175,2|0,0:2|0:0,0:0:0:0:
83,110,183301,2,0,P|127:97|167:87,1,87.5,8|0,0:2|0:0,0:0:0:0:
245,16,183612,1,0,3:2:0:0:
153,184,183768,1,2,0:2:0:0:
153,184,184078,5,2,0:0:0:0:
312,284,184234,2,0,P|395:256|480:238,1,175,10|2,0:2|0:2,0:0:0:0:
408,152,184700,2,0,P|366:165|323:174,1,87.5,2|0,0:2|3:2,0:0:0:0:
323,174,184933,1,0,3:2:0:0:
323,174,185011,1,2,0:2:0:0:
312,284,185167,1,0,3:2:0:0:
286,384,185322,6,0,P|261:300|229:218,1,175,6|2,0:2|0:2,0:0:0:0:
155,348,185788,1,0,3:2:0:0:
62,232,185944,2,0,P|102:247|145:257,1,87.5,2|0,0:2|3:2,0:0:0:0:
296,192,186255,6,0,P|336:112|320:24,1,175,10|0,0:2|3:2,0:0:0:0:
167,55,186721,1,0,3:2:0:0:
167,55,186799,1,0,3:2:0:0:
167,55,186876,2,0,P|178:95|189:147,1,87.5,2|0,0:2|3:0,0:0:0:0:
150,312,187187,1,8,0:2:0:0:
258,186,187343,1,0,0:0:0:0:
96,160,187498,1,10,0:2:0:0:
236,274,187654,1,8,0:2:0:0:
87,384,187809,6,0,P|72:334|57:302,1,87.5,2|8,3:2|0:2,0:0:0:0:
162,228,188120,1,0,0:0:0:0:
226,370,188275,2,0,B|264:355|297:347|297:347|340:370|397:363,1,175,2|0,3:2|3:2,0:0:0:0:
506,283,188742,2,0,P|493:327|479:385,1,87.5,10|0,0:2|0:0,0:0:0:0:
292,234,189053,1,2,0:2:0:0:
292,234,189208,6,0,B|356:221|356:221|385:189|385:189|463:171,1,175,10|2,0:2|0:2,0:0:0:0:
473,189,189597,1,0,0:0:0:0:
473,189,189674,2,0,L|489:132,2,58.3333333333333,10|0|0,0:2|3:2|3:2,0:0:0:0:
465,24,189985,5,2,0:2:0:0:
440,57,190089,1,0,3:2:0:0:
398,70,190192,1,0,3:2:0:0:
355,63,190296,2,0,B|301:35|253:53|253:53|243:97|203:109,1,175,6|2,3:2|0:2,0:0:0:0:
40,88,190762,2,0,P|83:80|125:71,1,87.5,8|2,0:2|0:2,0:0:0:0:
256,183,191073,1,0,3:0:0:0:
184,8,191229,5,2,0:2:0:0:
184,8,191384,2,0,P|159:90|159:183,1,175,8|2,0:2|3:2,0:0:0:0:
83,290,191850,2,0,P|129:297|168:312,1,87.5,2|8,0:2|0:2,0:0:0:0:
333,167,192161,1,2,0:0:0:0:
213,243,192317,1,0,3:0:0:0:
344,374,192472,2,0,P|333:324|318:287,1,87.5,10|8,0:2|0:0,0:0:0:0:
319,290,192705,1,0,0:0:0:0:
319,290,192783,6,0,B|409:268|409:315|496:292,1,175,2|2,3:2|3:2,0:0:0:0:
332,167,193249,2,0,P|258:182|164:91,1,175,8|0,0:2|3:0,0:0:0:0:
292,3,193716,2,0,P|278:51|266:98,1,87.5,2|8,0:2|0:2,0:0:0:0:
17,230,194027,6,0,P|98:228|166:294,1,175,2|0,3:2|0:0,0:0:0:0:
315,164,194493,1,10,0:2:0:0:
196,125,194648,2,0,P|216:173|227:213,1,87.5,2|2,3:2|3:2,0:0:0:0:
225,207,194882,1,0,3:0:0:0:
225,207,194959,1,2,0:2:0:0:
376,312,195115,1,2,3:2:0:0:
320,384,195270,6,0,B|304:363|280:346|280:346|289:285|325:234,1,175,6|0,0:2|0:0,0:0:0:0:
459,287,195736,2,0,P|410:299|366:315,1,87.5,10|0,0:0|0:0,0:0:0:0:
331,147,196047,1,0,3:2:0:0:
400,90,196203,2,0,P|414:131|424:173,1,87.5,10|0,0:0|0:0,0:0:0:0:
323,235,196514,5,0,3:2:0:0:
323,235,196669,2,0,B|264:220|264:220|213:228|213:228|130:206,1,175,0|8,3:2|0:0,0:0:0:0:
54,183,197135,2,0,P|42:135|30:95,1,87.5,0|0,3:2|3:2,0:0:0:0:
204,6,197446,1,10,0:0:0:0:
121,101,197602,1,0,0:0:0:0:
158,278,197757,6,0,B|246:250|246:294|344:267,1,175,2|0,3:2|0:0,0:0:0:0:
442,300,198224,2,0,P|332:326|319:404,1,175,10|0,0:0|3:2,0:0:0:0:
254,255,198690,1,10,0:0:0:0:
388,204,198845,5,0,0:0:0:0:
388,204,198923,1,0,0:0:0:0:
388,204,199001,2,0,P|377:159|375:116,1,87.5,0|0,3:2|3:2,0:0:0:0:
291,59,199312,1,2,0:0:0:0:
459,21,199467,6,0,P|389:75|300:67,1,175,8|0,0:0|3:2,0:0:0:0:
203,169,199933,1,10,3:0:0:0:
203,169,200244,6,0,P|145:150|94:135,1,87.5,6|0,3:2|3:2,0:0:0:0:
104,239,200555,1,0,0:0:0:0:
56,71,200711,2,0,P|84:161|106:246,1,175,10|0,0:0|3:2,0:0:0:0:
223,382,201177,1,10,0:0:0:0:
68,322,201332,5,0,0:0:0:0:
68,322,201410,1,0,0:0:0:0:
68,322,201488,2,0,P|122:287|216:290,1,131.25,2|0,3:2|0:0,0:0:0:0:
219,301,201799,2,0,P|268:287|311:268,1,87.5,2|8,0:0|0:0,0:0:0:0:
481,237,202110,1,0,3:2:0:0:
370,344,202265,1,0,3:2:0:0:
320,188,202420,1,10,0:0:0:0:
320,188,202731,5,2,3:2:0:0:
390,258,202887,2,0,P|401:215|415:175,1,87.5,0|0,3:2|0:0,0:0:0:0:
504,48,203198,2,0,B|432:62|432:62|409:82|409:82|311:99,1,175,10|0,0:0|3:2,0:0:0:0:
236,17,203664,2,0,P|221:68|214:106,1,87.5,10|0,0:0|0:0,0:0:0:0:
130,113,203975,1,0,3:0:0:0:
277,185,204130,1,0,3:0:0:0:
145,264,204286,1,0,3:0:0:0:
188,188,204441,1,0,3:0:0:0:
308,340,204597,6,0,B|341:350|364:367|364:367|424:342|471:335,1,175,0|10,0:0|0:0,0:0:0:0:
277,185,205063,1,8,0:0:0:0:
394,189,205218,6,0,P|379:238|369:283,1,87.5,6|0,3:2|3:2,0:0:0:0:
308,340,205529,1,0,0:0:0:0:
232,264,205685,2,0,B|172:272|132:237|132:237|100:257|80:289,1,175,10|0,0:0|3:2,0:0:0:0:
16,208,206151,1,10,0:0:0:0:
32,64,206306,5,0,0:0:0:0:
32,64,206384,1,0,0:0:0:0:
32,64,206462,2,0,P|72:128|200:136,1,175,0|0,3:2|0:0,0:0:0:0:
299,13,206928,2,0,P|284:60|273:104,1,87.5,8|0,0:0|3:2,0:0:0:0:
189,66,207239,1,0,3:2:0:0:
343,165,207394,2,0,P|299:176|254:195,1,87.5,10|0,0:0|0:0,0:0:0:0:
374,82,207705,5,2,3:2:0:0:
418,230,207861,2,0,P|430:186|445:147,1,87.5,8|2,0:0|0:0,0:0:0:0:
343,165,208172,1,0,3:2:0:0:
495,261,208327,6,0,P|429:274|359:304,1,131.25,10|0,0:0|0:0,0:0:0:0:
370,299,208638,2,0,P|362:343|350:386,1,87.5,2|0,3:2|3:2,0:0:0:0:
248,296,208949,5,2,0:0:0:0:
168,256,209104,2,0,B|153:152|199:198|183:84,1,175,8|0,0:0|3:2,0:0:0:0:
110,31,209571,6,0,P|82:39|53:46,2,58.3333333333333,8|0|0,0:0|3:2|3:2,0:0:0:0:
266,120,209882,5,0,3:2:0:0:
311,108,209985,1,0,3:2:0:0:
358,126,210089,1,0,3:2:0:0:
378,164,210192,1,6,3:2:0:0:
378,164,210659,5,0,3:0:0:0:
460,134,210815,1,8,0:0:0:0:
460,134,211280,5,8,0:0:0:0:
512,201,211436,1,0,0:0:0:0:
477,278,211591,2,0,P|442:270|408:264,1,70,8|0,0:0|0:0,0:0:0:0:
360,336,211902,1,0,3:0:0:0:
272,320,212058,2,0,P|256:251|233:185,1,140,8|2,0:0|0:0,0:0:0:0:
312,128,212524,1,8,0:0:0:0:
264,48,212679,5,2,3:2:0:0:
264,48,212835,2,0,P|202:82|134:82,1,140,0|0,3:0|3:0,0:0:0:0:
64,24,213301,2,0,P|88:96|104:160,1,140,10|0,0:0|3:0,0:0:0:0:
178,207,213768,1,8,0:0:0:0:
119,277,213923,2,0,P|85:267|51:259,1,70,2|8,0:0|0:0,0:0:0:0:
178,207,214234,5,2,0:0:0:0:
211,337,214389,1,0,3:0:0:0:
326,235,214545,2,0,P|292:244|258:252,1,70,10|0,0:0|3:0,0:0:0:0:
211,337,214856,1,10,0:0:0:0:
256,128,215167,1,6,3:2:0:0:
402,34,221695,5,2,0:0:0:0:
331,81,222006,1,2,0:0:0:0:
357,157,222317,1,2,0:0:0:0:
153,187,222628,6,0,P|57:171|42:43,1,236.249992790222,6|0,3:2|0:0,0:0:0:0:
233,49,223249,2,0,P|199:162|182:279,1,236.249992790222,6|0,3:2|0:0,0:0:0:0:
100,382,223871,6,0,P|194:318|324:335,1,236.249992790222,6|0,3:2|0:0,0:0:0:0:
498,157,224493,2,0,P|404:221|274:204,1,236.249992790222,6|0,3:2|0:0,0:0:0:0:
80,176,225115,6,0,P|103:91|117:5,3,175,6|2|2|2,1:2|1:2|1:2|1:2,0:0:0:0:
8,320,227602,6,0,P|111:317|198:372,1,209.999993591309,6|2,3:2|0:0,0:0:0:0:
254,232,228534,1,8,3:0:0:0:
380,351,228845,5,2,0:0:0:0:
380,351,229001,2,0,L|277:327,1,104.999996795654,8|0,3:0|0:0,0:0:0:0:
254,232,229467,2,0,P|305:240|354:222,1,104.999996795654,2|2,0:0|3:2,0:0:0:0:
504,24,230089,6,0,B|435:-7|353:14|312:83|312:83|360:93|382:140,1,314.999990386963,6|0,3:2|0:0,0:0:0:0:
512,152,231332,6,0,P|361:105|205:94,1,314.999990386963,2|2,0:0|0:0,0:0:0:0:
205,94,232576,1,2,0:0:0:0:
205,175,235063,6,0,P|158:189|111:199,1,97.1250023712159,6|0,3:2|0:0,0:0:0:0:
3,297,235374,2,0,P|95:284|158:353,1,194.250004742432,8|0,0:2|3:2,0:0:0:0:
321,225,235840,1,0,3:2:0:0:
279,384,235996,2,0,P|265:337|245:292,1,97.1250023712159,10|0,0:2|0:0,0:0:0:0:
488,163,236306,6,0,P|408:227|315:222,1,194.250004742432,2|8,3:2|0:2,0:0:0:0:
199,165,236773,1,0,0:0:0:0:
268,86,236928,1,0,3:2:0:0:
231,270,237084,1,0,3:2:0:0:
68,161,237239,1,10,0:2:0:0:
34,273,237394,5,2,0:0:0:0:
34,273,237472,1,0,0:0:0:0:
34,273,237550,2,0,B|79:253|131:240|131:240,1,97.1250023712159,2|0,3:2|3:2,0:0:0:0:
332,229,237861,2,0,P|258:290|262:402,1,194.250004742432,10|0,0:2|3:2,0:0:0:0:
332,229,238327,1,0,3:2:0:0:
389,298,238483,2,0,P|458:279|503:267,1,97.1250023712159,10|0,0:2|0:0,0:0:0:0:
231,270,238793,6,0,B|224:236|204:195|204:195|212:151|212:151|198:115|192:84,1,194.250004742432,2|10,3:2|0:2,0:0:0:0:
296,0,239260,1,0,0:0:0:0:
384,120,239415,2,0,P|337:105|289:96,1,97.1250023712159,2|0,3:2|3:2,0:0:0:0:
231,270,239726,1,10,0:2:0:0:
89,155,239882,5,0,0:0:0:0:
89,155,239959,1,0,0:0:0:0:
89,155,240037,2,0,P|135:166|192:176,1,97.1250023712159,2|0,3:2|3:2,0:0:0:0:
231,270,240348,1,8,0:2:0:0:
328,115,240503,2,0,P|312:66|302:16,1,97.1250023712159,2|0,0:0|3:2,0:0:0:0:
426,131,240814,1,0,3:2:0:0:
263,187,240970,6,0,P|295:285|315:385,1,194.250004742432,10|0,0:2|3:2,0:0:0:0:
366,222,241436,1,0,3:2:0:0:
488,326,241591,2,0,P|440:311|385:305,1,97.1250023712159,10|0,0:2|0:0,0:0:0:0:
263,187,241902,1,2,3:2:0:0:
230,352,242058,1,0,3:2:0:0:
90,260,242213,1,10,0:2:0:0:
197,271,242369,5,0,0:0:0:0:
197,271,242446,1,0,0:0:0:0:
197,271,242524,2,0,B|93:259|119:328|-11:304,2,194.250004742432,0|10|0,3:2|0:2|3:2,0:0:0:0:
328,177,243301,1,0,3:2:0:0:
411,376,243457,2,0,B|318:376|301:288|301:288,1,145.687503556824,10|0,0:2|0:0,0:0:0:0:
304,271,243768,6,0,P|323:215|329:166,1,97.1250023712159,0|0,3:2|3:2,0:0:0:0:
242,13,244078,2,0,P|223:69|217:118,1,97.1250023712159,10|0,0:2|0:0,0:0:0:0:
401,245,244389,1,10,0:3:0:0:
242,196,244545,1,10,0:2:0:0:
242,196,244622,1,0,0:0:0:0:
242,196,244700,1,8,0:2:0:0:
400,48,244856,5,8,0:0:0:0:
400,48,244933,1,8,0:0:0:0:
400,48,245011,2,0,P|355:66|301:79,1,97.1250023712159,6|0,3:2|0:0,0:0:0:0:
24,16,245322,2,0,P|120:40|144:112,1,145.687503556824,8|0,0:2|0:0,0:0:0:0:
150,111,245633,2,0,P|141:159|130:212,1,97.1250023712159,0|0,3:2|3:2,0:0:0:0:
231,314,245944,1,10,0:2:0:0:
329,154,246099,1,0,0:0:0:0:
480,232,246255,6,0,B|411:214|376:256|376:256|331:275|296:240,1,194.250004742432,2|8,3:2|0:2,0:0:0:0:
166,198,246721,1,0,0:0:0:0:
186,358,246876,2,0,P|203:298|220:260,1,97.1250023712159,0|0,3:2|3:2,0:0:0:0:
239,135,247187,1,10,0:2:0:0:
42,151,247343,5,2,0:0:0:0:
42,151,247420,1,0,0:0:0:0:
42,151,247498,2,0,P|84:194|185:187,1,145.687503556824,0|0,3:2|0:0,0:0:0:0:
239,135,247809,2,0,P|216:229|202:325,1,194.250004742432,10|0,0:2|3:2,0:0:0:0:
325,237,248275,1,0,3:2:0:0:
418,354,248431,2,0,P|344:335|304:329,1,97.1250023712159,10|0,0:2|0:0,0:0:0:0:
481,201,248742,6,0,P|428:249|343:248,1,145.687503556824,2|0,3:2|0:0,0:0:0:0:
325,236,249053,2,0,P|318:189|300:143,1,97.1250023712159,10|0,0:2|0:0,0:0:0:0:
340,56,249363,1,2,3:2:0:0:
221,177,249519,1,0,3:2:0:0:
167,18,249674,1,10,0:2:0:0:
250,93,249830,5,0,0:0:0:0:
250,93,249907,1,0,0:0:0:0:
250,93,249985,2,0,P|297:77|343:59,1,97.1250023712159,2|0,3:2|3:2,0:0:0:0:
502,202,250296,6,0,P|421:207|362:154,1,145.687503556824,8|0,0:2|0:0,0:0:0:0:
360,142,250607,1,2,3:2:0:0:
302,291,250762,1,0,3:2:0:0:
175,231,250918,2,0,P|222:216|271:206,1,97.1250023712159,10|0,0:2|0:0,0:0:0:0:
120,56,251229,6,0,P|109:104|93:151,1,97.1250023712159,2|0,3:2|3:2,0:0:0:0:
8,304,251540,2,0,P|80:304|152:360,1,145.687503556824,10|0,0:2|0:0,0:0:0:0:
139,343,251850,1,2,3:2:0:0:
301,267,252006,1,0,3:2:0:0:
141,191,252161,1,10,0:2:0:0:
206,267,252317,5,0,0:0:0:0:
206,267,252394,1,0,0:0:0:0:
206,266,252472,2,0,P|223:220|231:172,1,97.1250023712159,0|0,3:2|3:2,0:0:0:0:
486,304,252783,2,0,P|392:333|333:354,1,145.687503556824,10|0,0:2|0:0,0:0:0:0:
347,348,253094,1,0,3:2:0:0:
264,216,253249,1,0,3:2:0:0:
435,231,253405,2,0,P|389:246|342:260,1,97.1250023712159,10|8,0:2|0:0,0:0:0:0:
160,96,253716,5,2,3:2:0:0:
337,143,253871,1,8,0:2:0:0:
224,224,254027,1,10,3:2:0:0:
264,56,254182,1,8,0:3:0:0:
112,192,254337,2,0,P|129:237|141:284,1,97.1250023712159,10|6,0:0|3:2,0:0:0:0:
244,138,254648,1,8,0:2:0:0:
312,316,254804,1,8,0:0:0:0:
496,232,254959,6,0,P|448:223|401:209,1,97.1250023712159,6|0,3:2|3:0,0:0:0:0:
312,316,255270,1,0,0:0:0:0:
424,384,255426,2,0,P|412:336|394:291,1,97.1250023712159,10|0,0:0|3:0,0:0:0:0:
283,167,255736,1,0,3:0:0:0:
442,117,255892,6,0,P|390:170|292:163,1,145.687503556824,10|0,0:0|0:0,0:0:0:0:
283,167,256203,2,0,P|269:215|263:269,1,97.1250023712159,0|2,3:0|3:2,0:0:0:0:
65,118,256514,2,0,P|136:102|204:76,1,145.687503556824,8|0,0:0|0:0,0:0:0:0:
204,77,256825,1,6,3:2:0:0:
169,202,256980,1,0,3:0:0:0:
330,303,257135,1,10,0:0:0:0:
213,368,257291,5,2,0:0:0:0:
213,368,257369,1,0,0:0:0:0:
213,367,257446,2,0,P|223:319|237:273,1,97.1250023712159,6|0,3:2|0:0,0:0:0:0:
377,119,257757,1,10,0:0:0:0:
512,200,257913,6,0,B|403:181|434:242|313:212,1,194.250004742432,8|8,0:0|0:0,0:0:0:0:
104,8,258379,2,0,P|176:8|234:62,1,145.687503556824,10|8,0:0|0:0,0:0:0:0:
235,92,258690,2,0,P|221:145|209:201,1,97.1250023712159,10|8,0:0|0:0,0:0:0:0:
85,324,259001,1,10,0:0:0:0:
34,175,259156,1,8,0:0:0:0:
189,292,259312,5,10,0:0:0:0:
222,280,259389,1,8,0:0:0:0:
256,281,259467,1,8,0:0:0:0:
291,301,259545,1,8,0:0:0:0:
308,327,259622,2,0,P|331:320|354:314,1,48.5625011856079,10|8,0:0|0:0,0:0:0:0:
464,336,259778,2,0,P|470:312|476:289,1,48.5625011856079,8|8,0:0|0:0,0:0:0:0:
401,213,259933,1,6,3:2:0:0:
256,192,260011,12,2,262420,3:2:0:0:
401,213,263353,6,0,P|351:193|305:170,1,96.250002937317,10|0,0:0|0:0,0:0:0:0:
202,79,263664,2,0,P|209:132|212:183,1,96.250002937317,2|0,3:2|3:0,0:0:0:0:
191,315,263975,2,0,P|233:281|276:253,1,96.250002937317,10|0,0:0|0:0,0:0:0:0:
120,141,264286,2,0,P|73:121|28:95,1,96.250002937317,2|0,3:2|3:0,0:0:0:0:
319,81,264597,2,0,P|373:60|428:41,1,96.250002937317,10|0,0:0|0:0,0:0:0:0:
256,188,264907,6,0,P|207:97|239:16,2,192.500005874634,6|8|2,3:2|0:0|3:2,0:0:0:0:
343,230,265685,1,0,0:0:0:0:
274,313,265840,2,0,P|200:319|161:328,1,96.250002937317,10|0,0:0|0:0,0:0:0:0:
383,249,266151,2,0,P|365:321|362:361,1,96.250002937317,2|0,3:2|3:0,0:0:0:0:
334,112,266462,2,0,P|397:150|434:166,1,96.250002937317,10|0,0:0|0:0,0:0:0:0:
185,124,266773,2,0,P|241:75|267:45,1,96.250002937317,2|0,3:2|3:0,0:0:0:0:
133,251,267084,2,0,P|104:182|83:148,1,96.250002937317,10|0,0:0|0:0,0:0:0:0:
38,345,267394,6,0,P|106:369|254:319,1,192.500005874634,2|8,3:2|0:0,0:0:0:0:
273,262,267861,1,0,0:0:0:0:
171,179,268016,2,0,P|160:125|156:69,1,96.250002937317,2|0,3:2|3:0,0:0:0:0:
279,1,268327,2,0,P|290:55|294:111,1,96.250002937317,10|0,0:0|0:0,0:0:0:0:
279,220,268638,5,2,3:2:0:0:
443,234,268793,1,8,0:0:0:0:
304,195,268949,1,10,3:3:0:0:
417,257,269104,1,0,0:0:0:0:
375,147,269260,5,10,0:0:0:0:
331,308,269415,1,0,3:0:0:0:
212,214,269571,1,10,0:0:0:0:
231,378,269726,1,8,0:0:0:0:
341,273,269882,5,6,3:2:0:0:
341,273,270037,2,0,P|396:277|462:289,1,96.250002937317,0|2,0:0|0:0,0:0:0:0:
275,357,270348,1,10,0:0:0:0:
229,230,270503,2,0,P|219:171|214:128,1,96.250002937317,0|0,0:0|3:0,0:0:0:0:
333,66,270814,2,0,P|342:133|345:171,1,96.250002937317,10|0,0:0|0:0,0:0:0:0:
146,291,271125,6,0,P|126:214|114:98,1,192.500005874634,2|0,3:2|1:0,0:0:0:0:
213,149,271591,1,8,0:0:0:0:
95,217,271747,2,0,P|43:225|-18:227,1,96.250002937317,2|0,3:2|3:0,0:0:0:0:
168,370,272058,2,0,P|223:357|270:352,1,96.250002937317,8|8,0:0|3:0,0:0:0:0:
419,369,272369,6,0,L|428:317,3,48.1250014686585,6|0|0|0,3:2|3:0|3:0|3:0,0:0:0:0:
340,271,272679,2,0,L|349:219,3,48.1250014686585,0|0|0|0,3:0|3:0|3:0|3:0,0:0:0:0:
447,176,272990,2,0,L|456:124,3,48.1250014686585,8|0|0|0,0:0|3:0|3:0|3:0,0:0:0:0:
375,61,273301,2,0,L|384:9,3,48.1250014686585,8|0|0|0,0:0|3:0|3:0|3:0,0:0:0:0:
296,119,273612,6,0,P|239:113|194:100,1,96.250002937317,10|0,0:2|3:0,0:0:0:0:
84,20,273923,1,8,0:0:0:0:
106,183,274078,1,0,3:0:0:0:
193,82,274234,5,8,0:0:0:0:
22,119,274389,1,0,3:0:0:0:
143,248,274545,1,8,0:0:0:0:
308,199,274700,1,0,3:0:0:0:
256,192,274856,12,0,275788,0:0:0:0:
367,4,275944,6,0,P|321:83|252:147,1,175,6|0,3:2|0:0,0:0:0:0:
38,190,276410,2,0,P|129:190|219:218,1,175,6|8,3:2|0:0,0:0:0:0:
403,281,276876,1,0,0:0:0:0:
363,382,277032,1,0,3:0:0:0:
363,382,277187,2,0,P|318:303|297:211,1,175,2|8,3:2|0:0,0:0:0:0:
401,93,277653,6,0,P|329:112|289:112,1,87.5,2|0,3:2|0:0,0:0:0:0:
172,181,277964,2,0,P|215:187|257:201,1,87.5,8|0,0:0|3:0,0:0:0:0:
240,90,278275,1,8,0:0:0:0:
353,239,278431,6,0,P|320:293|206:307,1,175,6|0,3:2|0:0,0:0:0:0:
366,135,278897,2,0,P|429:137|498:228,1,175,0|8,3:0|0:0,0:0:0:0:
370,274,279363,1,0,0:0:0:0:
271,168,279519,1,0,3:0:0:0:
271,168,279674,2,0,P|241:112|286:7,1,175,2|8,3:2|0:0,0:0:0:0:
432,99,280140,6,0,P|375:89|328:87,1,87.5,0|8,3:0|0:0,0:0:0:0:
178,156,280451,1,8,0:0:0:0:
156,161,280528,1,0,0:0:0:0:
134,162,280606,1,8,3:0:0:0:
113,160,280684,1,0,0:0:0:0:
92,154,280761,1,8,0:0:0:0:
72,144,280839,1,0,0:0:0:0:
56,133,280918,6,0,P|63:236|65:321,1,175,6|0,3:2|0:0,0:0:0:0:
261,174,281384,2,0,P|254:71|252:-14,1,175,6|8,3:2|3:0,0:0:0:0:
415,55,281850,1,6,3:2:0:0:
430,162,282006,1,0,0:0:0:0:
430,162,282161,2,0,P|437:265|439:350,1,175,2|0,3:2|0:0,0:0:0:0:
272,301,282627,6,0,P|334:287|367:282,1,87.5,0|2,3:0|0:0,0:0:0:0:
208,191,282938,1,8,0:0:0:0:
208,191,283094,2,0,P|154:186|116:179,1,87.5,0|8,3:0|0:0,0:0:0:0:
286,32,283405,6,0,P|316:86|295:199,1,175,6|8,3:2|0:0,0:0:0:0:
178,87,283871,2,0,P|183:30|188:-13,1,87.5,10|0,0:0|0:0,0:0:0:0:
214,172,284182,1,2,3:2:0:0:
72,116,284337,1,8,3:0:0:0:
214,172,284493,1,0,3:0:0:0:
295,1,284648,1,6,3:2:0:0:
256,192,284726,12,2,296073,0:0:0:0:
