osu file format v14

[General]
AudioFilename: audio.mp3
AudioLeadIn: 0
PreviewTime: 88871
Countdown: 0
SampleSet: Soft
StackLeniency: 0.7
Mode: 0
LetterboxInBreaks: 0
WidescreenStoryboard: 1

[Editor]
DistanceSpacing: 0.3
BeatDivisor: 4
GridSize: 32
TimelineZoom: 1.7

[Metadata]
Title:World Lampshade
TitleUnicode:ワールド・ランプシェード
Artist:Himeringo
ArtistUnicode:ひめりんご
Creator:Nevo
Version:Affliction
Source:
Tags:kowari Ayesha Altugle shizuku- shikibe mayu japanese rock jrock utaite cover buzzg Kazato Asa J-Rock
BeatmapID:2225596
BeatmapSetID:1062817

[Difficulty]
HPDrainRate:6.4
CircleSize:4.2
OverallDifficulty:9
ApproachRate:9.3
SliderMultiplier:1.7
SliderTickRate:1

[Events]
//Background and Video events
0,0,"a.jpg",0,0
Video,0,"himer.avi"
//Break Periods
2,155677,174820
//Storyboard Layer 0 (Background)
//Storyboard Layer 1 (Fail)
//Storyboard Layer 2 (Pass)
//Storyboard Layer 3 (Foreground)
//Storyboard Layer 4 (Overlay)
//Storyboard Sound Samples

[TimingPoints]
1281,310.880829015544,4,2,1,70,1,0
21177,-125,4,2,1,60,0,0
24597,-166.666666666667,4,2,1,60,0,0
30814,-250.000000000001,4,2,1,60,0,0
31125,-166.666666666667,4,2,1,60,0,0
40141,-200,4,2,1,60,0,0
40451,-166.666666666667,4,2,1,60,0,0
40762,-142.857142857143,4,2,1,60,0,0
41073,-125,4,2,1,70,0,0
51021,-153.846153846153,4,2,1,60,0,0
60970,-142.857142857143,4,2,1,60,0,0
80866,-125,4,2,1,60,0,0
87705,-142.857142857143,4,2,1,60,0,0
88016,-166.666666666667,4,2,1,60,0,0
88327,-399.999999999997,4,2,1,60,0,0
90814,-83.3333333333333,4,2,1,90,0,1
110711,-125,4,2,1,90,0,1
115685,-100,4,2,1,70,0,0
135581,-133.333333333333,4,2,1,60,0,0
175374,-181.818181818181,4,2,1,70,0,0
195270,-133.333333333333,4,2,1,70,0,0
210192,-181.818181818181,4,2,1,60,0,0
215167,-181.818181818181,4,2,1,50,0,0
221695,-181.818181818181,4,2,1,55,0,0
222628,-181.818181818181,4,2,1,70,0,0
222939,-181.818181818181,4,2,1,5,0,0
223172,-181.818181818181,4,2,1,5,0,0
223249,-153.846153846153,4,2,1,70,0,0
223560,-181.818181818181,4,2,1,5,0,0
223793,-181.818181818181,4,2,1,5,0,0
223871,-133.333333333333,4,2,1,70,0,0
224182,-181.818181818181,4,2,1,5,0,0
224415,-181.818181818181,4,2,1,5,0,0
224493,-117.647058823529,4,2,1,70,0,0
224804,-181.818181818181,4,2,1,5,0,0
225037,-181.818181818181,4,2,1,5,0,0
225115,-181.818181818181,4,2,1,60,0,0
225426,-181.818181818181,4,2,1,5,0,0
225736,-181.818181818181,4,2,1,60,0,0
226047,-181.818181818181,4,2,1,5,0,0
226358,-181.818181818181,4,2,1,60,0,0
226669,-181.818181818181,4,2,1,5,0,0
226980,-181.818181818181,4,2,1,60,0,0
232887,-181.818181818181,4,2,1,40,0,0
235063,-79.9999999999999,4,2,1,90,0,1
248664,-79.9999999999999,4,2,1,5,0,1
248742,-79.9999999999999,4,2,1,90,0,1
248975,-79.9999999999999,4,2,1,5,0,1
249053,-79.9999999999999,4,2,1,90,0,1
249286,-79.9999999999999,4,2,1,5,0,1
249364,-79.9999999999999,4,2,1,90,0,1
249597,-79.9999999999999,4,2,1,5,0,1
249675,-79.9999999999999,4,2,1,90,0,1
254959,-90.9090909090909,4,2,1,90,0,1
259933,-90.9090909090909,4,2,1,75,0,0
264907,-100,4,2,1,75,0,0
274856,-333.333333333333,4,2,1,70,0,0
275944,310.880829015544,4,2,1,70,1,0
275944,-100,4,2,1,70,0,0

[Colours]
Combo1 : 191,149,128
Combo2 : 3,100,180
Combo3 : 244,192,70
Combo4 : 128,128,192

[HitObjects]
286,302,1281,6,0,B|299:211|299:211|282:166,1,127.5,6|0,3:2|0:0,0:0:0:0:
234,116,1591,2,0,P|231:60|251:25,1,85,8|2,0:2|0:2,0:0:0:0:
378,195,1902,1,0,3:2:0:0:
209,220,2058,1,0,3:2:0:0:
390,212,2213,2,0,L|480:209,1,85,8|0,0:2|0:0,0:0:0:0:
357,353,2524,5,0,3:2:0:0:
245,310,2679,2,0,P|154:293|66:298,1,170,2|0,3:2|0:0,0:0:0:0:
209,220,3146,2,0,P|269:212|307:195,1,85,2|0,3:2|3:2,0:0:0:0:
131,28,3457,2,0,P|112:66|104:107,1,85,10|0,0:2|0:0,0:0:0:0:
245,310,3768,5,2,3:2:0:0:
72,237,3923,1,0,3:2:0:0:
254,326,4078,2,0,L|348:311,1,85,8|2,0:2|0:2,0:0:0:0:
209,220,4389,1,0,3:2:0:0:
404,125,4544,1,0,3:2:0:0:
194,206,4700,2,0,P|145:207|100:191,1,85,10|0,0:2|0:0,0:0:0:0:
295,97,5011,5,0,3:2:0:0:
265,270,5167,1,2,3:2:0:0:
304,82,5322,2,0,P|344:70|387:72,1,85,10|0,0:2|0:0,0:0:0:0:
457,252,5633,1,0,3:2:0:0:
488,81,5788,1,0,3:2:0:0:
448,270,5944,2,0,P|405:271|364:260,1,85,10|0,0:2|0:0,0:0:0:0:
108,155,6255,6,0,B|153:173|191:163|191:163|209:177|209:177|242:158|294:164,1,170,6|10,3:2|0:2,0:0:0:0:
374,190,6721,1,2,0:2:0:0:
183,1,6876,2,0,P|159:63|167:110,1,85,2|0,3:2|3:2,0:0:0:0:
400,85,7187,6,0,B|425:60|425:60|344:38|278:66,1,170,10|2,0:2|3:2,0:0:0:0:
118,163,7654,1,0,3:2:0:0:
274,246,7809,2,0,P|287:180|281:134,1,85,8|2,0:2|0:2,0:0:0:0:
145,79,8120,1,0,3:2:0:0:
304,176,8275,1,0,3:2:0:0:
131,339,8431,2,0,P|118:273|124:227,1,85,10|0,0:2|0:0,0:0:0:0:
384,68,8742,6,0,B|398:186|398:186|376:245,1,170,2|8,3:2|0:2,0:0:0:0:
262,338,9208,1,2,0:2:0:0:
402,315,9363,1,0,3:2:0:0:
216,241,9519,1,0,3:2:0:0:
414,330,9674,2,0,L|503:324,1,85,10|0,0:2|0:0,0:0:0:0:
303,182,9985,5,0,3:2:0:0:
139,337,10141,2,0,B|110:343|110:343|36:320|36:320,1,85,10|0,0:2|3:2,0:0:0:0:
32,180,10451,2,0,B|61:174|61:174|135:197|135:197,1,85,10|0,0:2|3:2,0:0:0:0:
288,299,10762,1,8,0:2:0:0:
290,287,10839,1,8,0:2:0:0:
295,275,10918,2,0,L|306:224,1,42.5,8|8,0:2|0:2,0:0:0:0:
215,138,11073,2,0,L|226:189,1,42.5,8|8,0:2|0:2,0:0:0:0:
401,98,11229,6,0,P|343:72|281:83,1,127.5,6|0,3:2|0:0,0:0:0:0:
215,138,11540,2,0,L|99:130,1,85,8|2,0:2|0:2,0:0:0:0:
329,171,11850,1,0,3:2:0:0:
209,289,12006,1,0,3:2:0:0:
377,349,12161,2,0,L|493:341,1,85,8|0,0:2|0:0,0:0:0:0:
306,258,12472,5,0,3:2:0:0:
172,368,12628,2,0,P|109:358|-6:355,1,170,2|0,3:2|0:0,0:0:0:0:
102,204,13094,2,0,P|138:251|143:296,1,85,2|0,3:2|3:2,0:0:0:0:
0,181,13405,2,0,B|92:174|92:174|136:144,1,127.5,10|0,0:2|0:0,0:0:0:0:
172,89,13716,6,0,P|183:40|168:-1,1,85,2|0,3:2|3:2,0:0:0:0:
0,99,14027,2,0,P|-9:139|1:180,1,85,8|2,0:2|0:2,0:0:0:0:
177,276,14337,1,0,3:2:0:0:
15,265,14493,1,0,3:2:0:0:
186,190,14648,2,0,B|282:177|282:177|333:195,1,127.5,10|0,0:2|0:0,0:0:0:0:
384,231,14959,5,0,3:2:0:0:
296,98,15115,1,2,3:2:0:0:
276,269,15270,2,0,P|278:324|289:354,1,85,10|0,0:2|0:0,0:0:0:0:
477,253,15581,1,0,3:2:0:0:
310,187,15736,1,0,3:2:0:0:
501,135,15892,2,0,B|405:122|405:122|354:140,1,127.5,10|0,0:2|0:0,0:0:0:0:
296,98,16203,6,0,L|390:115,1,85,6|2,3:2|3:2,0:0:0:0:
232,200,16514,2,0,L|326:183,1,85,10|2,0:2|0:2,0:0:0:0:
116,92,16825,2,0,L|210:109,1,85,2|0,3:2|3:2,0:0:0:0:
52,194,17135,6,0,B|96:174|96:174|146:177,1,85,10|0,0:2|0:0,0:0:0:0:
140,353,17446,2,0,B|103:355|103:355|59:335,1,85,2|0,3:2|3:2,0:0:0:0:
209,210,17757,1,8,0:2:0:0:
205,296,17913,1,2,0:2:0:0:
376,246,18068,2,0,L|282:263,1,85,0|0,3:2|3:2,0:0:0:0:
440,348,18379,2,0,L|346:331,1,85,10|8,0:2|0:2,0:0:0:0:
401,126,18690,5,2,3:2:0:0:
466,231,18845,1,8,0:2:0:0:
469,240,18923,1,8,0:2:0:0:
471,249,19001,1,8,0:2:0:0:
300,84,19156,1,8,0:2:0:0:
255,242,19312,1,10,0:2:0:0:
391,23,19467,1,8,0:2:0:0:
486,157,19622,1,10,0:2:0:0:
233,155,19778,6,0,B|194:151|194:151|169:140|169:140|139:164|139:164|54:151,1,170,6|0,3:2|3:2,0:0:0:0:
219,67,20244,1,8,0:2:0:0:
289,230,20400,2,0,P|356:233|461:195,1,170,2|0,3:2|3:2,0:0:0:0:
469,32,20866,1,8,0:2:0:0:
346,79,21021,1,0,3:2:0:0:
485,157,21177,6,0,P|500:211|500:301,1,136,6|8,3:2|0:2,0:0:0:0:
436,362,21643,1,2,3:2:0:0:
341,295,21799,2,0,P|296:283|257:286,1,68
165,362,22110,2,0,P|120:374|36:347,1,136,10|0,0:2|0:0,0:0:0:0:
84,216,22576,2,0,B|103:207|117:187|117:187|111:229|108:291,1,136,2|0,0:2|0:0,0:0:0:0:
200,203,23042,2,0,P|193:250|193:286,1,68,2|0,0:2|0:0,0:0:0:0:
259,372,23353,6,0,P|292:348|387:340,1,136,10|6,0:2|3:2,0:0:0:0:
384,339,23975,2,0,L|372:262,1,68,8|0,0:2|3:2,0:0:0:0:
292,215,24286,2,0,L|304:138,1,68
382,97,24597,2,0,L|367:-7,1,101.999996887207,8|0,0:2|0:0,0:0:0:0:
395,114,25218,2,0,B|397:58|397:58|380:10,1,101.999996887207,10|2,0:2|0:2,0:0:0:0:
404,128,25840,1,10,0:2:0:0:
342,184,25996,1,2,0:2:0:0:
238,116,26151,6,0,P|216:108|181:109,1,50.9999984436036,2|2,3:2|0:2,0:0:0:0:
114,177,26462,1,8,0:2:0:0:
99,66,26617,2,0,L|121:179,1,101.999996887207,2|2,3:2|0:2,0:0:0:0:
187,259,27084,2,0,P|232:243|294:258,1,101.999996887207,10|0,0:2|0:0,0:0:0:0:
284,252,27705,6,0,L|290:322,1,50.9999984436036,10|0,0:2|0:0,0:0:0:0:
375,214,28016,2,0,L|370:264,1,50.9999984436036,2|0,0:2|0:0,0:0:0:0:
461,172,28327,2,0,B|459:228|459:228|476:276,1,101.999996887207,10|2,0:2|3:2,0:0:0:0:
470,152,28949,2,0,L|485:256,1,101.999996887207,10|0,0:2|0:0,0:0:0:0:
479,135,29571,2,0,P|439:127|420:127,1,50.9999984436036,10|0,0:2|0:0,0:0:0:0:
363,167,29882,2,0,P|337:164|312:158,1,50.9999984436036,2|0,0:2|0:0,0:0:0:0:
257,102,30192,2,0,L|197:110,1,50.9999984436036,10|0,0:2|0:0,0:0:0:0:
155,168,30503,2,0,L|95:160,1,50.9999984436036,2|0,0:2|0:0,0:0:0:0:
37,52,30814,6,0,B|52:74|52:74|55:105,1,51,10|0,0:2|0:0,0:0:0:0:
29,145,31125,6,0,P|29:180|45:215,1,50.9999984436036,6|0,3:2|0:0,0:0:0:0:
130,250,31436,1,8,0:2:0:0:
19,341,31591,1,0,3:2:0:0:
19,341,32058,2,0,L|110:335,1,76.4999976654053,10|0,0:2|0:0,0:0:0:0:
123,326,32369,6,0,B|225:331|225:331|283:374,1,152.999995330811,2|0,0:2|0:0,0:0:0:0:
426,305,32990,2,0,B|324:300|324:300|283:269,1,152.999995330811,2|0,0:2|0:0,0:0:0:0:
232,81,33612,6,0,P|256:120|264:143,1,50.9999984436036,0|0,3:2|0:0,0:0:0:0:
349,215,33923,2,0,P|370:174|386:156,1,50.9999984436036,10|0,0:2|3:2,0:0:0:0:
407,47,34234,2,0,P|361:48|337:43,1,50.9999984436036,2|0,0:2|0:0,0:0:0:0:
226,98,34545,2,0,P|250:137|258:160,1,50.9999984436036,10|0,0:2|0:0,0:0:0:0:
361,227,34856,2,0,P|382:186|429:151,1,101.999996887207,2|8,0:2|0:2,0:0:0:0:
425,152,35477,6,0,L|421:216,1,50.9999984436036,2|0,0:2|0:0,0:0:0:0:
495,298,35788,2,0,L|491:234,1,50.9999984436036,10|0,0:2|0:0,0:0:0:0:
315,306,36099,2,0,P|367:281|431:292,1,101.999996887207,0|10,3:2|0:2,0:0:0:0:
336,196,36565,2,0,P|303:212|267:212,1,50.9999984436036,0|0,3:2|0:0,0:0:0:0:
176,146,36876,2,0,P|199:158|216:177,1,50.9999984436036,2|8,0:2|0:2,0:0:0:0:
155,277,37187,6,0,L|147:215,1,50.9999984436036,2|0,0:2|0:0,0:0:0:0:
57,139,37498,2,0,L|63:88,1,50.9999984436036,2|8,0:2|0:2,0:0:0:0:
153,17,37809,2,0,B|184:7|184:7|207:13,1,50.9999984436036,2|0,0:2|0:0,0:0:0:0:
311,74,38120,2,0,B|342:84|342:84|365:78,1,50.9999984436036,2|8,0:2|0:2,0:0:0:0:
453,20,38431,1,2,0:0:0:0:
512,131,38586,5,10,0:2:0:0:
398,209,38742,1,2,3:2:0:0:
403,227,39053,1,2,3:2:0:0:
409,248,39363,2,0,L|452:258,1,25.4999992218018,2|2,3:2|3:2,0:0:0:0:
487,306,39519,2,0,P|453:298|384:344,1,101.999996887207,10|0,0:2|0:0,0:0:0:0:
240,309,40141,6,0,P|272:293|286:276,1,42.5,2|0,0:2|0:0,0:0:0:0:
240,309,40451,2,0,P|280:301|300:287,1,50.9999984436036,2|0,0:2|0:0,0:0:0:0:
240,309,40762,2,0,P|281:312|303:304,1,59.4999981842042,2|0,0:2|0:0,0:0:0:0:
240,309,41073,6,0,P|291:327|306:321,1,68,6|0,3:2|0:0,0:0:0:0:
160,275,41384,1,8,0:2:0:0:
292,227,41540,1,2,3:2:0:0:
165,174,41695,2,0,P|131:177|100:192,1,68,8|0,0:2|3:2,0:0:0:0:
61,333,42006,2,0,L|56:262,1,68,8|0,0:2|3:2,0:0:0:0:
2,146,42317,1,0,0:0:0:0:
160,275,42472,6,0,B|216:267|216:267|250:247|250:247|309:242,1,136,2|0,3:2|0:0,0:0:0:0:
375,363,42939,2,0,P|355:319|352:278,1,68,8|8,0:2|0:2,0:0:0:0:
398,146,43249,2,0,P|390:179|374:209,1,68,8|0,0:2|0:0,0:0:0:0:
289,243,43483,5,0,0:0:0:0:
289,243,43560,2,0,L|196:231,1,68,6|0,3:2|3:2,0:0:0:0:
134,100,43871,2,0,P|157:139|169:164,1,68,8|2,0:2|3:2,0:0:0:0:
264,34,44182,2,0,P|252:77|243:104,1,68,8|0,0:2|3:2,0:0:0:0:
40,73,44493,6,0,P|89:83|162:32,1,136,10|0,0:2|0:0,0:0:0:0:
50,161,44959,1,0,3:2:0:0:
169,199,45115,2,0,P|183:240|187:276,1,68,10|0,0:2|3:2,0:0:0:0:
74,327,45426,2,0,P|79:293|91:261,1,68,10|0,0:2|3:2,0:0:0:0:
270,240,45736,1,10,0:2:0:0:
352,294,45892,1,8,0:2:0:0:
499,217,46047,6,0,P|450:227|377:176,1,136,6|10,3:2|0:2,0:0:0:0:
322,87,46514,1,2,3:2:0:0:
461,71,46669,2,0,L|458:146,1,68,10|2,0:2|3:2,0:0:0:0:
418,261,46980,1,10,0:2:0:0:
296,163,47135,6,0,P|233:143|157:153,1,136,2|2,3:2|3:2,0:0:0:0:
69,202,47602,1,8,0:2:0:0:
143,256,47757,1,0,0:0:0:0:
86,342,47913,1,8,0:2:0:0:
103,352,47990,1,8,0:2:0:0:
122,359,48068,1,8,0:2:0:0:
142,361,48146,1,8,0:2:0:0:
160,355,48224,2,0,L|239:346,1,68,8|8,0:2|0:2,0:0:0:0:
403,270,48534,5,14,3:2:0:0:
180,259,48690,1,0,3:2:0:0:
355,189,48845,1,0,3:2:0:0:
310,342,49001,2,0,B|305:316|305:316|316:255,1,68,10|0,0:2|0:0,0:0:0:0:
378,100,49312,1,0,3:2:0:0:
486,305,49467,2,0,B|491:279|491:279|480:218,1,68,14|0,0:2|0:0,0:0:0:0:
437,38,49778,5,0,3:2:0:0:
226,134,49933,2,0,B|312:126,1,68,10|0,0:2|3:2,0:0:0:0:
180,259,50244,2,0,B|94:251,1,68,10|8,0:2|0:2,0:0:0:0:
12,131,50555,1,8,0:2:0:0:
146,176,50711,1,10,0:2:0:0:
0,229,50866,1,8,0:2:0:0:
113,89,51021,6,0,P|155:80|236:91,1,110.499994941712,6|8,3:2|0:2,0:0:0:0:
369,165,51488,2,0,P|411:174|492:163,1,110.499994941712,2|0,3:2|0:0,0:0:0:0:
303,109,51954,2,0,B|283:145|283:145|293:230,1,110.499994941712,10|0,0:2|0:0,0:0:0:0:
188,303,52420,2,0,B|208:267|208:267|198:182,1,110.499994941712,2|0,0:2|0:0,0:0:0:0:
56,148,52887,2,0,P|94:155|130:149,1,55.2499974708558,2|0,0:2|3:0,0:0:0:0:
248,114,53198,2,0,P|286:107|322:113,1,55.2499974708558,10|0,0:2|0:0,0:0:0:0:
449,198,53508,6,0,L|445:253,1,55.2499974708558,2|0,3:2|0:0,0:0:0:0:
374,147,53819,2,0,L|370:205,1,55.2499974708558,8|0,0:2|3:2,0:0:0:0:
302,292,54130,2,0,L|298:236,1,55.2499974708558
227,343,54441,6,0,B|197:335|197:335|166:343,1,55.2499974708558,10|0,0:2|0:0,0:0:0:0:
58,283,54752,2,0,B|88:291|88:291|119:283,1,55.2499974708558,2|0,0:0|0:0,0:0:0:0:
226,221,55063,2,0,B|196:213|196:213|165:221,1,55.2499974708558,10|0,0:2|0:0,0:0:0:0:
57,161,55374,2,0,B|87:169|87:169|118:161,1,55.2499974708558,2|0,0:2|3:0,0:0:0:0:
226,95,55685,1,10,0:2:0:0:
313,70,55840,1,2,0:2:0:0:
403,175,55996,6,0,P|451:185|522:147,1,110.499994941712,6|8,3:2|0:2,0:0:0:0:
454,26,56462,2,0,B|423:16|423:16|431:55|445:91,1,110.499994941712,2|2,3:2|0:2,0:0:0:0:
376,236,56928,2,0,P|378:174|362:109,1,110.499994941712,10|0,0:2|0:0,0:0:0:0:
296,60,57394,1,0,0:0:0:0:
233,153,57550,2,0,P|164:151|164:151,1,55.2499974708558,10|0,0:2|0:0,0:0:0:0:
69,58,57861,2,0,P|86:85|98:108,1,55.2499974708558,2|0,0:2|3:0,0:0:0:0:
0,228,58172,6,0,P|30:205|108:189,1,110.499994941712,10|2,0:2|3:2,0:0:0:0:
99,188,58793,2,0,L|87:319,1,110.499994941712,10|0,0:2|0:0,0:0:0:0:
159,357,59260,1,0,0:0:0:0:
254,299,59415,2,0,P|291:284|328:279,1,55.2499974708558,10|0,0:2|0:0,0:0:0:0:
371,330,59726,2,0,P|398:334|425:334,1,55.2499974708558,2|0,0:2|0:0,0:0:0:0:
485,274,60037,2,0,L|496:219,1,55.2499974708558,10|0,0:2|0:0,0:0:0:0:
418,121,60348,2,0,L|407:66,1,55.2499974708558,2|0,0:2|3:0,0:0:0:0:
272,8,60659,2,0,P|231:5|207:8,1,55.2499974708558,10|2,0:2|0:0,0:0:0:0:
54,83,60970,6,0,B|85:97|85:97|181:83,1,118.999996368408,6|8,3:2|0:2,0:0:0:0:
67,180,61436,1,0,3:2:0:0:
67,180,61591,2,0,P|57:207|52:237,1,59.4999981842042
152,292,61902,2,0,P|142:264|137:234,1,59.4999981842042,10|0,0:2|0:0,0:0:0:0:
223,110,62213,6,0,P|260:100|300:105,1,59.4999981842042,2|0,0:0|0:0,0:0:0:0:
384,198,62524,2,0,P|356:170|341:133,1,59.4999981842042,10|0,0:2|0:0,0:0:0:0:
484,104,62835,2,0,P|481:133|465:228,1,118.999996368408,2|8,0:0|0:2,0:0:0:0:
427,299,63301,1,0,0:0:0:0:
285,281,63457,6,0,L|351:275,1,59.4999981842042,2|0,3:2|0:0,0:0:0:0:
244,366,63768,2,0,L|310:372,1,59.4999981842042,10|0,0:2|3:2,0:0:0:0:
138,280,64078,2,0,L|204:274,1,59.4999981842042,2|0,0:0|0:0,0:0:0:0:
97,362,64389,2,0,L|163:368,1,59.4999981842042,10|0,0:2|0:0,0:0:0:0:
33,151,64700,6,0,P|35:180|51:275,1,118.999996368408,2|8,0:0|0:2,0:0:0:0:
124,201,65167,1,0,0:0:0:0:
222,265,65322,2,0,P|255:265|290:258,1,59.4999981842042,2|0,0:0|3:2,0:0:0:0:
367,173,65633,2,0,P|334:173|299:180,1,59.4999981842042,10|0,0:2|0:0,0:0:0:0:
447,231,65944,6,0,B|461:195|461:195|448:93,1,118.999996368408,0|10,3:2|0:2,0:0:0:0:
311,293,66410,2,0,B|297:257|297:257|310:155,1,118.999996368408,2|0,3:2|0:0,0:0:0:0:
270,83,66876,2,0,P|219:62|196:63,1,59.4999981842042,8|2,0:2|0:0,0:0:0:0:
122,150,67187,6,0,L|197:140,1,59.4999981842042,0|2,0:0|0:0,0:0:0:0:
53,86,67498,2,0,L|24:155,1,59.4999981842042,8|2,0:2|0:0,0:0:0:0:
142,58,67809,2,0,L|95:-1,1,59.4999981842042,0|2,0:0|3:2,0:0:0:0:
114,167,68120,1,8,0:2:0:0:
197,156,68275,1,2,0:0:0:0:
114,302,68431,6,0,P|96:267|86:240,1,59.4999981842042,14|0,0:2|0:0,0:0:0:0:
270,208,68742,1,0,3:2:0:0:
218,343,68897,2,0,P|236:308|246:281,1,59.4999981842042,10|0,0:2|0:0,0:0:0:0:
114,167,69208,1,0,3:2:0:0:
256,105,69363,2,0,L|323:98,1,59.4999981842042,10|0,0:2|0:0,0:0:0:0:
437,173,69674,6,0,B|406:177|406:177|371:165,1,59.4999981842042,0|8,3:2|0:2,0:0:0:0:
358,30,69985,1,2,0:0:0:0:
416,93,70141,1,0,3:2:0:0:
301,185,70296,2,0,P|303:215|309:246,1,59.4999981842042,10|0,0:2|3:2,0:0:0:0:
401,326,70607,1,10,0:0:0:0:
231,297,70762,1,10,0:0:0:0:
385,194,70918,5,6,3:2:0:0:
341,382,71073,2,0,P|294:373|277:363,1,59.4999981842042,0|0,3:0|0:0,0:0:0:0:
156,196,71384,1,8,0:0:0:0:
149,184,71850,5,0,3:2:0:0:
228,169,72006,1,2,3:2:0:0:
307,151,72161,1,0,0:0:0:0:
253,314,72317,1,10,0:0:0:0:
243,329,72628,5,0,3:2:0:0:
352,288,72783,2,0,L|339:229,1,59.4999981842042,10|0,0:0|3:2,0:0:0:0:
228,169,73094,2,0,L|230:109,1,59.4999981842042,10|0,0:0|0:0,0:0:0:0:
433,150,73405,6,0,P|386:154|313:118,1,118.999996368408,6|0,3:2|0:0,0:0:0:0:
195,28,73871,2,0,P|148:24|75:60,1,118.999996368408,2|0,0:0|0:0,0:0:0:0:
432,165,74337,6,0,P|385:169|312:133,1,118.999996368408,2|0,0:0|0:0,0:0:0:0:
194,43,74803,2,0,P|147:39|74:75,1,118.999996368408,8|0,0:2|3:2,0:0:0:0:
70,199,75270,5,8,0:0:0:0:
149,184,75426,1,8,0:0:0:0:
228,166,75581,1,8,0:3:0:0:
238,181,75892,5,6,3:2:0:0:
138,41,76047,2,0,P|175:21|204:17,1,59.4999981842042,0|0,3:2|0:0,0:0:0:0:
372,141,76358,5,8,0:0:0:0:
105,350,76825,5,0,3:2:0:0:
170,285,76980,2,0,P|222:265|293:269,1,118.999996368408,0|8,3:2|0:0,0:0:0:0:
397,346,77446,2,0,L|324:341,1,59.4999981842042,2|0,3:2|3:2,0:0:0:0:
350,205,77757,2,0,L|382:270,1,59.4999981842042,10|0,0:0|3:2,0:0:0:0:
252,317,78068,2,0,L|292:256,1,59.4999981842042,10|0,0:0|0:0,0:0:0:0:
190,98,78379,6,0,B|179:140|179:140|210:234,1,118.999996368408,6|2,3:2|0:0,0:0:0:0:
100,97,78845,2,0,B|89:139|89:139|120:233,1,118.999996368408,2|2,0:0|0:0,0:0:0:0:
289,24,79312,2,0,B|300:66|300:66|269:160,1,118.999996368408,2|0,0:0|0:0,0:0:0:0:
379,23,79778,2,0,B|390:65|390:65|359:159,1,118.999996368408,8|0,0:0|3:2,0:0:0:0:
299,229,80244,2,0,L|259:224,1,29.7499990921021,0|0,3:2|0:0,0:0:0:0:
161,179,80400,1,0,3:2:0:0:
146,180,80477,1,0,3:0:0:0:
131,182,80555,1,8,0:0:0:0:
116,184,80633,1,8,0:0:0:0:
101,186,80710,1,8,0:0:0:0:
87,188,80788,1,8,0:0:0:0:
72,190,80866,6,0,P|69:241|77:268,1,68,14|0,0:0|0:0,0:0:0:0:
200,367,81177,2,0,P|204:333|199:299,1,68,10|0,0:0|0:0,0:0:0:0:
51,343,81488,2,0,L|129:329,1,68,2|0,3:2|3:2,0:0:0:0:
261,235,81799,2,0,L|339:249,1,68,10|0,0:0|0:0,0:0:0:0:
375,104,82110,6,0,P|351:156|349:199,1,68,0|0,3:2|0:0,0:0:0:0:
469,296,82420,1,8,0:0:0:0:
430,175,82576,2,0,L|412:246,1,68,0|2,0:0|3:2,0:0:0:0:
310,384,82887,2,0,L|292:313,1,68,0|10,3:2|0:0,0:0:0:0:
219,267,83198,1,0,0:0:0:0:
116,339,83353,6,0,P|71:348|7:305,1,102,2|0,3:2|0:0,0:0:0:0:
12,313,83664,2,0,L|16:222,1,68,10|0,0:0|0:0,0:0:0:0:
130,144,83975,1,0,3:2:0:0:
100,225,84130,1,0,3:2:0:0:
7,126,84286,6,0,L|150:114,1,136,10|0,0:0|3:2,0:0:0:0:
243,160,84752,1,0,0:0:0:0:
345,59,84907,2,0,L|332:137,1,68,8|0,0:0|0:0,0:0:0:0:
233,175,85218,2,0,L|246:253,1,68,2|0,3:2|3:2,0:0:0:0:
351,291,85529,2,0,L|338:369,1,68,10|8,0:0|0:0,0:0:0:0:
189,354,85840,6,0,P|230:329|272:325,1,68,2|0,3:2|3:2,0:0:0:0:
432,343,86151,1,2,0:0:0:0:
293,203,86306,2,0,P|252:178|210:174,1,68,10|0,0:0|3:2,0:0:0:0:
50,192,86618,1,2,3:2:0:0:
189,52,86773,2,0,P|230:27|272:23,1,68,10|8,0:0|0:0,0:0:0:0:
444,82,87084,5,0,3:2:0:0:
255,114,87239,1,10,0:0:0:0:
443,183,87394,1,0,0:0:0:0:
259,252,87550,1,0,3:2:0:0:
247,255,87628,1,0,3:2:0:0:
237,260,87705,2,0,L|155:254,1,59.4999981842042,2|0,3:2|0:0,0:0:0:0:
50,188,88016,2,0,L|121:186,1,50.9999984436036,2|2,3:2|0:0,0:0:0:0:
279,122,88327,6,0,L|203:115,1,74.375,6|0,3:2|0:0,0:0:0:0:
173,99,88949,2,0,L|128:103,2,42.5,2|2|2,0:0|0:0|0:0,0:0:0:0:
225,39,89882,2,0,L|267:42,1,42.5,2|2,0:0|0:0,0:0:0:0:
337,95,90503,2,0,L|365:93,1,21.25,2|0,0:0|0:0,0:0:0:0:
451,39,90814,6,0,P|437:75|445:140,1,101.999996887207,6|0,3:2|0:0,0:0:0:0:
512,253,91125,2,0,L|405:242,1,101.999996887207,8|0,0:2|0:0,0:0:0:0:
204,297,91436,1,0,3:2:0:0:
313,180,91591,1,0,3:2:0:0:
125,145,91747,2,0,B|71:138|22:163|22:163|72:194,1,152.999995330811,10|0,0:2|0:0,0:0:0:0:
135,242,92058,5,2,3:2:0:0:
236,108,92213,1,0,3:2:0:0:
0,79,92369,1,8,0:2:0:0:
0,79,92524,2,0,P|57:61|138:62,1,101.999996887207,0|0,0:0|3:2,0:0:0:0:
246,194,92835,1,0,3:2:0:0:
339,59,92990,1,10,0:2:0:0:
450,286,93146,6,0,B|473:158|473:158|443:78,1,203.999993774414,2|0,0:0|3:2,0:0:0:0:
173,228,93612,2,0,B|218:257|274:231|274:231|325:209|386:245,1,203.999993774414,10|0,0:2|3:2,0:0:0:0:
288,343,94078,1,0,3:2:0:0:
93,300,94234,2,0,P|78:229|82:169,1,101.999996887207,10|0,0:2|0:0,0:0:0:0:
239,53,94545,2,0,P|236:103|224:153,1,101.999996887207,2|0,3:2|3:2,0:0:0:0:
0,179,94856,2,0,P|16:108|45:55,1,101.999996887207,10|0,0:2|0:0,0:0:0:0:
328,141,95167,2,0,P|304:186|272:225,1,101.999996887207,2|0,3:2|3:2,0:0:0:0:
93,300,95477,1,10,0:2:0:0:
337,336,95633,1,0,0:0:0:0:
203,139,95788,6,0,B|170:190|170:190|190:348,1,203.999993774414,2|8,3:2|0:2,0:0:0:0:
447,251,96255,2,0,B|396:223|337:255|337:255|290:257|272:201,1,203.999993774414,2|0,0:0|3:2,0:0:0:0:
344,19,96721,2,0,P|379:74|390:129,1,101.999996887207,10|0,0:2|0:0,0:0:0:0:
228,280,97032,5,0,3:2:0:0:
449,172,97187,1,0,3:2:0:0:
286,121,97343,2,0,L|185:130,1,101.999996887207,10|0,0:2|0:0,0:0:0:0:
17,257,97654,2,0,L|142:268,1,101.999996887207,2|0,3:2|3:2,0:0:0:0:
344,19,97964,6,0,L|130:42,1,203.999993774414,10|0,0:2|3:2,0:0:0:0:
78,182,98431,1,0,3:2:0:0:
388,109,98586,2,0,L|185:130,1,203.999993774414,10|0,0:2|3:2,0:0:0:0:
118,265,99053,1,0,3:2:0:0:
282,343,99208,2,0,P|348:368|418:314,1,152.999995330811,10|0,0:2|0:0,0:0:0:0:
454,245,99519,5,0,3:2:0:0:
245,208,99674,1,0,3:2:0:0:
417,66,99830,2,0,B|436:92|436:92|428:179,1,101.999996887207,10|0,0:2|0:0,0:0:0:0:
336,284,100141,1,10,0:3:0:0:
318,284,100218,1,0,0:0:0:0:
301,285,100296,1,10,0:2:0:0:
284,286,100374,1,0,0:0:0:0:
267,287,100451,5,8,0:2:0:0:
223,260,100528,1,8,0:0:0:0:
199,216,100606,1,8,0:0:0:0:
201,166,100684,1,8,0:0:0:0:
227,123,100762,6,0,P|170:100|91:109,1,101.999996887207,6|0,3:2|0:0,0:0:0:0:
297,193,101073,2,0,L|408:183,1,101.999996887207,8|0,0:2|0:0,0:0:0:0:
147,309,101384,1,0,3:2:0:0:
68,146,101540,1,0,3:2:0:0:
50,362,101695,1,10,0:2:0:0:
344,327,101850,6,0,B|296:312|255:307|255:307|214:323|214:323|172:319|136:305,1,203.999993774414,2|0,0:0|3:2,0:0:0:0:
152,61,102317,2,0,P|194:120|207:156,1,101.999996887207,8|0,0:2|0:0,0:0:0:0:
64,263,102628,1,0,3:2:0:0:
294,223,102783,1,0,3:2:0:0:
0,157,102939,2,0,L|104:149,1,101.999996887207,10|2,0:2|0:0,0:0:0:0:
426,80,103249,6,0,B|324:60|324:60|241:89,1,152.999995330811,0|0,3:2|0:0,0:0:0:0:
258,178,103560,2,0,P|269:112|149:75,1,203.999993774414,10|0,0:2|3:2,0:0:0:0:
36,159,104027,1,0,3:2:0:0:
233,282,104182,6,0,P|304:282|349:265,1,101.999996887207,10|0,0:2|0:0,0:0:0:0:
433,111,104493,2,0,P|397:172|389:219,1,101.999996887207,2|0,3:2|3:2,0:0:0:0:
481,369,104804,2,0,P|445:307|408:277,1,101.999996887207,10|0,0:2|0:0,0:0:0:0:
267,174,105115,1,2,3:2:0:0:
489,200,105270,1,0,3:2:0:0:
373,377,105426,2,0,L|243:371,1,101.999996887207,10|0,0:2|0:0,0:0:0:0:
43,287,105736,6,0,P|147:307|207:225,1,203.999993774414,2|8,3:2|0:2,0:0:0:0:
253,104,106203,1,0,0:0:0:0:
87,32,106358,2,0,B|68:93|68:93|114:230,1,203.999993774414,2|10,3:2|0:2,0:0:0:0:
245,345,106825,1,0,0:0:0:0:
357,197,106980,6,0,P|413:179|465:182,1,101.999996887207,6|0,3:2|3:2,0:0:0:0:
456,378,107291,2,0,P|405:377|357:361,1,101.999996887207,10|0,0:2|0:0,0:0:0:0:
220,233,107602,1,2,3:2:0:0:
416,281,107757,1,0,3:2:0:0:
245,345,107913,2,0,L|230:226,1,101.999996887207,10|0,0:2|0:0,0:0:0:0:
369,95,108224,2,0,L|354:214,1,101.999996887207,0|0,3:2|3:2,0:0:0:0:
72,159,108534,6,0,B|119:125|178:141|178:141|233:158|280:130,1,203.999993774414,10|0,0:2|3:2,0:0:0:0:
337,11,109001,1,0,3:2:0:0:
126,52,109156,1,10,0:2:0:0:
335,150,109312,1,8,0:0:0:0:
205,246,109467,6,0,L|191:131,1,101.999996887207,2|8,3:2|0:2,0:0:0:0:
385,322,109778,2,0,L|399:207,1,101.999996887207,10|8,3:2|0:3,0:0:0:0:
199,336,110089,1,10,0:0:0:0:
471,265,110244,1,6,3:2:0:0:
155,240,110400,1,8,0:2:0:0:
400,339,110555,1,8,0:0:0:0:
81,335,110711,6,0,B|54:236|54:236|74:184,1,136,6|0,3:2|0:0,0:0:0:0:
197,128,111177,2,0,P|146:141|102:60,1,136,10|0,0:0|3:0,0:0:0:0:
296,13,111643,2,0,L|290:107,1,68,10|0,0:0|0:0,0:0:0:0:
242,249,111954,5,0,3:0:0:0:
412,168,112110,1,2,3:2:0:0:
463,322,112265,2,0,P|410:310|371:298,1,68,0|8,0:0|0:0,0:0:0:0:
152,175,112576,2,0,P|99:187|62:199,1,68,6|0,3:2|3:0,0:0:0:0:
37,337,112887,1,2,0:0:0:0:
242,249,113042,1,2,0:0:0:0:
149,356,113198,6,0,L|137:258,1,68,6|0,3:2|0:0,0:0:0:0:
69,159,113508,1,10,0:0:0:0:
71,137,113585,1,8,0:0:0:0:
73,116,113663,1,8,0:0:0:0:
76,95,113741,1,8,0:0:0:0:
78,74,113819,5,10,0:0:0:0:
116,56,113896,1,8,0:0:0:0:
158,56,113974,1,8,0:0:0:0:
196,74,114053,1,8,0:0:0:0:
222,107,114130,1,10,0:0:0:0:
260,124,114207,1,8,0:0:0:0:
302,124,114285,1,8,0:0:0:0:
340,106,114363,1,8,0:0:0:0:
366,73,114441,6,0,L|349:18,3,34,10|8|8|8,0:0|0:0|0:0|0:0,0:0:0:0:
456,155,114752,2,0,L|443:195,3,34,10|8|8|8,0:0|0:0|0:0|0:0,0:0:0:0:
328,243,115063,1,10,0:0:0:0:
331,263,115140,1,8,0:0:0:0:
334,284,115218,1,8,0:0:0:0:
338,305,115296,1,8,0:0:0:0:
341,326,115374,5,10,0:0:0:0:
298,352,115451,1,8,0:0:0:0:
248,359,115529,1,8,0:0:0:0:
199,344,115607,1,8,0:0:0:0:
160,312,115685,6,0,P|161:235|171:198,1,85,6|0,3:2|0:0,0:0:0:0:
341,149,115996,2,0,P|340:72|330:35,1,85,8|0,0:2|0:0,0:0:0:0:
125,52,116306,1,0,3:2:0:0:
240,109,116462,1,0,3:2:0:0:
70,187,116617,2,0,L|-27:182,1,85,8|0,0:2|0:0,0:0:0:0:
160,312,116928,5,0,3:2:0:0:
311,173,117084,2,0,P|376:161|487:164,1,170,2|0,3:2|0:0,0:0:0:0:
370,339,117550,2,0,P|362:289|370:243,1,85,0|0,3:2|3:2,0:0:0:0:
483,79,117861,2,0,P|487:121|479:162,1,85,8|0,0:2|0:0,0:0:0:0:
307,91,118172,5,4,3:2:0:0:
389,28,118327,1,0,3:2:0:0:
211,44,118483,1,8,0:2:0:0:
393,123,118638,1,0,0:0:0:0:
234,224,118793,2,0,L|224:132,1,85,0|0,3:2|3:2,0:0:0:0:
379,254,119104,6,0,B|383:302|383:302|369:346,1,85,8|0,0:2|0:0,0:0:0:0:
163,350,119415,1,0,3:2:0:0:
289,288,119571,1,0,3:2:0:0:
137,146,119726,2,0,B|133:194|133:194|147:238,1,85,10|0,0:2|0:0,0:0:0:0:
337,169,120037,1,0,3:2:0:0:
241,96,120192,1,0,3:2:0:0:
385,10,120348,2,0,B|389:58|389:58|375:102,1,85,8|8,0:2|0:2,0:0:0:0:
171,265,120659,6,0,B|215:229|277:238|277:238|313:257|349:260,1,170,4|10,3:2|0:2,0:0:0:0:
422,320,121125,1,2,3:2:0:0:
419,164,121280,2,0,B|372:157|372:157|317:175,1,85,10|2,0:2|3:2,0:0:0:0:
295,346,121591,6,0,P|327:292|232:283,1,170,10|0,0:2|3:2,0:0:0:0:
172,351,122058,1,0,3:2:0:0:
83,254,122213,2,0,P|19:241|-8:243,1,85,8|0,0:2|0:0,0:0:0:0:
177,152,122524,2,0,P|241:139|268:141,1,85,0|0,3:2|3:2,0:0:0:0:
379,290,122835,2,0,L|363:195,1,85,8|0,0:2|0:0,0:0:0:0:
282,36,123146,5,8,3:2:0:0:
451,126,123301,1,0,3:2:0:0:
246,223,123457,2,0,L|262:128,1,85,8|0,0:2|0:0,0:0:0:0:
374,60,123768,1,0,3:0:0:0:
174,167,123923,1,0,3:2:0:0:
402,307,124078,2,0,L|386:212,1,85,8|0,0:2|0:0,0:0:0:0:
186,357,124389,5,0,3:2:0:0:
311,274,124545,2,0,B|269:261|269:261|215:279,1,85,10|0,0:2|3:2,0:0:0:0:
82,345,124856,2,0,B|40:358|40:358|-14:340,1,85,10|8,0:2|0:2,0:0:0:0:
137,213,125167,1,8,0:2:0:0:
135,230,125244,1,8,0:2:0:0:
132,247,125322,1,8,0:2:0:0:
80,112,125477,1,8,0:2:0:0:
267,9,125633,5,6,3:2:0:0:
286,13,125711,1,0,0:0:0:0:
304,16,125788,1,0,3:0:0:0:
321,18,125865,1,0,3:0:0:0:
338,21,125944,2,0,P|355:65|326:149,1,127.5,8|0,0:2|0:0,0:0:0:0:
274,190,126255,2,0,L|370:183,1,85,0|0,3:2|3:2,0:0:0:0:
253,331,126565,2,0,L|157:324,1,85,8|0,0:2|0:0,0:0:0:0:
118,212,126876,5,0,3:2:0:0:
201,240,127032,1,2,3:2:0:0:
104,377,127187,2,0,P|85:312|113:265,1,85,8|0,0:2|0:0,0:0:0:0:
230,153,127498,2,0,P|295:169|322:216,1,85,0|0,3:2|3:0,0:0:0:0:
436,270,127809,2,0,L|451:153,1,85,8|0,0:2|0:0,0:0:0:0:
291,10,128120,6,0,L|308:209,1,170,4|8,3:2|0:2,0:0:0:0:
481,344,128586,2,0,P|430:293|319:316,1,170,0|0,0:0|3:2,0:0:0:0:
96,251,129053,2,0,B|164:244|164:244|206:261|206:261|286:253,1,170,8|0,0:2|3:2,0:0:0:0:
423,174,129519,1,0,3:2:0:0:
248,62,129674,2,0,B|215:43|215:43|194:97|233:179,1,170,10|0,0:2|3:2,0:0:0:0:
322,322,130141,1,0,3:2:0:0:
423,174,130296,2,0,B|456:155|456:155|477:209|455:256,1,127.5,8|8,0:2|0:2,0:0:0:0:
419,321,130607,6,0,P|445:287|484:263,1,85,4|2,3:2|0:0,0:0:0:0:
273,241,130918,2,0,P|256:201|225:168,1,85,10|2,0:2|3:2,0:0:0:0:
436,147,131229,2,0,P|462:113|501:89,1,85,10|2,0:2|3:2,0:0:0:0:
298,49,131540,6,0,L|184:60,1,85,10|0,0:2|0:0,0:0:0:0:
49,126,131850,2,0,L|163:137,1,85,2|0,3:2|3:2,0:0:0:0:
95,303,132161,2,0,P|77:255|83:218,1,85,8|0,0:2|0:0,0:0:0:0:
206,341,132472,1,8,0:2:0:0:
261,264,132628,1,0,3:2:0:0:
346,360,132783,2,0,P|389:360|438:328,1,85,8|0,0:2|3:0,0:0:0:0:
351,194,133094,6,0,L|368:295,1,85,12|0,3:2|0:0,0:0:0:0:
290,101,133405,1,8,0:2:0:0:
261,264,133560,1,0,0:0:0:0:
427,126,133716,1,2,3:2:0:0:
194,66,133871,1,8,0:2:0:0:
442,136,134027,1,8,0:3:0:0:
159,277,134182,6,0,P|110:289|67:219,1,127.5,6|0,3:2|0:0,0:0:0:0:
74,163,134493,1,2,3:2:0:0:
76,329,134648,1,8,0:2:0:0:
168,297,134804,6,0,P|110:306|45:206,1,170,2|0,0:2|3:0,0:0:0:0:
106,88,135270,1,10,0:0:0:0:
212,197,135426,5,0,0:0:0:0:
212,197,135503,1,0,0:0:0:0:
212,197,135581,2,0,P|270:185|351:187,1,127.500004863739,2|0,0:2|0:0,0:0:0:0:
465,290,136047,2,0,P|402:277|338:278,1,127.500004863739,2|0,0:2|0:0,0:0:0:0:
191,347,136514,2,0,P|260:345|246:286,1,127.500004863739,2|0,0:2|0:0,0:0:0:0:
107,223,136980,2,0,P|74:283|132:301,1,127.500004863739,2|0,0:2|0:0,0:0:0:0:
224,195,137446,2,0,P|282:187|317:185,1,63.7500024318696,2|0,0:2|0:0,0:0:0:0:
355,246,137757,1,2,0:2:0:0:
409,99,137913,6,0,L|402:191,1,63.7500024318696,6|0,3:2|0:0,0:0:0:0:
331,64,138224,1,2,3:2:0:0:
490,68,138379,2,0,L|483:160,1,63.7500024318696,6|0,3:2|3:2,0:0:0:0:
448,246,138690,2,0,P|399:255|384:254,1,63.7500024318696,2|2,3:2|3:2,0:0:0:0:
275,192,139001,1,10,0:0:0:0:
242,200,139156,1,0,0:0:0:0:
130,348,139312,6,0,P|156:310|258:308,1,127.500004863739,2|8,0:2|0:0,0:0:0:0:
119,332,139778,2,0,P|145:294|247:292,1,127.500004863739,2|0,0:0|3:2,0:0:0:0:
107,322,140244,2,0,L|88:242,1,63.7500024318696,10|0,0:0|0:0,0:0:0:0:
9,183,140555,5,2,3:2:0:0:
59,118,140711,1,2,0:2:0:0:
192,172,140866,1,10,0:2:0:0:
204,185,141021,1,0,3:0:0:0:
289,126,141177,2,0,P|302:62|311:41,1,63.7500024318696,2|0,0:0|0:0,0:0:0:0:
414,239,141488,6,0,P|401:175|375:107,1,127.500004863739,2|2,0:2|0:2,0:0:0:0:
276,280,141954,1,0,0:0:0:0:
276,280,142110,2,0,P|329:289|352:285,1,63.7500024318696,10|0,0:0|0:0,0:0:0:0:
215,206,142420,2,0,P|183:205|152:213,1,63.7500024318696,2|0,0:0|3:0,0:0:0:0:
37,352,142731,6,0,P|50:288|76:220,1,127.500004863739,10|0,0:0|3:0,0:0:0:0:
59,133,143198,1,0,0:0:0:0:
215,206,143353,2,0,P|202:142|176:74,1,127.500004863739,10|2,0:0|0:0,0:0:0:0:
180,83,143975,2,0,P|238:100|264:95,1,63.7500024318696,10|0,0:0|0:0,0:0:0:0:
329,197,144286,2,0,P|382:168|396:146,1,63.7500024318696,2|0,0:0|0:0,0:0:0:0:
192,98,144597,2,0,P|251:109|276:102,1,63.7500024318696,10|0,0:0|0:0,0:0:0:0:
351,198,144908,2,0,P|401:164|414:141,1,63.7500024318696,2|0,0:0|0:0,0:0:0:0:
205,111,145218,2,0,P|265:117|289:108,1,63.7500024318696,10|0,0:0|0:0,0:0:0:0:
480,63,145529,6,0,L|484:0,1,63.7500024318696,6|0,3:2|0:0,0:0:0:0:
387,42,145840,2,0,L|392:117,1,63.7500024318696,8|0,0:0|3:0,0:0:0:0:
300,86,146151,2,0,L|296:150,1,63.7500024318696,2|2,0:0|0:0,0:0:0:0:
205,111,146462,2,0,L|200:47,1,63.7500024318696,10|0,0:0|0:0,0:0:0:0:
34,165,146773,6,0,P|99:199|156:184,1,127.500004863739,2|8,0:0|0:0,0:0:0:0:
7,33,147239,1,0,0:0:0:0:
7,33,147394,2,0,L|24:174,1,127.500004863739,2|8,0:0|0:0,0:0:0:0:
43,257,147861,1,0,0:0:0:0:
191,229,148016,6,0,P|156:222|110:221,1,63.7500024318696,2|0,3:2|0:0,0:0:0:0:
285,297,148327,2,0,P|250:304|204:305,1,63.7500024318696,10|0,0:0|3:0,0:0:0:0:
379,229,148638,2,0,P|344:222|298:221,1,63.7500024318696,2|0,0:0|0:0,0:0:0:0:
473,297,148949,2,0,P|438:304|392:305,1,63.7500024318696,10|0,0:0|0:0,0:0:0:0:
512,221,149260,6,0,L|495:369,1,127.500004863739,2|8,0:0|0:0,0:0:0:0:
407,373,149726,1,0,0:0:0:0:
335,324,149882,2,0,P|291:315|246:323,1,63.7500024318696,2|0,0:0|3:0,0:0:0:0:
195,355,150192,2,0,P|151:364|106:356,1,63.7500024318696,10|0,0:0|0:0,0:0:0:0:
23,292,150503,6,0,L|176:271,1,127.500004863739,2|10,3:2|0:0,0:0:0:0:
39,206,150970,2,0,L|192:185,1,127.500004863739,2|2,3:2|0:0,0:0:0:0:
117,44,151436,5,8,0:0:0:0:
117,44,151591,2,0,P|100:71|92:102,1,63.7500024318696,2|0,0:0|0:0,0:0:0:0:
262,184,151902,2,0,P|253:153|237:125,1,63.7500024318696,2|8,0:0|0:0,0:0:0:0:
130,284,152213,2,0,L|265:302,1,127.500004863739,2|2,0:0|0:0,0:0:0:0:
330,241,152679,1,8,0:0:0:0:
394,347,152835,1,2,0:0:0:0:
477,229,152990,6,0,P|427:212|404:212,1,63.7500024318696,10|0,0:0|0:0,0:0:0:0:
304,330,153301,1,2,3:2:0:0:
401,131,153457,2,0,P|353:154|337:170,1,63.7500024318696,2|10,0:0|0:0,0:0:0:0:
422,298,153768,1,0,3:0:0:0:
487,141,153923,2,0,L|506:49,1,63.7500024318696,10|0,0:0|0:0,0:0:0:0:
295,49,154234,6,0,B|326:66|326:66|378:57,1,63.7500024318696,2|8,3:2|0:0,0:0:0:0:
212,100,154545,2,0,B|181:117|181:117|129:108,1,63.7500024318696,2|2,0:0|3:2,0:0:0:0:
243,249,154856,2,0,L|249:170,1,63.7500024318696,10|0,0:0|0:0,0:0:0:0:
66,95,155167,2,0,L|70:158,1,63.7500024318696,10|8,0:0|0:0,0:0:0:0:
80,325,155477,5,6,3:2:0:0:
110,337,175374,6,0,P|163:343|211:311,1,93.5000028533936,6|2,3:2|0:2,0:0:0:0:
136,217,175840,1,0,3:2:0:0:
136,217,175996,2,0,L|146:278,1,46.7500014266968,2|0,0:2|3:2,0:0:0:0:
205,145,176306,2,0,L|221:238,1,93.5000028533936,10|0,0:2|3:2,0:0:0:0:
311,307,176773,2,0,L|306:349,2,23.3750007133484,0|0|2,3:2|3:2|3:2,0:0:0:0:
388,243,177084,1,0,3:2:0:0:
388,243,177161,1,0,3:0:0:0:
388,243,177239,2,0,P|438:230|450:230,1,46.7500014266968,8|0,0:2|3:2,0:0:0:0:
487,162,177550,2,0,P|437:149|425:149,1,46.7500014266968,10|8,0:2|0:2,0:0:0:0:
302,86,177861,6,0,P|256:95|212:111,1,93.5000028533936,2|0,3:2|0:0,0:0:0:0:
380,58,178327,2,0,P|333:55|286:59,1,93.5000028533936,2|0,3:2|3:2,0:0:0:0:
208,195,178793,2,0,P|185:190|162:183,1,46.7500014266968,10|0,0:2|0:0,0:0:0:0:
34,122,179104,6,0,L|23:68,2,46.7500014266968,2|10|0,0:2|0:2|0:0,0:0:0:0:
81,191,179571,1,2,0:2:0:0:
62,298,179726,6,0,L|9:305,2,31.1666676177979,2|0|0,3:2|3:0|3:0,0:0:0:0:
162,348,180037,2,0,L|132:344,2,31.1666676177979,2|0|0,3:2|3:0|3:0,0:0:0:0:
239,262,180348,6,0,L|348:254,1,93.5000028533936,6|2,3:2|0:2,0:0:0:0:
427,203,180814,1,0,3:2:0:0:
427,203,180970,2,0,L|433:151,1,46.7500014266968,2|0,0:2|3:2,0:0:0:0:
489,267,181281,2,0,L|495:319,1,46.7500014266968,10|0,0:2|0:0,0:0:0:0:
431,374,181591,6,0,P|402:367|371:367,1,46.7500014266968,0|0,0:0|3:2,0:0:0:0:
303,332,181902,2,0,L|241:340,1,46.7500014266968,2|0,0:2|3:2,0:0:0:0:
181,378,182213,2,0,L|127:373,1,46.7500014266968,8|0,0:2|0:0,0:0:0:0:
55,335,182524,1,2,0:2:0:0:
120,292,182679,1,8,0:2:0:0:
37,164,182835,6,0,P|39:222|54:263,1,93.5000028533936,2|0,0:2|0:0,0:0:0:0:
45,149,183301,2,0,P|47:207|62:248,1,93.5000028533936,8|0,0:2|3:2,0:0:0:0:
206,158,183768,2,0,P|204:216|189:257,1,93.5000028533936,2|2,0:2|0:0,0:0:0:0:
198,143,184234,2,0,P|196:201|181:242,1,93.5000028533936,10|2,0:2|0:2,0:0:0:0:
125,99,184700,2,0,L|119:48,3,46.7500014266968,2|0|2|0,0:2|3:2|0:2|3:2,0:0:0:0:
281,109,185322,6,0,P|327:113|390:90,1,93.5000028533936,6|2,0:2|0:2,0:0:0:0:
482,177,185788,2,0,P|436:173|373:196,1,93.5000028533936,0|0,3:2|3:2,0:0:0:0:
280,262,186255,1,10,0:2:0:0:
432,384,186565,6,0,L|441:331,1,46.7500014266968,0|0,3:2|3:2,0:0:0:0:
455,311,186799,1,0,3:2:0:0:
455,311,186876,2,0,L|446:258,1,46.7500014266968,2|0,0:2|3:0,0:0:0:0:
390,185,187187,2,0,L|398:144,7,23.3750007133484,8|0|0|0|10|0|8|0,0:2|0:0|0:0|0:0|0:2|0:0|0:2|0:0,0:0:0:0:
436,92,187809,6,0,P|388:115|332:110,1,93.5000028533936,2|0,3:2|0:0,0:0:0:0:
244,64,188275,2,0,P|202:42|156:41,1,93.5000028533936,2|0,3:2|3:2,0:0:0:0:
58,125,188742,2,0,P|72:161|78:173,1,46.7500014266968,10|0,0:2|0:0,0:0:0:0:
41,264,189053,6,0,L|95:257,1,46.7500014266968,2|10,0:2|0:2,0:0:0:0:
211,211,189363,2,0,L|159:202,1,46.7500014266968,0|2,0:0|0:2,0:0:0:0:
225,307,189674,6,0,L|282:295,2,31.1666676177979,10|0|0,0:2|3:2|3:2,0:0:0:0:
325,250,189985,2,0,L|355:256,2,31.1666676177979,2|0|0,0:2|3:2|3:2,0:0:0:0:
414,317,190296,6,0,P|439:276|430:217,1,93.5000028533936,6|2,3:2|0:2,0:0:0:0:
345,163,190762,2,0,L|356:267,1,93.5000028533936,8|0,0:2|3:0,0:0:0:0:
503,180,191229,2,0,L|493:87,1,93.5000028533936,2|0,0:2|3:0,0:0:0:0:
319,53,191695,6,0,P|373:65|411:54,1,93.5000028533936,2|8,3:2|0:2,0:0:0:0:
269,124,192161,2,0,P|245:114|221:114,1,46.7500014266968,2|0,0:0|3:0,0:0:0:0:
155,164,192472,2,0,P|131:174|107:174,1,46.7500014266968,10|8,0:2|0:0,0:0:0:0:
20,59,192783,6,0,L|37:170,1,93.5000028533936,2|2,3:2|3:2,0:0:0:0:
155,164,193249,2,0,L|172:275,1,93.5000028533936,8|0,0:2|3:0,0:0:0:0:
34,151,193716,2,0,L|46:219,1,46.7500014266968,2|8,0:2|0:2,0:0:0:0:
153,361,194027,6,0,P|202:333|252:327,1,93.5000028533936,2|0,3:2|0:0,0:0:0:0:
437,362,194648,2,0,L|445:315,1,46.7500014266968,2|2,3:2|3:2,0:0:0:0:
429,299,194882,1,0,3:0:0:0:
429,299,194959,2,0,L|420:252,1,46.7500014266968,2|2,0:2|3:2,0:0:0:0:
326,86,195270,6,0,P|282:73|206:109,1,127.500004863739,6|0,0:2|0:0,0:0:0:0:
81,96,195736,2,0,P|142:107|197:77,1,127.500004863739,10|0,0:0|3:2,0:0:0:0:
54,11,196203,2,0,P|-8:99|32:167,1,191.250007295609,10|0,0:0|3:2,0:0:0:0:
137,192,196825,2,0,P|67:187|34:303,1,191.250007295609,2|0,0:0|3:2,0:0:0:0:
97,360,197446,2,0,P|130:363|172:352,1,63.7500024318696,10|0,0:0|0:0,0:0:0:0:
313,292,197757,6,0,L|166:281,1,127.500004863739,2|0,3:2|0:0,0:0:0:0:
265,203,198224,2,0,L|392:212,1,127.500004863739,10|0,0:0|3:2,0:0:0:0:
512,127,198690,2,0,B|462:92|422:130|422:130|470:151|479:200,1,191.250007295609,10|0,0:0|3:2,0:0:0:0:
440,318,199312,2,0,B|380:353|325:305|325:305|284:300|261:349,1,191.250007295609,2|0,0:0|3:2,0:0:0:0:
167,349,199933,2,0,P|148:308|148:283,1,63.7500024318696,10|8,3:0|3:0,0:0:0:0:
191,116,200244,6,0,P|210:161|215:251,1,127.500004863739,6|0,3:2|0:0,0:0:0:0:
45,284,200711,2,0,P|87:236|113:179,1,127.500004863739,10|0,0:0|3:2,0:0:0:0:
12,61,201177,2,0,P|29:118|47:146,1,63.7500024318696,10|0,0:0|0:0,0:0:0:0:
164,77,201488,6,0,P|126:69|83:67,1,63.7500024318696,2|0,3:2|3:2,0:0:0:0:
193,168,201799,2,0,P|244:160|337:150,1,127.500004863739,2|0,0:0|3:2,0:0:0:0:
399,191,202265,1,0,3:2:0:0:
451,112,202420,2,0,P|458:78|407:24,1,95.6250036478044,10|0,0:0|0:0,0:0:0:0:
404,27,202731,6,0,P|362:54|269:20,1,127.500004863739,2|0,3:2|0:0,0:0:0:0:
164,77,203198,2,0,P|122:50|29:84,1,127.500004863739,10|0,0:0|3:2,0:0:0:0:
0,162,203664,2,0,L|10:242,1,63.7500024318696,10|0,0:0|0:0,0:0:0:0:
90,298,203975,6,0,L|106:223,2,63.7500024318696,0|0|0,3:0|3:0|3:0,0:0:0:0:
159,350,204441,2,0,L|175:275,2,63.7500024318696,0|0|0,3:0|0:0|0:0,0:0:0:0:
314,273,204907,2,0,P|285:258|232:261,1,63.7500024318696,10|8,0:0|0:0,0:0:0:0:
365,349,205218,6,0,L|360:209,1,127.500004863739,6|0,3:2|0:0,0:0:0:0:
457,286,205685,2,0,L|461:158,1,127.500004863739,10|0,0:0|3:2,0:0:0:0:
307,120,206151,2,0,P|352:140|381:141,1,63.7500024318696,10|0,0:0|0:0,0:0:0:0:
490,47,206462,6,0,P|422:45|357:55,1,127.500004863739,0|0,3:2|0:0,0:0:0:0:
307,120,206928,1,8,0:0:0:0:
239,78,207084,2,0,P|193:82|180:172,1,127.500004863739,0|10,3:2|0:0,0:0:0:0:
166,150,207705,6,0,P|127:131|38:141,1,127.500004863739,2|2,3:2|0:0,0:0:0:0:
162,265,208327,2,0,P|189:231|274:202,1,127.500004863739,10|2,0:0|3:2,0:0:0:0:
314,316,208793,5,0,3:2:0:0:
314,316,208949,2,0,P|280:300|235:294,1,63.7500024318696,2|8,0:0|0:0,0:0:0:0:
83,222,209260,2,0,P|47:234|11:262,1,63.7500024318696,0|0,0:0|3:2,0:0:0:0:
162,265,209571,6,0,L|169:194,2,42.5000016212464,8|0|0,0:0|3:2|3:2,0:0:0:0:
241,157,209882,5,0,3:2:0:0:
233,118,209985,1,0,3:2:0:0:
225,80,210089,1,0,3:2:0:0:
218,43,210192,6,0,B|264:65|308:42|308:42|363:15|419:42,1,187.000005706787,6|8,3:2|0:0,0:0:0:0:
478,89,211125,1,0,3:0:0:0:
508,183,211436,2,0,P|509:239|497:288,1,93.5000028533936
408,319,212058,1,8,0:0:0:0:
264,232,212369,2,0,L|255:167,1,46.7500014266968,2|8,0:0|0:0,0:0:0:0:
304,120,212679,6,0,P|346:137|409:117,2,93.5000028533936,2|0|10,3:2|0:0|0:0,0:0:0:0:
257,32,213612,1,0,3:0:0:0:
208,120,213923,2,0,P|166:137|103:117,1,93.5000028533936,2|2,0:0|0:0,0:0:0:0:
18,65,214545,2,0,L|31:123,1,46.7500014266968,10|0,0:0|3:0,0:0:0:0:
66,184,214856,2,0,L|53:242,1,46.7500014266968,10|0,0:0|0:0,0:0:0:0:
50,349,215167,6,0,B|29:284|88:229|169:250|174:328|174:328|240:276|187:246|241:204|241:204|260:255|350:282|379:189|317:161|287:218|287:218,1,561.000017120362,6|8,3:2|0:0,0:0:0:0:
298,325,217343,1,2,0:0:0:0:
463,274,217654,6,0,L|398:260,1,46.7500014266968,2|0,3:2|3:0,0:0:0:0:
314,110,218275,1,8,0:0:0:0:
373,210,218586,2,0,P|380:169|377:146,1,46.7500014266968,0|0,3:0|3:0,0:0:0:0:
456,168,218897,2,0,P|446:125|392:83,1,93.5000028533936,2|2,0:0|0:0,0:0:0:0:
314,110,219519,2,0,P|268:126|205:118,1,93.5000028533936,10|2,0:0|0:0,0:0:0:0:
128,63,220141,6,0,B|84:37|34:51|34:51|30:74|51:105,2,140.25000428009,2|2|2,3:2|3:2|3:2,0:0:0:0:
260,197,221695,1,2,0:0:0:0:
270,234,222006,1,2,0:0:0:0:
280,267,222317,1,2,0:0:0:0:
305,115,222628,6,0,P|229:107|168:165,1,163.625004993439,6|0,3:2|0:0,0:0:0:0:
169,164,223249,6,0,P|252:118|341:150,1,193.374991147995,6|0,3:2|0:0,0:0:0:0:
339,148,223871,6,0,P|231:157|166:244,1,223.125008511544,6|0,3:2|0:0,0:0:0:0:
166,244,224493,6,0,P|287:206|396:271,1,252.875004823208,6|0,3:2|0:0,0:0:0:0:
446,336,225115,6,0,B|390:286|322:319|322:319|356:331|379:359,3,187.000005706787,6|2|2|2,1:2|1:2|1:2|1:2,0:0:0:0:
38,292,227602,6,0,P|112:300|206:228,1,187.000005706787,6|2,3:2|0:0,0:0:0:0:
166,84,228534,1,8,3:0:0:0:
47,175,229001,1,8,3:0:0:0:
250,200,229467,1,2,0:0:0:0:
277,291,229778,1,2,3:2:0:0:
338,114,230089,6,0,P|291:100|232:114,1,93.5000028533936,6|0,3:2|0:0,0:0:0:0:
424,98,230711,2,0,P|400:54|349:23,1,93.5000028533936,2|0,0:0|0:0,0:0:0:0:
470,170,231332,6,0,P|501:135|511:82,2,93.5000028533936,2|2|2,0:0|0:0|0:0,0:0:0:0:
375,236,232265,2,0,P|331:197|201:238,1,187.000005706787,2|0,0:0|0:0,0:0:0:0:
96,286,233198,6,0,L|89:179,1,93.5000028533936,2|2,0:0|0:0,0:0:0:0:
200,123,233819,2,0,L|186:225,1,93.5000028533936,2|2,0:0|0:0,0:0:0:0:
17,148,234441,2,0,P|71:108|108:109,1,93.5000028533936,2|2,0:0|0:0,0:0:0:0:
259,259,235063,6,0,P|307:266|367:251,1,106.25,6|0,3:2|0:0,0:0:0:0:
457,71,235374,2,0,L|340:85,1,106.25,8|0,0:2|0:0,0:0:0:0:
382,331,235685,1,0,3:2:0:0:
467,189,235840,1,0,3:2:0:0:
196,153,235996,2,0,L|313:167,1,106.25,10|0,0:2|0:0,0:0:0:0:
207,337,236306,6,0,B|162:360|110:322|110:322|86:335|86:335|37:301|-15:325,1,212.5,2|8,3:2|0:2,0:0:0:0:
172,251,236773,1,0,0:0:0:0:
79,100,236928,2,0,P|53:165|60:210,1,106.25,0|0,3:2|3:2,0:0:0:0:
86,330,237239,1,10,0:2:0:0:
255,183,237394,6,0,P|327:149|478:168,1,212.5,2|0,0:0|3:2,0:0:0:0:
202,57,237861,2,0,P|121:32|51:29,1,106.25,10|0,0:2|0:0,0:0:0:0:
27,215,238172,1,0,3:2:0:0:
125,127,238327,1,0,3:2:0:0:
17,18,238483,2,0,L|26:128,1,106.25,10|0,0:2|0:0,0:0:0:0:
178,313,238793,6,0,P|206:261|210:207,1,106.25,2|0,3:2|3:2,0:0:0:0:
0,30,239104,2,0,L|9:140,1,106.25,10|0,0:2|0:0,0:0:0:0:
309,224,239415,2,0,P|292:167|256:126,1,106.25,2|0,3:2|3:2,0:0:0:0:
10,231,239726,2,0,B|60:250|60:250|114:235,1,106.25,10|0,0:2|0:0,0:0:0:0:
297,48,240037,6,0,P|366:31|499:92,1,212.5,2|8,3:2|0:2,0:0:0:0:
432,257,240503,2,0,B|390:292|390:292|378:119,1,212.5,2|0,0:0|3:2,0:0:0:0:
305,280,240970,2,0,L|298:167,1,106.25,10|0,0:2|0:0,0:0:0:0:
179,64,241280,5,0,3:2:0:0:
379,134,241436,1,0,3:2:0:0:
171,170,241591,2,0,P|113:154|83:116,1,106.25,10|0,0:2|0:0,0:0:0:0:
248,124,241902,2,0,P|263:182|245:227,1,106.25,2|0,3:2|3:2,0:0:0:0:
0,78,242213,2,0,P|42:35|90:28,1,106.25,10|0,0:2|0:0,0:0:0:0:
344,82,242524,5,0,3:2:0:0:
171,170,242679,1,0,3:2:0:0:
369,241,242835,2,0,L|501:230,1,106.25,10|0,0:2|0:0,0:0:0:0:
241,32,243146,5,0,3:2:0:0:
413,143,243301,1,0,3:2:0:0:
209,257,243457,2,0,L|77:246,1,106.25,10|0,0:2|0:0,0:0:0:0:
316,165,243768,5,0,3:2:0:0:
137,332,243923,1,0,3:2:0:0:
406,383,244079,2,0,L|538:372,1,106.25,10|0,0:2|0:0,0:0:0:0:
273,69,244389,5,10,0:3:0:0:
243,91,244466,1,0,0:0:0:0:
223,122,244544,1,10,0:2:0:0:
215,159,244622,1,0,0:0:0:0:
220,195,244699,1,8,0:2:0:0:
246,236,244778,1,8,0:0:0:0:
257,286,244856,1,8,0:0:0:0:
250,338,244934,1,8,0:0:0:0:
226,382,245011,6,0,P|156:368|116:346,1,106.25,6|0,3:2|0:0,0:0:0:0:
316,165,245322,1,8,0:2:0:0:
357,336,245477,1,0,0:0:0:0:
167,88,245633,1,0,3:2:0:0:
92,281,245788,1,0,3:2:0:0:
420,228,245944,1,10,0:2:0:0:
166,180,246099,1,0,0:0:0:0:
360,33,246255,6,0,P|395:86|407:142,1,106.25,2|0,3:2|3:2,0:0:0:0:
106,126,246565,2,0,P|121:76|152:33,1,106.25,8|0,0:2|0:0,0:0:0:0:
321,197,246876,1,0,3:2:0:0:
185,196,247032,1,0,3:2:0:0:
326,99,247187,1,10,0:2:0:0:
415,217,247343,6,0,P|352:295|258:262,1,212.5,2|0,0:0|3:2,0:0:0:0:
183,35,247809,2,0,P|223:83|244:131,1,106.25,10|0,0:2|0:0,0:0:0:0:
151,289,248120,1,0,3:2:0:0:
126,133,248275,1,0,3:2:0:0:
305,327,248431,6,0,B|340:368|391:361|391:361|425:330|471:325,1,159.375,10|0,0:2|0:0,0:0:0:0:
508,268,248742,2,0,B|488:268|454:237|454:237|403:230|368:271,1,159.375,2|0,3:2|0:0,0:0:0:0:
207,327,249053,6,0,B|172:368|121:361|121:361|87:330|41:325,1,159.375,10|0,0:2|0:0,0:0:0:0:
4,268,249364,2,0,B|23:268|57:237|57:237|108:230|143:271,1,159.375,2|0,3:2|0:0,0:0:0:0:
258,248,249674,2,0,P|291:204|304:132,1,106.25,10|0,0:2|0:0,0:0:0:0:
34,78,249985,6,0,B|44:102|74:125|74:125|139:84|227:102,1,212.5,2|8,3:2|0:2,0:0:0:0:
318,27,250451,1,0,0:0:0:0:
490,147,250607,2,0,B|432:147|377:106|377:106|400:151|381:193,1,212.5,2|10,3:2|0:2,0:0:0:0:
263,283,251073,1,0,0:0:0:0:
113,224,251229,6,0,P|97:173|95:109,1,106.25,2|0,3:2|3:2,0:0:0:0:
277,296,251540,2,0,P|293:245|295:181,1,106.25,10|0,0:2|0:0,0:0:0:0:
93,323,251850,2,0,P|45:298|-1:254,1,106.25,2|0,3:2|3:2,0:0:0:0:
305,382,252161,2,0,P|352:357|399:313,1,106.25,10|0,0:2|0:0,0:0:0:0:
396,129,252472,6,0,P|375:200|385:245,1,106.25,0|0,3:2|3:2,0:0:0:0:
465,78,252783,2,0,L|310:87,1,106.25,10|0,0:2|0:0,0:0:0:0:
45,19,253094,2,0,L|200:28,1,106.25,0|0,3:2|3:2,0:0:0:0:
133,217,253405,1,10,0:2:0:0:
94,122,253560,1,8,0:0:0:0:
311,211,253716,5,2,3:2:0:0:
47,295,253871,1,8,0:2:0:0:
385,340,254027,1,10,3:2:0:0:
140,322,254183,1,8,0:3:0:0:
325,111,254337,5,10,0:0:0:0:
300,323,254493,1,6,3:2:0:0:
178,149,254648,1,8,0:2:0:0:
222,368,254804,1,8,0:0:0:0:
485,151,254959,6,0,P|442:106|306:127,1,187.000005706787,6|8,3:2|0:0,0:0:0:0:
27,149,255426,2,0,P|70:194|206:173,1,187.000005706787,10|0,0:0|3:0,0:0:0:0:
104,20,255892,2,0,L|127:142,1,93.5000028533936,10|0,0:0|0:0,0:0:0:0:
372,283,256203,2,0,L|395:161,1,93.5000028533936,0|2,3:0|3:2,0:0:0:0:
242,74,256514,2,0,P|294:119|335:126,1,93.5000028533936,8|0,0:0|0:0,0:0:0:0:
489,52,256825,2,0,B|443:35|443:35|394:48,1,93.5000028533936,6|0,3:2|3:0,0:0:0:0:
220,192,257135,1,10,0:0:0:0:
440,129,257291,1,2,0:0:0:0:
319,318,257446,6,0,L|309:225,1,93.5000028533936,6|0,3:2|0:0,0:0:0:0:
242,74,257757,1,10,0:0:0:0:
65,236,257913,2,0,P|113:256|225:160,1,187.000005706787,8|8,0:0|0:0,0:0:0:0:
104,32,258379,2,0,P|100:96|109:126,1,93.5000028533936,10|8,0:0|0:0,0:0:0:0:
334,85,258690,6,0,L|202:68,1,93.5000028533936,10|8,0:0|0:0,0:0:0:0:
313,224,259001,1,10,0:0:0:0:
479,128,259156,1,8,0:0:0:0:
384,300,259312,1,10,0:0:0:0:
343,322,259389,1,8,0:0:0:0:
296,324,259467,1,8,0:0:0:0:
254,305,259545,1,8,0:0:0:0:
216,288,259622,1,10,0:0:0:0:
170,290,259700,1,8,0:0:0:0:
129,312,259778,2,0,L|141:374,1,46.7500014266968,8|8,0:0|0:0,0:0:0:0:
313,224,259933,6,0,B|317:158|282:102|282:102|284:133|275:161,1,187.000005706787,6|8,3:2|0:0,0:0:0:0:
105,146,260400,1,2,0:0:0:0:
105,146,260555,2,0,P|164:124|213:125,1,93.5000028533936,0|0,3:0|3:0,0:0:0:0:
489,221,260866,2,0,P|442:216|400:197,1,93.5000028533936,10|0,0:0|0:0,0:0:0:0:
461,32,261177,6,0,L|468:131,1,93.5000028533936,2|2,3:2|3:2,0:0:0:0:
227,32,261488,2,0,P|271:16|350:39,1,93.5000028533936,10|0,0:0|0:0,0:0:0:0:
313,224,261799,1,0,3:0:0:0:
281,102,261954,1,0,3:0:0:0:
400,197,262110,2,0,L|387:322,1,93.5000028533936,10|0,0:0|0:0,0:0:0:0:
112,355,262420,6,0,P|157:298|275:311,1,187.000005706787,2|8,3:2|0:0,0:0:0:0:
133,268,262887,2,0,P|115:220|202:126,1,187.000005706787,2|0,0:0|3:0,0:0:0:0:
74,189,263353,2,0,P|53:143|70:79,1,93.5000028533936,10|0,0:0|0:0,0:0:0:0:
296,13,263664,6,0,L|278:123,1,93.5000028533936,2|0,3:2|3:0,0:0:0:0:
387,0,263975,2,0,L|369:110,1,93.5000028533936,10|0,0:0|0:0,0:0:0:0:
421,267,264286,2,0,L|403:157,1,93.5000028533936,2|0,3:2|3:0,0:0:0:0:
512,280,264597,2,0,L|494:170,1,93.5000028533936,10|0,0:0|0:0,0:0:0:0:
159,219,264907,6,0,B|221:286|322:227|322:227|272:237|234:206,1,255,6|0,3:2|0:0,0:0:0:0:
367,125,265529,2,0,P|415:235|383:302,1,170,2|10,3:2|0:0,0:0:0:0:
168,119,266151,6,0,L|188:4,1,85,2|0,3:2|3:0,0:0:0:0:
42,187,266462,2,0,L|62:302,1,85,10|0,0:0|0:0,0:0:0:0:
240,263,266773,2,0,P|190:229|155:228,1,85,2|0,3:2|3:0,0:0:0:0:
325,102,267084,2,0,P|375:68|410:67,1,85,10|0,0:0|0:0,0:0:0:0:
478,245,267394,5,2,3:2:0:0:
389,155,267550,1,0,3:0:0:0:
368,298,267705,2,0,L|358:410,1,85,8|0,0:0|0:0,0:0:0:0:
147,199,268016,5,2,3:2:0:0:
236,109,268172,1,0,3:0:0:0:
257,252,268327,2,0,L|267:364,1,85,10|0,0:0|0:0,0:0:0:0:
55,229,268638,2,0,L|65:117,1,85,2|8,3:2|0:0,0:0:0:0:
279,27,268949,2,0,P|324:94|322:130,1,85,10|0,3:3|0:0,0:0:0:0:
257,252,269260,5,10,0:0:0:0:
229,98,269416,1,0,3:0:0:0:
377,315,269571,1,10,0:0:0:0:
415,135,269727,1,8,0:0:0:0:
283,353,269882,6,0,P|220:357|167:240,1,170,6|2,3:2|0:0,0:0:0:0:
343,222,270348,2,0,P|406:218|459:335,1,170,10|0,0:0|3:0,0:0:0:0:
257,252,270814,2,0,L|239:149,1,85,10|0,0:0|0:0,0:0:0:0:
429,51,271125,5,2,3:2:0:0:
429,51,271280,2,0,L|411:154,1,85,0|0,0:0|1:0,0:0:0:0:
344,222,271591,1,8,0:0:0:0:
160,118,271747,2,0,P|213:80|264:71,1,85,2|0,3:2|3:0,0:0:0:0:
147,235,272058,2,0,P|107:218|75:191,1,85,8|8,0:0|3:0,0:0:0:0:
242,168,272369,5,6,3:2:0:0:
242,173,272446,1,0,3:0:0:0:
243,177,272524,1,0,3:0:0:0:
243,181,272602,1,0,3:0:0:0:
244,185,272679,1,0,3:0:0:0:
245,189,272757,1,0,3:0:0:0:
245,194,272835,1,0,3:0:0:0:
246,198,272913,1,0,3:0:0:0:
246,202,272990,1,8,0:0:0:0:
247,206,273068,1,0,3:0:0:0:
247,210,273146,1,0,3:0:0:0:
248,215,273223,1,0,3:0:0:0:
249,219,273301,1,8,0:0:0:0:
249,223,273379,1,0,3:0:0:0:
250,227,273457,1,0,3:0:0:0:
250,232,273534,1,0,3:0:0:0:
250,231,273612,5,10,0:2:0:0:
257,259,273689,1,0,3:0:0:0:
273,284,273767,1,0,3:0:0:0:
297,302,273845,1,0,3:0:0:0:
325,310,273922,1,8,0:0:0:0:
354,309,274000,1,0,3:0:0:0:
382,298,274078,1,0,3:0:0:0:
404,278,274156,1,0,3:0:0:0:
418,252,274234,6,0,L|403:199,1,42.5,8|0,0:0|3:0,0:0:0:0:
350,91,274389,2,0,L|338:131,1,42.5,0|0,3:0|3:0,0:0:0:0:
250,231,274545,2,0,L|238:190,1,42.5,8|0,0:0|3:0,0:0:0:0:
150,28,274700,2,0,L|138:68,1,42.5,0|0,3:0|3:0,0:0:0:0:
60,222,274856,6,0,B|36:123|36:123|46:147|74:161,1,152.999995330811,2|0,3:2|0:0,0:0:0:0:
269,59,275944,6,0,P|204:44|102:96,1,170,6|0,3:2|0:0,0:0:0:0:
287,170,276410,2,0,P|339:128|453:132,1,170,6|8,3:2|0:0,0:0:0:0:
488,217,276876,1,0,0:0:0:0:
301,267,277032,1,0,3:0:0:0:
407,303,277187,6,0,L|382:190,1,85,2|0,3:2|0:0,0:0:0:0:
269,59,277498,1,8,0:0:0:0:
230,198,277654,2,0,L|205:311,1,85,2|0,3:2|0:0,0:0:0:0:
48,311,277964,1,8,0:0:0:0:
118,226,278120,1,0,3:0:0:0:
33,328,278275,1,8,0:0:0:0:
22,157,278431,6,0,B|10:46|10:46|54:91,1,170,6|0,3:2|0:0,0:0:0:0:
230,198,278897,2,0,B|242:87|242:87|198:132,1,170,0|8,3:0|0:0,0:0:0:0:
118,226,279363,1,0,0:0:0:0:
118,226,279519,1,0,3:0:0:0:
304,253,279674,6,0,L|317:153,1,85,2|0,3:2|0:0,0:0:0:0:
440,93,279985,2,0,L|453:193,1,85,8|0,0:0|3:0,0:0:0:0:
355,348,280296,1,8,0:0:0:0:
355,348,280374,1,8,0:0:0:0:
355,348,280451,2,0,P|304:358|255:338,1,85,8|8,0:0|3:0,0:0:0:0:
176,129,280762,1,8,0:0:0:0:
19,296,280918,6,0,B|52:302|81:283|81:283|113:302|113:302|146:282|195:287,1,170,6|0,3:2|0:0,0:0:0:0:
489,195,281384,2,0,B|455:198|427:182|427:182|395:201|395:201|357:178|313:186,1,170,6|8,3:2|3:0,0:0:0:0:
170,89,281850,6,0,B|218:75|221:131|221:131|198:185|232:227,1,170,6|2,3:2|3:2,0:0:0:0:
92,29,282317,2,0,B|45:15|42:71|42:71|65:125|38:156,1,170,6|0,3:2|3:0,0:0:0:0:
69,254,282783,1,2,0:0:0:0:
95,241,282861,1,2,0:0:0:0:
123,226,282938,2,0,L|113:345,1,85,8|0,0:0|3:0,0:0:0:0:
319,365,283249,1,8,0:0:0:0:
440,255,283405,6,0,B|409:236|409:236|372:287|372:287|272:270,1,170,6|8,3:2|0:0,0:0:0:0:
65,152,283871,2,0,L|151:138,1,85,10|0,0:0|0:0,0:0:0:0:
336,72,284182,1,2,3:2:0:0:
214,228,284337,1,8,3:0:0:0:
141,24,284493,1,0,3:0:0:0:
302,275,284648,5,6,3:2:0:0:
256,192,284726,12,2,296073,0:0:0:0:
