osu file format v14

[General]
AudioFilename: audio.mp3
AudioLeadIn: 0
PreviewTime: 88809
Countdown: 1
SampleSet: Soft
StackLeniency: 0.7
Mode: 0
LetterboxInBreaks: 0
WidescreenStoryboard: 1

[Editor]
DistanceSpacing: 0.7
BeatDivisor: 4
GridSize: 4
TimelineZoom: 2.500005

[Metadata]
Title:World Lampshade
TitleUnicode:World Lampshade
Artist:Himeringo
ArtistUnicode:Himeringo
Creator:Lamontagne23
Version:Insane
Source:
Tags:
BeatmapID:1916491
BeatmapSetID:917757

[Difficulty]
HPDrainRate:6
CircleSize:4
OverallDifficulty:6
ApproachRate:9
SliderMultiplier:1.56
SliderTickRate:1

[Events]
//Background and Video events
0,0,"1405652.jpg",0,0
//Break Periods
2,215400,222061
//Storyboard Layer 0 (Background)
//Storyboard Layer 1 (Fail)
//Storyboard Layer 2 (Pass)
//Storyboard Layer 3 (Foreground)
//Storyboard Sound Samples

[TimingPoints]
1314,310.880829015544,4,2,1,50,1,0
1547,-100,4,2,1,5,0,0
1624,-100,4,2,1,50,0,0
2479,-100,4,2,1,5,0,0
2557,-100,4,2,1,50,0,0
3101,-100,4,2,1,5,0,0
3179,-100,4,2,1,50,0,0
4034,-100,4,2,1,5,0,0
4111,-100,4,2,1,50,0,0
6210,-100,4,2,1,5,0,0
6288,-100,4,2,1,50,0,0
7453,-100,4,2,1,5,0,0
7531,-100,4,2,1,50,0,0
9707,-133.333333333333,4,2,1,50,0,0
10174,-100,4,2,1,50,0,0
11495,-100,4,2,1,5,0,0
11573,-100,4,2,1,50,0,0
13671,-100,4,2,1,5,0,0
13749,-100,4,2,1,50,0,0
16158,-100,4,2,1,5,0,0
16236,-100,4,2,1,50,0,0
21210,-125,4,2,1,50,0,0
41106,-166.666666666667,4,2,1,50,0,0
43516,-166.666666666667,4,2,1,5,0,0
43593,-166.666666666667,4,2,1,50,0,0
48490,-166.666666666667,4,2,1,5,0,0
48567,-166.666666666667,4,2,1,50,0,0
50977,-166.666666666667,4,2,1,5,0,0
51054,-125,4,2,1,50,0,0
52842,-125,4,2,1,5,0,0
52920,-125,4,2,1,50,0,0
55018,-125,4,2,1,5,0,0
55096,-125,4,2,1,50,0,0
80899,-111.111111111111,4,2,1,50,0,0
88360,-500,4,2,1,50,0,0
90847,-90.9090909090909,4,2,1,50,0,1
115718,-100,4,2,1,50,0,0
119759,-133.333333333333,4,2,1,50,0,0
120070,-100,4,2,1,50,0,0
121858,-100,4,2,1,5,0,0
121935,-100,4,2,1,50,0,0
123101,-100,4,2,1,5,0,0
123179,-100,4,2,1,50,0,0
124111,-133.333333333333,4,2,1,50,0,0
124578,-66.6666666666667,4,2,1,50,0,0
125355,-100,4,2,1,50,0,0
128386,-100,4,2,1,5,0,0
128464,-100,4,2,1,50,0,0
130562,-133.333333333333,4,2,1,5,0,0
130640,-100,4,2,1,50,0,0
134837,-133.333333333333,4,2,1,50,0,0
135070,-133.333333333333,4,2,1,5,0,0
135148,-133.333333333333,4,2,1,50,0,0
137790,-125,4,2,1,50,0,0
140277,-166.666666666667,4,2,1,50,0,0
140510,-166.666666666667,4,2,1,5,0,0
140588,-125,4,2,1,50,0,0
154189,-125,4,2,1,5,0,0
154267,-125,4,2,1,50,0,0
155510,-166.666666666667,4,2,1,50,0,0
159163,-166.666666666666,4,2,1,5,0,0
159241,-166.666666666666,4,2,1,50,0,0
169111,-166.666666666666,4,2,1,5,0,0
169189,-166.666666666666,4,2,1,50,0,0
175407,-142.857142857143,4,2,1,50,0,0
204863,-142.857142857143,4,2,1,5,0,0
204940,-142.857142857143,4,2,1,50,0,0
205174,-142.857142857143,4,2,1,5,0,0
205251,-142.857142857143,4,2,1,50,0,0
222661,-250,4,2,1,50,0,0
223127,-250,4,2,1,5,0,0
223282,-200,4,2,1,50,0,0
223749,-200,4,2,1,5,0,0
223904,-166.666666666667,4,2,1,50,0,0
224370,-166.666666666667,4,2,1,5,0,0
224526,-142.857142857143,4,2,1,50,0,0
224992,-142.857142857143,4,2,1,5,0,0
225148,-200,4,2,1,50,0,0
226080,-200,4,2,1,5,0,0
226391,-200,4,2,1,50,0,0
227324,-200,4,2,1,5,0,0
227635,-250,4,2,1,50,0,0
228567,-166.666666666667,4,2,1,50,0,0
228878,-166.666666666667,4,2,1,5,0,0
229034,-166.666666666667,4,2,1,50,0,0
229345,-166.666666666667,4,2,1,5,0,0
229500,-125,4,2,1,50,0,0
229655,-125,4,2,1,5,0,0
229811,-125,4,2,1,50,0,0
229966,-125,4,2,1,5,0,0
230122,-142.857142857143,4,2,1,50,0,0
230588,-142.857142857143,4,2,1,5,0,0
230744,-142.857142857143,4,2,1,50,0,0
231210,-142.857142857143,4,2,1,5,0,0
231365,-142.857142857143,4,2,1,50,0,0
232609,-333.333333333333,4,2,1,50,0,0
233075,-166.666666666667,4,2,1,5,0,0
235096,-90.9090909090909,4,2,1,50,0,1
240303,-90.9090909090909,4,2,1,5,0,1
240381,-90.9090909090909,4,2,1,50,0,1
241236,-90.9090909090909,4,2,1,5,0,1
241313,-90.9090909090909,4,2,1,50,0,1
241858,-90.9090909090909,4,2,1,5,0,1
241935,-90.9090909090909,4,2,1,50,0,1
245277,-90.9090909090909,4,2,1,5,0,1
245355,-90.9090909090909,4,2,1,50,0,1
254992,-83.3333333333333,4,2,1,50,0,1
255925,-90.9090909090909,4,2,1,50,0,1
256858,-83.3333333333333,4,2,1,50,0,1
265174,-83.3333333333333,4,2,1,5,0,1
265251,-83.3333333333333,4,2,1,50,0,1
274889,-90.9090909090909,4,2,1,50,0,0
275977,310.880829015544,4,2,1,50,1,1
275977,-83.3333333333333,4,2,1,50,0,1
284681,-90.9090909090909,4,2,1,50,0,0
296495,-90.9090909090909,4,2,1,15,0,0

[Colours]
Combo1 : 255,130,4
Combo2 : 249,0,0
Combo3 : 221,221,221
Combo4 : 0,0,145

[HitObjects]
132,16,1314,6,0,L|112:153,1,117
60,187,1624,2,0,L|44:293,1,78
94,342,1935,1,0,0:0:0:0:
189,256,2091,1,0,0:0:0:0:
302,343,2246,2,0,L|285:227,1,117
259,155,2557,2,0,L|270:77,1,78
468,134,2868,2,0,L|352:150,1,117
304,231,3179,1,0,0:0:0:0:
272,101,3334,1,0,0:0:0:0:
171,265,3490,2,0,L|195:191,1,78
436,363,3801,6,0,L|320:346,1,117
237,333,4111,2,0,L|140:363,1,78
68,313,4422,1,0,0:0:0:0:
155,206,4578,1,0,0:0:0:0:
278,264,4733,2,0,L|248:84,1,156
192,36,5200,1,0,0:0:0:0:
368,68,5355,2,0,L|338:165,1,78
375,235,5666,1,0,0:0:0:0:
437,154,5821,1,0,0:0:0:0:
394,36,5977,2,0,P|331:25|261:47,1,117
165,137,6288,6,0,L|151:226,1,78
230,348,6598,2,0,L|217:270,1,78
247,176,6909,1,0,0:0:0:0:
125,299,7065,1,0,0:0:0:0:
326,308,7220,2,0,B|412:279|412:279|378:247,1,117
307,226,7531,2,0,P|277:194|271:147,1,78
371,94,7842,2,0,P|369:50|340:12,1,78
276,149,8153,1,0,0:0:0:0:
276,149,8308,1,0,0:0:0:0:
170,93,8464,2,0,L|184:4,1,78
64,88,8775,5,0,0:0:0:0:
64,88,8930,1,0,0:0:0:0:
95,200,9086,2,0,L|184:214,1,78
253,144,9396,2,0,L|330:131,1,78
318,351,9707,2,0,L|298:229,1,117.000004463196
350,151,10174,6,0,L|423:108,1,78
242,108,10484,6,0,L|169:65,1,78
179,258,10795,5,0,0:0:0:0:
179,258,10873,1,0,0:0:0:0:
179,258,10951,2,0,P|187:215|216:170,1,78
400,252,11262,6,0,L|254:245,1,117
291,161,11573,2,0,P|304:118|295:62,1,78
229,26,11883,1,0,0:0:0:0:
229,26,12039,1,0,0:0:0:0:
381,104,12194,2,0,L|225:111,1,156
137,79,12661,1,0,0:0:0:0:
172,183,12816,2,0,L|152:279,1,78
206,350,13127,1,0,0:0:0:0:
279,257,13282,1,0,0:0:0:0:
385,356,13438,2,0,L|359:235,1,117
383,156,13749,6,0,L|398:79,1,78
287,187,14060,2,0,L|209:191,1,78
247,351,14370,2,0,L|262:274,1,78
130,154,14681,2,0,L|52:158,1,78
82,320,14992,1,0,0:0:0:0:
165,243,15148,1,0,0:0:0:0:
271,304,15303,2,0,L|348:308,1,78
447,258,15614,1,0,0:0:0:0:
447,258,15769,1,0,0:0:0:0:
327,216,15925,2,0,L|350:81,1,117
357,78,16236,6,0,P|294:115|265:118,1,78
157,208,16547,2,0,P|220:171|249:168,1,78
317,196,16858,1,0,0:0:0:0:
205,90,17013,1,0,0:0:0:0:
228,257,17168,2,0,P|188:313|157:326,1,78
65,283,17479,1,0,0:0:0:0:
65,283,17635,1,0,0:0:0:0:
151,234,17790,2,0,P|154:195|142:159,1,78
49,70,18101,2,0,L|138:67,1,78
302,38,18412,1,0,0:0:0:0:
223,105,18567,1,0,0:0:0:0:
324,159,18723,6,0,L|385:169,3,39
251,221,19034,2,0,L|229:278,3,39
219,137,19345,1,0,0:0:0:0:
339,80,19500,1,0,0:0:0:0:
339,245,19655,1,0,0:0:0:0:
457,75,19811,6,0,P|428:165|434:249,1,156
452,306,20277,1,0,0:0:0:0:
355,270,20433,2,0,P|303:270|254:288,1,78
207,330,20744,1,0,0:0:0:0:
300,190,20899,2,0,L|300:102,1,78
486,170,21210,6,0,P|429:151|403:148,1,62.4
307,165,21521,1,0,0:0:0:0:
381,246,21676,2,0,P|384:305|380:331,1,62.4
235,327,21987,1,0,0:0:0:0:
235,327,22065,1,0,0:0:0:0:
235,327,22143,2,0,P|260:304|273:278,1,62.4
303,183,22453,6,0,P|285:157|264:134,1,62.4
150,244,22764,2,0,L|215:208,1,62.4
260,117,23075,2,0,L|195:81,1,62.4
91,100,23308,1,0,0:0:0:0:
91,100,23386,2,0,L|73:159,1,62.4
127,272,23619,1,0,0:0:0:0:
127,272,23697,6,0,L|189:273,1,62.4
283,199,24008,1,0,0:0:0:0:
372,249,24163,2,0,L|390:189,1,62.4
443,335,24474,1,0,0:0:0:0:
443,335,24552,1,0,0:0:0:0:
443,335,24630,2,0,L|380:336,1,62.4
324,262,24940,6,0,L|342:202,1,62.4
274,343,25251,2,0,L|211:344,1,62.4
232,249,25484,1,0,0:0:0:0:
232,249,25562,2,0,L|213:189,1,62.4
263,119,25795,1,0,0:0:0:0:
263,119,25873,2,0,L|310:77,1,62.4
342,202,26106,1,0,0:0:0:0:
342,202,26184,6,0,L|404:199,1,62.4
474,125,26495,1,0,0:0:0:0:
363,230,26650,2,0,L|300:227,1,62.4
198,139,26961,1,0,0:0:0:0:
198,139,27039,1,0,0:0:0:0:
198,139,27117,2,0,P|205:104|231:72,1,62.4
272,209,27427,6,0,P|266:239|250:265,1,62.4
325,117,27738,2,0,L|393:117,1,62.4
447,223,28049,2,0,L|371:190,1,62.4
311,303,28282,1,0,0:0:0:0:
311,303,28360,2,0,L|387:270,1,62.4
496,159,28593,1,0,0:0:0:0:
496,159,28671,6,0,L|463:83,1,62.4
267,46,28982,2,0,L|213:78,1,62.4
227,231,29293,2,0,L|244:171,1,62.4
322,127,29526,1,0,0:0:0:0:
322,127,29604,2,0,L|394:105,1,62.4
329,222,29915,6,0,L|346:281,1,62.4
147,205,30225,2,0,L|164:145,1,62.4
104,278,30459,1,0,0:0:0:0:
104,278,30536,2,0,L|28:280,1,62.4
53,177,30769,1,0,0:0:0:0:
53,177,30847,2,0,P|43:125|45:96,1,62.4
231,24,31080,1,0,0:0:0:0:
231,24,31158,6,0,P|192:60|177:85,1,62.4
197,226,31469,2,0,P|172:206|153:181,1,62.4
300,164,31780,2,0,P|351:154|385:156,1,62.4
296,343,32013,1,0,0:0:0:0:
296,343,32091,2,0,L|286:271,1,62.4
363,63,32402,6,0,P|417:65|445:80,1,62.4
418,299,32712,2,0,L|408:227,1,62.4
276,43,33023,2,0,P|222:45|194:60,1,62.4
68,146,33257,1,0,0:0:0:0:
68,146,33334,2,0,P|122:144|150:129,1,62.4
359,41,33567,1,0,0:0:0:0:
359,41,33645,6,0,L|354:130,1,62.4
268,255,33956,2,0,L|246:313,1,62.4
453,203,34267,2,0,L|449:140,1,62.4
345,324,34500,1,0,0:0:0:0:
345,324,34578,2,0,L|408:318,1,62.4
364,163,34889,6,0,L|321:89,1,62.4
246,310,35200,2,0,L|289:236,1,62.4
236,175,35433,1,0,0:0:0:0:
236,175,35510,2,0,L|193:101,1,62.4
67,76,35744,1,0,0:0:0:0:
67,76,35821,2,0,L|144:40,1,62.4
97,195,36054,1,0,0:0:0:0:
97,195,36132,6,0,L|78:268,1,62.4
182,278,36443,1,0,0:0:0:0:
236,175,36598,2,0,L|297:162,1,62.4
419,52,36909,1,0,0:0:0:0:
419,52,36987,1,0,0:0:0:0:
419,52,37065,2,0,P|408:103|410:140,1,62.4
346,321,37376,6,0,L|327:240,1,62.4
272,72,37687,2,0,P|313:52|343:49,1,62.4
236,175,37997,2,0,L|221:235,1,62.4
161,340,38231,1,0,0:0:0:0:
161,340,38308,2,0,L|248:329,1,62.4
420,341,38541,1,0,0:0:0:0:
420,341,38619,6,0,L|407:252,1,62.4
411,183,38930,2,0,P|460:167|491:164,1,62.4
333,229,39241,2,0,P|284:213|253:210,1,62.4
345,127,39474,1,0,0:0:0:0:
345,127,39552,2,0,L|345:57,1,62.4
247,34,39785,1,0,0:0:0:0:
247,34,39863,5,0,0:0:0:0:
333,229,40174,5,0,0:0:0:0:
339,307,40484,5,0,0:0:0:0:
422,291,40795,5,0,0:0:0:0:
468,363,41106,6,0,P|394:341|364:336,1,93.5999971435548
270,338,41573,1,0,0:0:0:0:
333,260,41728,2,0,L|350:202,1,46.7999985717774
291,349,42039,1,0,0:0:0:0:
206,285,42194,6,0,L|196:184,1,93.5999971435548
262,136,42661,2,0,L|279:78,1,46.7999985717774
366,193,42972,2,0,L|391:187,3,23.3999992858887
331,227,43282,2,0,P|345:167|342:151,1,70.1999978576661
347,123,43593,6,0,L|365:60,1,46.7999985717774
442,45,43904,1,0,0:0:0:0:
438,138,44060,2,0,L|450:182,1,46.7999985717774
505,259,44370,1,0,0:0:0:0:
393,265,44526,6,0,L|352:359,1,93.5999971435548
258,347,44992,1,0,0:0:0:0:
266,252,45148,2,0,L|216:210,1,46.7999985717774
335,199,45459,2,0,L|372:145,1,46.7999985717774
448,229,45769,1,0,0:0:0:0:
448,229,45925,1,0,0:0:0:0:
463,128,46080,6,0,P|450:81|407:53,1,93.5999971435548
326,42,46547,1,0,0:0:0:0:
244,89,46702,2,0,L|189:75,1,46.7999985717774
309,145,47013,6,0,L|413:117,1,93.5999971435548
367,221,47479,2,0,L|366:328,1,93.5999971435548
272,341,47946,2,0,L|241:356,3,23.3999992858887
282,313,48257,2,0,P|282:272|268:242,1,70.1999978576661
278,219,48567,6,0,P|289:187|285:121,1,93.5999971435548
190,218,49034,6,0,P|183:184|147:129,1,93.5999971435548
364,153,49500,6,0,P|378:122|428:78,1,93.5999971435548
432,237,49966,6,0,L|468:274,1,46.7999985717774
315,245,50277,6,0,L|269:266,1,46.7999985717774
266,143,50588,5,0,0:0:0:0:
266,143,50666,1,0,0:0:0:0:
266,143,50744,2,0,L|240:57,1,70.1999978576661
316,37,51054,6,0,P|372:44|398:57,1,62.4
457,114,51365,2,0,L|458:177,1,62.4
349,298,51598,1,0,0:0:0:0:
349,298,51676,2,0,L|379:222,1,62.4
239,227,51909,1,0,0:0:0:0:
239,227,51987,2,0,L|172:191,1,62.4
307,82,52220,1,0,0:0:0:0:
307,82,52298,6,0,L|277:167,1,62.4
268,310,52609,2,0,P|324:280|357:278,1,93.6
401,336,52920,2,0,L|389:249,1,62.4
371,187,53153,1,0,0:0:0:0:
371,187,53231,2,0,L|399:116,1,62.4
349,37,53464,1,0,0:0:0:0:
349,37,53541,6,0,L|263:52,1,62.4
253,204,53852,2,0,L|276:133,1,62.4
158,119,54163,2,0,L|83:132,1,62.4
142,288,54396,1,0,0:0:0:0:
142,288,54474,2,0,L|165:217,1,62.4
308,118,54785,6,0,P|254:75|230:73,1,93.6
183,48,55096,2,0,P|193:109|188:129,1,62.4
148,229,55329,1,0,0:0:0:0:
148,229,55407,2,0,P|170:207|197:193,1,62.4
303,222,55640,1,0,0:0:0:0:
303,222,55718,2,0,P|325:200|352:186,1,62.4
428,40,55951,1,0,0:0:0:0:
428,40,56029,6,0,P|406:62|392:89,1,62.4
483,220,56339,2,0,P|484:191|473:158,1,62.4
375,291,56650,2,0,P|377:321|390:350,1,62.4
281,247,56883,1,0,0:0:0:0:
281,247,56961,2,0,P|268:209|273:164,1,62.4
316,102,57272,6,0,P|327:63|357:29,1,62.4
483,160,57583,2,0,L|401:177,1,62.4
281,247,57894,2,0,L|219:234,1,62.4
70,249,58127,1,0,0:0:0:0:
70,249,58205,2,0,P|96:206|97:179,1,62.4
43,62,58438,1,0,0:0:0:0:
43,62,58516,6,0,L|123:78,1,62.4
216,181,58826,2,0,L|228:91,1,62.4
320,217,59137,2,0,L|328:278,1,62.4
161,335,59370,1,0,0:0:0:0:
161,335,59448,2,0,L|234:291,1,62.4
401,184,59759,6,0,P|394:142|362:115,1,62.4
328,278,60070,2,0,P|330:308|346:334,1,62.4
273,129,60303,1,0,0:0:0:0:
273,129,60381,2,0,P|243:98|201:94,1,62.4
208,274,60692,2,0,P|211:223|203:189,1,62.4
325,57,61003,6,0,P|392:31|409:30,1,62.4
250,228,61313,2,0,P|202:282|195:298,1,62.4
424,181,61624,2,0,P|436:152|431:101,1,62.4
407,315,61858,1,0,0:0:0:0:
407,315,61935,2,0,P|378:303|327:308,1,62.4
223,145,62246,6,0,P|216:90|220:60,1,62.4
125,267,62557,2,0,P|84:297|52:309,1,62.4
77,108,62868,2,0,P|88:44|99:26,1,62.4
214,184,63101,1,0,0:0:0:0:
214,184,63179,2,0,L|283:176,1,62.4
441,311,63412,1,0,0:0:0:0:
441,311,63490,6,0,L|396:251,1,62.4
457,165,63801,2,0,L|479:99,1,62.4
323,325,64111,2,0,L|261:279,1,62.4
361,172,64422,2,0,L|352:93,1,62.4
214,184,64733,6,0,P|162:179|134:160,1,62.4
243,68,65044,2,0,P|260:40|285:22,1,62.4
128,84,65277,1,0,0:0:0:0:
128,84,65355,2,0,P|88:88|53:117,1,62.4
17,291,65588,1,0,0:0:0:0:
17,291,65666,2,0,L|29:204,1,62.4
159,333,65899,1,0,0:0:0:0:
159,333,65977,6,0,L|214:297,1,62.4
273,215,66288,1,0,0:0:0:0:
390,341,66443,2,0,L|352:270,1,62.4
387,173,66676,1,0,0:0:0:0:
387,173,66754,2,0,L|374:96,1,62.4
396,23,67065,1,0,0:0:0:0:
295,102,67220,6,0,P|257:108|206:101,1,62.4
387,173,67531,2,0,P|425:167|476:174,1,62.4
264,223,67842,2,0,L|205:294,1,62.4
233,106,68075,1,0,0:0:0:0:
233,106,68153,2,0,P|190:85|152:86,1,62.4
101,218,68386,1,0,0:0:0:0:
101,218,68464,6,0,P|111:176|134:153,1,62.4
178,354,68775,2,0,L|228:281,1,62.4
236,208,69086,1,0,0:0:0:0:
305,284,69241,1,0,0:0:0:0:
380,204,69396,2,0,P|383:160|372:130,1,62.4
234,44,69707,6,0,P|227:74|232:105,1,62.4
302,157,70018,1,0,0:0:0:0:
354,70,70174,1,0,0:0:0:0:
452,118,70329,2,0,P|460:165|453:206,1,62.4
383,310,70640,1,0,0:0:0:0:
383,310,70795,1,0,0:0:0:0:
340,210,70951,6,0,P|349:165|365:139,1,62.4
393,327,71262,1,0,0:0:0:0:
291,351,71417,2,0,P|254:334|145:320,1,124.8
109,257,71883,1,0,0:0:0:0:
222,308,72039,2,0,P|267:292|303:288,1,62.4
436,267,72350,2,0,P|405:260|376:248,1,62.4
304,194,72661,1,0,0:0:0:0:
319,338,72816,2,0,P|297:315|281:288,1,62.4
398,172,73127,2,0,P|396:203|400:234,1,62.4
436,329,73438,6,0,P|357:249|329:229,1,124.8
252,200,73904,1,0,0:0:0:0:
173,338,74060,2,0,P|195:291|195:260,1,62.4
159,180,74370,1,0,0:0:0:0:
227,74,74526,2,0,P|267:51|299:47,1,62.4
396,152,74837,2,0,P|356:129|324:125,1,62.4
274,72,75148,1,0,0:0:0:0:
294,203,75303,2,0,L|259:267,1,62.4
425,97,75614,2,0,L|390:161,1,62.4
470,334,75925,6,0,P|403:269|363:246,1,124.8
321,164,76391,1,0,0:0:0:0:
225,268,76547,2,0,P|212:223|190:201,1,62.4
144,141,76858,1,0,0:0:0:0:
70,286,77013,2,0,P|105:255|135:248,1,62.4
213,279,77324,1,0,0:0:0:0:
195,160,77479,2,0,B|167:120|133:102,1,62.4
264,67,77790,2,0,B|292:27|326:9,1,62.4
414,70,78101,2,0,B|459:53|498:58,1,62.4
348,150,78412,6,0,L|310:288,1,124.8
237,328,78878,1,0,0:0:0:0:
230,219,79034,2,0,P|225:202|199:164,1,62.4
40,139,79345,2,0,P|86:107|118:103,1,62.4
175,82,79655,1,0,0:0:0:0:
123,192,79811,2,0,P|92:238|90:256,1,62.4
109,332,80122,1,0,0:0:0:0:
204,257,80277,2,0,L|242:248,3,31.2
314,216,80588,2,0,L|353:217,3,31.2
411,287,80899,6,0,L|444:207,1,70.1999978576661
364,78,81210,2,0,L|395:156,1,70.1999978576661
304,146,81521,1,0,0:0:0:0:
276,60,81676,1,0,0:0:0:0:
219,133,81832,2,0,L|183:216,1,70.1999978576661
297,305,82143,6,0,L|264:226,1,70.1999978576661
142,88,82453,2,0,L|172:12,1,70.1999978576661
99,230,82764,2,0,L|16:226,1,70.1999978576661
304,146,83075,2,0,L|337:61,1,70.1999978576661
191,267,83386,6,0,L|193:338,1,70.1999978576661
236,92,83697,2,0,L|263:22,1,70.1999978576661
177,189,84008,1,0,0:0:0:0:
138,111,84163,1,0,0:0:0:0:
272,218,84319,2,0,L|362:256,1,70.1999978576661
459,98,84630,6,0,L|387:124,1,70.1999978576661
422,340,84940,2,0,L|411:255,1,70.1999978576661
307,69,85251,2,0,L|314:159,1,70.1999978576661
217,207,85562,2,0,L|192:242,3,35.099998928833
295,123,85873,6,0,L|377:103,1,70.1999978576661
472,62,86184,1,0,0:0:0:0:
458,197,86339,2,0,L|401:249,1,70.1999978576661
330,344,86650,1,0,0:0:0:0:
287,208,86806,2,0,P|290:146|298:120,1,70.1999978576661
373,61,87117,5,0,0:0:0:0:
474,171,87272,2,0,P|474:206|469:240,1,70.1999978576661
337,312,87583,1,0,0:0:0:0:
337,312,87661,1,0,0:0:0:0:
337,312,87738,2,0,L|301:323,3,35.099998928833
238,254,88049,2,0,L|204:243,3,35.099998928833
112,313,88360,6,0,P|41:306|95:284,1,187.2
91,282,90847,6,0,P|144:283|209:300,1,85.8000026184083
349,262,91158,2,0,P|296:263|231:280,1,85.8000026184083
166,201,91469,1,0,0:0:0:0:
92,161,91624,1,0,0:0:0:0:
217,83,91780,2,0,P|259:82|302:90,1,85.8000026184083
93,244,92091,6,0,P|40:243|-25:226,1,85.8000026184083
239,253,92402,2,0,P|275:214|309:156,1,85.8000026184083
169,289,92712,1,0,0:0:0:0:
200,367,92867,1,0,0:0:0:0:
360,256,93023,2,0,P|372:204|373:137,1,85.8000026184083
234,60,93334,5,0,0:0:0:0:
318,104,93490,1,0,0:0:0:0:
171,200,93645,2,0,P|158:148|157:81,1,85.8000026184083
249,40,93956,1,0,0:0:0:0:
333,84,94112,1,0,0:0:0:0:
82,44,94267,2,0,P|127:71|175:118,1,85.8000026184083
185,271,94578,5,0,0:0:0:0:
143,195,94733,1,0,0:0:0:0:
99,335,94889,2,0,P|94:292|83:250,1,85.8000026184083
15,123,95200,1,0,0:0:0:0:
177,185,95355,1,0,0:0:0:0:
144,49,95510,2,0,P|102:38|59:33,1,85.8000026184083
292,44,95821,6,0,P|287:86|276:128,1,85.8000026184083
158,214,96132,2,0,P|115:209|73:198,1,85.8000026184083
286,150,96443,1,0,0:0:0:0:
368,149,96598,1,0,0:0:0:0:
228,326,96754,2,0,P|232:283|243:241,1,85.8000026184083
383,239,97065,5,0,0:0:0:0:
325,300,97220,1,0,0:0:0:0:
274,135,97376,2,0,P|295:90|332:56,1,85.8000026184083
479,73,97687,1,0,0:0:0:0:
397,41,97842,1,0,0:0:0:0:
510,223,97997,2,0,P|452:174|411:157,1,85.8000026184083
288,57,98308,5,0,0:0:0:0:
374,24,98464,1,0,0:0:0:0:
273,211,98619,2,0,P|248:165|239:98,1,85.8000026184083
373,144,98930,1,0,0:0:0:0:
451,201,99086,1,0,0:0:0:0:
215,142,99241,2,0,P|202:78|211:47,1,85.8000026184083
387,137,99552,5,0,0:0:0:0:
299,155,99707,1,0,0:0:0:0:
502,15,99863,2,0,B|425:70,1,85.8000026184083
220,195,100174,2,0,L|196:143,3,42.9000013092041
277,114,100484,2,0,L|301:62,3,42.9000013092041
134,73,100795,6,0,P|169:48|210:36,1,85.8000026184083
197,299,101106,2,0,P|229:240|232:189,1,85.8000026184083
280,126,101417,1,0,0:0:0:0:
356,204,101573,1,0,0:0:0:0:
208,217,101728,2,0,P|147:193|109:187,1,85.8000026184083
240,40,102039,5,0,0:0:0:0:
300,107,102194,1,0,0:0:0:0:
77,105,102350,2,0,P|129:50|173:27,1,85.8000026184083
380,45,102661,1,0,0:0:0:0:
321,112,102816,1,0,0:0:0:0:
86,113,102972,2,0,P|149:100|189:99,1,85.8000026184083
330,130,103282,5,0,0:0:0:0:
269,196,103438,1,0,0:0:0:0:
504,105,103593,2,0,P|445:129|409:135,1,85.8000026184083
247,54,103904,1,0,0:0:0:0:
247,54,104060,1,0,0:0:0:0:
258,216,104215,2,0,P|219:171|203:133,1,85.8000026184083
103,24,104526,5,0,0:0:0:0:
162,78,104681,1,0,0:0:0:0:
6,132,104837,2,0,P|73:116|117:118,1,85.8000026184083
313,127,105148,1,0,0:0:0:0:
198,185,105303,1,0,0:0:0:0:
164,16,105459,2,0,P|168:58|180:99,1,85.8000026184083
408,52,105769,2,0,P|403:94|391:135,1,85.8000026184083
205,302,106080,2,0,P|193:260|188:218,1,85.8000026184083
300,177,106391,1,0,0:0:0:0:
375,222,106547,1,0,0:0:0:0:
215,122,106702,2,0,L|215:36,1,85.8000026184083
452,155,107013,5,0,0:0:0:0:
390,197,107169,1,0,0:0:0:0:
299,74,107324,2,0,P|350:92|387:116,1,85.8000026184083
225,154,107635,1,0,0:0:0:0:
186,47,107790,1,0,0:0:0:0:
385,218,107946,2,0,P|345:194|300:182,1,85.8000026184083
457,46,108257,5,0,0:0:0:0:
405,114,108412,1,0,0:0:0:0:
498,239,108567,2,0,P|460:218|418:208,1,85.8000026184083
337,300,108878,1,0,0:0:0:0:
337,300,109034,1,0,0:0:0:0:
228,161,109189,2,0,P|274:160|319:172,1,85.8000026184083
265,356,109500,6,0,P|240:316|229:270,1,85.8000026184083
226,75,109811,2,0,P|280:74|333:88,1,85.8000026184083
59,123,110122,2,0,P|30:76|16:23,1,85.8000026184083
372,31,110433,2,0,P|419:57|458:96,1,85.8000026184083
189,126,110744,6,0,P|235:97|288:83,1,85.8000026184083
368,136,111054,1,0,0:0:0:0:
316,239,111210,2,0,P|269:210|216:196,1,85.8000026184083
428,226,111521,1,0,0:0:0:0:
489,84,111676,2,0,B|471:52|445:50|445:50|438:114,1,85.8000026184083
442,212,111987,5,0,0:0:0:0:
361,116,112143,2,0,B|343:84|317:82|317:82|317:132,1,85.8000026184083
438,249,112453,2,0,P|389:278|341:269,1,85.8000026184083
310,201,112764,1,0,0:0:0:0:
418,74,112920,2,0,P|376:73|340:95,1,85.8000026184083
350,269,113231,6,0,L|323:325,3,42.9000013092041
231,311,113541,2,0,L|218:247,3,42.9000013092041
300,179,113852,2,0,L|273:235,3,42.9000013092041
425,265,114162,2,0,L|412:201,3,42.9000013092041
467,76,114474,6,0,L|440:132,3,42.9000013092041
368,82,114785,2,0,L|359:146,3,42.9000013092041
222,155,115096,2,0,L|170:134,3,42.9000013092041
280,51,115407,2,0,L|228:72,3,42.9000013092041
415,299,115718,6,0,L|395:162,1,117
343,128,116028,2,0,L|327:22,1,78
464,118,116339,1,0,0:0:0:0:
366,224,116495,1,0,0:0:0:0:
241,174,116650,2,0,L|251:87,1,78
383,349,116961,1,0,0:0:0:0:
285,243,117117,1,0,0:0:0:0:
160,293,117272,2,0,L|170:380,1,78
108,196,117583,1,0,0:0:0:0:
155,122,117738,1,0,0:0:0:0:
222,237,117894,2,0,L|309:227,1,78
466,71,118205,5,0,0:0:0:0:
474,149,118360,1,0,0:0:0:0:
309,141,118516,2,0,L|379:88,1,78
410,263,118826,1,0,0:0:0:0:
377,334,118981,1,0,0:0:0:0:
379,188,119137,2,0,L|466:178,1,78
267,254,119448,1,0,0:0:0:0:
202,298,119603,1,0,0:0:0:0:
81,361,119759,2,0,L|134:299,1,58.500002231598
278,335,120070,1,0,0:0:0:0:
278,335,120225,1,0,0:0:0:0:
103,238,120381,2,0,P|132:220|205:202,1,78
335,58,120692,6,0,P|334:86|321:170,1,78
397,243,121003,1,0,0:0:0:0:
405,165,121158,1,0,0:0:0:0:
319,26,121313,2,0,P|309:53|305:138,1,78
418,273,121624,2,0,P|370:261|301:275,1,117
237,324,121935,1,0,0:0:0:0:
237,324,122090,1,0,0:0:0:0:
175,204,122246,2,0,P|176:157|192:112,1,78
300,104,122557,2,0,P|273:132|254:166,1,78
343,174,122868,2,0,P|397:144|459:132,1,117
419,235,123179,5,0,0:0:0:0:
418,235,123334,1,0,0:0:0:0:
259,251,123490,2,0,P|320:266|349:276,1,78
422,340,123801,1,0,0:0:0:0:
421,340,123956,1,0,0:0:0:0:
196,263,124111,2,0,P|275:282|313:295,1,117.000004463196
340,197,124578,2,0,P|320:140|326:63,1,117.000004463196
149,47,124889,2,0,P|196:70|242:123,1,117.000004463196
209,284,125200,1,0,0:0:0:0:
206,292,125277,1,0,0:0:0:0:
201,299,125355,2,0,L|143:323,3,39
77,200,125666,5,0,0:0:0:0:
78,190,125743,1,0,0:0:0:0:
80,180,125821,1,0,0:0:0:0:
82,171,125899,1,0,0:0:0:0:
99,151,125977,2,0,L|111:105,1,39
215,23,126132,2,0,P|188:70|182:119,1,78
199,238,126443,1,0,0:0:0:0:
313,95,126598,2,0,P|363:114|381:153,1,78
376,253,126909,1,0,0:0:0:0:
376,253,127065,1,0,0:0:0:0:
170,134,127220,2,0,P|211:100|254:104,1,78
284,272,127531,1,0,0:0:0:0:
284,272,127687,1,0,0:0:0:0:
103,171,127842,2,0,P|94:118|119:83,1,78
292,289,128153,6,0,L|154:289,1,117
82,269,128464,2,0,P|61:216|57:168,1,78
101,103,128775,1,0,0:0:0:0:
101,103,128931,1,0,0:0:0:0:
222,182,129086,2,0,P|279:190|318:206,1,78
410,269,129396,1,0,0:0:0:0:
410,269,129552,1,0,0:0:0:0:
377,131,129707,2,0,P|384:68|396:41,1,78
435,240,130018,1,0,0:0:0:0:
435,240,130174,1,0,0:0:0:0:
308,355,130329,2,0,P|315:292|327:263,1,87.750003347397
273,183,130640,5,0,0:0:0:0:
228,250,130795,1,0,0:0:0:0:
349,180,130951,2,0,P|424:193|447:204,1,78
220,207,131262,1,0,0:0:0:0:
175,274,131417,1,0,0:0:0:0:
353,264,131573,2,0,P|428:277|451:288,1,78
221,183,131883,1,0,0:0:0:0:
266,250,132038,1,0,0:0:0:0:
148,144,132194,2,0,P|73:157|50:168,1,78
264,37,132505,1,0,0:0:0:0:
219,104,132660,1,0,0:0:0:0:
353,187,132816,1,0,0:0:0:0:
308,120,132971,1,0,0:0:0:0:
277,265,133127,6,0,P|182:276|161:268,1,117
8,201,133438,2,0,P|103:190|124:198,1,117
131,340,133749,1,0,0:0:0:0:
215,206,133904,1,0,0:0:0:0:
209,187,133981,1,0,0:0:0:0:
203,168,134059,1,0,0:0:0:0:
344,316,134215,6,0,P|401:296|509:304,1,156
354,217,134681,1,0,0:0:0:0:
488,203,134837,6,0,P|478:160|460:120,1,87.750003347397
385,63,135148,1,0,0:0:0:0:
428,254,135303,1,0,0:0:0:0:
425,283,135380,1,0,0:0:0:0:
415,310,135458,1,0,0:0:0:0:
397,333,135536,1,0,0:0:0:0:
365,349,135613,5,0,0:0:0:0:
339,260,137790,1,0,0:0:0:0:
265,347,137946,2,0,P|221:368|197:374,1,62.4
126,330,138257,1,0,0:0:0:0:
225,220,138412,2,0,P|194:175|173:155,1,62.4
89,148,138723,1,0,0:0:0:0:
204,49,138878,1,0,0:0:0:0:
204,49,138956,1,0,0:0:0:0:
204,49,139034,1,0,0:0:0:0:
274,122,139189,1,0,0:0:0:0:
263,199,139345,6,0,P|243:223|227:250,1,62.4
339,178,139655,1,0,0:0:0:0:
347,325,139811,2,0,P|316:280|295:260,1,62.4
415,180,140122,1,0,0:0:0:0:
321,305,140277,2,0,P|288:317|258:335,1,70.1999978576661
223,328,140588,6,0,P|200:283|193:262,1,62.4
356,293,140899,2,0,P|349:323|346:355,1,62.4
309,207,141210,2,0,P|303:154|309:101,1,93.6
315,97,141521,2,0,P|260:87|234:90,1,62.4
41,200,141832,6,0,P|76:170|111:154,1,62.4
202,295,142143,2,0,P|170:247|166:221,1,62.4
148,105,142453,2,0,P|149:47|160:23,1,62.4
279,176,142686,1,0,0:0:0:0:
271,186,142764,2,0,P|229:172|204:170,1,62.4
34,95,142997,1,0,0:0:0:0:
34,95,143075,6,0,P|29:141|34:180,1,62.4
136,265,143386,2,0,P|182:251|218:252,1,62.4
337,285,143697,1,0,0:0:0:0:
241,165,143852,1,0,0:0:0:0:
247,147,143930,1,0,0:0:0:0:
260,138,144008,2,0,P|301:141|334:156,1,62.4
505,241,144319,6,0,P|480:199|482:162,1,62.4
431,90,144630,2,0,P|460:58|495:44,1,62.4
335,235,144863,1,0,0:0:0:0:
335,235,144940,2,0,P|385:217|418:215,1,62.4
422,320,145174,1,0,0:0:0:0:
422,320,145251,2,0,P|393:339|358:357,1,62.4
351,79,145484,1,0,0:0:0:0:
351,79,145562,6,0,P|345:123|324:156,1,62.4
292,307,145873,2,0,P|256:333|218:342,1,62.4
445,176,146184,2,0,P|480:149|518:140,1,62.4
255,130,146495,2,0,P|228:94|220:56,1,62.4
381,304,146806,6,0,P|369:332|352:359,1,62.4
339,195,147117,1,0,0:0:0:0:
339,195,147272,1,0,0:0:0:0:
236,98,147427,2,0,P|193:82|156:76,1,62.4
368,214,147738,1,0,0:0:0:0:
368,214,147893,1,0,0:0:0:0:
293,302,148049,6,0,P|246:328|209:334,1,62.4
393,101,148360,2,0,P|404:56|396:20,1,62.4
461,281,148671,2,0,P|472:326|488:361,1,62.4
258,189,148982,2,0,P|212:169|184:166,1,62.4
472,128,149293,6,0,P|488:79|498:58,1,62.4
395,205,149604,1,0,0:0:0:0:
395,205,149759,1,0,0:0:0:0:
298,309,149915,2,0,P|244:328|216:330,1,62.4
135,236,150225,2,0,P|191:246|216:258,1,62.4
397,348,150536,6,0,P|379:303|381:269,1,62.4
439,183,150847,1,0,0:0:0:0:
282,210,151003,2,0,P|227:182|211:177,1,62.4
192,77,151314,1,0,0:0:0:0:
192,77,151391,1,0,0:0:0:0:
192,77,151469,1,0,0:0:0:0:
289,104,151624,1,0,0:0:0:0:
141,157,151780,6,0,P|105:130|72:115,1,62.4
0,50,152091,2,0,P|44:44|80:48,1,62.4
192,77,152402,1,0,0:0:0:0:
60,202,152557,1,0,0:0:0:0:
60,202,152635,1,0,0:0:0:0:
60,202,152712,1,0,0:0:0:0:
221,159,152868,1,0,0:0:0:0:
166,243,153023,6,0,P|139:257|115:277,1,62.4
285,231,153334,2,0,P|330:221|364:221,1,62.4
127,322,153645,2,0,P|104:343|86:369,1,62.4
265,269,153956,2,0,P|305:247|374:242,1,93.6
463,185,154267,6,0,P|457:144|457:95,1,62.4
482,261,154578,2,0,P|476:302|476:351,1,62.4
371,150,154889,1,0,0:0:0:0:
348,260,155044,1,0,0:0:0:0:
214,205,155200,1,0,0:0:0:0:
290,175,155355,1,0,0:0:0:0:
431,261,155510,6,0,L|475:279,1,46.7999985717774
465,161,155821,1,0,0:0:0:0:
393,348,155977,2,0,P|396:313|382:241,1,93.5999971435548
419,168,156443,2,0,P|434:126|443:107,1,46.7999985717774
401,38,156754,1,0,0:0:0:0:
328,98,156909,2,0,P|289:112|266:113,1,46.7999985717774
182,57,157220,1,0,0:0:0:0:
166,38,157376,1,0,0:0:0:0:
219,172,157531,1,0,0:0:0:0:
148,211,157687,1,0,0:0:0:0:
92,147,157842,1,0,0:0:0:0:
286,62,157997,6,0,P|263:107|250:162,1,93.5999971435548
283,240,158464,1,0,0:0:0:0:
373,179,158619,2,0,P|419:167|435:168,1,46.7999985717774
467,265,158930,2,0,P|416:264|379:256,1,70.1999978576661
302,221,159241,1,0,0:0:0:0:
350,142,159396,2,0,P|396:107|430:97,1,93.5999971435548
509,125,159863,1,0,0:0:0:0:
434,77,160018,1,0,0:0:0:0:
333,75,160174,1,0,0:0:0:0:
233,118,160329,1,0,0:0:0:0:
156,221,160484,6,0,P|202:199|266:191,1,93.5999971435548
136,109,160951,2,0,P|90:87|26:79,1,93.5999971435548
259,45,161417,2,0,P|273:27|294:16,1,46.7999985717774
221,112,161728,1,0,0:0:0:0:
304,150,161883,2,0,P|321:164|332:185,1,46.7999985717774
337,266,162194,1,0,0:0:0:0:
270,317,162350,1,0,0:0:0:0:
199,262,162505,1,0,0:0:0:0:
244,187,162661,2,0,P|274:167|294:162,1,46.7999985717774
118,310,162972,6,0,P|115:240|128:197,1,93.5999971435548
82,35,163438,2,0,B|35:57|35:57|15:117,1,93.5999971435548
120,115,163904,2,0,B|167:93|167:93|187:33,1,93.5999971435548
48,186,164370,2,0,L|28:231,1,46.7999985717774
59,364,164681,2,0,L|38:323,1,46.7999985717774
176,303,164992,1,0,0:0:0:0:
176,169,165148,1,0,0:0:0:0:
291,236,165303,1,0,0:0:0:0:
122,222,165459,6,0,P|150:172|180:132,1,93.5999971435548
260,121,165925,2,0,P|323:84|355:75,1,93.5999971435548
451,124,166391,2,0,P|474:130|494:141,1,46.7999985717774
411,36,166702,1,0,0:0:0:0:
378,150,166858,2,0,P|377:190|401:255,1,93.5999971435548
442,299,167324,1,0,0:0:0:0:
467,309,167479,1,0,0:0:0:0:
415,207,167635,1,0,0:0:0:0:
331,246,167790,1,0,0:0:0:0:
512,141,167946,6,0,P|437:113|409:115,1,93.5999971435548
318,135,168412,1,0,0:0:0:0:
392,201,168567,2,0,P|400:195|443:191,1,46.7999985717774
396,286,168878,2,0,P|341:267|321:245,1,70.1999978576661
267,198,169189,1,0,0:0:0:0:
166,239,169345,2,0,P|120:220|106:218,1,46.7999985717774
0,212,169655,1,0,0:0:0:0:
88,111,169811,1,0,0:0:0:0:
78,146,169966,1,0,0:0:0:0:
173,69,170122,1,0,0:0:0:0:
207,161,170277,1,0,0:0:0:0:
311,22,170433,6,0,P|293:88|288:135,1,93.5999971435548
306,194,170899,1,0,0:0:0:0:
209,190,171054,2,0,P|173:178|147:181,1,46.7999985717774
49,117,171365,2,0,P|85:100|132:100,1,70.1999978576661
34,34,171676,1,0,0:0:0:0:
34,34,171832,1,0,0:0:0:0:
144,83,171987,1,0,0:0:0:0:
41,147,172143,1,0,0:0:0:0:
151,173,172298,1,0,0:0:0:0:
131,212,172453,1,0,0:0:0:0:
250,229,172609,1,0,0:0:0:0:
151,288,172764,1,0,0:0:0:0:
271,312,172920,6,0,P|314:316|371:338,1,93.5999971435548
512,254,173386,2,0,P|469:258|412:280,1,93.5999971435548
347,225,173852,2,0,P|351:177|360:117,1,93.5999971435548
450,84,174319,5,0,0:0:0:0:
450,84,174396,1,0,0:0:0:0:
450,84,174474,1,0,0:0:0:0:
512,137,174630,1,0,0:0:0:0:
425,161,174785,1,0,0:0:0:0:
449,190,174940,1,0,0:0:0:0:
353,203,175096,1,0,0:0:0:0:
411,273,175251,1,0,0:0:0:0:
352,115,175407,6,0,P|297:110|282:111,1,54.5999983337403
136,161,175718,2,0,P|191:165|205:169,1,54.5999983337403
233,44,176029,2,0,P|178:39|163:40,1,54.5999983337403
115,269,176339,2,0,P|162:220|179:176,1,109.199996667481
92,55,176806,1,0,0:0:0:0:
92,55,176883,1,0,0:0:0:0:
92,55,176961,1,0,0:0:0:0:
75,150,177117,1,0,0:0:0:0:
199,86,177272,2,0,P|243:73|267:71,1,54.5999983337403
335,73,177583,1,0,0:0:0:0:
404,126,177738,1,0,0:0:0:0:
244,162,177894,6,0,P|270:166|296:176,1,54.5999983337403
352,247,178205,1,0,0:0:0:0:
209,244,178360,2,0,P|182:248|156:258,1,54.5999983337403
70,331,178671,1,0,0:0:0:0:
156,167,178826,1,0,0:0:0:0:
280,285,178982,1,0,0:0:0:0:
280,285,179060,1,0,0:0:0:0:
280,285,179137,1,0,0:0:0:0:
257,145,179293,2,0,P|245:97|245:68,1,54.5999983337403
338,191,179604,1,0,0:0:0:0:
431,116,179759,2,0,P|459:106|488:103,2,36.3999988891602
348,48,180070,2,0,P|330:44|312:42,2,36.3999988891602
470,213,180381,6,0,P|408:193|341:183,1,109.199996667481
249,190,180847,1,0,0:0:0:0:
146,283,181003,2,0,P|190:262|207:257,1,54.5999983337403
348,281,181314,2,0,P|302:266|274:198,1,109.199996667481
304,122,181780,1,0,0:0:0:0:
380,59,181935,2,0,B|416:55|439:60,1,54.5999983337403
287,164,182246,2,0,P|304:127|326:105,1,54.5999983337403
408,187,182557,1,0,0:0:0:0:
339,225,182712,1,0,0:0:0:0:
188,146,182868,5,0,0:0:0:0:
226,77,183023,1,0,0:0:0:0:
74,107,183179,2,0,P|111:94|135:89,1,54.5999983337403
204,157,183490,1,0,0:0:0:0:
178,174,183645,1,0,0:0:0:0:
304,167,183801,2,0,P|330:173|355:183,1,54.5999983337403
214,186,184111,1,0,0:0:0:0:
120,261,184267,2,0,P|83:252|45:247,1,54.5999983337403
203,220,184578,5,0,0:0:0:0:
229,237,184733,1,0,0:0:0:0:
195,316,184889,1,0,0:0:0:0:
195,316,184966,1,0,0:0:0:0:
195,316,185044,1,0,0:0:0:0:
317,361,185200,1,0,0:0:0:0:
389,230,185355,6,0,P|410:203|443:187,1,54.5999983337403
291,163,185666,2,0,P|268:147|252:125,1,54.5999983337403
423,115,185977,2,0,P|458:121|484:137,1,54.5999983337403
483,324,186288,2,0,P|420:274|396:228,1,109.199996667481
404,98,186754,1,0,0:0:0:0:
404,98,186832,1,0,0:0:0:0:
404,98,186909,1,0,0:0:0:0:
487,211,187065,1,0,0:0:0:0:
316,200,187220,2,0,P|275:224|257:241,1,54.5999983337403
427,262,187531,1,0,0:0:0:0:
504,288,187687,1,0,0:0:0:0:
369,155,187842,6,0,P|328:179|310:196,1,54.5999983337403
277,264,188153,1,0,0:0:0:0:
123,245,188308,2,0,P|144:228|169:216,1,54.5999983337403
252,232,188619,1,0,0:0:0:0:
223,83,188775,2,0,P|240:51|265:18,1,54.5999983337403
147,137,189086,1,0,0:0:0:0:
304,91,189241,2,0,P|378:102|416:115,1,109.199996667481
145,48,189707,2,0,P|98:55|89:57,2,36.3999988891602
363,19,190018,2,0,P|410:26|419:28,2,36.3999988891602
198,139,190329,6,0,P|220:95|271:54,1,109.199996667481
387,119,190795,2,0,P|348:99|316:91,1,54.5999983337403
278,152,191106,1,0,0:0:0:0:
372,225,191262,1,0,0:0:0:0:
409,199,191417,1,0,0:0:0:0:
264,231,191573,1,0,0:0:0:0:
340,326,191728,2,0,P|373:310|401:304,1,54.5999983337403
220,321,192039,2,0,P|193:328|169:341,1,54.5999983337403
55,309,192350,1,0,0:0:0:0:
123,229,192505,2,0,P|149:236|173:249,1,54.5999983337403
258,204,192816,5,0,0:0:0:0:
121,151,192972,2,0,P|94:158|70:171,1,54.5999983337403
226,114,193282,2,0,P|311:135|332:145,1,109.199996667481
390,221,193749,1,0,0:0:0:0:
400,311,193904,1,0,0:0:0:0:
248,239,194060,6,0,P|297:249|319:263,1,54.5999983337403
417,343,194370,1,0,0:0:0:0:
417,343,194526,1,0,0:0:0:0:
465,245,194681,1,0,0:0:0:0:
343,161,194837,1,0,0:0:0:0:
344,161,194915,1,0,0:0:0:0:
343,161,194992,1,0,0:0:0:0:
469,113,195148,1,0,0:0:0:0:
361,58,195303,6,0,P|315:50|243:57,1,109.199996667481
113,112,195769,2,0,P|157:124|219:162,1,109.199996667481
291,212,196236,2,0,P|318:195|349:185,1,54.5999983337403
460,124,196547,1,0,0:0:0:0:
440,159,196702,1,0,0:0:0:0:
282,295,196858,2,0,P|256:285|233:270,1,54.5999983337403
117,162,197168,1,0,0:0:0:0:
104,125,197323,1,0,0:0:0:0:
50,282,197479,2,0,P|73:267|98:257,1,54.5999983337403
293,213,197790,6,0,P|267:203|244:188,1,54.5999983337403
204,108,198101,1,0,0:0:0:0:
357,163,198257,2,0,P|380:148|405:138,1,54.5999983337403
512,164,198567,1,0,0:0:0:0:
417,268,198723,2,0,P|391:258|368:243,1,54.5999983337403
288,126,199034,5,0,0:0:0:0:
174,218,199189,2,0,P|211:211|237:210,1,54.5999983337403
316,117,199500,1,0,0:0:0:0:
375,168,199655,1,0,0:0:0:0:
212,134,199811,1,0,0:0:0:0:
319,30,199966,1,0,0:0:0:0:
319,30,200044,1,0,0:0:0:0:
319,30,200122,1,0,0:0:0:0:
140,90,200277,6,0,P|95:80|69:80,1,54.5999983337403
221,43,200588,1,0,0:0:0:0:
151,170,200744,2,0,P|196:160|222:160,1,54.5999983337403
199,25,201054,1,0,0:0:0:0:
228,181,201210,2,0,P|194:212|171:225,1,54.5999983337403
67,170,201521,1,0,0:0:0:0:
174,299,201676,2,0,P|218:289|246:285,1,54.5999983337403
372,218,201987,1,0,0:0:0:0:
351,325,202143,1,0,0:0:0:0:
321,294,202298,1,0,0:0:0:0:
433,333,202453,2,0,P|467:328|499:328,1,54.5999983337403
316,333,202764,5,0,0:0:0:0:
450,253,202920,2,0,P|484:248|516:248,1,54.5999983337403
305,263,203231,1,0,0:0:0:0:
432,156,203386,1,0,0:0:0:0:
402,187,203541,1,0,0:0:0:0:
512,91,203697,2,0,P|476:81|441:82,1,54.5999983337403
313,78,204008,5,0,0:0:0:0:
343,104,204163,1,0,0:0:0:0:
246,145,204319,1,0,0:0:0:0:
213,169,204474,1,0,0:0:0:0:
371,105,204630,2,0,P|377:154|374:202,1,81.8999975006104
340,262,204940,2,0,P|334:213|337:165,1,81.8999975006104
452,154,205251,6,0,P|491:193|506:258,1,109.199996667481
417,230,205718,2,0,P|390:226|363:225,1,54.5999983337403
512,278,206029,1,0,0:0:0:0:
367,304,206184,2,0,P|333:306|297:314,1,54.5999983337403
282,226,206495,1,0,0:0:0:0:
308,346,206650,2,0,P|280:345|253:341,2,54.5999983337403
179,277,207117,1,0,0:0:0:0:
173,253,207272,1,0,0:0:0:0:
96,308,207427,2,0,P|91:335|90:363,1,54.5999983337403
242,212,207738,5,0,0:0:0:0:
168,173,207893,1,0,0:0:0:0:
291,146,208049,2,0,P|333:148|356:159,1,54.5999983337403
423,261,208360,2,0,P|388:244|329:227,1,81.8999975006104
320,239,208671,1,0,0:0:0:0:
253,142,208826,2,0,P|295:155|312:167,1,54.5999983337403
469,106,209137,2,0,P|427:119|410:131,1,54.5999983337403
382,199,209448,1,0,0:0:0:0:
323,27,209604,2,0,P|314:43|307:60,2,36.3999988891602
220,85,209915,2,0,P|221:104|224:122,2,36.3999988891602
413,272,210225,5,0,0:0:0:0:
321,121,213334,5,0,0:0:0:0:
384,160,213645,1,0,0:0:0:0:
316,197,213956,1,0,0:0:0:0:
318,46,214267,5,0,0:0:0:0:
445,203,214578,1,0,0:0:0:0:
248,237,214889,1,0,0:0:0:0:
403,25,215200,5,0,0:0:0:0:
403,25,222661,6,0,L|392:121,1,93.6
378,189,223282,6,0,L|363:61,1,117
324,12,223904,6,0,L|306:167,1,140.399995715332
289,224,224526,6,0,P|328:140|397:144,1,163.799995001221
361,207,225148,6,0,L|110:207,1,234
56,234,226391,6,0,L|294:234,1,234
408,267,227635,6,0,P|366:237|409:201,1,124.8
407,346,228567,6,0,P|355:337|316:300,1,93.5999971435548
316,159,229034,6,0,P|353:131|398:124,1,93.5999971435548
484,204,229500,6,0,P|491:239|480:274,1,62.4
389,266,229811,6,0,P|383:235|390:205,1,62.4
433,129,230122,6,0,L|259:129,1,163.799995001221
201,90,230744,2,0,L|375:90,1,163.799995001221
419,106,231365,2,0,P|304:90|418:66,1,327.599990002442
363,88,232609,6,0,L|438:88,1,70.1999978576661
427,78,235096,6,0,L|313:78,1,85.8000026184083
169,155,235407,2,0,L|283:155,1,85.8000026184083
374,175,235718,1,0,0:0:0:0:
331,250,235873,1,0,0:0:0:0:
415,89,236029,2,0,L|500:89,1,85.8000026184083
420,244,236339,5,0,0:0:0:0:
483,199,236494,1,0,0:0:0:0:
335,153,236650,2,0,L|249:153,1,85.8000026184083
148,32,236961,1,0,0:0:0:0:
211,77,237116,1,0,0:0:0:0:
155,278,237272,2,0,L|155:187,1,85.8000026184083
179,27,237583,6,0,L|179:112,1,85.8000026184083
39,315,237894,2,0,P|106:290|140:284,1,85.8000026184083
276,305,238205,1,0,0:0:0:0:
213,350,238360,1,0,0:0:0:0:
364,252,238516,2,0,P|405:262|444:279,1,85.8000026184083
276,208,238826,6,0,P|234:218|195:235,1,85.8000026184083
438,174,239137,2,0,P|399:157|358:147,1,85.8000026184083
128,192,239448,2,0,P|86:202|47:219,1,85.8000026184083
217,114,239759,2,0,P|238:76|254:37,1,85.8000026184083
225,337,240070,6,0,P|232:256|241:199,1,128.700003927612
292,143,240381,2,0,P|278:196|272:238,1,85.8000026184083
333,302,240692,1,0,0:0:0:0:
396,257,240847,1,0,0:0:0:0:
292,180,241003,2,0,P|228:185|165:196,1,128.700003927612
477,225,241313,5,0,0:0:0:0:
414,180,241468,1,0,0:0:0:0:
483,65,241624,2,0,P|432:76|354:112,1,128.700003927612
311,168,241935,2,0,P|325:113|323:66,1,85.8000026184083
200,25,242246,2,0,P|187:66|185:108,1,85.8000026184083
78,242,242557,5,0,0:0:0:0:
141,197,242712,1,0,0:0:0:0:
164,350,242868,2,0,P|188:297|213:274,1,85.8000026184083
295,151,243179,1,0,0:0:0:0:
232,196,243334,1,0,0:0:0:0:
67,116,243490,2,0,P|122:137|150:158,1,85.8000026184083
131,312,243801,5,0,0:0:0:0:
194,267,243956,1,0,0:0:0:0:
272,361,244111,2,0,P|325:349|385:342,1,85.8000026184083
425,238,244422,2,0,P|430:212|440:193,3,42.9000013092041
451,217,244733,2,0,P|460:193|473:175,3,42.9000013092041
443,340,245044,6,0,P|443:286|471:201,1,128.700003927612
511,150,245355,2,0,P|464:182|423:193,1,85.8000026184083
336,164,245666,1,0,0:0:0:0:
399,119,245821,1,0,0:0:0:0:
338,260,245977,2,0,P|297:245|263:219,1,85.8000026184083
185,74,246288,5,0,0:0:0:0:
259,136,246443,1,0,0:0:0:0:
298,32,246598,2,0,P|338:46|372:72,1,85.8000026184083
235,150,246909,1,0,0:0:0:0:
150,164,247064,1,0,0:0:0:0:
362,98,247220,2,0,P|426:94|468:100,1,85.8000026184083
291,243,247531,6,0,P|227:247|185:241,1,85.8000026184083
442,169,247842,2,0,P|399:217|365:242,1,85.8000026184083
124,256,248153,1,0,0:0:0:0:
61,211,248308,1,0,0:0:0:0:
205,267,248464,2,0,P|269:263|311:269,1,85.8000026184083
457,277,248775,6,0,P|393:281|351:275,1,85.8000026184083
236,178,249086,2,0,P|187:135|162:101,1,85.8000026184083
386,169,249396,1,0,0:0:0:0:
309,221,249551,1,0,0:0:0:0:
389,63,249707,2,0,P|437:73|482:108,1,85.8000026184083
279,93,250018,6,0,P|252:51|245:-4,1,85.8000026184083
309,203,250329,1,0,0:0:0:0:
221,209,250484,1,0,0:0:0:0:
385,112,250640,2,0,P|440:112|479:123,1,85.8000026184083
455,254,250951,2,0,P|400:254|361:265,1,85.8000026184083
229,268,251262,5,0,0:0:0:0:
292,223,251417,1,0,0:0:0:0:
178,83,251573,2,0,P|233:98|263:122,1,85.8000026184083
129,166,251883,1,0,0:0:0:0:
66,121,252038,1,0,0:0:0:0:
289,208,252194,2,0,P|278:262|251:293,1,85.8000026184083
378,171,252505,5,0,0:0:0:0:
441,126,252660,1,0,0:0:0:0:
310,38,252816,2,0,P|268:78|249:110,1,85.8000026184083
332,336,253127,1,0,0:0:0:0:
332,336,253282,1,0,0:0:0:0:
394,227,253438,1,0,0:0:0:0:
404,272,253593,1,0,0:0:0:0:
403,151,253749,5,0,0:0:0:0:
468,230,253904,1,0,0:0:0:0:
355,99,254060,1,0,0:0:0:0:
476,153,254215,1,0,0:0:0:0:
291,65,254370,1,0,0:0:0:0:
441,87,254526,1,0,0:0:0:0:
323,171,254681,1,0,0:0:0:0:
365,27,254837,1,0,0:0:0:0:
247,208,254992,6,0,P|322:196|373:200,1,93.5999971435548
462,216,255303,1,0,0:0:0:0:
309,81,255459,2,0,P|262:82|216:92,1,93.5999971435548
113,153,255769,1,0,0:0:0:0:
247,37,255925,2,0,P|293:38|339:48,1,85.8000026184083
437,125,256236,5,0,0:0:0:0:
383,301,256391,1,0,0:0:0:0:
408,155,256547,2,0,P|451:113|489:95,1,85.8000026184083
145,32,256858,2,0,P|245:59|277:79,1,140.399995715332
294,118,257168,1,0,0:0:0:0:
372,63,257324,1,0,0:0:0:0:
479,173,257479,6,0,P|500:239|502:273,1,93.5999971435548
357,332,257790,1,0,0:0:0:0:
308,211,257946,2,0,P|314:164|330:121,1,93.5999971435548
283,44,258257,1,0,0:0:0:0:
200,135,258413,2,0,P|153:141|110:157,1,93.5999971435548
12,227,258723,5,0,0:0:0:0:
35,126,258878,1,0,0:0:0:0:
119,290,259034,2,0,P|174:315|216:344,1,93.5999971435548
339,224,259345,2,0,P|344:172|350:152,3,46.7999985717774
386,325,259655,2,0,P|404:339|424:351,3,46.7999985717774
462,248,259966,6,0,P|471:197|456:138,1,93.5999971435548
327,50,260277,2,0,P|369:79|400:132,1,93.5999971435548
254,230,260588,1,0,0:0:0:0:
248,187,260743,1,0,0:0:0:0:
216,360,260899,2,0,P|295:326|336:326,1,93.5999971435548
503,317,261210,5,0,0:0:0:0:
509,360,261365,1,0,0:0:0:0:
437,197,261521,2,0,P|434:145|417:103,1,93.5999971435548
228,173,261832,1,0,0:0:0:0:
222,216,261987,1,0,0:0:0:0:
260,91,262143,2,0,P|206:63|164:55,1,93.5999971435548
47,138,262453,5,0,0:0:0:0:
41,181,262608,1,0,0:0:0:0:
233,191,262764,2,0,P|287:163|329:155,1,93.5999971435548
424,185,263075,1,0,0:0:0:0:
418,228,263230,1,0,0:0:0:0:
395,64,263386,2,0,P|341:36|299:28,1,93.5999971435548
483,96,263697,5,0,0:0:0:0:
489,139,263852,1,0,0:0:0:0:
310,119,264008,2,0,P|265:130|225:154,1,93.5999971435548
505,130,264319,1,0,0:0:0:0:
511,173,264474,1,0,0:0:0:0:
349,162,264630,2,0,P|304:150|258:150,1,93.5999971435548
482,278,264940,6,0,P|416:253|346:245,1,140.399995715332
267,231,265251,2,0,P|206:233|165:247,1,93.5999971435548
68,316,265562,1,0,0:0:0:0:
62,359,265717,1,0,0:0:0:0:
189,212,265873,2,0,P|180:164|163:109,1,93.5999971435548
283,269,266184,5,0,0:0:0:0:
289,312,266339,1,0,0:0:0:0:
366,180,266495,2,0,P|411:146|460:130,1,93.5999971435548
283,114,266806,1,0,0:0:0:0:
261,83,266961,1,0,0:0:0:0:
432,218,267117,2,0,P|475:235|511:265,1,93.5999971435548
376,124,267427,5,0,0:0:0:0:
366,86,267582,1,0,0:0:0:0:
226,159,267738,2,0,P|182:176|146:206,1,93.5999971435548
73,286,268049,5,0,0:0:0:0:
57,334,268204,1,0,0:0:0:0:
74,203,268360,1,0,0:0:0:0:
147,300,268516,1,0,0:0:0:0:
196,207,268671,5,0,0:0:0:0:
221,322,268827,1,0,0:0:0:0:
282,233,268982,1,0,0:0:0:0:
302,340,269137,1,0,0:0:0:0:
405,223,269293,5,0,0:0:0:0:
384,341,269448,1,0,0:0:0:0:
313,164,269604,1,0,0:0:0:0:
347,275,269759,1,0,0:0:0:0:
417,72,269915,6,0,P|456:25|492:3,1,93.5999971435548
269,117,270225,1,0,0:0:0:0:
442,150,270381,2,0,P|479:177|507:214,1,93.5999971435548
243,93,270692,1,0,0:0:0:0:
377,189,270847,2,0,P|384:235|377:281,1,93.5999971435548
434,358,271158,1,0,0:0:0:0:
264,264,271313,2,0,P|257:217|264:171,1,93.5999971435548
317,102,271624,5,0,0:0:0:0:
177,252,271780,1,0,0:0:0:0:
189,288,271935,1,0,0:0:0:0:
162,162,272091,1,0,0:0:0:0:
97,219,272246,1,0,0:0:0:0:
282,243,272402,6,0,L|290:187,3,46.7999985717774
349,295,272712,2,0,L|355:341,3,46.7999985717774
369,185,273023,2,0,L|377:129,3,46.7999985717774
429,266,273333,2,0,L|435:312,3,46.7999985717774
467,146,273645,6,0,L|459:90,3,46.7999985717774
344,53,273955,2,0,L|350:6,3,46.7999985717774
258,139,274267,2,0,L|184:181,3,46.7999985717774
418,154,274578,2,0,L|492:196,3,46.7999985717774
339,134,274889,5,0,0:0:0:0:
395,64,275977,6,0,P|411:135|394:256,1,187.19999428711
243,323,276443,2,0,P|310:286|356:281,1,93.5999971435548
178,259,276754,2,0,P|111:222|64:217,1,93.5999971435548
20,160,277065,1,0,0:0:0:0:
201,168,277220,6,0,P|239:141|284:129,1,93.5999971435548
137,257,277531,1,0,0:0:0:0:
250,179,277687,2,0,P|247:119|230:77,1,93.5999971435548
374,117,277997,1,0,0:0:0:0:
334,142,278153,1,0,0:0:0:0:
470,163,278308,1,0,0:0:0:0:
512,39,278464,6,0,P|477:85|447:216,1,187.19999428711
452,351,278930,2,0,P|430:308|385:262,1,93.5999971435548
322,223,279241,2,0,P|277:238|238:263,1,93.5999971435548
151,321,279552,1,0,0:0:0:0:
214,175,279707,6,0,P|159:184|55:274,1,187.19999428711
72,360,280174,1,0,0:0:0:0:
168,272,280329,1,0,0:0:0:0:
168,272,280407,1,0,0:0:0:0:
168,272,280484,1,0,0:0:0:0:
243,330,280640,1,0,0:0:0:0:
303,279,280795,1,0,0:0:0:0:
431,339,280951,6,0,P|400:286|396:144,1,187.19999428711
415,64,281417,2,0,P|469:42|507:40,1,93.5999971435548
329,128,281728,1,0,0:0:0:0:
182,232,281883,2,0,P|262:212|355:261,1,187.19999428711
404,341,282350,1,0,0:0:0:0:
403,377,282505,1,0,0:0:0:0:
503,222,282661,2,0,P|480:278|474:325,1,93.5999971435548
387,173,282972,1,0,0:0:0:0:
359,245,283127,1,0,0:0:0:0:
440,80,283282,1,0,0:0:0:0:
504,180,283438,6,0,P|406:169|293:177,1,187.19999428711
162,193,283904,2,0,P|225:205|258:227,1,93.5999971435548
309,272,284215,1,0,0:0:0:0:
316,310,284370,1,0,0:0:0:0:
302,352,284526,1,0,0:0:0:0:
387,173,284681,5,0,0:0:0:0:
256,192,284701,12,0,296495,0:0:0:0:
