osu file format v14

[General]
AudioFilename: Himeringo - Miss Wanna-Die.mp3
AudioLeadIn: 0
PreviewTime: 47327
Countdown: 0
SampleSet: Soft
StackLeniency: 0.7
Mode: 0
LetterboxInBreaks: 0
WidescreenStoryboard: 0

[Editor]
DistanceSpacing: 1.2
BeatDivisor: 2
GridSize: 16
TimelineZoom: 1

[Metadata]
Title:Shinitai-chan
TitleUnicode:シニタイちゃん
Artist:Himeringo
ArtistUnicode:ひめりんご
Creator:Hailie
Version:Normal
Source:
Tags:すいっち Switch IA Vocaloid Miss Wanna-Die Cover ButterP -Aria On The Planetes- Shiratoi Skairul Noffy
BeatmapID:1428264
BeatmapSetID:519318

[Difficulty]
HPDrainRate:4
CircleSize:3.3
OverallDifficulty:4
ApproachRate:5
SliderMultiplier:0.999999999999999
SliderTickRate:2

[Events]
//Background and Video events
Video,0,"himerin.avi"
0,0,"bg.jpg",0,0
//Break Periods
2,80255,86127
2,129372,140054
//Storyboard Layer 0 (Background)
//Storyboard Layer 1 (Fail)
//Storyboard Layer 2 (Pass)
//Storyboard Layer 3 (Foreground)
//Storyboard Sound Samples

[TimingPoints]
3691,454.545454545455,4,2,1,50,1,0
18236,-100,4,2,2,60,0,0
32781,-100,4,2,1,60,0,0
46645,-100,4,2,2,60,0,0
47327,-100,4,2,1,40,0,0
50963,-100,4,2,2,70,0,1
64827,-100,4,2,2,70,0,0
65509,-100,4,2,2,70,0,1
80054,-100,4,2,2,70,0,0
87327,-100,4,2,2,50,0,0
94600,-100,4,2,2,55,0,0
109145,-100,4,2,1,60,0,0
123009,-100,4,2,2,60,0,0
123691,-100,4,2,1,40,0,0
128236,-100,4,2,1,50,0,0
141872,-100,4,2,1,10,0,0
142327,-100,4,2,1,20,0,0
142781,-100,4,2,1,30,0,0
143236,-100,4,2,1,40,0,0
143691,-100,4,2,2,70,0,1
157554,-100,4,2,2,70,0,0
158236,-100,4,2,2,70,0,1
175509,-100,4,2,2,70,0,0
186645,-100,4,2,2,70,0,0

[Colours]
Combo1 : 170,0,0
Combo2 : 179,89,0
Combo3 : 170,170,170
Combo4 : 171,88,88

[HitObjects]
59,106,3691,6,0,P|110:114|173:105,1,99.9999999999999,2|2,0:0|0:0,0:0:0:0:
272,71,4600,2,0,P|280:118|277:182,1,99.9999999999999,2|2,0:0|0:0,0:0:0:0:
367,251,5509,6,0,P|417:257|473:249,1,99.9999999999999,2|2,0:0|0:0,0:0:0:0:
461,130,6418,1,2,0:0:0:0:
461,130,6873,2,0,L|461:72,1,50,2|0,0:0|0:0,0:0:0:0:
453,30,7328,22,0,P|409:39|350:30,1,99.9999999999999,2|2,0:0|0:0,0:0:0:0:
234,29,8237,2,0,L|234:148,1,99.9999999999999,2|2,0:0|0:0,0:0:0:0:
232,188,8918,1,0,0:0:0:0:
230,248,9146,6,0,P|283:240|343:251,1,99.9999999999999,2|2,0:0|0:0,0:0:0:0:
433,304,10055,2,0,L|433:195,1,99.9999999999999,0|2,0:0|0:0,0:0:0:0:
351,115,10964,22,0,P|302:105|248:116,1,99.9999999999999,2|2,0:0|0:0,0:0:0:0:
182,211,11873,2,0,P|131:222|76:209,1,99.9999999999999,2|2,0:0|0:0,0:0:0:0:
18,108,12782,6,0,L|18:3,1,99.9999999999999,2|2,0:0|0:0,0:0:0:0:
138,6,13691,1,2,0:0:0:0:
138,6,14146,2,0,P|167:2|206:8,1,50,2|0,0:0|0:0,0:0:0:0:
244,21,14600,22,0,L|244:134,1,99.9999999999999,2|2,0:0|0:0,0:0:0:0:
237,247,15509,2,0,P|286:240|346:257,1,99.9999999999999,2|2,0:0|0:0,0:0:0:0:
426,328,16418,6,0,P|445:282|441:217,1,99.9999999999999,2|2,0:0|0:0,0:0:0:0:
442,113,17328,2,0,P|392:120|329:107,1,99.9999999999999,0|2,0:0|0:0,0:0:0:0:
283,107,18009,1,0,0:0:0:0:
222,107,18237,22,0,P|199:153|206:211,1,99.9999999999999,2|10,0:0|0:0,0:0:0:0:
230,317,19146,2,0,P|285:310|357:336,1,99.9999999999999,2|2,0:0|0:0,0:0:0:0:
385,334,19827,1,0,0:0:0:0:
444,344,20055,6,0,L|444:237,1,99.9999999999999,2|10,0:0|0:0,0:0:0:0:
357,162,20964,2,0,P|308:170|248:158,1,99.9999999999999,2|2,0:0|0:0,0:0:0:0:
184,60,21873,22,0,P|136:52|78:65,1,99.9999999999999,2|10,0:0|0:0,0:0:0:0:
16,159,22782,2,0,L|16:271,1,99.9999999999999,0|2,0:0|0:0,0:0:0:0:
102,341,23691,6,0,B|102:233,1,99.9999999999999,2|10,0:0|0:0,0:0:0:0:
161,234,24373,1,0,0:0:0:0:
216,255,24600,2,0,P|266:266|327:247,1,99.9999999999999,2|2,0:0|0:0,0:0:0:0:
432,252,25509,22,0,L|433:152,1,99.9999999999999,2|10,0:0|0:0,0:0:0:0:
366,51,26418,2,0,P|316:61|258:48,1,99.9999999999999,2|2,0:0|0:0,0:0:0:0:
208,55,27100,1,0,0:0:0:0:
161,93,27328,6,0,L|161:202,1,99.9999999999999,2|10,0:0|0:0,0:0:0:0:
162,313,28237,2,0,P|208:305|269:319,1,99.9999999999999,2|2,0:0|0:0,0:0:0:0:
389,313,29146,6,0,P|439:322|507:302,1,99.9999999999999,2|10,0:0|0:0,0:0:0:0:
509,256,29828,1,0,0:0:0:0:
480,203,30055,2,0,P|432:193|368:208,1,99.9999999999999,2|0,0:0|0:0,0:0:0:0:
262,206,30964,6,0,L|262:100,1,99.9999999999999,2|10,0:0|0:0,0:0:0:0:
339,14,31873,2,0,P|386:7|452:17,1,99.9999999999999,2|10,0:0|0:0,0:0:0:0:
485,49,32555,1,8,0:0:0:0:
489,108,32782,22,0,L|490:223,1,99.9999999999999,2|8,0:0|0:0,0:0:0:0:
492,328,33691,2,0,P|444:323|382:333,1,99.9999999999999,2|8,0:0|0:0,0:0:0:0:
332,331,34373,1,0,0:0:0:0:
272,333,34600,6,0,L|272:216,1,99.9999999999999,0|8,0:0|0:0,0:0:0:0:
262,115,35509,2,0,P|211:124|154:113,1,99.9999999999999,2|8,0:0|0:0,0:0:0:0:
107,94,36191,1,0,0:0:0:0:
59,129,36418,22,0,L|59:244,1,99.9999999999999,2|8,0:0|0:0,0:0:0:0:
148,310,37328,2,0,L|148:204,1,99.9999999999999,2|8,0:0|0:0,0:0:0:0:
173,155,38009,1,0,0:0:0:0:
233,155,38237,6,0,P|283:160|346:147,1,99.9999999999999,2|8,0:0|0:0,0:0:0:0:
429,82,39146,2,0,P|447:128|443:179,1,99.9999999999999,2|8,0:0|0:0,0:0:0:0:
343,237,40055,22,0,P|335:286|338:339,1,99.9999999999999,2|8,0:0|0:0,0:0:0:0:
218,349,40964,2,0,P|166:352|110:342,1,99.9999999999999,2|8,0:0|0:0,0:0:0:0:
51,246,41873,6,0,P|45:194|61:138,2,99.9999999999999,2|10|2,0:0|0:0|0:0,0:0:0:0:
159,193,43237,1,8,0:0:0:0:
159,193,43691,22,0,P|208:198|266:192,1,99.9999999999999,2|8,0:0|0:0,0:0:0:0:
374,163,44600,2,0,L|375:285,1,99.9999999999999,2|8,0:0|0:0,0:0:0:0:
346,315,45281,1,0,0:0:0:0:
287,325,45509,6,0,P|240:317|180:327,1,99.9999999999999,2|8,0:0|0:0,0:0:0:0:
87,259,46418,2,0,L|86:149,1,99.9999999999999,2|10,0:0|0:0,0:0:0:0:
147,57,47328,6,0,P|199:67|263:54,1,99.9999999999999,2|0,0:0|0:0,0:0:0:0:
303,41,48009,1,2,0:0:0:0:
360,30,48237,2,0,P|408:21|470:36,1,99.9999999999999,2|2,0:0|0:0,0:0:0:0:
493,149,49146,6,0,P|441:155|380:139,1,99.9999999999999,2|2,0:0|0:0,0:0:0:0:
291,83,50055,1,2,0:0:0:0:
235,189,50509,1,2,0:0:0:0:
343,239,50964,22,0,P|346:290|315:342,1,99.9999999999999,6|8,0:0|0:0,0:0:0:0:
265,346,51646,2,0,P|233:349|193:338,1,50,0|2,0:0|0:0,0:0:0:0:
141,251,52328,2,0,L|141:182,1,50,8|0,0:0|0:0,0:0:0:0:
163,145,52782,6,0,L|285:144,1,99.9999999999999,2|8,0:0|0:0,0:0:0:0:
323,142,53464,1,0,0:0:0:0:
323,142,53691,2,0,P|358:139|379:139,1,50,2|0,0:0|0:0,0:0:0:0:
432,149,54146,2,0,P|444:178|446:202,1,50,8|0,0:0|0:0,0:0:0:0:
447,256,54600,22,0,P|453:300|440:356,1,99.9999999999999,2|8,0:0|0:0,0:0:0:0:
381,362,55282,2,0,P|352:367|323:362,1,50,0|2,0:0|0:0,0:0:0:0:
251,298,55964,2,0,L|241:245,1,50,8|0,0:0|0:0,0:0:0:0:
234,189,56418,6,0,L|352:170,1,99.9999999999999,2|8,0:0|0:0,0:0:0:0:
392,170,57100,2,0,P|398:196|401:224,1,50,0|2,0:0|0:0,0:0:0:0:
317,305,57782,2,0,P|283:310|263:308,1,50,8|0,0:0|0:0,0:0:0:0:
207,304,58237,22,0,P|160:298|95:315,1,99.9999999999999,2|8,0:0|0:0,0:0:0:0:
54,305,58918,2,0,L|53:235,1,50,0|2,0:0|0:0,0:0:0:0:
53,134,59600,2,0,P|81:127|106:126,1,50,8|0,0:0|0:0,0:0:0:0:
162,122,60055,6,0,P|214:129|271:115,1,99.9999999999999,2|8,0:0|0:0,0:0:0:0:
320,114,60737,1,0,0:0:0:0:
320,114,60964,2,0,L|320:180,1,50,2|0,0:0|0:0,0:0:0:0:
337,220,61418,2,0,P|359:226|391:224,1,50,8|0,0:0|0:0,0:0:0:0:
442,214,61873,22,0,P|457:166|445:111,1,99.9999999999999,2|8,0:0|0:0,0:0:0:0:
430,60,62554,2,0,P|400:57|374:58,1,50,0|2,0:0|0:0,0:0:0:0:
260,42,63237,2,0,L|260:110,1,50,8|0,0:0|0:0,0:0:0:0:
256,151,63691,6,0,P|209:160|144:146,1,99.9999999999999,2|8,0:0|0:0,0:0:0:0:
47,104,64600,1,2,0:0:0:0:
0,213,65054,1,8,0:0:0:0:
110,261,65509,6,0,P|160:270|225:258,1,99.9999999999999,6|8,0:0|0:0,0:0:0:0:
268,258,66191,2,0,L|268:323,1,50,0|2,0:0|0:0,0:0:0:0:
372,366,66873,2,0,P|403:368|437:359,1,50,8|0,0:0|0:0,0:0:0:0:
479,349,67328,22,0,L|479:242,1,99.9999999999999,2|8,0:0|0:0,0:0:0:0:
470,189,68009,1,0,0:0:0:0:
470,189,68237,2,0,P|435:193|417:191,1,50,2|0,0:0|0:0,0:0:0:0:
360,186,68691,2,0,P|347:213|345:253,1,50,8|0,0:0|0:0,0:0:0:0:
351,292,69146,6,0,B|390:322|421:281|465:307,1,99.9999999999999,2|8,0:0|0:0,0:0:0:0:
484,252,69828,2,0,L|484:185,1,50,0|2,0:0|0:0,0:0:0:0:
437,91,70509,2,0,P|408:82|375:82,1,50,8|0,0:0|0:0,0:0:0:0:
328,74,70964,22,0,P|279:69|215:83,1,99.9999999999999,2|8,0:0|0:0,0:0:0:0:
178,104,71646,1,0,0:0:0:0:
178,104,71873,2,0,P|163:134|163:166,1,50,2|0,0:0|0:0,0:0:0:0:
158,210,72328,2,0,L|158:273,1,50,8|0,0:0|0:0,0:0:0:0:
191,309,72782,6,0,P|241:301|298:312,1,99.9999999999999,2|8,0:0|0:0,0:0:0:0:
349,307,73464,2,0,P|366:292|381:251,1,50,0|2,0:0|0:0,0:0:0:0:
408,151,74146,2,0,L|408:79,1,50,8|0,0:0|0:0,0:0:0:0:
383,49,74600,22,0,P|335:39|276:49,1,99.9999999999999,2|8,0:0|0:0,0:0:0:0:
228,66,75282,1,0,0:0:0:0:
228,66,75509,2,0,P|222:107|228:130,1,50,2|0,0:0|0:0,0:0:0:0:
205,172,75964,2,0,P|172:179|140:172,1,50,8|0,0:0|0:0,0:0:0:0:
97,190,76418,6,0,L|97:311,1,99.9999999999999,2|8,0:0|0:0,0:0:0:0:
149,328,77100,2,0,P|176:333|214:323,1,50,0|2,0:0|0:0,0:0:0:0:
248,220,77782,2,0,L|249:150,1,50,8|0,0:0|0:0,0:0:0:0:
289,129,78237,22,0,P|336:122|401:142,1,99.9999999999999,2|8,0:0|0:0,0:0:0:0:
498,175,79145,1,2,0:0:0:0:
465,290,79600,1,8,0:0:0:0:
350,253,80055,5,2,0:0:0:0:
33,101,87327,5,0,0:0:0:0:
33,101,87554,2,0,P|81:98|136:101,1,99.9999999999999,2|2,0:0|0:0,0:0:0:0:
252,116,88464,1,2,0:0:0:0:
252,116,88691,2,0,P|255:79|269:47,1,50,2|0,0:0|0:0,0:0:0:0:
316,48,89145,5,2,0:0:0:0:
316,48,89372,2,0,L|422:47,1,99.9999999999999,2|2,0:0|0:0,0:0:0:0:
456,160,90282,2,0,P|452:208|450:268,1,99.9999999999999,2|2,0:0|0:0,0:0:0:0:
448,319,90963,5,2,0:0:0:0:
448,319,91191,2,0,P|397:314|332:324,1,99.9999999999999,2|2,0:0|0:0,0:0:0:0:
228,323,92100,1,2,0:0:0:0:
228,323,92327,2,0,P|188:323|155:316,1,50,2|0,0:0|0:0,0:0:0:0:
158,265,92781,1,2,0:0:0:0:
158,265,93009,2,0,L|157:147,1,99.9999999999999,2|2,0:0|0:0,0:0:0:0:
248,86,93918,2,0,P|299:81|357:90,1,99.9999999999999,0|10,0:0|0:0,0:0:0:0:
407,91,94600,6,0,L|407:205,1,99.9999999999999,2|8,0:0|0:0,0:0:0:0:
324,278,95509,2,0,L|324:173,1,99.9999999999999,2|8,0:0|0:0,0:0:0:0:
206,201,96418,22,0,P|155:212|98:196,2,99.9999999999999,2|8|2,0:0|0:0|0:0,0:0:0:0:
271,100,97782,1,10,0:0:0:0:
271,100,98237,6,0,P|319:92|379:101,1,99.9999999999999,2|8,0:0|0:0,0:0:0:0:
477,150,99146,2,0,L|477:263,1,99.9999999999999,2|8,0:0|0:0,0:0:0:0:
474,370,100055,2,0,P|424:363|357:375,1,99.9999999999999,2|8,0:0|0:0,0:0:0:0:
258,342,100964,2,0,P|218:342|194:327,1,50,2|0,0:0|0:0,0:0:0:0:
160,304,101418,2,0,L|161:236,1,50,10|0,0:0|0:0,0:0:0:0:
166,194,101873,6,0,P|214:205|271:193,1,99.9999999999999,2|8,0:0|0:0,0:0:0:0:
370,142,102782,2,0,P|419:134|476:152,1,99.9999999999999,2|8,0:0|0:0,0:0:0:0:
415,255,103691,22,0,L|415:367,2,99.9999999999999,2|8|2,0:0|0:0|0:0,0:0:0:0:
472,150,105055,1,10,0:0:0:0:
472,150,105509,6,0,P|426:138|361:154,1,99.9999999999999,2|8,0:0|0:0,0:0:0:0:
255,150,106418,2,0,L|255:267,1,99.9999999999999,2|8,0:0|0:0,0:0:0:0:
138,284,107328,22,0,P|87:279|46:237,1,99.9999999999999,2|8,0:0|0:0,0:0:0:0:
69,129,108237,2,0,P|95:106|124:95,1,50,2|0,0:0|0:0,0:0:0:0:
164,79,108691,2,0,P|192:77|231:84,1,50,10|0,0:0|0:0,0:0:0:0:
273,88,109146,6,0,L|273:197,1,99.9999999999999,2|8,0:0|0:0,0:0:0:0:
267,307,110055,2,0,P|217:318|155:304,1,99.9999999999999,2|8,0:0|0:0,0:0:0:0:
116,286,110737,1,0,0:0:0:0:
72,244,110964,22,0,P|50:197|53:138,1,99.9999999999999,2|8,0:0|0:0,0:0:0:0:
130,59,111873,2,0,L|248:59,1,99.9999999999999,2|8,0:0|0:0,0:0:0:0:
290,62,112555,1,0,0:0:0:0:
348,73,112782,2,0,P|370:115|373:180,1,99.9999999999999,2|8,0:0|0:0,0:0:0:0:
308,266,113691,2,0,P|258:282|205:270,1,99.9999999999999,2|8,0:0|0:0,0:0:0:0:
152,271,114373,1,0,0:0:0:0:
102,237,114600,22,0,L|102:117,1,99.9999999999999,2|8,0:0|0:0,0:0:0:0:
196,63,115509,2,0,L|195:173,1,99.9999999999999,2|8,0:0|0:0,0:0:0:0:
309,126,116418,6,0,P|359:120|418:128,1,99.9999999999999,2|8,0:0|0:0,0:0:0:0:
408,248,117327,2,0,P|358:254|299:246,1,99.9999999999999,2|8,0:0|0:0,0:0:0:0:
212,176,118237,22,0,B|212:287,2,99.9999999999999,2|8|2,0:0|0:0|0:0,0:0:0:0:
107,221,119600,1,8,0:0:0:0:
107,221,120055,6,0,P|59:232|1:218,1,99.9999999999999,2|8,0:0|0:0,0:0:0:0:
94,136,120964,2,0,P|146:126|208:137,1,99.9999999999999,2|8,0:0|0:0,0:0:0:0:
301,76,121873,22,0,P|351:84|408:76,1,99.9999999999999,2|8,0:0|0:0,0:0:0:0:
480,166,122782,2,0,L|480:284,1,99.9999999999999,2|10,0:0|0:0,0:0:0:0:
374,324,123691,6,0,P|323:316|253:329,1,99.9999999999999,2|2,0:0|0:0,0:0:0:0:
209,329,124373,1,2,0:0:0:0:
147,313,124600,2,0,P|132:267|140:211,1,99.9999999999999,2|2,0:0|0:0,0:0:0:0:
193,110,125509,6,0,P|244:117|304:104,1,99.9999999999999,2|2,0:0|0:0,0:0:0:0:
347,88,126191,1,0,0:0:0:0:
407,85,126418,2,0,P|427:130|424:186,1,99.9999999999999,2|2,0:0|0:0,0:0:0:0:
412,300,127328,6,0,P|363:291|297:307,1,99.9999999999999,2|2,0:0|0:0,0:0:0:0:
203,347,128237,1,2,0:0:0:0:
151,238,128691,1,2,0:0:0:0:
260,189,129146,5,2,0:0:0:0:
351,329,141873,6,2,P|302:322|240:331,1,99.9999999999999,2|2,0:0|0:0,0:0:0:0:
132,331,142781,1,2,0:0:0:0:
132,210,143236,1,2,0:0:0:0:
88,98,143691,6,0,P|132:87|194:100,1,99.9999999999999,6|8,0:0|0:0,0:0:0:0:
216,147,144373,2,0,L|217:214,1,50,0|2,0:0|0:0,0:0:0:0:
332,229,145055,2,0,P|363:233|400:227,1,50,8|0,0:0|0:0,0:0:0:0:
441,234,145509,22,0,P|466:274|457:340,1,99.9999999999999,2|8,0:0|0:0,0:0:0:0:
405,353,146191,1,0,0:0:0:0:
405,353,146418,2,0,L|342:354,1,50,2|0,0:0|0:0,0:0:0:0:
296,353,146873,2,0,P|266:348|236:324,1,50,8|0,0:0|0:0,0:0:0:0:
194,314,147328,6,0,P|146:306|73:318,1,99.9999999999999,2|8,0:0|0:0,0:0:0:0:
36,320,148009,2,0,L|36:253,1,50,0|2,0:0|0:0,0:0:0:0:
29,150,148691,2,0,P|31:126|48:91,1,50,8|0,0:0|0:0,0:0:0:0:
91,70,149146,22,0,P|138:78|192:68,1,99.9999999999999,2|8,0:0|0:0,0:0:0:0:
248,64,149828,1,0,0:0:0:0:
248,64,150055,2,0,P|280:63|316:79,1,50,2|0,0:0|0:0,0:0:0:0:
349,96,150509,2,0,P|367:118|376:159,1,50,8|0,0:0|0:0,0:0:0:0:
384,197,150964,6,0,L|384:309,1,99.9999999999999,2|8,0:0|0:0,0:0:0:0:
367,354,151646,2,0,P|336:357|307:355,1,50,0|2,0:0|0:0,0:0:0:0:
246,258,152328,2,0,P|216:256|179:259,1,50,8|0,0:0|0:0,0:0:0:0:
136,253,152782,22,0,P|123:208|137:152,1,99.9999999999999,2|8,0:0|0:0,0:0:0:0:
166,105,153464,1,0,0:0:0:0:
166,105,153691,2,0,P|194:83|224:79,1,50,2|0,0:0|0:0,0:0:0:0:
266,66,154146,2,0,P|289:73|327:97,1,50,8|0,0:0|0:0,0:0:0:0:
365,112,154600,6,0,P|412:119|465:111,1,99.9999999999999,2|8,0:0|0:0,0:0:0:0:
504,155,155282,2,0,L|504:227,1,50,0|2,0:0|0:0,0:0:0:0:
494,324,155963,2,0,P|486:351|466:372,1,50,8|0,0:0|0:0,0:0:0:0:
412,369,156418,22,0,P|362:363|302:367,1,99.9999999999999,2|8,0:0|0:0,0:0:0:0:
192,358,157327,1,2,0:0:0:0:
193,239,157781,1,8,0:0:0:0:
267,144,158237,6,0,P|315:135|381:151,1,99.9999999999999,6|8,0:0|0:0,0:0:0:0:
420,165,158918,2,0,L|419:238,1,50,0|2,0:0|0:0,0:0:0:0:
299,221,159600,2,0,P|267:224|234:219,1,50,8|0,0:0|0:0,0:0:0:0:
189,228,160055,22,0,P|175:278|184:333,1,99.9999999999999,2|8,0:0|0:0,0:0:0:0:
233,358,160737,2,0,P|256:361|296:354,1,50,0|2,0:0|0:0,0:0:0:0:
381,292,161418,2,0,L|382:222,1,50,8|0,0:0|0:0,0:0:0:0:
372,182,161873,6,0,P|330:153|277:147,1,99.9999999999999,2|8,0:0|0:0,0:0:0:0:
223,158,162555,1,0,0:0:0:0:
223,158,162782,2,0,L|223:213,1,50,2|0,0:0|0:0,0:0:0:0:
163,219,163237,2,0,P|140:215|105:217,1,50,8|0,0:0|0:0,0:0:0:0:
53,221,163691,22,0,L|53:340,1,99.9999999999999,2|8,0:0|0:0,0:0:0:0:
57,381,164373,1,0,0:0:0:0:
115,370,164600,2,0,P|166:376|229:366,1,99.9999999999999,2|8,0:0|0:0,0:0:0:0:
285,273,165509,6,0,P|335:265|389:273,1,99.9999999999999,2|8,0:0|0:0,0:0:0:0:
442,257,166191,2,0,P|444:228|440:191,1,50,0|2,0:0|0:0,0:0:0:0:
367,113,166873,2,0,P|362:145|363:178,1,50,8|0,0:0|0:0,0:0:0:0:
324,209,167328,2,0,P|274:214|208:200,1,99.9999999999999,2|8,0:0|0:0,0:0:0:0:
167,191,168009,1,0,0:0:0:0:
106,189,168237,2,0,P|87:237|93:294,1,99.9999999999999,2|8,0:0|0:0,0:0:0:0:
183,359,169146,6,0,L|305:358,1,99.9999999999999,2|8,0:0|0:0,0:0:0:0:
343,354,169828,2,0,L|343:290,1,50,0|2,0:0|0:0,0:0:0:0:
336,184,170509,2,0,P|329:153|313:125,1,50,8|0,0:0|0:0,0:0:0:0:
284,88,170964,6,0,P|234:84|179:91,1,99.9999999999999,2|8,0:0|0:0,0:0:0:0:
125,194,171873,2,0,P|80:200|20:189,1,99.9999999999999,2|10,0:0|0:0,0:0:0:0:
2,135,172555,1,10,0:0:0:0:
19,77,172782,22,0,P|69:70|126:82,1,99.9999999999999,2|8,0:0|0:0,0:0:0:0:
209,155,173691,2,0,L|209:259,1,99.9999999999999,2|8,0:0|0:0,0:0:0:0:
309,321,174600,6,0,P|358:330|419:318,1,99.9999999999999,2|8,0:0|0:0,0:0:0:0:
452,211,175509,1,2,0:0:0:0:
331,211,175964,1,8,0:0:0:0:
264,111,176418,22,0,P|215:103|157:117,1,99.9999999999999,6|8,0:0|0:0,0:0:0:0:
127,158,177100,2,0,P|122:189|124:219,1,50,0|2,0:0|0:0,0:0:0:0:
219,278,177782,2,0,P|248:282|280:279,1,50,8|0,0:0|0:0,0:0:0:0:
328,274,178237,6,0,L|328:161,1,99.9999999999999,2|8,0:0|0:0,0:0:0:0:
324,114,178918,2,0,P|289:118|263:114,1,50,0|2,0:0|0:0,0:0:0:0:
168,58,179600,2,0,P|136:54|100:60,1,50,8|0,0:0|0:0,0:0:0:0:
67,87,180055,22,0,P|54:138|63:202,1,99.9999999999999,2|8,0:0|0:0,0:0:0:0:
87,237,180737,2,0,P|117:240|145:237,1,50,0|2,0:0|0:0,0:0:0:0:
207,141,181418,2,0,L|207:80,1,50,8|0,0:0|0:0,0:0:0:0:
212,31,181873,6,0,P|261:23|321:35,1,99.9999999999999,2|8,0:0|0:0,0:0:0:0:
364,58,182555,2,0,P|384:82|397:116,1,50,0|2,0:0|0:0,0:0:0:0:
421,215,183237,2,0,L|421:278,1,50,8|0,0:0|0:0,0:0:0:0:
409,323,183691,22,0,P|361:327|299:316,1,99.9999999999999,2|8,0:0|0:0,0:0:0:0:
250,308,184373,1,0,0:0:0:0:
193,300,184600,2,0,P|145:295|87:309,1,99.9999999999999,2|8,0:0|0:0,0:0:0:0:
36,319,185282,1,0,0:0:0:0:
24,260,185509,6,0,P|17:209|37:152,1,99.9999999999999,2|8,0:0|0:0,0:0:0:0:
126,91,186418,2,0,P|174:100|239:85,1,99.9999999999999,2|10,0:0|0:0,0:0:0:0:
338,128,187328,5,6,0:0:0:0:
