osu file format v14

[General]
AudioFilename: Himeringo - Miss Wanna-Die.mp3
AudioLeadIn: 0
PreviewTime: 47327
Countdown: 0
SampleSet: Soft
StackLeniency: 0.7
Mode: 0
LetterboxInBreaks: 0
WidescreenStoryboard: 0

[Editor]
DistanceSpacing: 0.7
BeatDivisor: 8
GridSize: 16
TimelineZoom: 1

[Metadata]
Title:Shinitai-chan
TitleUnicode:シニタイちゃん
Artist:Himeringo
ArtistUnicode:ひめりんご
Creator:Hailie
Version:Hard
Source:
Tags:すいっち Switch IA Vocaloid Miss Wanna-Die Cover ButterP -Aria On The Planetes- Shiratoi Skairul Noffy
BeatmapID:1428263
BeatmapSetID:519318

[Difficulty]
HPDrainRate:5
CircleSize:3.5
OverallDifficulty:6
ApproachRate:7
SliderMultiplier:1.6
SliderTickRate:2

[Events]
//Background and Video events
Video,0,"himerin.avi"
0,0,"bg.jpg",0,0
//Break Periods
2,80255,86427
2,129346,140973
//Storyboard Layer 0 (Background)
//Storyboard Layer 1 (Fail)
//Storyboard Layer 2 (Pass)
//Storyboard Layer 3 (Foreground)
//Storyboard Sound Samples

[TimingPoints]
3691,454.545454545455,4,2,1,50,1,0
18236,-117.647058823529,4,2,2,60,0,0
32781,-100,4,2,1,60,0,0
46645,-100,4,2,2,60,0,0
47327,-111.111111111111,4,2,1,40,0,0
50963,-90.9090909090909,4,2,2,70,0,1
64827,-90.9090909090909,4,2,2,70,0,0
65509,-90.9090909090909,4,2,2,70,0,1
80054,-100,4,2,2,70,0,0
87327,-100,4,2,2,50,0,0
94600,-100,4,2,2,55,0,0
109145,-100,4,2,1,60,0,0
123009,-100,4,2,2,60,0,0
123237,-100,4,2,2,60,0,0
123691,-100,4,2,1,40,0,0
128236,-100,4,2,1,50,0,0
141872,-100,4,2,1,10,0,0
142327,-100,4,2,1,20,0,0
142781,-100,4,2,1,30,0,0
143236,-100,4,2,1,40,0,0
143691,-90.9090909090909,4,2,2,70,0,1
157554,-90.9090909090909,4,2,2,70,0,0
158236,-90.9090909090909,4,2,2,70,0,1
175509,-90.9090909090909,4,2,2,70,0,0
186759,-90.9090909090909,4,2,2,70,0,0

[Colours]
Combo1 : 179,0,0
Combo2 : 179,89,0
Combo3 : 170,170,170
Combo4 : 171,88,88

[HitObjects]
78,61,3691,6,0,P|34:117|105:154,1,160,2|2,0:0|0:0,0:0:0:0:
177,160,4373,1,2,0:0:0:0:
177,160,4600,2,0,P|217:166|267:157,1,80,2|0,0:0|0:0,0:0:0:0:
336,154,5054,2,0,P|346:193|342:243,1,80,2|0,0:0|0:0,0:0:0:0:
338,345,5509,6,0,B|245:374|280:321|157:355,1,160,2|2,0:0|0:0,0:0:0:0:
169,267,6191,1,0,0:0:0:0:
169,267,6418,2,0,P|197:192|148:109,1,160,2|2,0:0|0:0,0:0:0:0:
111,194,7100,1,0,0:0:0:0:
54,122,7327,6,0,P|22:193|50:266,1,160,2|2,0:0|0:0,0:0:0:0:
123,302,8009,2,0,P|164:307|231:300,2,80,0|2|0,0:0|0:0|0:0,0:0:0:0:
172,226,8691,2,0,P|211:225|269:230,1,80,2|0,0:0|0:0,0:0:0:0:
375,207,9146,5,2,0:0:0:0:
384,65,9373,1,0,0:0:0:0:
384,65,9600,2,0,P|340:62|294:65,1,80,2|2,0:0|0:0,0:0:0:0:
359,147,10055,1,0,0:0:0:0:
359,147,10281,2,0,P|395:149|439:148,2,80,2|2|0,0:0|0:0|0:0,0:0:0:0:
244,152,10964,6,0,L|244:338,1,160,2|2,0:0|0:0,0:0:0:0:
132,298,11646,1,2,0:0:0:0:
132,298,11873,2,0,P|75:261|128:209,1,160,2|2,0:0|0:0,0:0:0:0:
165,105,12555,1,0,0:0:0:0:
165,105,12782,6,0,P|242:126|332:100,1,160,2|2,0:0|0:0,0:0:0:0:
399,23,13464,1,0,0:0:0:0:
399,23,13691,2,0,P|449:83|397:164,1,160,2|2,0:0|0:0,0:0:0:0:
434,275,14373,1,0,0:0:0:0:
434,275,14600,22,0,B|373:275|373:275|331:249|331:249|275:249,1,160,2|2,0:0|0:0,0:0:0:0:
187,221,15281,2,0,L|187:139,1,80,2|2,0:0|0:0,0:0:0:0:
97,206,15736,1,0,0:0:0:0:
97,206,15963,2,0,L|97:312,1,80,2|0,0:0|0:0,0:0:0:0:
188,325,16417,5,2,0:0:0:0:
227,220,16645,1,0,0:0:0:0:
227,220,16872,2,0,P|266:233|305:270,1,80,2|2,0:0|0:0,0:0:0:0:
352,144,17327,1,0,0:0:0:0:
352,144,17555,2,0,P|310:135|269:102,2,80,0|2|0,0:0|0:0|0:0,0:0:0:0:
456,151,18237,6,0,P|487:210|446:260,1,136.000002593994,2|10,0:0|0:0,0:0:0:0:
377,294,18918,2,0,P|341:292|286:299,1,68.0000012969971,0|2,0:0|0:0,0:0:0:0:
116,343,19600,2,0,L|116:257,1,68.0000012969971,2|0,0:0|0:0,0:0:0:0:
117,160,20055,6,0,P|121:123|143:91,1,68.0000012969971,2|0,0:0|0:0,0:0:0:0:
200,47,20509,2,0,P|238:41|292:51,2,68.0000012969971,10|0|2,0:0|0:0|0:0,0:0:0:0:
260,229,21418,1,2,0:0:0:0:
260,229,21531,1,2,0:0:0:0:
260,229,21645,1,2,0:0:0:0:
310,165,21873,22,0,P|342:226|301:301,1,136.000002593994,2|10,0:0|0:0,0:0:0:0:
251,324,22555,2,0,P|216:329|164:320,1,68.0000012969971,2|0,0:0|0:0,0:0:0:0:
182,137,23236,2,0,L|182:61,1,68.0000012969971,2|2,0:0|0:0,0:0:0:0:
182,48,23577,1,2,0:0:0:0:
180,27,23690,6,0,P|146:24|101:34,1,68.0000012969971,2|0,0:0|0:0,0:0:0:0:
50,81,24146,2,0,P|47:120|56:173,1,68.0000012969971,10|0,0:0|0:0,0:0:0:0:
67,228,24600,2,0,L|155:220,1,68.0000012969971,2|2,0:0|0:0,0:0:0:0:
154,220,24941,1,2,0:0:0:0:
174,217,25055,1,2,0:0:0:0:
260,298,25282,1,0,0:0:0:0:
260,298,25509,22,0,P|321:320|389:289,1,136.000002593994,2|10,0:0|0:0,0:0:0:0:
439,236,26191,2,0,P|439:195|430:150,1,68.0000012969971,0|2,0:0|0:0,0:0:0:0:
295,23,26873,2,0,P|289:56|295:113,1,68.0000012969971,2|0,0:0|0:0,0:0:0:0:
242,202,27327,6,0,L|164:236,2,68.0000012969971,2|0|10,0:0|0:0|0:0,0:0:0:0:
190,139,28009,1,0,0:0:0:0:
190,139,28237,2,0,L|108:172,1,68.0000012969971,2|0,0:0|0:0,0:0:0:0:
53,198,28691,1,2,0:0:0:0:
53,198,28805,1,2,0:0:0:0:
53,198,28918,1,2,0:0:0:0:
107,310,29146,6,0,P|171:336|244:296,1,136.000002593994,2|10,0:0|0:0,0:0:0:0:
172,255,29828,2,0,L|172:170,1,68.0000012969971,0|2,0:0|0:0,0:0:0:0:
159,3,30509,2,0,P|122:-1|76:8,1,68.0000012969971,0|2,0:0|0:0,0:0:0:0:
70,16,30850,1,2,0:0:0:0:
56,36,30964,6,0,L|54:128,1,68.0000012969971,2|0,0:0|0:0,0:0:0:0:
148,157,31418,2,0,L|150:81,1,68.0000012969971,10|0,0:0|0:0,0:0:0:0:
291,86,31873,1,2,0:0:0:0:
324,234,32100,1,0,0:0:0:0:
324,234,32328,2,0,P|294:233|262:236,3,34.0000006484985,10|8|8|8,0:0|0:0|0:0|0:0,0:0:0:0:
261,233,32782,22,0,L|260:70,1,160,2|8,0:0|0:0,0:0:0:0:
169,15,33464,1,0,0:0:0:0:
169,15,33691,2,0,P|127:10|75:22,1,80,2|0,0:0|0:0,0:0:0:0:
26,95,34145,2,0,P|16:133|17:173,1,80,8|0,0:0|0:0,0:0:0:0:
20,197,34487,1,0,0:0:0:0:
31,218,34600,6,0,B|104:243|120:192|203:219,1,160,2|8,0:0|0:0,0:0:0:0:
275,256,35282,1,0,0:0:0:0:
275,256,35509,2,0,P|319:259|372:255,1,80,2|0,0:0|0:0,0:0:0:0:
481,193,35964,1,8,0:0:0:0:
409,276,36191,1,0,0:0:0:0:
350,168,36418,6,0,P|352:92|449:67,1,160,2|8,0:0|0:0,0:0:0:0:
481,193,37100,1,0,0:0:0:0:
481,193,37327,2,0,P|484:269|419:308,1,160,2|8,0:0|0:0,0:0:0:0:
343,379,38009,1,0,0:0:0:0:
343,379,38236,6,0,P|293:321|322:251,1,160,2|8,0:0|0:0,0:0:0:0:
334,116,38918,1,0,0:0:0:0:
334,116,39145,2,0,B|266:148|241:89|157:124,1,160,2|8,0:0|0:0,0:0:0:0:
50,130,39827,1,0,0:0:0:0:
50,130,40054,6,0,P|15:72|89:24,1,160,2|8,0:0|0:0,0:0:0:0:
188,33,40737,1,0,0:0:0:0:
188,33,40964,2,0,P|230:36|289:32,1,80,2|0,0:0|0:0,0:0:0:0:
322,131,41418,2,0,P|273:130|233:132,1,80,8|0,0:0|0:0,0:0:0:0:
124,110,41872,6,0,P|120:190|123:276,1,160,2|10,0:0|0:0,0:0:0:0:
216,222,42555,1,0,0:0:0:0:
216,222,42782,2,0,P|261:219|319:220,1,80,2|0,0:0|0:0,0:0:0:0:
309,100,43237,1,8,0:0:0:0:
347,198,43464,1,0,0:0:0:0:
417,84,43691,6,0,P|466:138|512:81,1,160,2|8,0:0|0:0,0:0:0:0:
512,219,44373,1,0,0:0:0:0:
512,219,44600,2,0,P|490:296|503:392,1,160,2|8,0:0|0:0,0:0:0:0:
361,356,45282,1,0,0:0:0:0:
361,356,45509,6,0,P|283:333|209:355,1,160,2|8,0:0|0:0,0:0:0:0:
71,341,46191,1,0,0:0:0:0:
71,341,46418,2,0,P|73:294|65:230,1,80,2|2,0:0|0:0,0:0:0:0:
54,127,46873,2,0,P|84:129|114:125,3,40,10|2|2|2,0:0|0:0|0:0|0:0,0:0:0:0:
115,125,47328,22,0,P|151:123|194:126,1,71.9999978027344,2|2,0:0|0:0,0:0:0:0:
255,165,47781,2,0,P|291:167|334:164,1,71.9999978027344,2|2,0:0|0:0,0:0:0:0:
333,86,48236,2,0,P|369:83|405:86,1,71.9999978027344,2|2,0:0|0:0,0:0:0:0:
484,97,48691,2,0,P|480:134|489:186,1,71.9999978027344,2|2,0:0|0:0,0:0:0:0:
483,277,49146,6,0,P|481:316|462:365,1,71.9999978027344,2|2,0:0|0:0,0:0:0:0:
379,353,49600,2,0,P|340:348|288:358,1,71.9999978027344,2|2,0:0|0:0,0:0:0:0:
186,360,50055,2,0,P|148:365|93:343,1,71.9999978027344,2|2,0:0|0:0,0:0:0:0:
55,228,50509,1,2,0:0:0:0:
55,228,50964,6,2,P|18:165|97:166,1,176.000005371094,6|8,0:0|0:0,0:0:0:0:
235,99,51646,1,0,0:0:0:0:
235,99,51873,2,0,P|273:105|352:95,1,88.000002685547,2|0,0:0|0:0,0:0:0:0:
473,81,52328,1,8,0:0:0:0:
333,18,52555,1,0,0:0:0:0:
404,163,52782,6,0,P|384:250|398:348,1,176.000005371094,2|8,0:0|0:0,0:0:0:0:
239,354,53464,1,0,0:0:0:0:
239,354,53691,2,0,P|196:352|134:356,1,88.000002685547,2|0,0:0|0:0,0:0:0:0:
35,229,54145,2,0,P|79:232|123:230,1,88.000002685547,8|0,0:0|0:0,0:0:0:0:
293,225,54600,6,0,P|296:140|258:41,1,176.000005371094,2|8,0:0|0:0,0:0:0:0:
417,105,55282,1,0,0:0:0:0:
417,105,55509,2,0,P|462:108|512:106,1,88.000002685547,2|0,0:0|0:0,0:0:0:0:
380,226,55964,2,0,P|332:223|274:227,1,88.000002685547,8|0,0:0|0:0,0:0:0:0:
149,325,56418,6,0,P|85:293|158:280,1,176.000005371094,2|8,0:0|0:0,0:0:0:0:
296,227,57100,1,0,0:0:0:0:
296,227,57328,2,0,P|341:226|395:227,1,88.000002685547,2|0,0:0|0:0,0:0:0:0:
443,87,57781,2,0,P|401:88|356:87,1,88.000002685547,8|0,0:0|0:0,0:0:0:0:
324,86,58122,1,0,0:0:0:0:
297,84,58236,6,0,P|239:45|318:29,1,176.000005371094,2|8,0:0|0:0,0:0:0:0:
460,99,58918,1,0,0:0:0:0:
460,99,59146,2,0,P|436:186|452:285,1,176.000005371094,2|8,0:0|0:0,0:0:0:0:
309,357,59828,1,0,0:0:0:0:
309,357,60055,22,0,B|214:338|230:392|117:364,1,176.000005371094,2|8,0:0|0:0,0:0:0:0:
31,255,60737,1,0,0:0:0:0:
31,255,60964,2,0,P|77:252|143:254,1,88.000002685547,2|0,0:0|0:0,0:0:0:0:
241,142,61418,2,0,P|197:143|153:141,1,88.000002685547,8|0,0:0|0:0,0:0:0:0:
342,48,61873,6,0,P|322:133|342:231,1,176.000005371094,2|8,0:0|0:0,0:0:0:0:
445,336,62555,1,0,0:0:0:0:
285,318,62781,2,0,P|199:301|113:320,1,176.000005371094,2|8,0:0|0:0,0:0:0:0:
42,166,63464,1,0,0:0:0:0:
143,48,63691,6,0,P|205:103|162:194,1,176.000005371094,2|8,0:0|0:0,0:0:0:0:
64,312,64373,1,0,0:0:0:0:
64,312,64600,2,0,P|111:319|157:315,1,88.000002685547,2|0,0:0|0:0,0:0:0:0:
306,310,65055,2,0,P|332:307|372:311,3,44.0000013427735,10|2|2|0,0:0|0:0|0:0|0:0,0:0:0:0:
376,307,65509,6,2,P|443:279|369:250,1,176.000005371094,6|8,0:0|0:0,0:0:0:0:
227,191,66191,1,0,0:0:0:0:
227,191,66418,2,0,P|275:194|329:187,1,88.000002685547,2|0,0:0|0:0,0:0:0:0:
442,68,66873,1,8,0:0:0:0:
291,58,67100,1,0,0:0:0:0:
414,181,67328,6,0,P|385:260|404:360,1,176.000005371094,2|8,0:0|0:0,0:0:0:0:
223,350,68009,1,0,0:0:0:0:
223,350,68237,2,0,P|177:347|127:349,1,88.000002685547,2|0,0:0|0:0,0:0:0:0:
150,193,68691,2,0,P|193:195|239:193,1,88.000002685547,8|0,0:0|0:0,0:0:0:0:
389,230,69146,6,0,P|437:280|364:279,1,176.000005371094,2|8,0:0|0:0,0:0:0:0:
223,350,69828,1,0,0:0:0:0:
223,350,70055,2,0,P|221:303|225:242,1,88.000002685547,2|0,0:0|0:0,0:0:0:0:
123,137,70509,2,0,P|124:180|122:224,1,88.000002685547,8|0,0:0|0:0,0:0:0:0:
205,83,70964,6,0,B|309:114|289:53|397:85,1,176.000005371094,2|8,0:0|0:0,0:0:0:0:
508,175,71646,1,0,0:0:0:0:
508,175,71873,2,0,P|509:128|500:61,1,88.000002685547,2|0,0:0|0:0,0:0:0:0:
372,201,72327,2,0,P|367:244|369:288,1,88.000002685547,8|0,0:0|0:0,0:0:0:0:
370,315,72668,1,0,0:0:0:0:
373,341,72782,6,0,P|285:334|185:347,1,176.000005371094,2|8,0:0|0:0,0:0:0:0:
90,213,73464,1,0,0:0:0:0:
90,213,73691,2,0,P|177:223|271:215,1,176.000005371094,2|8,0:0|0:0,0:0:0:0:
371,90,74373,1,0,0:0:0:0:
371,90,74600,22,0,P|424:130|352:124,1,176.000005371094,2|8,0:0|0:0,0:0:0:0:
367,293,75282,1,0,0:0:0:0:
367,293,75509,2,0,P|320:292|258:295,1,88.000002685547,2|0,0:0|0:0,0:0:0:0:
168,189,75963,2,0,P|211:190|255:189,1,88.000002685547,8|0,0:0|0:0,0:0:0:0:
131,313,76418,6,0,P|62:306|127:260,1,176.000005371094,2|8,0:0|0:0,0:0:0:0:
35,111,77100,1,0,0:0:0:0:
189,25,77328,2,0,P|166:105|180:211,1,176.000005371094,2|8,0:0|0:0,0:0:0:0:
323,133,78009,1,0,0:0:0:0:
317,318,78237,6,0,B|215:308|240:362|123:338,1,176.000005371094,2|8,0:0|0:0,0:0:0:0:
39,208,78918,1,0,0:0:0:0:
39,208,79146,2,0,P|86:203|151:213,1,88.000002685547,2|0,0:0|0:0,0:0:0:0:
293,199,79600,2,0,P|304:179|309:134,3,44.0000013427735,10|0|10|0,0:0|0:0|0:0|0:0,0:0:0:0:
311,134,80055,21,2,0:0:0:0:
482,353,87327,5,0,0:0:0:0:
371,355,87554,2,0,P|292:359|181:355,1,160,2|2,0:0|0:0,0:0:0:0:
44,237,88464,1,2,0:0:0:0:
44,237,88691,2,0,L|44:197,3,40,2|0|0|0,0:0|0:0|0:0|0:0,0:0:0:0:
46,168,89145,5,2,0:0:0:0:
119,85,89372,2,0,L|296:85,1,160,2|2,0:0|0:0,0:0:0:0:
482,61,90282,1,2,0:0:0:0:
482,61,90509,2,0,P|496:104|492:152,1,80,2|2,0:0|0:0,0:0:0:0:
490,165,90850,1,2,0:0:0:0:
480,191,90963,5,2,0:0:0:0:
493,297,91191,2,0,P|419:288|385:201,1,160,2|2,0:0|0:0,0:0:0:0:
297,46,92100,1,2,0:0:0:0:
297,46,92328,2,0,P|277:46|257:46,3,40,2|0|0|0,0:0|0:0|0:0|0:0,0:0:0:0:
229,47,92781,5,2,0:0:0:0:
127,91,93009,2,0,L|127:259,1,160,2|2,0:0|0:0,0:0:0:0:
149,346,93691,1,2,0:0:0:0:
228,268,93918,1,0,0:0:0:0:
300,343,94145,2,0,P|319:343|351:342,3,40,10|0|10|0,0:0|0:0|0:0|0:0,0:0:0:0:
364,340,94600,22,0,P|407:275|354:192,1,160,2|8,0:0|0:0,0:0:0:0:
312,100,95282,1,0,0:0:0:0:
312,100,95509,2,0,P|257:153|271:229,1,160,2|8,0:0|0:0,0:0:0:0:
200,283,96191,1,0,0:0:0:0:
200,283,96418,6,0,P|157:281|110:283,1,80,2|0,0:0|0:0,0:0:0:0:
168,180,96872,2,0,P|207:181|247:180,1,80,8|0,0:0|0:0,0:0:0:0:
170,97,97327,2,0,P|127:95|80:97,2,80,2|0|10,0:0|0:0|0:0,0:0:0:0:
270,27,98009,1,0,0:0:0:0:
270,27,98237,22,0,P|310:89|248:162,1,160,2|8,0:0|0:0,0:0:0:0:
345,223,98918,1,0,0:0:0:0:
207,219,99145,2,0,P|179:287|254:347,1,160,2|8,0:0|0:0,0:0:0:0:
101,282,99828,1,0,0:0:0:0:
101,282,100055,6,0,P|56:285|2:283,1,80,2|0,0:0|0:0,0:0:0:0:
91,195,100509,2,0,P|132:193|173:194,1,80,8|0,0:0|0:0,0:0:0:0:
284,103,100964,2,0,P|266:182|287:266,1,160,2|10,0:0|0:0,0:0:0:0:
332,372,101645,1,2,0:0:0:0:
332,372,101759,1,0,0:0:0:0:
332,372,101873,22,0,P|250:366|166:373,1,160,2|8,0:0|0:0,0:0:0:0:
86,270,102555,1,0,0:0:0:0:
86,270,102782,2,0,P|165:276|249:269,1,160,2|8,0:0|0:0,0:0:0:0:
299,176,103464,1,0,0:0:0:0:
299,176,103691,6,0,P|340:174|406:175,1,80,2|0,0:0|0:0,0:0:0:0:
325,270,104145,2,0,P|285:271|245:269,1,80,8|0,0:0|0:0,0:0:0:0:
286,358,104600,2,0,P|327:359|393:357,2,80,2|0|10,0:0|0:0|0:0,0:0:0:0:
162,326,105282,1,0,0:0:0:0:
162,326,105509,22,0,P|104:277|143:212,1,160,2|8,0:0|0:0,0:0:0:0:
76,122,106191,1,0,0:0:0:0:
203,53,106418,2,0,P|250:109|205:167,1,160,2|8,0:0|0:0,0:0:0:0:
326,88,107100,1,0,0:0:0:0:
326,88,107328,6,0,P|373:89|421:87,1,80,2|0,0:0|0:0,0:0:0:0:
377,195,107781,2,0,P|332:193|297:195,1,80,8|0,0:0|0:0,0:0:0:0:
221,287,108236,2,0,P|264:288|316:286,1,80,2|0,0:0|0:0,0:0:0:0:
185,205,108691,2,0,L|185:133,3,40,2|8|0|8,0:0|0:0|0:0|0:0,0:0:0:0:
186,146,109146,6,0,P|230:85|308:101,1,160,2|8,0:0|0:0,0:0:0:0:
408,112,109828,1,0,0:0:0:0:
408,112,110055,2,0,P|447:113|497:111,1,80,2|0,0:0|0:0,0:0:0:0:
489,223,110509,2,0,P|449:222|410:223,1,80,8|0,0:0|0:0,0:0:0:0:
380,224,110850,1,0,0:0:0:0:
350,227,110964,6,0,B|266:220|293:263|180:242,1,160,2|8,0:0|0:0,0:0:0:0:
142,161,111646,1,0,0:0:0:0:
142,161,111873,2,0,P|183:159|248:159,1,80,2|0,0:0|0:0,0:0:0:0:
210,40,112328,1,8,0:0:0:0:
252,142,112555,1,0,0:0:0:0:
378,76,112782,6,0,P|408:149|334:198,1,160,2|8,0:0|0:0,0:0:0:0:
252,142,113464,1,0,0:0:0:0:
252,142,113691,2,0,P|222:215|294:270,1,160,2|8,0:0|0:0,0:0:0:0:
375,345,114373,1,0,0:0:0:0:
375,345,114600,6,0,P|415:281|370:222,1,160,2|8,0:0|0:0,0:0:0:0:
252,142,115282,1,0,0:0:0:0:
252,142,115509,2,0,P|311:149|411:138,1,160,2|8,0:0|0:0,0:0:0:0:
503,227,116191,1,0,0:0:0:0:
503,227,116418,6,0,B|517:159|474:137|504:43,1,160,2|8,0:0|0:0,0:0:0:0:
395,22,117100,1,0,0:0:0:0:
395,22,117328,2,0,P|353:25|299:21,1,80,2|0,0:0|0:0,0:0:0:0:
269,130,117781,2,0,P|299:127|348:129,1,80,8|0,0:0|0:0,0:0:0:0:
456,185,118237,6,0,L|456:370,1,160,2|8,0:0|0:0,0:0:0:0:
356,347,118918,1,0,0:0:0:0:
356,347,119146,2,0,P|315:344|256:348,1,80,2|0,0:0|0:0,0:0:0:0:
154,356,119600,1,8,0:0:0:0:
242,299,119828,1,0,0:0:0:0:
119,232,120055,6,0,P|91:159|160:99,1,160,2|8,0:0|0:0,0:0:0:0:
254,38,120737,1,0,0:0:0:0:
254,38,120964,2,0,P|334:44|421:36,1,160,2|8,0:0|0:0,0:0:0:0:
326,144,121646,1,0,0:0:0:0:
326,144,121872,6,0,P|246:137|167:144,1,160,2|8,0:0|0:0,0:0:0:0:
71,250,122555,1,0,0:0:0:0:
71,250,122782,2,0,P|111:255|164:255,1,80,2|2,0:0|0:0,0:0:0:0:
288,259,123237,2,0,P|315:261|351:255,3,40,10|2|2|2,0:0|0:0|0:0|0:0,0:0:0:0:
351,259,123691,6,0,P|360:218|348:155,1,80,2|2,0:0|0:0,0:0:0:0:
339,102,124145,2,0,P|316:66|263:30,1,80,2|2,0:0|0:0,0:0:0:0:
207,36,124600,2,0,P|165:37|106:64,1,80,2|2,0:0|0:0,0:0:0:0:
80,112,125055,2,0,P|70:156|73:213,1,80,2|2,0:0|0:0,0:0:0:0:
207,194,125509,6,0,P|248:198|296:191,1,80,2|0,0:0|0:0,0:0:0:0:
406,181,125963,2,0,P|414:221|413:269,1,80,2|0,0:0|0:0,0:0:0:0:
337,355,126418,6,0,P|295:351|242:360,1,80,2|0,0:0|0:0,0:0:0:0:
137,363,126872,2,0,P|91:358|51:321,1,80,2|0,0:0|0:0,0:0:0:0:
69,194,127328,6,0,L|76:96,1,80,2|2,0:0|0:0,0:0:0:0:
177,39,127782,2,0,L|182:132,1,80,2|2,0:0|0:0,0:0:0:0:
344,171,128237,6,0,P|385:172|436:167,1,80,2|2,0:0|0:0,0:0:0:0:
272,269,128691,1,2,0:0:0:0:
480,76,129146,37,2,0:0:0:0:
52,55,141873,54,0,L|60:152,1,80,2|0,0:0|0:0,0:0:0:0:
161,246,142328,6,0,L|171:152,1,80,2|0,0:0|0:0,0:0:0:0:
260,29,142781,6,0,L|268:126,1,80,2|0,0:0|0:0,0:0:0:0:
325,306,143236,6,0,L|335:212,1,80,2|0,0:0|0:0,0:0:0:0:
472,126,143691,6,2,P|400:128|438:66,1,176.000005371094,6|8,0:0|0:0,0:0:0:0:
301,153,144373,1,0,0:0:0:0:
301,153,144600,2,0,P|253:160|201:153,1,88.000002685547,2|0,0:0|0:0,0:0:0:0:
86,278,145055,1,8,0:0:0:0:
243,274,145282,1,0,0:0:0:0:
56,197,145509,6,0,P|73:102|24:10,1,176.000005371094,2|8,0:0|0:0,0:0:0:0:
201,37,146191,1,0,0:0:0:0:
201,37,146418,2,0,P|247:40|301:37,1,88.000002685547,2|0,0:0|0:0,0:0:0:0:
175,148,146872,2,0,P|131:147|88:149,1,88.000002685547,8|0,0:0|0:0,0:0:0:0:
264,175,147328,6,0,P|239:260|264:361,1,176.000005371094,2|8,0:0|0:0,0:0:0:0:
360,218,148009,1,0,0:0:0:0:
360,218,148237,2,0,P|404:220|457:217,1,88.000002685547,2|0,0:0|0:0,0:0:0:0:
343,344,148691,2,0,P|299:341|256:344,1,88.000002685547,8|0,0:0|0:0,0:0:0:0:
124,266,149145,6,0,P|131:219|124:170,1,88.000002685547,2|0,0:0|0:0,0:0:0:0:
151,20,149600,1,8,0:0:0:0:
56,122,149828,1,0,0:0:0:0:
228,132,150055,2,0,P|275:135|330:131,1,88.000002685547,2|0,0:0|0:0,0:0:0:0:
438,262,150509,2,0,P|394:259|350:262,1,88.000002685547,8|0,0:0|0:0,0:0:0:0:
323,262,150850,1,0,0:0:0:0:
296,263,150964,6,0,P|235:308|308:344,1,176.000005371094,2|8,0:0|0:0,0:0:0:0:
438,262,151646,1,0,0:0:0:0:
438,262,151873,2,0,P|416:176|453:78,1,176.000005371094,2|8,0:0|0:0,0:0:0:0:
295,33,152555,1,0,0:0:0:0:
295,33,152782,22,0,B|196:18|216:71|106:43,1,176.000005371094,2|8,0:0|0:0,0:0:0:0:
32,164,153464,1,0,0:0:0:0:
32,164,153691,2,0,P|77:160|146:167,1,88.000002685547,2|0,0:0|0:0,0:0:0:0:
255,238,154145,2,0,P|211:240|167:236,1,88.000002685547,8|0,0:0|0:0,0:0:0:0:
353,139,154600,6,0,P|332:223|353:322,1,176.000005371094,2|8,0:0|0:0,0:0:0:0:
493,245,155282,1,0,0:0:0:0:
353,139,155509,2,0,P|266:154|176:115,1,176.000005371094,2|8,0:0|0:0,0:0:0:0:
112,248,156191,1,0,0:0:0:0:
17,104,156418,6,0,P|38:188|17:287,1,176.000005371094,2|8,0:0|0:0,0:0:0:0:
132,338,157100,1,0,0:0:0:0:
158,173,157328,1,2,0:0:0:0:
274,297,157555,1,0,0:0:0:0:
274,297,157782,2,0,P|301:295|331:301,3,44.0000013427735,10|2|2|0,0:0|0:0|0:0|0:0,0:0:0:0:
344,296,158237,6,2,P|391:227|310:207,1,176.000005371094,6|8,0:0|0:0,0:0:0:0:
162,143,158918,1,0,0:0:0:0:
69,288,159146,2,0,P|156:273|251:304,1,176.000005371094,2|8,0:0|0:0,0:0:0:0:
188,121,159828,1,0,0:0:0:0:
69,288,160054,6,0,P|73:199|26:110,1,176.000005371094,2|8,0:0|0:0,0:0:0:0:
217,97,160737,1,0,0:0:0:0:
308,295,160964,2,0,P|373:275|300:251,1,176.000005371094,2|8,0:0|0:0,0:0:0:0:
319,47,161646,1,0,0:0:0:0:
130,83,161873,6,0,P|147:170|128:264,1,176.000005371094,2|8,0:0|0:0,0:0:0:0:
275,206,162555,1,0,0:0:0:0:
275,206,162782,2,0,P|321:208|376:204,1,88.000002685547,2|0,0:0|0:0,0:0:0:0:
330,351,163236,2,0,P|286:348|243:351,1,88.000002685547,8|0,0:0|0:0,0:0:0:0:
86,268,163691,6,0,P|34:221|106:239,1,176.000005371094,2|8,0:0|0:0,0:0:0:0:
234,108,164373,1,0,0:0:0:0:
95,72,164600,1,2,0:0:0:0:
201,210,164828,1,0,0:0:0:0:
201,210,165055,2,0,P|230:212|267:197,3,44.0000013427735,8|8|8|8,0:0|0:0|0:0|0:0,0:0:0:0:
269,206,165509,22,0,P|357:201|456:209,1,176.000005371094,2|8,0:0|0:0,0:0:0:0:
311,109,166191,1,0,0:0:0:0:
311,109,166418,2,0,P|223:116|136:111,1,176.000005371094,2|8,0:0|0:0,0:0:0:0:
205,277,167100,1,0,0:0:0:0:
205,277,167328,6,0,P|253:330|239:252,1,176.000005371094,2|8,0:0|0:0,0:0:0:0:
174,123,168009,1,0,0:0:0:0:
174,123,168237,2,0,L|80:130,1,88.000002685547,2|0,0:0|0:0,0:0:0:0:
257,161,168691,2,0,L|366:166,1,88.000002685547,8|0,0:0|0:0,0:0:0:0:
477,17,169146,6,0,B|497:99|448:112|479:209,1,176.000005371094,2|8,0:0|0:0,0:0:0:0:
441,350,169828,1,0,0:0:0:0:
441,350,170055,2,0,P|394:346|339:350,1,88.000002685547,2|0,0:0|0:0,0:0:0:0:
254,218,170509,2,0,P|298:220|342:217,1,88.000002685547,8|0,0:0|0:0,0:0:0:0:
161,140,170963,6,0,B|159:142|132:213|193:237|160:327,1,176.000005371094,2|8,0:0|0:0,0:0:0:0:
72,191,171646,1,0,0:0:0:0:
72,191,171873,2,0,P|74:132|100:76,1,88.000002685547,2|0,0:0|0:0,0:0:0:0:
251,156,172328,2,0,P|278:154|319:154,3,44.0000013427735,10|0|10|0,0:0|0:0|0:0|0:0,0:0:0:0:
323,152,172782,6,0,P|387:121|325:66,1,176.000005371094,2|8,0:0|0:0,0:0:0:0:
174,48,173464,1,0,0:0:0:0:
174,48,173691,2,0,P|126:50|69:49,1,88.000002685547,2|0,0:0|0:0,0:0:0:0:
50,202,174145,2,0,P|93:201|142:203,1,88.000002685547,8|0,0:0|0:0,0:0:0:0:
288,234,174600,6,0,P|293:279|282:343,1,88.000002685547,2|0,0:0|0:0,0:0:0:0:
223,165,175054,2,0,P|221:121|229:77,1,88.000002685547,8|0,0:0|0:0,0:0:0:0:
419,145,175509,2,0,P|449:207|389:163,1,176.000005371094,2|8,0:0|0:0,0:0:0:0:
250,335,176418,6,0,P|239:253|151:216,1,176.000005371094,6|8,0:0|0:0,0:0:0:0:
99,87,177100,1,0,0:0:0:0:
271,114,177327,2,0,P|244:192|151:211,1,176.000005371094,2|8,0:0|0:0,0:0:0:0:
90,69,178009,1,0,0:0:0:0:
25,276,178236,6,0,P|76:208|160:214,1,176.000005371094,2|8,0:0|0:0,0:0:0:0:
80,51,178918,1,0,0:0:0:0:
271,114,179145,2,0,P|244:192|151:211,1,176.000005371094,2|8,0:0|0:0,0:0:0:0:
323,242,179828,1,0,0:0:0:0:
323,242,179941,1,0,0:0:0:0:
323,242,180055,6,0,P|364:245|422:242,1,88.000002685547,2|0,0:0|0:0,0:0:0:0:
242,192,180509,1,8,0:0:0:0:
243,345,180737,1,0,0:0:0:0:
243,345,180963,2,0,P|199:343|155:345,1,88.000002685547,2|0,0:0|0:0,0:0:0:0:
13,247,181418,2,0,P|54:250|112:247,1,88.000002685547,8|0,0:0|0:0,0:0:0:0:
242,192,181873,6,0,P|300:153|224:159,1,176.000005371094,2|8,0:0|0:0,0:0:0:0:
368,24,182555,1,0,0:0:0:0:
496,136,182782,2,0,P|458:140|396:137,1,88.000002685547,2|0,0:0|0:0,0:0:0:0:
222,290,183236,2,0,P|266:285|309:286,1,88.000002685547,8|0,0:0|0:0,0:0:0:0:
336,285,183578,1,0,0:0:0:0:
362,287,183691,6,2,P|353:198|422:135,1,176.000005371094,2|8,0:0|0:0,0:0:0:0:
260,195,184373,21,0,0:0:0:0:
260,195,184487,1,0,0:0:0:0:
260,195,184600,2,2,P|323:136|431:152,1,176.000005371094,2|8,0:0|0:0,0:0:0:0:
258,86,185281,21,0,0:0:0:0:
258,86,185395,1,0,0:0:0:0:
258,86,185508,2,2,P|344:81|416:162,1,176.000005371094,2|8,0:0|0:0,0:0:0:0:
388,303,186191,5,0,0:0:0:0:
388,303,186418,2,2,P|340:300|295:303,1,88.000002685547,2|0,0:0|0:0,0:0:0:0:
274,307,186759,1,0,0:0:0:0:
244,311,186872,2,2,P|213:312|190:307,3,44.0000013427735,10|0|8|8,0:0|0:0|0:0|0:0,0:0:0:0:
174,301,187328,5,6,0:0:0:0:
